  0
SECTION
  2
HEADER
  9
$ACADVER
  1
AC1015
  9
$ACADMAINTVER
 70
    13
  9
$DWGCODEPAGE
  3
ANSI_1252
  9
$INSBASE
 10
0.0
 20
0.0
 30
0.0
  9
$EXTMIN
 10
-10.18690738183624
 20
-36.97647492305782
 30
0.0
  9
$EXTMAX
 10
436.0038900501198
 20
229.0383228902295
 30
0.0
  9
$LIMMIN
 10
0.0
 20
0.0
  9
$LIMMAX
 10
420.0
 20
297.0
  9
$ORTHOMODE
 70
     1
  9
$REGENMODE
 70
     1
  9
$FILLMODE
 70
     1
  9
$QTEXTMODE
 70
     0
  9
$MIRRTEXT
 70
     1
  9
$LTSCALE
 40
1.0
  9
$ATTMODE
 70
     1
  9
$TEXTSIZE
 40
26.5350450929028
  9
$TRACEWID
 40
1.0
  9
$TEXTSTYLE
  7
Standard
  9
$CLAYER
  8
0
  9
$CELTYPE
  6
ByLayer
  9
$CECOLOR
 62
   256
  9
$CELTSCALE
 40
1.0
  9
$DISPSILH
 70
     0
  9
$DIMSCALE
 40
1.0
  9
$DIMASZ
 40
2.5
  9
$DIMEXO
 40
0.625
  9
$DIMDLI
 40
3.75
  9
$DIMRND
 40
0.0
  9
$DIMDLE
 40
0.0
  9
$DIMEXE
 40
1.25
  9
$DIMTP
 40
0.0
  9
$DIMTM
 40
0.0
  9
$DIMTXT
 40
2.5
  9
$DIMCEN
 40
2.5
  9
$DIMTSZ
 40
0.0
  9
$DIMTOL
 70
     0
  9
$DIMLIM
 70
     0
  9
$DIMTIH
 70
     0
  9
$DIMTOH
 70
     0
  9
$DIMSE1
 70
     0
  9
$DIMSE2
 70
     0
  9
$DIMTAD
 70
     1
  9
$DIMZIN
 70
     8
  9
$DIMBLK
  1

  9
$DIMASO
 70
     1
  9
$DIMSHO
 70
     1
  9
$DIMPOST
  1

  9
$DIMAPOST
  1

  9
$DIMALT
 70
     0
  9
$DIMALTD
 70
     3
  9
$DIMALTF
 40
0.03937007874016
  9
$DIMLFAC
 40
1.0
  9
$DIMTOFL
 70
     1
  9
$DIMTVP
 40
0.0
  9
$DIMTIX
 70
     0
  9
$DIMSOXD
 70
     0
  9
$DIMSAH
 70
     0
  9
$DIMBLK1
  1

  9
$DIMBLK2
  1

  9
$DIMSTYLE
  2
ISO-25
  9
$DIMCLRD
 70
     0
  9
$DIMCLRE
 70
     0
  9
$DIMCLRT
 70
     0
  9
$DIMTFAC
 40
1.0
  9
$DIMGAP
 40
0.625
  9
$DIMJUST
 70
     0
  9
$DIMSD1
 70
     0
  9
$DIMSD2
 70
     0
  9
$DIMTOLJ
 70
     0
  9
$DIMTZIN
 70
     8
  9
$DIMALTZ
 70
     0
  9
$DIMALTTZ
 70
     0
  9
$DIMUPT
 70
     0
  9
$DIMDEC
 70
     2
  9
$DIMTDEC
 70
     2
  9
$DIMALTU
 70
     2
  9
$DIMALTTD
 70
     3
  9
$DIMTXSTY
  7
Standard
  9
$DIMAUNIT
 70
     0
  9
$DIMADEC
 70
     0
  9
$DIMALTRND
 40
0.0
  9
$DIMAZIN
 70
     0
  9
$DIMDSEP
 70
    44
  9
$DIMATFIT
 70
     3
  9
$DIMFRAC
 70
     0
  9
$DIMLDRBLK
  1

  9
$DIMLUNIT
 70
     2
  9
$DIMLWD
 70
    -2
  9
$DIMLWE
 70
    -2
  9
$DIMTMOVE
 70
     0
  9
$LUNITS
 70
     2
  9
$LUPREC
 70
     4
  9
$SKETCHINC
 40
1.0
  9
$FILLETRAD
 40
3.0
  9
$AUNITS
 70
     0
  9
$AUPREC
 70
     0
  9
$MENU
  1
.
  9
$ELEVATION
 40
0.0
  9
$PELEVATION
 40
0.0
  9
$THICKNESS
 40
0.0
  9
$LIMCHECK
 70
     0
  9
$CHAMFERA
 40
10.0
  9
$CHAMFERB
 40
10.0
  9
$CHAMFERC
 40
20.0
  9
$CHAMFERD
 40
0.0
  9
$SKPOLY
 70
     0
  9
$TDCREATE
 40
2452181.456949305
  9
$TDUCREATE
 40
2452181.415282638
  9
$TDUPDATE
 40
2452321.495699305
  9
$TDUUPDATE
 40
2452321.454032639
  9
$TDINDWG
 40
0.9144173611
  9
$TDUSRTIMER
 40
0.9144078704
  9
$USRTIMER
 70
     1
  9
$ANGBASE
 50
0.0
  9
$ANGDIR
 70
     0
  9
$PDMODE
 70
     0
  9
$PDSIZE
 40
0.0
  9
$PLINEWID
 40
0.0
  9
$SPLFRAME
 70
     0
  9
$SPLINETYPE
 70
     6
  9
$SPLINESEGS
 70
     8
  9
$HANDSEED
  5
1EEE
  9
$SURFTAB1
 70
     6
  9
$SURFTAB2
 70
     6
  9
$SURFTYPE
 70
     6
  9
$SURFU
 70
     6
  9
$SURFV
 70
     6
  9
$UCSBASE
  2

  9
$UCSNAME
  2

  9
$UCSORG
 10
-53.08748352590964
 20
3.820899076262548
 30
0.0
  9
$UCSXDIR
 10
1.0
 20
0.0
 30
0.0
  9
$UCSYDIR
 10
0.0
 20
1.0
 30
0.0
  9
$UCSORTHOREF
  2

  9
$UCSORTHOVIEW
 70
     0
  9
$UCSORGTOP
 10
0.0
 20
0.0
 30
0.0
  9
$UCSORGBOTTOM
 10
0.0
 20
0.0
 30
0.0
  9
$UCSORGLEFT
 10
0.0
 20
0.0
 30
0.0
  9
$UCSORGRIGHT
 10
0.0
 20
0.0
 30
0.0
  9
$UCSORGFRONT
 10
0.0
 20
0.0
 30
0.0
  9
$UCSORGBACK
 10
0.0
 20
0.0
 30
0.0
  9
$PUCSBASE
  2

  9
$PUCSNAME
  2

  9
$PUCSORG
 10
0.0
 20
0.0
 30
0.0
  9
$PUCSXDIR
 10
1.0
 20
0.0
 30
0.0
  9
$PUCSYDIR
 10
0.0
 20
1.0
 30
0.0
  9
$PUCSORTHOREF
  2

  9
$PUCSORTHOVIEW
 70
     0
  9
$PUCSORGTOP
 10
0.0
 20
0.0
 30
0.0
  9
$PUCSORGBOTTOM
 10
0.0
 20
0.0
 30
0.0
  9
$PUCSORGLEFT
 10
0.0
 20
0.0
 30
0.0
  9
$PUCSORGRIGHT
 10
0.0
 20
0.0
 30
0.0
  9
$PUCSORGFRONT
 10
0.0
 20
0.0
 30
0.0
  9
$PUCSORGBACK
 10
0.0
 20
0.0
 30
0.0
  9
$USERI1
 70
     0
  9
$USERI2
 70
     0
  9
$USERI3
 70
     0
  9
$USERI4
 70
     0
  9
$USERI5
 70
     0
  9
$USERR1
 40
0.0
  9
$USERR2
 40
0.0
  9
$USERR3
 40
0.0
  9
$USERR4
 40
0.0
  9
$USERR5
 40
0.0
  9
$WORLDVIEW
 70
     1
  9
$SHADEDGE
 70
     3
  9
$SHADEDIF
 70
    70
  9
$TILEMODE
 70
     1
  9
$MAXACTVP
 70
    64
  9
$PINSBASE
 10
0.0
 20
0.0
 30
0.0
  9
$PLIMCHECK
 70
     0
  9
$PEXTMIN
 10
-3.400241753399768
 20
-2.934382174902054
 30
0.0
  9
$PEXTMAX
 10
292.8544043510557
 20
206.1211149578283
 30
0.0
  9
$PLIMMIN
 10
-3.757080078125
 20
-3.757083177566528
  9
$PLIMMAX
 10
293.2112426757812
 20
206.2162444591522
  9
$UNITMODE
 70
     0
  9
$VISRETAIN
 70
     1
  9
$PLINEGEN
 70
     0
  9
$PSLTSCALE
 70
     1
  9
$TREEDEPTH
 70
  3020
  9
$CMLSTYLE
  2
Standard
  9
$CMLJUST
 70
     0
  9
$CMLSCALE
 40
20.0
  9
$PROXYGRAPHICS
 70
     1
  9
$MEASUREMENT
 70
     1
  9
$CELWEIGHT
370
    -1
  9
$ENDCAPS
280
     0
  9
$JOINSTYLE
280
     0
  9
$LWDISPLAY
290
     0
  9
$INSUNITS
 70
     4
  9
$HYPERLINKBASE
  1

  9
$STYLESHEET
  1

  9
$XEDIT
290
     1
  9
$CEPSNTYPE
380
     0
  9
$PSTYLEMODE
290
     1
  9
$FINGERPRINTGUID
  2
{F84AA5D3-2765-4D6B-8594-ABD9F52FB735}
  9
$VERSIONGUID
  2
{C64E0A68-AFB5-40B2-8863-04738A886FD2}
  9
$EXTNAMES
290
     1
  9
$PSVPSCALE
 40
0.0
  9
$OLESTARTUP
290
     0
  0
ENDSEC
  0
SECTION
  2
CLASSES
  0
CLASS
  1
ACDBDICTIONARYWDFLT
  2
AcDbDictionaryWithDefault
  3
AutoCAD 2000
 90
        0
280
     0
281
     0
  0
CLASS
  1
ACDBPLACEHOLDER
  2
AcDbPlaceHolder
  3
AutoCAD 2000
 90
        0
280
     0
281
     0
  0
CLASS
  1
LAYOUT
  2
AcDbLayout
  3
AutoCAD 2000
 90
        0
280
     0
281
     0
  0
CLASS
  1
DICTIONARYVAR
  2
AcDbDictionaryVar
  3
AutoCAD 2000
 90
        0
280
     0
281
     0
  0
CLASS
  1
DIMASSOC
  2
AcDbDimAssoc
  3
"AcDbDimAssoc|Product Desc:     AcDim ARX App For Dimension|Company:          Autodesk, Inc.|WEB Address:      www.autodesk.com"
 90
        0
280
     0
281
     0
  0
ENDSEC
  0
SECTION
  2
TABLES
  0
TABLE
  2
VPORT
  5
8
330
0
100
AcDbSymbolTable
 70
     2
  0
VPORT
  5
1EED
330
8
100
AcDbSymbolTableRecord
100
AcDbViewportTableRecord
  2
*Active
 70
     0
 10
0.0
 20
0.0
 11
1.0
 21
1.0
 12
236.2379396228661
 22
130.0115810363236
 13
0.0
 23
0.0
 14
10.0
 24
10.0
 15
10.0
 25
10.0
 16
0.0
 26
0.0
 36
1.0
 17
0.0
 27
0.0
 37
0.0
 40
336.1644591364838
 41
1.699453551912568
 42
50.0
 43
0.0
 44
0.0
 50
0.0
 51
0.0
 71
     0
 72
   100
 73
     1
 74
     3
 75
     1
 76
     0
 77
     0
 78
     0
281
     0
 65
     1
110
-53.08748352590964
120
3.820899076262548
130
0.0
111
1.0
121
0.0
131
0.0
112
0.0
122
1.0
132
0.0
 79
     0
146
0.0
  0
ENDTAB
  0
TABLE
  2
LTYPE
  5
5
330
0
100
AcDbSymbolTable
 70
     4
  0
LTYPE
  5
14
330
5
100
AcDbSymbolTableRecord
100
AcDbLinetypeTableRecord
  2
ByBlock
 70
     0
  3

 72
    65
 73
     0
 40
0.0
  0
LTYPE
  5
15
330
5
100
AcDbSymbolTableRecord
100
AcDbLinetypeTableRecord
  2
ByLayer
 70
     0
  3

 72
    65
 73
     0
 40
0.0
  0
LTYPE
  5
16
330
5
100
AcDbSymbolTableRecord
100
AcDbLinetypeTableRecord
  2
Continuous
 70
     0
  3
Solid line
 72
    65
 73
     0
 40
0.0
  0
LTYPE
  5
2D
330
5
100
AcDbSymbolTableRecord
100
AcDbLinetypeTableRecord
  2
MITTE
 70
     0
  3
Mitte ____ _ ____ _ ____ _ ____ _ ____ _ ____
 72
    65
 73
     4
 40
50.8
 49
31.75
 74
     0
 49
-6.349999999999999
 74
     0
 49
6.349999999999999
 74
     0
 49
-6.349999999999999
 74
     0
  0
LTYPE
  5
39
330
5
100
AcDbSymbolTableRecord
100
AcDbLinetypeTableRecord
  2
VERDECKT
 70
     0
  3
Verdeckt __ __ __ __ __ __ __ __ __ __ __ __ __
 72
    65
 73
     2
 40
9.524999999999998
 49
6.349999999999999
 74
     0
 49
-3.174999999999999
 74
     0
  0
LTYPE
  5
AE7
330
5
100
AcDbSymbolTableRecord
100
AcDbLinetypeTableRecord
  2
CENTER
 70
     0
  3
____ _ ____ _ ____ _ ____ _ ____ _ ____ _ ____
 72
    65
 73
     4
 40
17.5
 49
13.0
 74
     0
 49
-1.5
 74
     0
 49
1.5
 74
     0
 49
-1.5
 74
     0
  0
ENDTAB
  0
TABLE
  2
LAYER
  5
2
330
0
100
AcDbSymbolTable
 70
     6
  0
LAYER
  5
10
330
2
100
AcDbSymbolTableRecord
100
AcDbLayerTableRecord
  2
0
 70
     0
 62
     7
  6
Continuous
370
    35
390
F
  0
LAYER
  5
2E
330
2
100
AcDbSymbolTableRecord
100
AcDbLayerTableRecord
  2
Mittellinie
 70
     0
 62
     3
  6
MITTE
370
    18
390
F
  0
LAYER
  5
3A
330
2
100
AcDbSymbolTableRecord
100
AcDbLayerTableRecord
  2
Unsichtbar
 70
     0
 62
     5
  6
Continuous
370
    18
390
F
  0
LAYER
  5
87
330
2
100
AcDbSymbolTableRecord
100
AcDbLayerTableRecord
  2
Innenkanten
 70
     0
 62
     1
  6
Continuous
370
    25
390
F
  0
LAYER
  5
46F
330
2
100
AcDbSymbolTableRecord
100
AcDbLayerTableRecord
  2
Defpoints
 70
     0
 62
     6
  6
Continuous
290
     0
370
    15
390
F
  0
LAYER
  5
9F1
330
2
100
AcDbSymbolTableRecord
100
AcDbLayerTableRecord
  2
Bemaßung
 70
     0
 62
     6
  6
Continuous
370
    15
390
F
  0
ENDTAB
  0
TABLE
  2
STYLE
  5
3
330
0
100
AcDbSymbolTable
 70
     2
  0
STYLE
  5
11
330
3
100
AcDbSymbolTableRecord
100
AcDbTextStyleTableRecord
  2
Standard
 70
     0
 40
0.0
 41
1.0
 50
0.0
 71
     0
 42
26.5350450929028
  3
txt
  4

  0
STYLE
  5
2C
330
3
100
AcDbSymbolTableRecord
100
AcDbTextStyleTableRecord
  2

 70
     1
 40
0.0
 41
1.0
 50
0.0
 71
     0
 42
2.5
  3
ltypeshp.shx
  4

  0
ENDTAB
  0
TABLE
  2
VIEW
  5
6
330
0
100
AcDbSymbolTable
 70
     1
  0
VIEW
  5
81C
330
6
100
AcDbSymbolTableRecord
100
AcDbViewTableRecord
  2
tom
 70
     0
 40
127.2859585283894
 10
166.2856675397948
 20
206.2562233711272
 41
204.2020725054376
 11
0.0
 21
0.0
 31
1.0
 12
0.0
 22
0.0
 32
0.0
 42
50.0
 43
0.0
 44
0.0
 50
0.0
 71
     0
281
     0
 72
     1
110
-53.08748352590964
120
3.820899076262548
130
0.0
111
1.0
121
0.0
131
0.0
112
0.0
122
1.0
132
0.0
 79
     0
146
0.0
  0
ENDTAB
  0
TABLE
  2
UCS
  5
7
330
0
100
AcDbSymbolTable
 70
     0
  0
ENDTAB
  0
TABLE
  2
APPID
  5
9
330
0
100
AcDbSymbolTable
 70
     1
  0
APPID
  5
12
330
9
100
AcDbSymbolTableRecord
100
AcDbRegAppTableRecord
  2
ACAD
 70
     0
  0
ENDTAB
  0
TABLE
  2
DIMSTYLE
  5
A
330
0
100
AcDbSymbolTable
 70
     2
100
AcDbDimStyleTable
 71
     1
340
27
  0
DIMSTYLE
105
27
102
{ACAD_REACTORS
330
1B5C
330
1B7D
330
1B9E
330
1BC2
330
1BD7
330
1BFF
330
1C20
330
1C63
330
1CB9
330
1CEC
330
1D0D
330
1D34
330
1D55
330
1D91
330
1DB6
330
1DD7
330
1DF8
102
}
330
A
100
AcDbSymbolTableRecord
100
AcDbDimStyleTableRecord
  2
ISO-25
 70
     0
 41
2.5
 42
0.625
 43
3.75
 44
1.25
 73
     0
 74
     0
 77
     1
 78
     8
140
2.5
141
2.5
143
0.03937007874016
147
0.625
171
     3
172
     1
271
     2
272
     2
274
     3
278
    44
283
     0
284
     8
340
11
  0
DIMSTYLE
105
AE8
330
A
100
AcDbSymbolTableRecord
100
AcDbDimStyleTableRecord
  2
STANDARD
 70
     0
 41
2.5
 73
     0
 77
     1
140
2.5
141
-0.09
147
0.2
176
     6
178
     6
271
     0
272
     0
279
     1
289
     2
340
11
371
    15
  0
ENDTAB
  0
TABLE
  2
BLOCK_RECORD
  5
1
330
0
100
AcDbSymbolTable
 70
    17
  0
BLOCK_RECORD
  5
1F
330
1
100
AcDbSymbolTableRecord
100
AcDbBlockTableRecord
  2
*Model_Space
340
22
  0
BLOCK_RECORD
  5
FEA
330
1
100
AcDbSymbolTableRecord
100
AcDbBlockTableRecord
  2
*Paper_Space
340
FEB
  0
BLOCK_RECORD
  5
1B5D
330
1
100
AcDbSymbolTableRecord
100
AcDbBlockTableRecord
  2
*D0
340
0
  0
BLOCK_RECORD
  5
1B7E
330
1
100
AcDbSymbolTableRecord
100
AcDbBlockTableRecord
  2
*D1
340
0
  0
BLOCK_RECORD
  5
1B9F
330
1
100
AcDbSymbolTableRecord
100
AcDbBlockTableRecord
  2
*D2
340
0
  0
BLOCK_RECORD
  5
1BC3
330
1
100
AcDbSymbolTableRecord
100
AcDbBlockTableRecord
  2
*D3
340
0
  0
BLOCK_RECORD
  5
1BD8
330
1
100
AcDbSymbolTableRecord
100
AcDbBlockTableRecord
  2
*D4
340
0
  0
BLOCK_RECORD
  5
1C00
330
1
100
AcDbSymbolTableRecord
100
AcDbBlockTableRecord
  2
*D5
340
0
  0
BLOCK_RECORD
  5
1C21
330
1
100
AcDbSymbolTableRecord
100
AcDbBlockTableRecord
  2
*D6
340
0
  0
BLOCK_RECORD
  5
1C64
330
1
100
AcDbSymbolTableRecord
100
AcDbBlockTableRecord
  2
*D7
340
0
  0
BLOCK_RECORD
  5
1CBA
330
1
100
AcDbSymbolTableRecord
100
AcDbBlockTableRecord
  2
*D8
340
0
  0
BLOCK_RECORD
  5
1CED
330
1
100
AcDbSymbolTableRecord
100
AcDbBlockTableRecord
  2
*D9
340
0
  0
BLOCK_RECORD
  5
1D0E
330
1
100
AcDbSymbolTableRecord
100
AcDbBlockTableRecord
  2
*D10
340
0
  0
BLOCK_RECORD
  5
1D35
330
1
100
AcDbSymbolTableRecord
100
AcDbBlockTableRecord
  2
*D11
340
0
  0
BLOCK_RECORD
  5
1D56
330
1
100
AcDbSymbolTableRecord
100
AcDbBlockTableRecord
  2
*D12
340
0
  0
BLOCK_RECORD
  5
1D92
330
1
100
AcDbSymbolTableRecord
100
AcDbBlockTableRecord
  2
*D13
340
0
  0
BLOCK_RECORD
  5
1DB7
330
1
100
AcDbSymbolTableRecord
100
AcDbBlockTableRecord
  2
*D14
340
0
  0
BLOCK_RECORD
  5
1DD8
330
1
100
AcDbSymbolTableRecord
100
AcDbBlockTableRecord
  2
*D15
340
0
  0
BLOCK_RECORD
  5
1DF9
330
1
100
AcDbSymbolTableRecord
100
AcDbBlockTableRecord
  2
*D16
340
0
  0
ENDTAB
  0
ENDSEC
  0
SECTION
  2
BLOCKS
  0
BLOCK
  5
20
330
1F
100
AcDbEntity
  8
0
100
AcDbBlockBegin
  2
*Model_Space
 70
     0
 10
0.0
 20
0.0
 30
0.0
  3
*Model_Space
  1

  0
ENDBLK
  5
21
330
1F
100
AcDbEntity
  8
0
100
AcDbBlockEnd
  0
BLOCK
  5
FEC
330
FEA
100
AcDbEntity
 67
     1
  8
0
100
AcDbBlockBegin
  2
*Paper_Space
 70
     0
 10
0.0
 20
0.0
 30
0.0
  3
*Paper_Space
  1

  0
ENDBLK
  5
FED
330
FEA
100
AcDbEntity
 67
     1
  8
0
100
AcDbBlockEnd
  0
BLOCK
  5
1B67
330
1B5D
100
AcDbEntity
  8
0
100
AcDbBlockBegin
  2
*D0
 70
     1
 10
0.0
 20
0.0
 30
0.0
  3
*D0
  1

  0
LINE
  5
1B74
330
1B5D
100
AcDbEntity
  8
Bemaßung
 62
     0
370
    -2
100
AcDbLine
 10
218.1741647181643
 20
210.6084372189904
 30
0.0
 11
218.1741647181643
 21
227.1633228902295
 31
0.0
  0
LINE
  5
1B75
330
1B5D
100
AcDbEntity
  8
Bemaßung
 62
     0
370
    -2
100
AcDbLine
 10
258.1741647181636
 20
210.6084354736611
 30
0.0
 11
258.1741647181636
 21
227.1633228902295
 31
0.0
  0
LINE
  5
1B76
330
1B5D
100
AcDbEntity
  8
Bemaßung
 62
     0
370
    -2
100
AcDbLine
 10
220.6741647181643
 20
225.9133228902295
 30
0.0
 11
255.6741647181636
 21
225.9133228902295
 31
0.0
  0
SOLID
  5
1B77
330
1B5D
100
AcDbEntity
  8
Bemaßung
 62
     0
100
AcDbTrace
 10
220.6741647181643
 20
226.3299895568962
 30
0.0
 11
220.6741647181643
 21
225.4966562235629
 31
0.0
 12
218.1741647181643
 22
225.9133228902295
 32
0.0
 13
218.1741647181643
 23
225.9133228902295
 33
0.0
  0
SOLID
  5
1B78
330
1B5D
100
AcDbEntity
  8
Bemaßung
 62
     0
100
AcDbTrace
 10
255.6741647181636
 20
226.3299895568962
 30
0.0
 11
255.6741647181636
 21
225.4966562235629
 31
0.0
 12
258.1741647181636
 22
225.9133228902295
 32
0.0
 13
258.1741647181636
 23
225.9133228902295
 33
0.0
  0
MTEXT
  5
1B79
330
1B5D
100
AcDbEntity
  8
Bemaßung
 62
     0
100
AcDbMText
 10
238.174164718164
 20
227.7883228902295
 30
0.0
 40
2.5
 41
0.0
 71
     5
 72
     1
  1
40
 73
     1
 44
1.0
  0
POINT
  5
1B7A
330
1B5D
100
AcDbEntity
  8
Defpoints
 62
     0
100
AcDbPoint
 10
218.1741647181643
 20
209.9834372189904
 30
0.0
  0
POINT
  5
1B7B
330
1B5D
100
AcDbEntity
  8
Defpoints
 62
     0
100
AcDbPoint
 10
258.1741647181636
 20
209.9834354736612
 30
0.0
  0
POINT
  5
1B7C
330
1B5D
100
AcDbEntity
  8
Defpoints
 62
     0
100
AcDbPoint
 10
258.1741647181636
 20
225.9133228902295
 30
0.0
  0
ENDBLK
  5
1B68
330
1B5D
100
AcDbEntity
  8
0
100
AcDbBlockEnd
  0
BLOCK
  5
1B88
330
1B7E
100
AcDbEntity
  8
0
100
AcDbBlockBegin
  2
*D1
 70
     1
 10
0.0
 20
0.0
 30
0.0
  3
*D1
  1

  0
LINE
  5
1B95
330
1B7E
100
AcDbEntity
  8
Bemaßung
 62
     0
370
    -2
100
AcDbLine
 10
220.0491655035619
 20
212.483435473661
 30
0.0
 11
205.9310772140622
 21
212.483435473661
 31
0.0
  0
LINE
  5
1B96
330
1B7E
100
AcDbEntity
  8
Bemaßung
 62
     0
370
    -2
100
AcDbLine
 10
220.0491660271605
 20
172.4834414736615
 30
0.0
 11
205.9310772140621
 21
172.4834414736615
 31
0.0
  0
LINE
  5
1B97
330
1B7E
100
AcDbEntity
  8
Bemaßung
 62
     0
370
    -2
100
AcDbLine
 10
207.1810772140621
 20
209.983435473661
 30
0.0
 11
207.1810772140621
 21
174.9834414736615
 31
0.0
  0
SOLID
  5
1B98
330
1B7E
100
AcDbEntity
  8
Bemaßung
 62
     0
100
AcDbTrace
 10
206.7644105473955
 20
209.983435473661
 30
0.0
 11
207.5977438807288
 21
209.983435473661
 31
0.0
 12
207.1810772140621
 22
212.483435473661
 32
0.0
 13
207.1810772140621
 23
212.483435473661
 33
0.0
  0
SOLID
  5
1B99
330
1B7E
100
AcDbEntity
  8
Bemaßung
 62
     0
100
AcDbTrace
 10
206.7644105473954
 20
174.9834414736615
 30
0.0
 11
207.5977438807288
 21
174.9834414736615
 31
0.0
 12
207.1810772140621
 22
172.4834414736615
 32
0.0
 13
207.1810772140621
 23
172.4834414736615
 33
0.0
  0
MTEXT
  5
1B9A
330
1B7E
100
AcDbEntity
  8
Bemaßung
 62
     0
100
AcDbMText
 10
205.3060772140621
 20
192.4834384736613
 30
0.0
 40
2.5
 41
0.0
 71
     5
 72
     1
  1
40
 11
0.0000000000000001
 21
1.0
 31
0.0
 73
     1
 44
1.0
  0
POINT
  5
1B9B
330
1B7E
100
AcDbEntity
  8
Defpoints
 62
     0
100
AcDbPoint
 10
220.6741655035618
 20
212.483435473661
 30
0.0
  0
POINT
  5
1B9C
330
1B7E
100
AcDbEntity
  8
Defpoints
 62
     0
100
AcDbPoint
 10
220.6741660271605
 20
172.4834414736615
 30
0.0
  0
POINT
  5
1B9D
330
1B7E
100
AcDbEntity
  8
Defpoints
 62
     0
100
AcDbPoint
 10
207.1810772140621
 20
172.4834414736615
 30
0.0
  0
ENDBLK
  5
1B89
330
1B7E
100
AcDbEntity
  8
0
100
AcDbBlockEnd
  0
BLOCK
  5
1BAA
330
1B9F
100
AcDbEntity
  8
0
100
AcDbBlockBegin
  2
*D2
 70
     1
 10
0.0
 20
0.0
 30
0.0
  3
*D2
  1

  0
LINE
  5
1BB8
330
1B9F
100
AcDbEntity
  8
Bemaßung
 62
     0
370
    -2
100
AcDbLine
 10
238.1741647181637
 20
215.4823560783982
 30
0.0
 11
238.1741647181637
 21
220.0015566227254
 31
0.0
  0
ARC
  5
1BB9
330
1B9F
100
AcDbEntity
  8
Bemaßung
 62
     0
370
    -2
100
AcDbCircle
 10
238.1741647181637
 20
192.4834673599793
 30
0.0
 40
26.26808926274609
100
AcDbArc
 50
95.45504327752174
 51
129.5450055903569
  0
SOLID
  5
1BBA
330
1B9F
100
AcDbEntity
  8
Bemaßung
 62
     0
100
AcDbTrace
 10
235.6571692806631
 20
219.0487856231822
 30
0.0
 11
235.6968244933528
 21
218.2163963461303
 31
0.0
 12
238.1741647181637
 22
218.7515566227254
 32
0.0
 13
238.1741647181637
 23
218.7515566227254
 33
0.0
  0
SOLID
  5
1BBB
330
1B9F
100
AcDbEntity
  8
Bemaßung
 62
     0
100
AcDbTrace
 10
221.729963191063
 20
212.4311259928077
 30
0.0
 11
221.1694150325492
 21
213.0477540869061
 31
0.0
 12
219.5998048295111
 22
211.0577955643158
 32
0.0
 13
219.5998048295111
 23
211.0577955643158
 33
0.0
  0
MTEXT
  5
1BBC
330
1B9F
100
AcDbEntity
  8
Bemaßung
 62
     0
100
AcDbMText
 10
227.4042596336184
 20
218.4842869186159
 30
0.0
 40
2.5
 41
0.0
 71
     5
 72
     1
  1
45°
 11
0.9238793693148233
 21
0.3826838263559677
 31
0.0
 73
     1
 44
1.0
  0
POINT
  5
1BBD
330
1B9F
100
AcDbEntity
  8
Defpoints
 62
     0
100
AcDbPoint
 10
231.3754757249155
 20
217.8564912532539
 30
0.0
  0
POINT
  5
1BBE
330
1B9F
100
AcDbEntity
  8
Defpoints
 62
     0
100
AcDbPoint
 10
219.4813847181637
 20
211.1762154736611
 30
0.0
  0
POINT
  5
1BBF
330
1B9F
100
AcDbEntity
  8
Defpoints
 62
     0
100
AcDbPoint
 10
238.1741647181637
 20
144.4455394736611
 30
0.0
  0
POINT
  5
1BC0
330
1B9F
100
AcDbEntity
  8
Defpoints
 62
     0
100
AcDbPoint
 10
238.1741647181637
 20
214.8573560783982
 30
0.0
  0
POINT
  5
1BC1
330
1B9F
100
AcDbEntity
  8
Defpoints
 62
     0
100
AcDbPoint
 10
225.3437047181637
 20
205.3139054736611
 30
0.0
  0
ENDBLK
  5
1BAB
330
1B9F
100
AcDbEntity
  8
0
100
AcDbBlockEnd
  0
BLOCK
  5
1BC9
330
1BC3
100
AcDbEntity
  8
0
100
AcDbBlockBegin
  2
*D3
 70
     1
 10
0.0
 20
0.0
 30
0.0
  3
*D3
  1

  0
LINE
  5
1BD2
330
1BC3
100
AcDbEntity
  8
Bemaßung
 62
     0
370
    -2
100
AcDbLine
 10
249.3192971054993
 20
184.320298435473
 30
0.0
 11
221.6358240057117
 21
204.5967970527599
 31
0.0
  0
MTEXT
  5
1BD3
330
1BC3
100
AcDbEntity
  8
Bemaßung
 62
     0
100
AcDbMText
 10
247.2338468074841
 20
188.1719117120477
 30
0.0
 40
2.5
 41
0.0
 71
     5
 72
     1
  1
\U+220546
 11
0.8067483274366798
 21
-0.590895198980428
 31
0.0
 73
     1
 44
1.0
  0
SOLID
  5
1BD4
330
1BC3
100
AcDbEntity
  8
Bemaßung
 62
     0
100
AcDbTrace
 10
221.8820303386202
 20
204.9329421891918
 30
0.0
 11
221.3896176728032
 21
204.2606519163279
 31
0.0
 12
219.61895318712
 22
206.074035050211
 32
0.0
 13
219.61895318712
 23
206.074035050211
 33
0.0
  0
POINT
  5
1BD5
330
1BC3
100
AcDbEntity
  8
Defpoints
 62
     0
100
AcDbPoint
 10
219.61895318712
 20
206.074035050211
 30
0.0
  0
POINT
  5
1BD6
330
1BC3
100
AcDbEntity
  8
Defpoints
 62
     0
100
AcDbPoint
 10
256.7293762492073
 20
178.8928558971113
 30
0.0
  0
ENDBLK
  5
1BCA
330
1BC3
100
AcDbEntity
  8
0
100
AcDbBlockEnd
  0
BLOCK
  5
1BE2
330
1BD8
100
AcDbEntity
  8
0
100
AcDbBlockBegin
  2
*D4
 70
     1
 10
0.0
 20
0.0
 30
0.0
  3
*D4
  1

  0
LINE
  5
1BEF
330
1BD8
100
AcDbEntity
  8
Bemaßung
 62
     0
370
    -2
100
AcDbLine
 10
258.7991647181636
 20
192.4834384736611
 30
0.0
 11
270.4836941029863
 21
192.4834384736611
 31
0.0
  0
LINE
  5
1BF0
330
1BD8
100
AcDbEntity
  8
Bemaßung
 62
     0
370
    -2
100
AcDbLine
 10
248.3991747181637
 20
156.7834444736611
 30
0.0
 11
270.4836941029863
 21
156.7834444736611
 31
0.0
  0
LINE
  5
1BF1
330
1BD8
100
AcDbEntity
  8
Bemaßung
 62
     0
370
    -2
100
AcDbLine
 10
269.2336941029862
 20
189.9834384736611
 30
0.0
 11
269.2336941029862
 21
159.2834444736611
 31
0.0
  0
SOLID
  5
1BF2
330
1BD8
100
AcDbEntity
  8
Bemaßung
 62
     0
100
AcDbTrace
 10
268.8170274363196
 20
189.9834384736611
 30
0.0
 11
269.6503607696529
 21
189.9834384736611
 31
0.0
 12
269.2336941029862
 22
192.4834384736611
 32
0.0
 13
269.2336941029862
 23
192.4834384736611
 33
0.0
  0
SOLID
  5
1BF3
330
1BD8
100
AcDbEntity
  8
Bemaßung
 62
     0
100
AcDbTrace
 10
268.8170274363196
 20
159.2834444736611
 30
0.0
 11
269.6503607696529
 21
159.2834444736611
 31
0.0
 12
269.2336941029862
 22
156.7834444736611
 32
0.0
 13
269.2336941029862
 23
156.7834444736611
 33
0.0
  0
MTEXT
  5
1BF4
330
1BD8
100
AcDbEntity
  8
Bemaßung
 62
     0
100
AcDbMText
 10
267.1503607696529
 20
174.6334414736611
 30
0.0
 40
2.5
 41
0.0
 71
     5
 72
     1
  1
35,7
 11
0.0000000000000001
 21
1.0
 31
0.0
 73
     1
 44
1.0
  0
POINT
  5
1BF5
330
1BD8
100
AcDbEntity
  8
Defpoints
 62
     0
100
AcDbPoint
 10
258.1741647181636
 20
192.4834384736611
 30
0.0
  0
POINT
  5
1BF6
330
1BD8
100
AcDbEntity
  8
Defpoints
 62
     0
100
AcDbPoint
 10
247.7741747181636
 20
156.7834444736611
 30
0.0
  0
POINT
  5
1BF7
330
1BD8
100
AcDbEntity
  8
Defpoints
 62
     0
100
AcDbPoint
 10
269.2336941029862
 20
156.7834444736611
 30
0.0
  0
ENDBLK
  5
1BE3
330
1BD8
100
AcDbEntity
  8
0
100
AcDbBlockEnd
  0
BLOCK
  5
1C0A
330
1C00
100
AcDbEntity
  8
0
100
AcDbBlockBegin
  2
*D5
 70
     1
 10
0.0
 20
0.0
 30
0.0
  3
*D5
  1

  0
LINE
  5
1C17
330
1C00
100
AcDbEntity
  8
Bemaßung
 62
     0
370
    -2
100
AcDbLine
 10
228.7741747181637
 20
157.1584444736611
 30
0.0
 11
228.7741747181637
 21
138.3693481641169
 31
0.0
  0
LINE
  5
1C18
330
1C00
100
AcDbEntity
  8
Bemaßung
 62
     0
370
    -2
100
AcDbLine
 10
248.7741747181637
 20
157.1584444736611
 30
0.0
 11
248.7741747181637
 21
138.3693481641169
 31
0.0
  0
LINE
  5
1C19
330
1C00
100
AcDbEntity
  8
Bemaßung
 62
     0
370
    -2
100
AcDbLine
 10
231.2741747181636
 20
139.6193481641168
 30
0.0
 11
246.2741747181637
 21
139.6193481641168
 31
0.0
  0
SOLID
  5
1C1A
330
1C00
100
AcDbEntity
  8
Bemaßung
 62
     0
100
AcDbTrace
 10
231.2741747181636
 20
140.0360148307835
 30
0.0
 11
231.2741747181636
 21
139.2026814974502
 31
0.0
 12
228.7741747181637
 22
139.6193481641168
 32
0.0
 13
228.7741747181637
 23
139.6193481641168
 33
0.0
  0
SOLID
  5
1C1B
330
1C00
100
AcDbEntity
  8
Bemaßung
 62
     0
100
AcDbTrace
 10
246.2741747181637
 20
140.0360148307835
 30
0.0
 11
246.2741747181637
 21
139.2026814974502
 31
0.0
 12
248.7741747181637
 22
139.6193481641168
 32
0.0
 13
248.7741747181637
 23
139.6193481641168
 33
0.0
  0
MTEXT
  5
1C1C
330
1C00
100
AcDbEntity
  8
Bemaßung
 62
     0
100
AcDbMText
 10
238.7741747181637
 20
141.4943481641168
 30
0.0
 40
2.5
 41
0.0
 71
     5
 72
     1
  1
20
 73
     1
 44
1.0
  0
POINT
  5
1C1D
330
1C00
100
AcDbEntity
  8
Defpoints
 62
     0
100
AcDbPoint
 10
228.7741747181637
 20
157.7834444736611
 30
0.0
  0
POINT
  5
1C1E
330
1C00
100
AcDbEntity
  8
Defpoints
 62
     0
100
AcDbPoint
 10
248.7741747181637
 20
157.7834444736611
 30
0.0
  0
POINT
  5
1C1F
330
1C00
100
AcDbEntity
  8
Defpoints
 62
     0
100
AcDbPoint
 10
248.7741747181637
 20
139.6193481641168
 30
0.0
  0
ENDBLK
  5
1C0B
330
1C00
100
AcDbEntity
  8
0
100
AcDbBlockEnd
  0
BLOCK
  5
1C2D
330
1C21
100
AcDbEntity
  8
0
100
AcDbBlockBegin
  2
*D6
 70
     1
 10
0.0
 20
0.0
 30
0.0
  3
*D6
  1

  0
LINE
  5
1E80
330
1C21
100
AcDbEntity
  8
Bemaßung
 62
     0
370
    -2
100
AcDbLine
 10
390.3554499131078
 20
212.945030965788
 30
0.0
 11
390.3554499131078
 21
219.1240320124801
 31
0.0
  0
LINE
  5
1E81
330
1C21
100
AcDbEntity
  8
Bemaßung
 62
     0
370
    -2
100
AcDbLine
 10
385.3554499131078
 20
212.945030965788
 30
0.0
 11
385.3554499131078
 21
219.1240320124801
 31
0.0
  0
LINE
  5
1E82
330
1C21
100
AcDbEntity
  8
Bemaßung
 62
     0
370
    -2
100
AcDbLine
 10
392.8554499131078
 20
217.8740320124801
 30
0.0
 11
395.3554499131078
 21
217.8740320124801
 31
0.0
  0
LINE
  5
1E83
330
1C21
100
AcDbEntity
  8
Bemaßung
 62
     0
370
    -2
100
AcDbLine
 10
382.8554499131078
 20
217.8740320124801
 30
0.0
 11
380.3554499131078
 21
217.8740320124801
 31
0.0
  0
LINE
  5
1E84
330
1C21
100
AcDbEntity
  8
Bemaßung
 62
     0
370
    -2
100
AcDbLine
 10
390.3554499131078
 20
217.8740320124801
 30
0.0
 11
385.3554499131078
 21
217.8740320124801
 31
0.0
  0
SOLID
  5
1E85
330
1C21
100
AcDbEntity
  8
Bemaßung
 62
     0
100
AcDbTrace
 10
392.8554499131078
 20
218.2906986791468
 30
0.0
 11
392.8554499131078
 21
217.4573653458134
 31
0.0
 12
390.3554499131078
 22
217.8740320124801
 32
0.0
 13
390.3554499131078
 23
217.8740320124801
 33
0.0
  0
SOLID
  5
1E86
330
1C21
100
AcDbEntity
  8
Bemaßung
 62
     0
100
AcDbTrace
 10
382.8554499131078
 20
218.2906986791468
 30
0.0
 11
382.8554499131078
 21
217.4573653458134
 31
0.0
 12
385.3554499131078
 22
217.8740320124801
 32
0.0
 13
385.3554499131078
 23
217.8740320124801
 33
0.0
  0
MTEXT
  5
1E87
330
1C21
100
AcDbEntity
  8
Bemaßung
 62
     0
100
AcDbMText
 10
387.8554499131078
 20
219.7490320124801
 30
0.0
 40
2.5
 41
0.0
 71
     5
 72
     1
  1
5
 73
     1
 44
1.0
  0
POINT
  5
1E88
330
1C21
100
AcDbEntity
  8
Defpoints
 62
     0
100
AcDbPoint
 10
390.3554499131078
 20
212.320030965788
 30
0.0
  0
POINT
  5
1E89
330
1C21
100
AcDbEntity
  8
Defpoints
 62
     0
100
AcDbPoint
 10
385.3554499131078
 20
212.320030965788
 30
0.0
  0
POINT
  5
1E8A
330
1C21
100
AcDbEntity
  8
Defpoints
 62
     0
100
AcDbPoint
 10
385.3554499131078
 20
217.8740320124801
 30
0.0
  0
ENDBLK
  5
1C2E
330
1C21
100
AcDbEntity
  8
0
100
AcDbBlockEnd
  0
BLOCK
  5
1C6E
330
1C64
100
AcDbEntity
  8
0
100
AcDbBlockBegin
  2
*D7
 70
     1
 10
0.0
 20
0.0
 30
0.0
  3
*D7
  1

  0
LINE
  5
1E8B
330
1C64
100
AcDbEntity
  8
Bemaßung
 62
     0
370
    -2
100
AcDbLine
 10
390.3554499131078
 20
212.945030965788
 30
0.0
 11
390.3554499131078
 21
225.5853113180959
 31
0.0
  0
LINE
  5
1E8C
330
1C64
100
AcDbEntity
  8
Bemaßung
 62
     0
370
    -2
100
AcDbLine
 10
415.3554499131078
 20
196.9450109657881
 30
0.0
 11
415.3554499131078
 21
225.5853113180959
 31
0.0
  0
LINE
  5
1E8D
330
1C64
100
AcDbEntity
  8
Bemaßung
 62
     0
370
    -2
100
AcDbLine
 10
392.8554499131078
 20
224.3353113180959
 30
0.0
 11
412.8554499131078
 21
224.3353113180959
 31
0.0
  0
SOLID
  5
1E8E
330
1C64
100
AcDbEntity
  8
Bemaßung
 62
     0
100
AcDbTrace
 10
392.8554499131078
 20
224.7519779847626
 30
0.0
 11
392.8554499131078
 21
223.9186446514292
 31
0.0
 12
390.3554499131078
 22
224.3353113180959
 32
0.0
 13
390.3554499131078
 23
224.3353113180959
 33
0.0
  0
SOLID
  5
1E8F
330
1C64
100
AcDbEntity
  8
Bemaßung
 62
     0
100
AcDbTrace
 10
412.8554499131078
 20
224.7519779847626
 30
0.0
 11
412.8554499131078
 21
223.9186446514292
 31
0.0
 12
415.3554499131078
 22
224.3353113180959
 32
0.0
 13
415.3554499131078
 23
224.3353113180959
 33
0.0
  0
MTEXT
  5
1E90
330
1C64
100
AcDbEntity
  8
Bemaßung
 62
     0
100
AcDbMText
 10
402.536788053579
 20
226.2103113180959
 30
0.0
 40
2.5
 41
0.0
 71
     5
 72
     1
  1
25
 73
     1
 44
1.0
  0
POINT
  5
1E91
330
1C64
100
AcDbEntity
  8
Defpoints
 62
     0
100
AcDbPoint
 10
390.3554499131078
 20
212.320030965788
 30
0.0
  0
POINT
  5
1E92
330
1C64
100
AcDbEntity
  8
Defpoints
 62
     0
100
AcDbPoint
 10
415.3554499131078
 20
196.3200109657881
 30
0.0
  0
POINT
  5
1E93
330
1C64
100
AcDbEntity
  8
Defpoints
 62
     0
100
AcDbPoint
 10
415.3554499131078
 20
224.3353113180959
 30
0.0
  0
ENDBLK
  5
1C6F
330
1C64
100
AcDbEntity
  8
0
100
AcDbBlockEnd
  0
BLOCK
  5
1CC4
330
1CBA
100
AcDbEntity
  8
0
100
AcDbBlockBegin
  2
*D8
 70
     1
 10
0.0
 20
0.0
 30
0.0
  3
*D8
  1

  0
LINE
  5
1EDC
330
1CBA
100
AcDbEntity
  8
Bemaßung
 62
     0
370
    -2
100
AcDbLine
 10
390.3554499131078
 20
212.945030965788
 30
0.0
 11
390.3554499131078
 21
225.5853113180959
 31
0.0
  0
LINE
  5
1EDD
330
1CBA
100
AcDbEntity
  8
Bemaßung
 62
     0
370
    -2
100
AcDbLine
 10
308.8554499131108
 20
207.9450109657881
 30
0.0
 11
308.8554499131108
 21
225.5853113180959
 31
0.0
  0
LINE
  5
1EDE
330
1CBA
100
AcDbEntity
  8
Bemaßung
 62
     0
370
    -2
100
AcDbLine
 10
387.8554499131078
 20
224.3353113180959
 30
0.0
 11
311.3554499131108
 21
224.3353113180959
 31
0.0
  0
SOLID
  5
1EDF
330
1CBA
100
AcDbEntity
  8
Bemaßung
 62
     0
100
AcDbTrace
 10
387.8554499131078
 20
224.7519779847626
 30
0.0
 11
387.8554499131078
 21
223.9186446514292
 31
0.0
 12
390.3554499131078
 22
224.3353113180959
 32
0.0
 13
390.3554499131078
 23
224.3353113180959
 33
0.0
  0
SOLID
  5
1EE0
330
1CBA
100
AcDbEntity
  8
Bemaßung
 62
     0
100
AcDbTrace
 10
311.3554499131108
 20
224.7519779847626
 30
0.0
 11
311.3554499131108
 21
223.9186446514292
 31
0.0
 12
308.8554499131108
 22
224.3353113180959
 32
0.0
 13
308.8554499131108
 23
224.3353113180959
 33
0.0
  0
MTEXT
  5
1EE1
330
1CBA
100
AcDbEntity
  8
Bemaßung
 62
     0
100
AcDbMText
 10
349.6054499131094
 20
226.4186446514292
 30
0.0
 40
2.5
 41
0.0
 71
     5
 72
     1
  1
81,5
 73
     1
 44
1.0
  0
POINT
  5
1EE2
330
1CBA
100
AcDbEntity
  8
Defpoints
 62
     0
100
AcDbPoint
 10
390.3554499131078
 20
212.320030965788
 30
0.0
  0
POINT
  5
1EE3
330
1CBA
100
AcDbEntity
  8
Defpoints
 62
     0
100
AcDbPoint
 10
308.8554499131108
 20
207.3200109657881
 30
0.0
  0
POINT
  5
1EE4
330
1CBA
100
AcDbEntity
  8
Defpoints
 62
     0
100
AcDbPoint
 10
308.8554499131108
 20
224.3353113180959
 30
0.0
  0
ENDBLK
  5
1CC5
330
1CBA
100
AcDbEntity
  8
0
100
AcDbBlockEnd
  0
BLOCK
  5
1CF7
330
1CED
100
AcDbEntity
  8
0
100
AcDbBlockBegin
  2
*D9
 70
     1
 10
0.0
 20
0.0
 30
0.0
  3
*D9
  1

  0
LINE
  5
1E94
330
1CED
100
AcDbEntity
  8
Bemaßung
 62
     0
370
    -2
100
AcDbLine
 10
360.8554499131078
 20
152.056388965788
 30
0.0
 11
360.8554499131078
 21
143.1020973010393
 31
0.0
  0
LINE
  5
1E95
330
1CED
100
AcDbEntity
  8
Bemaßung
 62
     0
370
    -2
100
AcDbLine
 10
390.3554499131078
 20
171.6950379657881
 30
0.0
 11
390.3554499131078
 21
143.1020973010393
 31
0.0
  0
LINE
  5
1E96
330
1CED
100
AcDbEntity
  8
Bemaßung
 62
     0
370
    -2
100
AcDbLine
 10
363.3554499131078
 20
144.3520973010393
 30
0.0
 11
387.8554499131078
 21
144.3520973010393
 31
0.0
  0
SOLID
  5
1E97
330
1CED
100
AcDbEntity
  8
Bemaßung
 62
     0
100
AcDbTrace
 10
363.3554499131078
 20
144.768763967706
 30
0.0
 11
363.3554499131078
 21
143.9354306343726
 31
0.0
 12
360.8554499131078
 22
144.3520973010393
 32
0.0
 13
360.8554499131078
 23
144.3520973010393
 33
0.0
  0
SOLID
  5
1E98
330
1CED
100
AcDbEntity
  8
Bemaßung
 62
     0
100
AcDbTrace
 10
387.8554499131078
 20
144.768763967706
 30
0.0
 11
387.8554499131078
 21
143.9354306343726
 31
0.0
 12
390.3554499131078
 22
144.3520973010393
 32
0.0
 13
390.3554499131078
 23
144.3520973010393
 33
0.0
  0
MTEXT
  5
1E99
330
1CED
100
AcDbEntity
  8
Bemaßung
 62
     0
100
AcDbMText
 10
375.6054499131078
 20
146.4354306343726
 30
0.0
 40
2.5
 41
0.0
 71
     5
 72
     1
  1
29,5
 73
     1
 44
1.0
  0
POINT
  5
1E9A
330
1CED
100
AcDbEntity
  8
Defpoints
 62
     0
100
AcDbPoint
 10
360.8554499131078
 20
152.681388965788
 30
0.0
  0
POINT
  5
1E9B
330
1CED
100
AcDbEntity
  8
Defpoints
 62
     0
100
AcDbPoint
 10
390.3554499131078
 20
172.3200379657881
 30
0.0
  0
POINT
  5
1E9C
330
1CED
100
AcDbEntity
  8
Defpoints
 62
     0
100
AcDbPoint
 10
390.3554499131078
 20
144.3520973010393
 30
0.0
  0
ENDBLK
  5
1CF8
330
1CED
100
AcDbEntity
  8
0
100
AcDbBlockEnd
  0
BLOCK
  5
1D1A
330
1D0E
100
AcDbEntity
  8
0
100
AcDbBlockBegin
  2
*D10
 70
     1
 10
0.0
 20
0.0
 30
0.0
  3
*D10
  1

  0
LINE
  5
1E75
330
1D0E
100
AcDbEntity
  8
Bemaßung
 62
     0
370
    -2
100
AcDbLine
 10
390.3554499131078
 20
171.0700379657881
 30
0.0
 11
390.3554499131078
 21
143.1020973010392
 31
0.0
  0
LINE
  5
1E76
330
1D0E
100
AcDbEntity
  8
Bemaßung
 62
     0
370
    -2
100
AcDbLine
 10
392.8554499131078
 20
176.6950109657881
 30
0.0
 11
392.8554499131078
 21
143.1020973010392
 31
0.0
  0
LINE
  5
1E77
330
1D0E
100
AcDbEntity
  8
Bemaßung
 62
     0
370
    -2
100
AcDbLine
 10
387.8554499131078
 20
144.3520973010393
 30
0.0
 11
385.3554499131078
 21
144.3520973010393
 31
0.0
  0
LINE
  5
1E78
330
1D0E
100
AcDbEntity
  8
Bemaßung
 62
     0
370
    -2
100
AcDbLine
 10
395.3554499131078
 20
144.3520973010393
 30
0.0
 11
404.5221165797745
 21
144.3520973010393
 31
0.0
  0
LINE
  5
1E79
330
1D0E
100
AcDbEntity
  8
Bemaßung
 62
     0
370
    -2
100
AcDbLine
 10
390.3554499131078
 20
144.3520973010393
 30
0.0
 11
392.8554499131078
 21
144.3520973010393
 31
0.0
  0
SOLID
  5
1E7A
330
1D0E
100
AcDbEntity
  8
Bemaßung
 62
     0
100
AcDbTrace
 10
387.8554499131078
 20
144.7687639677059
 30
0.0
 11
387.8554499131078
 21
143.9354306343726
 31
0.0
 12
390.3554499131078
 22
144.3520973010393
 32
0.0
 13
390.3554499131078
 23
144.3520973010393
 33
0.0
  0
SOLID
  5
1E7B
330
1D0E
100
AcDbEntity
  8
Bemaßung
 62
     0
100
AcDbTrace
 10
395.3554499131078
 20
144.7687639677059
 30
0.0
 11
395.3554499131078
 21
143.9354306343726
 31
0.0
 12
392.8554499131078
 22
144.3520973010393
 32
0.0
 13
392.8554499131078
 23
144.3520973010393
 33
0.0
  0
MTEXT
  5
1E7C
330
1D0E
100
AcDbEntity
  8
Bemaßung
 62
     0
100
AcDbMText
 10
401.1887832464411
 20
146.4354306343726
 30
0.0
 40
2.5
 41
0.0
 71
     5
 72
     1
  1
2,5
 73
     1
 44
1.0
  0
POINT
  5
1E7D
330
1D0E
100
AcDbEntity
  8
Defpoints
 62
     0
100
AcDbPoint
 10
390.3554499131078
 20
171.6950379657881
 30
0.0
  0
POINT
  5
1E7E
330
1D0E
100
AcDbEntity
  8
Defpoints
 62
     0
100
AcDbPoint
 10
392.8554499131078
 20
177.3200109657881
 30
0.0
  0
POINT
  5
1E7F
330
1D0E
100
AcDbEntity
  8
Defpoints
 62
     0
100
AcDbPoint
 10
392.8554499131078
 20
144.3520973010393
 30
0.0
  0
ENDBLK
  5
1D1B
330
1D0E
100
AcDbEntity
  8
0
100
AcDbBlockEnd
  0
BLOCK
  5
1D3F
330
1D35
100
AcDbEntity
  8
0
100
AcDbBlockBegin
  2
*D11
 70
     1
 10
0.0
 20
0.0
 30
0.0
  3
*D11
  1

  0
LINE
  5
1E6C
330
1D35
100
AcDbEntity
  8
Bemaßung
 62
     0
370
    -2
100
AcDbLine
 10
415.9804499131078
 20
196.3200109657881
 30
0.0
 11
427.8174609719457
 21
196.3200109657881
 31
0.0
  0
LINE
  5
1E6D
330
1D35
100
AcDbEntity
  8
Bemaßung
 62
     0
370
    -2
100
AcDbLine
 10
415.9804499131078
 20
188.3200109657881
 30
0.0
 11
427.8174609719457
 21
188.3200109657881
 31
0.0
  0
LINE
  5
1E6E
330
1D35
100
AcDbEntity
  8
Bemaßung
 62
     0
370
    -2
100
AcDbLine
 10
426.5674609719456
 20
193.8200109657881
 30
0.0
 11
426.5674609719456
 21
190.8200109657881
 31
0.0
  0
SOLID
  5
1E6F
330
1D35
100
AcDbEntity
  8
Bemaßung
 62
     0
100
AcDbTrace
 10
426.150794305279
 20
193.8200109657881
 30
0.0
 11
426.9841276386124
 21
193.8200109657881
 31
0.0
 12
426.5674609719456
 22
196.3200109657881
 32
0.0
 13
426.5674609719456
 23
196.3200109657881
 33
0.0
  0
SOLID
  5
1E70
330
1D35
100
AcDbEntity
  8
Bemaßung
 62
     0
100
AcDbTrace
 10
426.150794305279
 20
190.8200109657881
 30
0.0
 11
426.9841276386124
 21
190.8200109657881
 31
0.0
 12
426.5674609719456
 22
188.3200109657881
 32
0.0
 13
426.5674609719456
 23
188.3200109657881
 33
0.0
  0
MTEXT
  5
1E71
330
1D35
100
AcDbEntity
  8
Bemaßung
 62
     0
100
AcDbMText
 10
424.6924609719456
 20
192.3200109657881
 30
0.0
 40
2.5
 41
0.0
 71
     5
 72
     1
  1
8
 11
0.0000000000000001
 21
1.0
 31
0.0
 73
     1
 44
1.0
  0
POINT
  5
1E72
330
1D35
100
AcDbEntity
  8
Defpoints
 62
     0
100
AcDbPoint
 10
415.3554499131078
 20
196.3200109657881
 30
0.0
  0
POINT
  5
1E73
330
1D35
100
AcDbEntity
  8
Defpoints
 62
     0
100
AcDbPoint
 10
415.3554499131078
 20
188.3200109657881
 30
0.0
  0
POINT
  5
1E74
330
1D35
100
AcDbEntity
  8
Defpoints
 62
     0
100
AcDbPoint
 10
426.5674609719456
 20
188.3200109657881
 30
0.0
  0
ENDBLK
  5
1D40
330
1D35
100
AcDbEntity
  8
0
100
AcDbBlockEnd
  0
BLOCK
  5
1D60
330
1D56
100
AcDbEntity
  8
0
100
AcDbBlockBegin
  2
*D12
 70
     1
 10
0.0
 20
0.0
 30
0.0
  3
*D12
  1

  0
LINE
  5
1E63
330
1D56
100
AcDbEntity
  8
Bemaßung
 62
     0
370
    -2
100
AcDbLine
 10
393.4804499131078
 20
207.3200009657881
 30
0.0
 11
436.0038900501198
 21
207.3200009657881
 31
0.0
  0
LINE
  5
1E64
330
1D56
100
AcDbEntity
  8
Bemaßung
 62
     0
370
    -2
100
AcDbLine
 10
393.4804499131078
 20
177.3200109657881
 30
0.0
 11
436.0038900501198
 21
177.3200109657881
 31
0.0
  0
LINE
  5
1E65
330
1D56
100
AcDbEntity
  8
Bemaßung
 62
     0
370
    -2
100
AcDbLine
 10
434.7538900501198
 20
204.8200009657881
 30
0.0
 11
434.7538900501198
 21
179.8200109657881
 31
0.0
  0
SOLID
  5
1E66
330
1D56
100
AcDbEntity
  8
Bemaßung
 62
     0
100
AcDbTrace
 10
434.3372233834531
 20
204.8200009657881
 30
0.0
 11
435.1705567167865
 21
204.8200009657881
 31
0.0
 12
434.7538900501198
 22
207.3200009657881
 32
0.0
 13
434.7538900501198
 23
207.3200009657881
 33
0.0
  0
SOLID
  5
1E67
330
1D56
100
AcDbEntity
  8
Bemaßung
 62
     0
100
AcDbTrace
 10
434.3372233834531
 20
179.8200109657881
 30
0.0
 11
435.1705567167865
 21
179.8200109657881
 31
0.0
 12
434.7538900501198
 22
177.3200109657881
 32
0.0
 13
434.7538900501198
 23
177.3200109657881
 33
0.0
  0
MTEXT
  5
1E68
330
1D56
100
AcDbEntity
  8
Bemaßung
 62
     0
100
AcDbMText
 10
432.8788900501197
 20
192.3200059657881
 30
0.0
 40
2.5
 41
0.0
 71
     5
 72
     1
  1
30
 11
0.0000000000000001
 21
1.0
 31
0.0
 73
     1
 44
1.0
  0
POINT
  5
1E69
330
1D56
100
AcDbEntity
  8
Defpoints
 62
     0
100
AcDbPoint
 10
392.8554499131078
 20
207.3200009657881
 30
0.0
  0
POINT
  5
1E6A
330
1D56
100
AcDbEntity
  8
Defpoints
 62
     0
100
AcDbPoint
 10
392.8554499131078
 20
177.3200109657881
 30
0.0
  0
POINT
  5
1E6B
330
1D56
100
AcDbEntity
  8
Defpoints
 62
     0
100
AcDbPoint
 10
434.7538900501198
 20
177.3200109657881
 30
0.0
  0
ENDBLK
  5
1D61
330
1D56
100
AcDbEntity
  8
0
100
AcDbBlockEnd
  0
BLOCK
  5
1D9C
330
1D92
100
AcDbEntity
  8
0
100
AcDbBlockBegin
  2
*D13
 70
     1
 10
0.0
 20
0.0
 30
0.0
  3
*D13
  1

  0
LINE
  5
1DA9
330
1D92
100
AcDbEntity
  8
Bemaßung
 62
     0
370
    -2
100
AcDbLine
 10
308.8554499131108
 20
192.9447560591995
 30
0.0
 11
308.8554499131108
 21
219.1240320124801
 31
0.0
  0
LINE
  5
1DAA
330
1D92
100
AcDbEntity
  8
Bemaßung
 62
     0
370
    -2
100
AcDbLine
 10
349.3554499131078
 20
213.945030965788
 30
0.0
 11
349.3554499131078
 21
219.1240320124801
 31
0.0
  0
LINE
  5
1DAB
330
1D92
100
AcDbEntity
  8
Bemaßung
 62
     0
370
    -2
100
AcDbLine
 10
311.3554499131108
 20
217.8740320124801
 30
0.0
 11
346.8554499131078
 21
217.8740320124801
 31
0.0
  0
SOLID
  5
1DAC
330
1D92
100
AcDbEntity
  8
Bemaßung
 62
     0
100
AcDbTrace
 10
311.3554499131108
 20
218.2906986791468
 30
0.0
 11
311.3554499131108
 21
217.4573653458134
 31
0.0
 12
308.8554499131108
 22
217.8740320124801
 32
0.0
 13
308.8554499131108
 23
217.8740320124801
 33
0.0
  0
SOLID
  5
1DAD
330
1D92
100
AcDbEntity
  8
Bemaßung
 62
     0
100
AcDbTrace
 10
346.8554499131078
 20
218.2906986791468
 30
0.0
 11
346.8554499131078
 21
217.4573653458134
 31
0.0
 12
349.3554499131078
 22
217.8740320124801
 32
0.0
 13
349.3554499131078
 23
217.8740320124801
 33
0.0
  0
MTEXT
  5
1DAE
330
1D92
100
AcDbEntity
  8
Bemaßung
 62
     0
100
AcDbMText
 10
329.1054499131094
 20
219.9573653458134
 30
0.0
 40
2.5
 41
0.0
 71
     5
 72
     1
  1
40,5
 73
     1
 44
1.0
  0
POINT
  5
1DAF
330
1D92
100
AcDbEntity
  8
Defpoints
 62
     0
100
AcDbPoint
 10
308.8554499131108
 20
192.3197560591995
 30
0.0
  0
POINT
  5
1DB0
330
1D92
100
AcDbEntity
  8
Defpoints
 62
     0
100
AcDbPoint
 10
349.3554499131078
 20
213.320030965788
 30
0.0
  0
POINT
  5
1DB1
330
1D92
100
AcDbEntity
  8
Defpoints
 62
     0
100
AcDbPoint
 10
349.3554499131078
 20
217.8740320124801
 30
0.0
  0
ENDBLK
  5
1D9D
330
1D92
100
AcDbEntity
  8
0
100
AcDbBlockEnd
  0
BLOCK
  5
1DC1
330
1DB7
100
AcDbEntity
  8
0
100
AcDbBlockBegin
  2
*D14
 70
     1
 10
0.0
 20
0.0
 30
0.0
  3
*D14
  1

  0
LINE
  5
1EAF
330
1DB7
100
AcDbEntity
  8
Bemaßung
 62
     0
370
    -2
100
AcDbLine
 10
34.67417871816371
 20
193.1084454736611
 30
0.0
 11
34.67417871816371
 21
227.1633228902295
 31
0.0
  0
LINE
  5
1EB0
330
1DB7
100
AcDbEntity
  8
Bemaßung
 62
     0
370
    -2
100
AcDbLine
 10
-7.325823481836323
 20
193.1084454736611
 30
0.0
 11
-7.325823481836321
 21
227.1633228902295
 31
0.0
  0
LINE
  5
1EB1
330
1DB7
100
AcDbEntity
  8
Bemaßung
 62
     0
370
    -2
100
AcDbLine
 10
32.17417871816371
 20
225.9133228902295
 30
0.0
 11
-4.825823481836321
 21
225.9133228902295
 31
0.0
  0
SOLID
  5
1EB2
330
1DB7
100
AcDbEntity
  8
Bemaßung
 62
     0
100
AcDbTrace
 10
32.17417871816371
 20
226.3299895568962
 30
0.0
 11
32.17417871816371
 21
225.4966562235629
 31
0.0
 12
34.67417871816371
 22
225.9133228902295
 32
0.0
 13
34.67417871816371
 23
225.9133228902295
 33
0.0
  0
SOLID
  5
1EB3
330
1DB7
100
AcDbEntity
  8
Bemaßung
 62
     0
100
AcDbTrace
 10
-4.825823481836321
 20
226.3299895568962
 30
0.0
 11
-4.825823481836321
 21
225.4966562235629
 31
0.0
 12
-7.325823481836321
 22
225.9133228902295
 32
0.0
 13
-7.325823481836321
 23
225.9133228902295
 33
0.0
  0
MTEXT
  5
1EB4
330
1DB7
100
AcDbEntity
  8
Bemaßung
 62
     0
100
AcDbMText
 10
13.67417761816369
 20
227.7883228902295
 30
0.0
 40
2.5
 41
0.0
 71
     5
 72
     1
  1
42
 73
     1
 44
1.0
  0
POINT
  5
1EB5
330
1DB7
100
AcDbEntity
  8
Defpoints
 62
     0
100
AcDbPoint
 10
34.67417871816371
 20
192.4834454736611
 30
0.0
  0
POINT
  5
1EB6
330
1DB7
100
AcDbEntity
  8
Defpoints
 62
     0
100
AcDbPoint
 10
-7.325823481836323
 20
192.4834454736611
 30
0.0
  0
POINT
  5
1EB7
330
1DB7
100
AcDbEntity
  8
Defpoints
 62
     0
100
AcDbPoint
 10
-7.325823481836321
 20
225.9133228902295
 30
0.0
  0
ENDBLK
  5
1DC2
330
1DB7
100
AcDbEntity
  8
0
100
AcDbBlockEnd
  0
BLOCK
  5
1DE2
330
1DD8
100
AcDbEntity
  8
0
100
AcDbBlockBegin
  2
*D15
 70
     1
 10
0.0
 20
0.0
 30
0.0
  3
*D15
  1

  0
LINE
  5
1EB8
330
1DD8
100
AcDbEntity
  8
Bemaßung
 62
     0
370
    -2
100
AcDbLine
 10
39.5452877181637
 20
192.4834454736611
 30
0.0
 11
46.59598726974298
 21
192.4834454736611
 31
0.0
  0
LINE
  5
1EB9
330
1DD8
100
AcDbEntity
  8
Bemaßung
 62
     0
370
    -2
100
AcDbLine
 10
25.9007037181637
 20
163.7834444736611
 30
0.0
 11
46.59598726974297
 21
163.7834444736611
 31
0.0
  0
LINE
  5
1EBA
330
1DD8
100
AcDbEntity
  8
Bemaßung
 62
     0
370
    -2
100
AcDbLine
 10
45.34598726974298
 20
189.9834454736611
 30
0.0
 11
45.34598726974297
 21
166.2834444736611
 31
0.0
  0
SOLID
  5
1EBB
330
1DD8
100
AcDbEntity
  8
Bemaßung
 62
     0
100
AcDbTrace
 10
44.92932060307632
 20
189.9834454736611
 30
0.0
 11
45.76265393640965
 21
189.9834454736611
 31
0.0
 12
45.34598726974298
 22
192.4834454736611
 32
0.0
 13
45.34598726974298
 23
192.4834454736611
 33
0.0
  0
SOLID
  5
1EBC
330
1DD8
100
AcDbEntity
  8
Bemaßung
 62
     0
100
AcDbTrace
 10
44.92932060307631
 20
166.2834444736611
 30
0.0
 11
45.76265393640964
 21
166.2834444736611
 31
0.0
 12
45.34598726974297
 22
163.7834444736611
 32
0.0
 13
45.34598726974297
 23
163.7834444736611
 33
0.0
  0
MTEXT
  5
1EBD
330
1DD8
100
AcDbEntity
  8
Bemaßung
 62
     0
100
AcDbMText
 10
43.26265393640961
 20
178.1334449736611
 30
0.0
 40
2.5
 41
0.0
 71
     5
 72
     1
  1
28,7
 11
0.0000000000000001
 21
1.0
 31
0.0
 73
     1
 44
1.0
  0
POINT
  5
1EBE
330
1DD8
100
AcDbEntity
  8
Defpoints
 62
     0
100
AcDbPoint
 10
38.9202877181637
 20
192.4834454736611
 30
0.0
  0
POINT
  5
1EBF
330
1DD8
100
AcDbEntity
  8
Defpoints
 62
     0
100
AcDbPoint
 10
25.2757037181637
 20
163.7834444736611
 30
0.0
  0
POINT
  5
1EC0
330
1DD8
100
AcDbEntity
  8
Defpoints
 62
     0
100
AcDbPoint
 10
45.34598726974297
 20
163.7834444736611
 30
0.0
  0
ENDBLK
  5
1DE3
330
1DD8
100
AcDbEntity
  8
0
100
AcDbBlockEnd
  0
BLOCK
  5
1E03
330
1DF9
100
AcDbEntity
  8
0
100
AcDbBlockBegin
  2
*D16
 70
     1
 10
0.0
 20
0.0
 30
0.0
  3
*D16
  1

  0
LINE
  5
1EC1
330
1DF9
100
AcDbEntity
  8
Bemaßung
 62
     0
370
    -2
100
AcDbLine
 10
1.075702718163726
 20
164.158444648194
 30
0.0
 11
1.075702718163724
 21
138.7757621565729
 31
0.0
  0
LINE
  5
1EC2
330
1DF9
100
AcDbEntity
  8
Bemaßung
 62
     0
370
    -2
100
AcDbLine
 10
26.2757037181637
 20
164.158444466449
 30
0.0
 11
26.2757037181637
 21
138.7757621565729
 31
0.0
  0
LINE
  5
1EC3
330
1DF9
100
AcDbEntity
  8
Bemaßung
 62
     0
370
    -2
100
AcDbLine
 10
3.575702718163724
 20
140.0257621565729
 30
0.0
 11
23.77570371816369
 21
140.0257621565729
 31
0.0
  0
SOLID
  5
1EC4
330
1DF9
100
AcDbEntity
  8
Bemaßung
 62
     0
100
AcDbTrace
 10
3.575702718163724
 20
140.4424288232395
 30
0.0
 11
3.575702718163724
 21
139.6090954899062
 31
0.0
 12
1.075702718163724
 22
140.0257621565729
 32
0.0
 13
1.075702718163724
 23
140.0257621565729
 33
0.0
  0
SOLID
  5
1EC5
330
1DF9
100
AcDbEntity
  8
Bemaßung
 62
     0
100
AcDbTrace
 10
23.77570371816369
 20
140.4424288232395
 30
0.0
 11
23.77570371816369
 21
139.6090954899062
 31
0.0
 12
26.2757037181637
 22
140.0257621565729
 32
0.0
 13
26.2757037181637
 23
140.0257621565729
 33
0.0
  0
MTEXT
  5
1EC6
330
1DF9
100
AcDbEntity
  8
Bemaßung
 62
     0
100
AcDbMText
 10
13.67570321816371
 20
142.1090954899062
 30
0.0
 40
2.5
 41
0.0
 71
     5
 72
     1
  1
25,2
 73
     1
 44
1.0
  0
POINT
  5
1EC7
330
1DF9
100
AcDbEntity
  8
Defpoints
 62
     0
100
AcDbPoint
 10
1.075702718163726
 20
164.783444648194
 30
0.0
  0
POINT
  5
1EC8
330
1DF9
100
AcDbEntity
  8
Defpoints
 62
     0
100
AcDbPoint
 10
26.2757037181637
 20
164.783444466449
 30
0.0
  0
POINT
  5
1EC9
330
1DF9
100
AcDbEntity
  8
Defpoints
 62
     0
100
AcDbPoint
 10
26.2757037181637
 20
140.0257621565729
 30
0.0
  0
ENDBLK
  5
1E04
330
1DF9
100
AcDbEntity
  8
0
100
AcDbBlockEnd
  0
ENDSEC
  0
SECTION
  2
ENTITIES
  0
LINE
  5
16B9
330
1F
100
AcDbEntity
  8
Innenkanten
100
AcDbLine
 10
97.52939816348845
 20
181.893350007858
 30
0.0
 11
171.7729521634884
 21
181.893350007858
 31
0.0
  0
LINE
  5
16BA
330
1F
100
AcDbEntity
  8
Mittellinie
100
AcDbLine
 10
60.68857527348587
 20
192.4834461696976
 30
0.0
 11
178.8536331634884
 21
192.4834461696976
 31
0.0
  0
LINE
  5
16BB
330
1F
100
AcDbEntity
  8
0
100
AcDbLine
 10
133.5293981634884
 20
212.4834661696976
 30
0.0
 11
92.52939816348845
 21
212.4834661696976
 31
0.0
  0
LINE
  5
16BC
330
1F
100
AcDbEntity
  8
0
100
AcDbLine
 10
92.52939816348845
 20
172.4834731696976
 30
0.0
 11
133.5293981634884
 21
172.4834731696976
 31
0.0
  0
ARC
  5
16BD
330
1F
100
AcDbEntity
  8
Innenkanten
100
AcDbCircle
 10
-4.5330506818363
 20
174.2761964736611
 30
0.0
 40
5.5999999
100
AcDbArc
 50
0.0
 51
57.50000200000005
  0
ARC
  5
16BE
330
1F
100
AcDbEntity
  8
Innenkanten
100
AcDbCircle
 10
171.0293841634884
 20
205.4445900078579
 30
0.0
 40
1.0
100
AcDbArc
 50
359.9999800000012
 51
90.00002999999978
  0
ARC
  5
16BF
330
1F
100
AcDbEntity
  8
Innenkanten
100
AcDbCircle
 10
30.12183371816371
 20
182.0060854736611
 30
0.0
 40
3.599998999999999
100
AcDbArc
 50
89.99998199999998
 51
270.0
  0
CIRCLE
  5
16C0
330
1F
100
AcDbEntity
  8
Innenkanten
100
AcDbCircle
 10
30.12183371816371
 20
182.0060854736611
 30
0.0
 40
3.479999999999999
  0
LINE
  5
16C1
330
1F
100
AcDbEntity
  8
Innenkanten
100
AcDbLine
 10
-6.01637378183625
 20
180.6753554736611
 30
0.0
 11
-2.061471281836304
 21
178.1557954736611
 31
0.0
  0
LINE
  5
16C2
330
1F
100
AcDbEntity
  8
Innenkanten
100
AcDbLine
 10
170.0293841634884
 20
199.344600007858
 30
0.0
 11
170.0293841634884
 21
206.5446000078579
 31
0.0
  0
LINE
  5
16C3
330
1F
100
AcDbEntity
  8
Innenkanten
100
AcDbLine
 10
127.5293981634884
 20
172.4834731696976
 30
0.0
 11
127.5293981634884
 21
212.4834661696976
 31
0.0
  0
LINE
  5
16C4
330
1F
100
AcDbEntity
  8
0
100
AcDbLine
 10
174.0293991634884
 20
180.2561161696976
 30
0.0
 11
174.0293991634884
 21
164.5834481696976
 31
0.0
  0
LINE
  5
16C5
330
1F
100
AcDbEntity
  8
Innenkanten
100
AcDbLine
 10
172.5293991634884
 20
205.694590007858
 30
0.0
 11
172.5293991634884
 21
212.339914007858
 31
0.0
  0
LINE
  5
16C6
330
1F
100
AcDbEntity
  8
0
100
AcDbLine
 10
133.5293981634884
 20
213.4834661696976
 30
0.0
 11
133.5293981634884
 21
171.0834641696976
 31
0.0
  0
LINE
  5
16C7
102
{ACAD_REACTORS
330
1DCD
102
}
330
1F
100
AcDbEntity
  8
0
100
AcDbLine
 10
34.67417871816371
 20
194.3637554736611
 30
0.0
 11
34.67417871816371
 21
174.5834324736611
 31
0.0
  0
LINE
  5
16C8
330
1F
100
AcDbEntity
  8
Innenkanten
100
AcDbLine
 10
26.2757037181637
 20
171.0834324736611
 30
0.0
 11
26.2757037181637
 21
211.9834354736612
 31
0.0
  0
LINE
  5
16C9
330
1F
100
AcDbEntity
  8
Innenkanten
100
AcDbLine
 10
1.075702718163711
 20
171.0834324736611
 30
0.0
 11
1.075702718163711
 21
211.9834354736612
 31
0.0
  0
LINE
  5
16CA
330
1F
100
AcDbEntity
  8
Innenkanten
100
AcDbLine
 10
33.67417871816371
 20
194.3597954736611
 30
0.0
 11
33.67417871816371
 21
173.5834324736611
 31
0.0
  0
LINE
  5
16CB
330
1F
100
AcDbEntity
  8
0
100
AcDbLine
 10
-6.325822981836267
 20
174.5311334736611
 30
0.0
 11
-6.325822981836267
 21
180.8724954736611
 31
0.0
  0
LINE
  5
16CC
330
1F
100
AcDbEntity
  8
Mittellinie
100
AcDbLine
 10
13.67570271816373
 20
157.8989384736611
 30
0.0
 11
13.67570271816373
 21
220.1520454736611
 31
0.0
  0
ARC
  5
16CD
330
1F
100
AcDbEntity
  8
0
100
AcDbCircle
 10
-3.826370281836261
 20
174.5834324736611
 30
0.0
 40
2.5
100
AcDbArc
 50
179.9999800000012
 51
270.0000299999997
  0
LINE
  5
16CE
330
1F
100
AcDbEntity
  8
0
100
AcDbLine
 10
19.17495671816371
 20
147.9191564736611
 30
0.0
 11
19.17495671816371
 21
137.1562784736611
 31
0.0
  0
LINE
  5
16CF
330
1F
100
AcDbEntity
  8
0
100
AcDbLine
 10
8.174955718163687
 20
147.9191564736611
 30
0.0
 11
8.174955718163687
 21
137.1562784736611
 31
0.0
  0
LINE
  5
16D0
330
1F
100
AcDbEntity
  8
0
100
AcDbLine
 10
19.67495671816371
 20
115.3050204736611
 30
0.0
 11
16.27494571816373
 21
115.3050204736611
 31
0.0
  0
LINE
  5
16D1
330
1F
100
AcDbEntity
  8
0
100
AcDbLine
 10
6.674955718163687
 20
121.8050204736611
 30
0.0
 11
20.67495671816371
 21
121.8050204736611
 31
0.0
  0
LINE
  5
16D2
330
1F
100
AcDbEntity
  8
0
100
AcDbLine
 10
4.780927718163695
 20
128.3050284736611
 30
0.0
 11
22.57496671816372
 21
128.3050284736611
 31
0.0
  0
LINE
  5
16D3
330
1F
100
AcDbEntity
  8
0
100
AcDbLine
 10
4.67497571816375
 20
132.8264894736611
 30
0.0
 11
4.680947718163679
 21
128.4048854736611
 31
0.0
  0
ARC
  5
16D4
330
1F
100
AcDbEntity
  8
0
100
AcDbCircle
 10
4.780927718163695
 20
128.4050264736611
 30
0.0
 40
0.1
100
AcDbArc
 50
180.0786699999992
 51
270.0000199999999
  0
LINE
  5
16D5
330
1F
100
AcDbEntity
  8
0
100
AcDbLine
 10
6.674955718163687
 20
128.3050204736611
 30
0.0
 11
6.674955718163687
 21
121.8050204736611
 31
0.0
  0
LINE
  5
16D6
330
1F
100
AcDbEntity
  8
0
100
AcDbLine
 10
11.0749647181637
 20
121.8050204736611
 30
0.0
 11
11.0749647181637
 21
115.3050204736611
 31
0.0
  0
LINE
  5
16D7
330
1F
100
AcDbEntity
  8
0
100
AcDbLine
 10
7.674955718163687
 20
115.3050204736611
 30
0.0
 11
7.674955718163687
 21
121.8050204736611
 31
0.0
  0
LINE
  5
16D8
330
1F
100
AcDbEntity
  8
0
100
AcDbLine
 10
11.0749647181637
 20
115.3050204736611
 30
0.0
 11
7.674955718163687
 21
115.3050204736611
 31
0.0
  0
LINE
  5
16D9
330
1F
100
AcDbEntity
  8
0
100
AcDbLine
 10
11.97495871816371
 20
115.3050204736611
 30
0.0
 11
11.97495871816371
 21
121.8050204736611
 31
0.0
  0
LINE
  5
16DA
330
1F
100
AcDbEntity
  8
0
100
AcDbLine
 10
15.37495171816371
 20
121.8050204736611
 30
0.0
 11
15.37495171816371
 21
115.3050204736611
 31
0.0
  0
LINE
  5
16DB
330
1F
100
AcDbEntity
  8
0
100
AcDbLine
 10
16.27494571816373
 20
115.3050204736611
 30
0.0
 11
16.27494571816373
 21
121.8050204736611
 31
0.0
  0
LINE
  5
16DC
330
1F
100
AcDbEntity
  8
0
100
AcDbLine
 10
15.37495171816371
 20
115.3050204736611
 30
0.0
 11
11.97495871816371
 21
115.3050204736611
 31
0.0
  0
LINE
  5
16DD
330
1F
100
AcDbEntity
  8
0
100
AcDbLine
 10
4.967853718163723
 20
133.5349744736611
 30
0.0
 11
7.882068718163736
 21
136.4491894736611
 31
0.0
  0
ARC
  5
16DE
330
1F
100
AcDbEntity
  8
0
100
AcDbCircle
 10
5.674955718163687
 20
132.8278474736611
 30
0.0
 40
1.0
100
AcDbArc
 50
135.0000099999999
 51
180.0773400000007
  0
ARC
  5
16DF
330
1F
100
AcDbEntity
  8
0
100
AcDbCircle
 10
7.174955718163687
 20
137.1562784736611
 30
0.0
 40
1.0
100
AcDbArc
 50
314.9999999999997
 51
0.0
  0
LINE
  5
16E0
330
1F
100
AcDbEntity
  8
0
100
AcDbLine
 10
22.67507871816371
 20
132.8278474736611
 30
0.0
 11
22.67507871816371
 21
128.4050264736611
 31
0.0
  0
LINE
  5
16E1
330
1F
100
AcDbEntity
  8
0
100
AcDbLine
 10
20.67495671816371
 20
121.8050204736611
 30
0.0
 11
20.67495671816371
 21
128.3050204736611
 31
0.0
  0
LINE
  5
16E2
330
1F
100
AcDbEntity
  8
0
100
AcDbLine
 10
19.67495671816371
 20
121.8050204736611
 30
0.0
 11
19.67495671816371
 21
115.3050204736611
 31
0.0
  0
ARC
  5
16E3
330
1F
100
AcDbEntity
  8
0
100
AcDbCircle
 10
22.57496671816372
 20
128.4050264736611
 30
0.0
 40
0.1
100
AcDbArc
 50
270.0000199999999
 51
0.0
  0
ARC
  5
16E4
330
1F
100
AcDbEntity
  8
0
100
AcDbCircle
 10
21.67495671816371
 20
132.8278474736611
 30
0.0
 40
1.0
100
AcDbArc
 50
0.0
 51
44.99984399999894
  0
LINE
  5
16E5
330
1F
100
AcDbEntity
  8
0
100
AcDbLine
 10
19.4678377181637
 20
136.4491744736611
 30
0.0
 11
22.38205371816371
 21
133.5349594736611
 31
0.0
  0
ARC
  5
16E6
330
1F
100
AcDbEntity
  8
0
100
AcDbCircle
 10
20.17495671816371
 20
137.1562784736611
 30
0.0
 40
1.0
100
AcDbArc
 50
179.9999800000012
 51
224.9999800000009
  0
ARC
  5
16E7
330
1F
100
AcDbEntity
  8
0
100
AcDbCircle
 10
15.42158271816373
 20
149.7141854736611
 30
0.0
 40
3.5
100
AcDbArc
 50
59.87095899999927
 51
120.0000199999993
  0
ARC
  5
16E8
330
1F
100
AcDbEntity
  8
0
100
AcDbCircle
 10
15.42489371816373
 20
148.2756784736611
 30
0.0
 40
3.0
100
AcDbArc
 50
54.31321299999987
 51
125.683899999999
  0
ARC
  5
16E9
330
1F
100
AcDbEntity
  8
0
100
AcDbCircle
 10
15.42143071816371
 20
155.7763644736611
 30
0.0
 40
3.5
100
AcDbArc
 50
240.0014399999995
 51
300.1319399999993
  0
LINE
  5
16EA
102
{ACAD_REACTORS
330
1DEE
102
}
330
1F
100
AcDbEntity
  8
0
100
AcDbLine
 10
25.2757037181637
 20
163.7834444736611
 30
0.0
 11
2.075702718163711
 21
163.7834444736611
 31
0.0
  0
LINE
  5
16EB
330
1F
100
AcDbEntity
  8
Innenkanten
100
AcDbLine
 10
1.075702718163711
 20
174.7234474736611
 30
0.0
 11
26.2757037181637
 21
174.7234474736611
 31
0.0
  0
LINE
  5
16EC
330
1F
100
AcDbEntity
  8
Innenkanten
100
AcDbLine
 10
1.075702718163711
 20
174.0234424736611
 30
0.0
 11
26.2757037181637
 21
174.0234424736611
 31
0.0
  0
LINE
  5
16ED
330
1F
100
AcDbEntity
  8
0
100
AcDbLine
 10
18.17495671816371
 20
148.9191564736611
 30
0.0
 11
9.174955718163687
 21
148.9191564736611
 31
0.0
  0
LINE
  5
16EE
330
1F
100
AcDbEntity
  8
0
100
AcDbLine
 10
10.17365071816368
 20
152.7440844736611
 30
0.0
 11
10.17365071816368
 21
163.7834444736611
 31
0.0
  0
ARC
  5
16EF
330
1F
100
AcDbEntity
  8
0
100
AcDbCircle
 10
11.92487871816371
 20
153.7434664736611
 30
0.0
 40
3.5
100
AcDbArc
 50
240.0014399999995
 51
300.0014300000005
  0
ARC
  5
16F0
330
1F
100
AcDbEntity
  8
0
100
AcDbCircle
 10
11.92158271816373
 20
155.7763644736611
 30
0.0
 40
3.5
100
AcDbArc
 50
240.0637399999997
 51
299.9999899999998
  0
ARC
  5
16F1
330
1F
100
AcDbEntity
  8
0
100
AcDbCircle
 10
11.92503171816372
 20
147.6812874736611
 30
0.0
 40
3.5
100
AcDbArc
 50
60.00146299999945
 51
120.0014599999992
  0
ARC
  5
16F2
330
1F
100
AcDbEntity
  8
0
100
AcDbCircle
 10
9.174955718163687
 20
147.9191564736611
 30
0.0
 40
1.0
100
AcDbArc
 50
89.99998199999998
 51
179.9999599999992
  0
LINE
  5
16F3
330
1F
100
AcDbEntity
  8
0
100
AcDbLine
 10
10.17495571816368
 20
148.9191564736611
 30
0.0
 11
10.17495571816368
 21
150.7123314736611
 31
0.0
  0
CIRCLE
  5
16F4
330
1F
100
AcDbEntity
  8
Innenkanten
100
AcDbCircle
 10
6.175702718163734
 20
168.6834464736611
 30
0.0
 40
2.749999
  0
CIRCLE
  5
16F5
330
1F
100
AcDbEntity
  8
Innenkanten
100
AcDbCircle
 10
6.175702718163734
 20
168.6834464736611
 30
0.0
 40
3.0
  0
LINE
  5
16F6
330
1F
100
AcDbEntity
  8
Innenkanten
100
AcDbLine
 10
4.938270718163721
 20
169.9208884736611
 30
0.0
 11
7.413138718163736
 21
167.4460124736611
 31
0.0
  0
LINE
  5
16F7
330
1F
100
AcDbEntity
  8
Innenkanten
100
AcDbLine
 10
7.413142718163726
 20
169.9208804736611
 30
0.0
 11
4.938266718163731
 21
167.4460124736611
 31
0.0
  0
ARC
  5
16F8
102
{ACAD_REACTORS
330
1E0F
102
}
330
1F
100
AcDbEntity
  8
0
100
AcDbCircle
 10
2.075702718163711
 20
164.7834444736611
 30
0.0
 40
1.0
100
AcDbArc
 50
179.9999899999989
 51
270.0
  0
ARC
  5
16F9
330
1F
100
AcDbEntity
  8
Innenkanten
100
AcDbCircle
 10
-4.5330506818363
 20
174.2761964736611
 30
0.0
 40
4.5999999
100
AcDbArc
 50
1.849809900000304
 51
57.50000200000005
  0
ARC
  5
16FA
330
1F
100
AcDbEntity
  8
0
100
AcDbCircle
 10
1.075702718163711
 20
172.0834324736611
 30
0.0
 40
1.0
100
AcDbArc
 50
179.9999899999989
 51
270.0
  0
ARC
  5
16FB
330
1F
100
AcDbEntity
  8
Mittellinie
100
AcDbCircle
 10
13.67570271816373
 20
192.4834454736611
 30
0.0
 40
23.00000199999999
100
AcDbArc
 50
216.7269700000006
 51
233.4874100000004
  0
ARC
  5
16FC
330
1F
100
AcDbEntity
  8
Innenkanten
100
AcDbCircle
 10
-2.587753281836285
 20
176.2199854736611
 30
0.0
 40
2.25
100
AcDbArc
 50
89.146891
 51
358.7541599999994
  0
LINE
  5
16FD
330
1F
100
AcDbEntity
  8
Mittellinie
100
AcDbLine
 10
-4.819449581836295
 20
173.9897974736611
 30
0.0
 11
-0.5028822818362642
 21
178.3063754736611
 31
0.0
  0
LINE
  5
16FE
330
1F
100
AcDbEntity
  8
0
100
AcDbLine
 10
0.0757027181637113
 20
172.0834324736611
 30
0.0
 11
-3.826370281836261
 21
172.0834324736611
 31
0.0
  0
LINE
  5
16FF
330
1F
100
AcDbEntity
  8
Innenkanten
100
AcDbLine
 10
0.0757027181637113
 20
174.4250464736611
 30
0.0
 11
0.0757027181637113
 21
172.0834324736611
 31
0.0
  0
LINE
  5
1700
330
1F
100
AcDbEntity
  8
Innenkanten
100
AcDbLine
 10
1.875701718163725
 20
174.0234424736611
 30
0.0
 11
1.875701718163725
 21
174.7234474736611
 31
0.0
  0
LINE
  5
1701
330
1F
100
AcDbEntity
  8
0
100
AcDbLine
 10
17.17409871816371
 20
163.7834444736611
 30
0.0
 11
17.17819771816371
 21
152.7414454736611
 31
0.0
  0
ARC
  5
1702
330
1F
100
AcDbEntity
  8
0
100
AcDbCircle
 10
18.17495671816371
 20
147.9191564736611
 30
0.0
 40
1.0
100
AcDbArc
 50
0.0
 51
89.99998199999998
  0
LINE
  5
1703
330
1F
100
AcDbEntity
  8
0
100
AcDbLine
 10
17.17495571816371
 20
150.7123314736611
 30
0.0
 11
17.17495571816371
 21
148.9191564736611
 31
0.0
  0
LINE
  5
1704
330
1F
100
AcDbEntity
  8
0
100
AcDbLine
 10
31.17417871816371
 20
171.0834324736611
 30
0.0
 11
26.2757037181637
 21
171.0834324736611
 31
0.0
  0
CIRCLE
  5
1705
330
1F
100
AcDbEntity
  8
Innenkanten
100
AcDbCircle
 10
21.17570471816372
 20
168.6834464736611
 30
0.0
 40
2.749999
  0
CIRCLE
  5
1706
330
1F
100
AcDbEntity
  8
Innenkanten
100
AcDbCircle
 10
21.17570071816371
 20
168.6834464736611
 30
0.0
 40
3.0
  0
LINE
  5
1707
330
1F
100
AcDbEntity
  8
Innenkanten
100
AcDbLine
 10
19.90291171816372
 20
169.9562434736611
 30
0.0
 11
22.4484977181637
 21
167.4106574736611
 31
0.0
  0
LINE
  5
1708
330
1F
100
AcDbEntity
  8
Innenkanten
100
AcDbLine
 10
22.44849371816371
 20
169.9562354736611
 30
0.0
 11
19.9029077181637
 21
167.4106574736611
 31
0.0
  0
ARC
  5
1709
102
{ACAD_REACTORS
330
1E0F
102
}
330
1F
100
AcDbEntity
  8
0
100
AcDbCircle
 10
25.2757037181637
 20
164.7834444736611
 30
0.0
 40
1.0
100
AcDbArc
 50
270.0
 51
0.0
  0
LINE
  5
170A
330
1F
100
AcDbEntity
  8
Innenkanten
100
AcDbLine
 10
25.47570371816371
 20
174.0234424736611
 30
0.0
 11
25.47570371816371
 21
174.7234474736611
 31
0.0
  0
ARC
  5
170B
330
1F
100
AcDbEntity
  8
0
100
AcDbCircle
 10
31.17417871816371
 20
174.5834324736611
 30
0.0
 40
3.5
100
AcDbArc
 50
270.0
 51
0.0
  0
ARC
  5
170C
330
1F
100
AcDbEntity
  8
Innenkanten
100
AcDbCircle
 10
31.17417871816371
 20
173.5834324736611
 30
0.0
 40
2.5
100
AcDbArc
 50
270.0000199999999
 51
0.0
  0
LINE
  5
170D
330
1F
100
AcDbEntity
  8
Innenkanten
100
AcDbLine
 10
30.12183371816371
 20
178.4061054736611
 30
0.0
 11
32.67417871816371
 21
178.4061054736611
 31
0.0
  0
ARC
  5
170E
330
1F
100
AcDbEntity
  8
Innenkanten
100
AcDbCircle
 10
32.67417871816371
 20
177.4060954736611
 30
0.0
 40
1.0
100
AcDbArc
 50
0.0
 51
89.99999600000007
  0
LINE
  5
170F
330
1F
100
AcDbEntity
  8
0
100
AcDbLine
 10
174.0293991634884
 20
172.744021250654
 30
0.0
 11
155.1221762078205
 21
171.0828346115785
 31
0.0
  0
LINE
  5
1710
330
1F
100
AcDbEntity
  8
0
100
AcDbLine
 10
173.2293961634884
 20
163.7834451696976
 30
0.0
 11
160.5298111634884
 21
163.7834451696976
 31
0.0
  0
LINE
  5
1711
330
1F
100
AcDbEntity
  8
Innenkanten
100
AcDbLine
 10
158.2259481634884
 20
133.1489541696976
 30
0.0
 11
176.2259471634884
 21
133.1489541696976
 31
0.0
  0
LINE
  5
1712
330
1F
100
AcDbEntity
  8
Innenkanten
100
AcDbLine
 10
158.2259481634884
 20
136.7490221696977
 30
0.0
 11
176.2259471634884
 21
136.7490221696977
 31
0.0
  0
LINE
  5
1713
330
1F
100
AcDbEntity
  8
0
100
AcDbLine
 10
158.2259481634884
 20
148.9211251696976
 30
0.0
 11
176.2259471634884
 21
148.9211251696976
 31
0.0
  0
LINE
  5
1714
330
1F
100
AcDbEntity
  8
0
100
AcDbLine
 10
176.2259471634884
 20
128.3069901696976
 30
0.0
 11
158.2259481634884
 21
128.3069901696976
 31
0.0
  0
LINE
  5
1715
330
1F
100
AcDbEntity
  8
0
100
AcDbLine
 10
160.2259471634884
 20
121.8069901696976
 30
0.0
 11
174.2259471634884
 21
121.8069901696976
 31
0.0
  0
LINE
  5
1716
330
1F
100
AcDbEntity
  8
0
100
AcDbLine
 10
161.2259471634884
 20
115.3069901696976
 30
0.0
 11
164.6259721634884
 21
115.3069901696976
 31
0.0
  0
LINE
  5
1717
330
1F
100
AcDbEntity
  8
0
100
AcDbLine
 10
176.2259471634884
 20
148.9211251696976
 30
0.0
 11
176.2259471634884
 21
128.3069901696976
 31
0.0
  0
LINE
  5
1718
330
1F
100
AcDbEntity
  8
0
100
AcDbLine
 10
169.8259541634884
 20
115.3069901696976
 30
0.0
 11
173.2259471634884
 21
115.3069901696976
 31
0.0
  0
LINE
  5
1719
330
1F
100
AcDbEntity
  8
0
100
AcDbLine
 10
174.2259471634884
 20
121.8069901696976
 30
0.0
 11
174.2259471634884
 21
128.3069901696976
 31
0.0
  0
LINE
  5
171A
330
1F
100
AcDbEntity
  8
0
100
AcDbLine
 10
173.2259471634884
 20
115.3069901696976
 30
0.0
 11
173.2259471634884
 21
121.8069901696976
 31
0.0
  0
LINE
  5
171B
330
1F
100
AcDbEntity
  8
0
100
AcDbLine
 10
165.5259661634884
 20
115.3069901696976
 30
0.0
 11
168.9259601634884
 21
115.3069901696976
 31
0.0
  0
LINE
  5
171C
330
1F
100
AcDbEntity
  8
0
100
AcDbLine
 10
169.8259541634884
 20
121.8069901696976
 30
0.0
 11
169.8259541634884
 21
115.3069901696976
 31
0.0
  0
LINE
  5
171D
330
1F
100
AcDbEntity
  8
0
100
AcDbLine
 10
168.9259601634884
 20
115.3069901696976
 30
0.0
 11
168.9259601634884
 21
121.8069901696976
 31
0.0
  0
LINE
  5
171E
330
1F
100
AcDbEntity
  8
0
100
AcDbLine
 10
164.6259721634884
 20
115.3069901696976
 30
0.0
 11
164.6259721634884
 21
121.8069901696976
 31
0.0
  0
LINE
  5
171F
330
1F
100
AcDbEntity
  8
0
100
AcDbLine
 10
165.5259661634884
 20
115.3069901696976
 30
0.0
 11
165.5259661634884
 21
121.8069901696976
 31
0.0
  0
LINE
  5
1720
330
1F
100
AcDbEntity
  8
0
100
AcDbLine
 10
170.7293961634884
 20
163.7834451696976
 30
0.0
 11
170.7293961634884
 21
152.7472901696976
 31
0.0
  0
LINE
  5
1721
330
1F
100
AcDbEntity
  8
0
100
AcDbLine
 10
163.7293961634884
 20
163.7834451696976
 30
0.0
 11
163.7293961634884
 21
152.7472901696976
 31
0.0
  0
ARC
  5
1722
330
1F
100
AcDbEntity
  8
0
100
AcDbCircle
 10
165.4793201634884
 20
149.7161541696977
 30
0.0
 40
3.5
100
AcDbArc
 50
59.99998000000064
 51
120.1290410000007
  0
ARC
  5
1723
330
1F
100
AcDbEntity
  8
0
100
AcDbCircle
 10
165.4794721634884
 20
155.7783341696976
 30
0.0
 40
3.5
100
AcDbArc
 50
239.8680600000006
 51
299.9985600000004
  0
ARC
  5
1724
330
1F
100
AcDbEntity
  8
0
100
AcDbCircle
 10
165.4760091634884
 20
148.2776471696976
 30
0.0
 40
3.0
100
AcDbArc
 50
54.31610000000098
 51
125.6867870000001
  0
ARC
  5
1725
330
1F
100
AcDbEntity
  8
0
100
AcDbCircle
 10
168.9758711634884
 20
147.6832561696976
 30
0.0
 40
3.5
100
AcDbArc
 50
59.99854000000076
 51
119.9985370000005
  0
ARC
  5
1726
330
1F
100
AcDbEntity
  8
0
100
AcDbCircle
 10
168.9760241634884
 20
153.7454361696976
 30
0.0
 40
3.5
100
AcDbArc
 50
239.9985699999994
 51
299.9985600000004
  0
LINE
  5
1727
330
1F
100
AcDbEntity
  8
0
100
AcDbLine
 10
170.7259471634884
 20
150.7143001696976
 30
0.0
 11
170.7259471634884
 21
148.9211251696976
 31
0.0
  0
ARC
  5
1728
330
1F
100
AcDbEntity
  8
0
100
AcDbCircle
 10
168.9793201634884
 20
155.7783341696976
 30
0.0
 40
3.5
100
AcDbArc
 50
240.0000100000001
 51
299.9362600000002
  0
LINE
  5
1729
330
1F
100
AcDbEntity
  8
0
100
AcDbLine
 10
163.7259471634884
 20
148.9211251696976
 30
0.0
 11
163.7259471634884
 21
150.7143001696976
 31
0.0
  0
ARC
  5
172A
330
1F
100
AcDbEntity
  8
Innenkanten
100
AcDbCircle
 10
171.5293991634884
 20
207.544600007858
 30
0.0
 40
1.0
100
AcDbArc
 50
270.0000030000001
 51
0.0000100000009696
  0
ARC
  5
172B
330
1F
100
AcDbEntity
  8
0
100
AcDbCircle
 10
173.2293961634884
 20
164.5834481696976
 30
0.0
 40
0.8000000099999999
100
AcDbArc
 50
270.0
 51
0.0000100000010134
  0
LINE
  5
172E
330
1F
100
AcDbEntity
  8
Innenkanten
100
AcDbLine
 10
169.2293961634884
 20
172.3220811696976
 30
0.0
 11
169.2293961634884
 21
163.7834451696976
 31
0.0
  0
LINE
  5
172F
330
1F
100
AcDbEntity
  8
Innenkanten
100
AcDbLine
 10
171.0293841634884
 20
206.444590007858
 30
0.0
 11
170.0293841634884
 21
206.444590007858
 31
0.0
  0
LINE
  5
1730
330
1F
100
AcDbEntity
  8
Innenkanten
100
AcDbLine
 10
170.0293841634884
 20
206.5446000078579
 30
0.0
 11
171.5293991634884
 21
206.5446000078579
 31
0.0
  0
LINE
  5
1731
330
1F
100
AcDbEntity
  8
0
100
AcDbLine
 10
158.2259481634884
 20
128.3069901696976
 30
0.0
 11
158.2259481634884
 21
148.9211251696976
 31
0.0
  0
LINE
  5
1732
330
1F
100
AcDbEntity
  8
0
100
AcDbLine
 10
160.2259471634884
 20
128.3069901696976
 30
0.0
 11
160.2259471634884
 21
121.8069901696976
 31
0.0
  0
LINE
  5
1733
330
1F
100
AcDbEntity
  8
0
100
AcDbLine
 10
161.2259781634884
 20
115.3069901696976
 30
0.0
 11
161.2259781634884
 21
121.8069901696976
 31
0.0
  0
LINE
  5
1734
330
1F
100
AcDbEntity
  8
0
100
AcDbLine
 10
155.0719981634884
 20
171.0834641696976
 30
0.0
 11
133.5293981634884
 21
171.0834641696976
 31
0.0
  0
ARC
  5
1735
330
1F
100
AcDbEntity
  8
0
100
AcDbCircle
 10
155.0719981634884
 20
169.0834641696976
 30
0.0
 40
2.0
100
AcDbArc
 50
20.0000000000001
 51
89.99999699999987
  0
LINE
  5
1736
330
1F
100
AcDbEntity
  8
0
100
AcDbLine
 10
158.6504281634884
 20
165.0994021696976
 30
0.0
 11
156.9513781634884
 21
169.7675001696976
 31
0.0
  0
ARC
  5
1737
330
1F
100
AcDbEntity
  8
0
100
AcDbCircle
 10
160.5298111634884
 20
165.7834451696976
 30
0.0
 40
2.0
100
AcDbArc
 50
200.0
 51
270.0
  0
LINE
  5
1738
330
1F
100
AcDbEntity
  8
0
100
AcDbLine
 10
117.0793981634884
 20
157.7834451696976
 30
0.0
 11
117.0793981634884
 21
166.7834451696976
 31
0.0
  0
LINE
  5
1739
330
1F
100
AcDbEntity
  8
0
100
AcDbLine
 10
126.9793981634884
 20
157.7834451696976
 30
0.0
 11
126.9793981634884
 21
166.7834451696976
 31
0.0
  0
LINE
  5
173A
330
1F
100
AcDbEntity
  8
Mittellinie
100
AcDbLine
 10
122.0293981634884
 20
152.8448241696976
 30
0.0
 11
122.0293981634884
 21
173.0265261696976
 31
0.0
  0
LINE
  5
173B
330
1F
100
AcDbEntity
  8
0
100
AcDbLine
 10
121.1791481634884
 20
151.1461771696976
 30
0.0
 11
121.1791481634884
 21
156.7834451696976
 31
0.0
  0
LINE
  5
173C
330
1F
100
AcDbEntity
  8
0
100
AcDbLine
 10
122.8796481634884
 20
156.7834451696976
 30
0.0
 11
122.8796481634884
 21
151.1461931696976
 31
0.0
  0
ARC
  5
173D
330
1F
100
AcDbEntity
  8
0
100
AcDbCircle
 10
121.6041381634884
 20
151.8823071696977
 30
0.0
 40
0.8500000199999998
100
AcDbArc
 50
240.0009699999998
 51
299.9990500000007
  0
ARC
  5
173E
330
1F
100
AcDbEntity
  8
0
100
AcDbCircle
 10
121.6041381634884
 20
150.4100481696976
 30
0.0
 40
0.8500000199999998
100
AcDbArc
 50
60.00096999999985
 51
119.9990149999994
  0
ARC
  5
173F
330
1F
100
AcDbEntity
  8
0
100
AcDbCircle
 10
122.4541081634884
 20
151.8823071696977
 30
0.0
 40
0.8500000199999998
100
AcDbArc
 50
240.0009699999998
 51
300.0013400000007
  0
LINE
  5
1740
330
1F
100
AcDbEntity
  8
0
100
AcDbLine
 10
117.0793981634884
 20
157.7834451696976
 30
0.0
 11
126.9793981634884
 21
157.7834451696976
 31
0.0
  0
LINE
  5
1741
330
1F
100
AcDbEntity
  8
0
100
AcDbLine
 10
118.0793981634884
 20
156.7834451696976
 30
0.0
 11
125.9793981634884
 21
156.7834451696976
 31
0.0
  0
ARC
  5
1742
330
1F
100
AcDbEntity
  8
0
100
AcDbCircle
 10
125.9793981634884
 20
157.7834451696976
 30
0.0
 40
1.0
100
AcDbArc
 50
270.0
 51
0.0000100000010134
  0
ARC
  5
1743
330
1F
100
AcDbEntity
  8
0
100
AcDbCircle
 10
118.0793981634884
 20
157.7834451696976
 30
0.0
 40
1.0
100
AcDbArc
 50
180.0
 51
270.0
  0
ARC
  5
1744
330
1F
100
AcDbEntity
  8
0
100
AcDbCircle
 10
127.0293981634884
 20
170.0834481696976
 30
0.0
 40
0.5
100
AcDbArc
 50
270.0
 51
0.0000100000010134
  0
LINE
  5
1745
330
1F
100
AcDbEntity
  8
0
100
AcDbLine
 10
116.5293981634884
 20
170.0834481696976
 30
0.0
 11
116.5293981634884
 21
172.4834731696976
 31
0.0
  0
LINE
  5
1746
330
1F
100
AcDbEntity
  8
0
100
AcDbLine
 10
117.0793981634884
 20
166.7834451696976
 30
0.0
 11
126.9793981634884
 21
166.7834451696976
 31
0.0
  0
LINE
  5
1747
330
1F
100
AcDbEntity
  8
0
100
AcDbLine
 10
117.0293981634884
 20
169.5834481696976
 30
0.0
 11
127.0293981634884
 21
169.5834481696976
 31
0.0
  0
LINE
  5
1748
330
1F
100
AcDbEntity
  8
0
100
AcDbLine
 10
125.9293881634884
 20
166.7834451696976
 30
0.0
 11
125.9293881634884
 21
169.5834481696976
 31
0.0
  0
LINE
  5
1749
330
1F
100
AcDbEntity
  8
0
100
AcDbLine
 10
118.1294081634884
 20
166.7834451696976
 30
0.0
 11
118.1294081634884
 21
169.5834481696976
 31
0.0
  0
ARC
  5
174A
330
1F
100
AcDbEntity
  8
0
100
AcDbCircle
 10
117.0293981634884
 20
170.0834481696976
 30
0.0
 40
0.5
100
AcDbArc
 50
180.0
 51
270.0
  0
CIRCLE
  5
174B
330
1F
100
AcDbEntity
  8
Innenkanten
100
AcDbCircle
 10
-2.770418281836271
 20
202.9607854736612
 30
0.0
 40
2.75
  0
ARC
  5
174C
330
1F
100
AcDbEntity
  8
0
100
AcDbCircle
 10
-3.825823281836278
 20
209.9834354736612
 30
0.0
 40
3.5
100
AcDbArc
 50
89.99998199999998
 51
179.9999599999992
  0
ARC
  5
174D
330
1F
100
AcDbEntity
  8
Innenkanten
100
AcDbCircle
 10
-5.322769281836258
 20
207.5607954736611
 30
0.0
 40
1.0
100
AcDbArc
 50
180.0000100000009
 51
270.0
  0
ARC
  5
174E
330
1F
100
AcDbEntity
  8
Innenkanten
100
AcDbCircle
 10
-5.322771181836287
 20
198.3607954736611
 30
0.0
 40
1.0
100
AcDbArc
 50
90.00002300000012
 51
180.0000100000009
  0
ARC
  5
174F
330
1F
100
AcDbEntity
  8
Innenkanten
100
AcDbCircle
 10
-2.770424281836312
 20
202.9607954736611
 30
0.0
 40
3.599998999999999
100
AcDbArc
 50
270.0000199999999
 51
90.00003699999982
  0
CIRCLE
  5
1750
330
1F
100
AcDbEntity
  8
Innenkanten
100
AcDbCircle
 10
-2.770424281836312
 20
202.9607954736611
 30
0.0
 40
3.479999999999999
  0
ARC
  5
1751
330
1F
100
AcDbEntity
  8
Innenkanten
100
AcDbCircle
 10
-3.825823281836278
 20
209.9834354736612
 30
0.0
 40
2.5
100
AcDbArc
 50
89.99998199999998
 51
179.9999599999992
  0
LINE
  5
1752
330
1F
100
AcDbEntity
  8
Innenkanten
100
AcDbLine
 10
-5.4790745818363
 20
181.5187454736611
 30
0.0
 11
-1.524171281836288
 21
178.9991854736611
 31
0.0
  0
LINE
  5
1753
102
{ACAD_REACTORS
330
1DCD
330
1DEE
102
}
330
1F
100
AcDbEntity
  8
Mittellinie
100
AcDbLine
 10
-10.18690738183624
 20
192.4834454736611
 30
0.0
 11
38.9202877181637
 21
192.4834454736611
 31
0.0
  0
LINE
  5
1754
330
1F
100
AcDbEntity
  8
Innenkanten
100
AcDbLine
 10
-6.325822981836267
 20
190.8949454736611
 30
0.0
 11
-6.325822981836267
 21
209.9834354736612
 31
0.0
  0
LINE
  5
1755
102
{ACAD_REACTORS
330
1DCD
102
}
330
1F
100
AcDbEntity
  8
0
100
AcDbLine
 10
-7.325823481836323
 20
190.8944954736611
 30
0.0
 11
-7.325823481836323
 21
209.9834354736612
 31
0.0
  0
ARC
  5
1756
330
1F
100
AcDbEntity
  8
0
100
AcDbCircle
 10
91.67413471816372
 20
190.9856754736611
 30
0.0
 40
99.0
100
AcDbArc
 50
179.9428600000003
 51
185.100480000001
  0
ARC
  5
1757
330
1F
100
AcDbEntity
  8
Innenkanten
100
AcDbCircle
 10
91.67413471816372
 20
190.9856754736611
 30
0.0
 40
98.0
100
AcDbArc
 50
179.9428600000003
 51
185.100480000001
  0
ARC
  5
1758
330
1F
100
AcDbEntity
  8
0
100
AcDbCircle
 10
-4.941777381836288
 20
182.3621354736611
 30
0.0
 40
2.0
100
AcDbArc
 50
185.100480000001
 51
237.4999999999992
  0
ARC
  5
1759
330
1F
100
AcDbEntity
  8
Innenkanten
100
AcDbCircle
 10
-4.941777381836288
 20
182.3621354736611
 30
0.0
 40
1.0
100
AcDbArc
 50
185.100480000001
 51
237.4999999999992
  0
ARC
  5
175A
330
1F
100
AcDbEntity
  8
0
100
AcDbCircle
 10
31.17417871816371
 20
209.9834354736612
 30
0.0
 40
2.5
100
AcDbArc
 50
0.0
 51
89.99998199999998
  0
ARC
  5
175B
330
1F
100
AcDbEntity
  8
Mittellinie
100
AcDbCircle
 10
13.67570271816373
 20
192.4834454736611
 30
0.0
 40
23.00000199999999
100
AcDbArc
 50
36.13899499999915
 51
53.5664310000007
  0
LINE
  5
175C
330
1F
100
AcDbEntity
  8
Innenkanten
100
AcDbLine
 10
27.27570371816369
 20
210.1418154736611
 30
0.0
 11
27.27570371816369
 21
212.4834354736611
 31
0.0
  0
LINE
  5
175D
330
1F
100
AcDbEntity
  8
Innenkanten
100
AcDbLine
 10
-1.497617281836255
 20
204.2336154736611
 30
0.0
 11
-4.043200281836277
 21
201.6880254736611
 31
0.0
  0
LINE
  5
175E
330
1F
100
AcDbEntity
  8
Innenkanten
100
AcDbLine
 10
-4.043200281836277
 20
204.2336154736611
 30
0.0
 11
-1.497617281836255
 21
201.6880354736611
 31
0.0
  0
LINE
  5
175F
330
1F
100
AcDbEntity
  8
Innenkanten
100
AcDbLine
 10
-2.770426281836307
 20
199.3607754736611
 30
0.0
 11
-5.322771181836287
 21
199.3607754736611
 31
0.0
  0
LINE
  5
1760
330
1F
100
AcDbEntity
  8
Innenkanten
100
AcDbLine
 10
-2.770426281836307
 20
206.5607654736611
 30
0.0
 11
-5.322771181836287
 21
206.5607654736611
 31
0.0
  0
ARC
  5
1761
330
1F
100
AcDbEntity
  8
0
100
AcDbCircle
 10
-64.32272728183625
 20
193.5811854736611
 30
0.0
 40
99.0
100
AcDbArc
 50
359.9428600000003
 51
5.100473199998896
  0
ARC
  5
1762
330
1F
100
AcDbEntity
  8
Innenkanten
100
AcDbCircle
 10
-64.32272728183625
 20
193.5811854736611
 30
0.0
 40
98.0
100
AcDbArc
 50
359.9428600000003
 51
5.100473199998896
  0
CIRCLE
  5
1763
330
1F
100
AcDbEntity
  8
Innenkanten
100
AcDbCircle
 10
30.0153657181637
 20
182.0739154736611
 30
0.0
 40
2.75
  0
LINE
  5
1764
330
1F
100
AcDbEntity
  8
Innenkanten
100
AcDbLine
 10
31.28816571816372
 20
183.3467354736611
 30
0.0
 11
28.7425837181637
 21
180.8011454736611
 31
0.0
  0
LINE
  5
1765
330
1F
100
AcDbEntity
  8
Innenkanten
100
AcDbLine
 10
28.7425837181637
 20
183.3467354736611
 30
0.0
 11
31.28816971816371
 21
180.8011554736611
 31
0.0
  0
LINE
  5
1766
330
1F
100
AcDbEntity
  8
Innenkanten
100
AcDbLine
 10
30.12183371816371
 20
185.6060954736611
 30
0.0
 11
32.67417871816371
 21
185.6060954736611
 31
0.0
  0
ARC
  5
1767
330
1F
100
AcDbEntity
  8
Innenkanten
100
AcDbCircle
 10
32.67417871816371
 20
186.6060954736611
 30
0.0
 40
1.0
100
AcDbArc
 50
270.0000199999999
 51
0.0
  0
ARC
  5
1768
330
1F
100
AcDbEntity
  8
Innenkanten
100
AcDbCircle
 10
31.8844567181637
 20
210.2906654736611
 30
0.0
 40
5.5999999
100
AcDbArc
 50
179.9999899999989
 51
237.4999900000001
  0
ARC
  5
1769
330
1F
100
AcDbEntity
  8
Innenkanten
100
AcDbCircle
 10
31.8844567181637
 20
210.2906654736611
 30
0.0
 40
4.5999999
100
AcDbArc
 50
181.849820000001
 51
237.4999999999992
  0
ARC
  5
176A
330
1F
100
AcDbEntity
  8
Innenkanten
100
AcDbCircle
 10
29.93839271816369
 20
208.7476554736611
 30
0.0
 40
2.25
100
AcDbArc
 50
245.7302699999998
 51
191.0908499999989
  0
LINE
  5
176B
330
1F
100
AcDbEntity
  8
Mittellinie
100
AcDbLine
 10
27.9062387181637
 20
206.7154854736611
 30
0.0
 11
32.18794271816369
 21
210.9971954736611
 31
0.0
  0
ARC
  5
176C
330
1F
100
AcDbEntity
  8
Innenkanten
100
AcDbCircle
 10
32.2931827181637
 20
202.2047354736611
 30
0.0
 40
1.0
100
AcDbArc
 50
5.100473199998896
 51
57.50000200000005
  0
ARC
  5
176D
330
1F
100
AcDbEntity
  8
0
100
AcDbCircle
 10
32.2931827181637
 20
202.2047354736611
 30
0.0
 40
2.0
100
AcDbArc
 50
5.100473199998896
 51
57.50000200000005
  0
LINE
  5
176E
330
1F
100
AcDbEntity
  8
0
100
AcDbLine
 10
33.67417871816371
 20
209.9834354736612
 30
0.0
 11
33.67417871816371
 21
203.6514054736611
 31
0.0
  0
LINE
  5
176F
330
1F
100
AcDbEntity
  8
Innenkanten
100
AcDbLine
 10
32.83048571816371
 20
203.0481254736611
 30
0.0
 11
28.87558371816371
 21
205.5676754736611
 31
0.0
  0
LINE
  5
1770
330
1F
100
AcDbEntity
  8
Innenkanten
100
AcDbLine
 10
33.3677867181637
 20
203.8915154736611
 30
0.0
 11
29.41288371816373
 21
206.4110654736611
 31
0.0
  0
LINE
  5
1771
330
1F
100
AcDbEntity
  8
Innenkanten
100
AcDbLine
 10
25.77570371816369
 20
212.4834354736611
 30
0.0
 11
-3.825823281836278
 21
212.4834354736611
 31
0.0
  0
LINE
  5
1772
330
1F
100
AcDbEntity
  8
0
100
AcDbLine
 10
26.2757037181637
 20
213.4834354736611
 30
0.0
 11
-3.825823281836278
 21
213.4834354736611
 31
0.0
  0
ARC
  5
1773
330
1F
100
AcDbEntity
  8
Innenkanten
100
AcDbCircle
 10
1.575702718163711
 20
211.9834354736612
 30
0.0
 40
0.5
100
AcDbArc
 50
89.99998199999998
 51
179.9999599999992
  0
LINE
  5
1774
330
1F
100
AcDbEntity
  8
0
100
AcDbLine
 10
31.17417871816371
 20
212.4834354736611
 30
0.0
 11
27.27570371816369
 21
212.4834354736611
 31
0.0
  0
ARC
  5
1775
330
1F
100
AcDbEntity
  8
0
100
AcDbCircle
 10
26.2757037181637
 20
212.4834354736611
 30
0.0
 40
1.0
100
AcDbArc
 50
0.0
 51
90.00000300000015
  0
ARC
  5
1776
330
1F
100
AcDbEntity
  8
Innenkanten
100
AcDbCircle
 10
25.77570371816369
 20
211.9834354736612
 30
0.0
 40
0.5
100
AcDbArc
 50
0.0
 51
89.99998199999998
  0
LINE
  5
1777
330
1F
100
AcDbEntity
  8
0
100
AcDbLine
 10
133.5293981634884
 20
213.4834661696976
 30
0.0
 11
172.5856281634884
 21
212.4946461696976
 31
0.0
  0
ARC
  5
1778
330
1F
100
AcDbEntity
  8
0
100
AcDbCircle
 10
-25.97060183651155
 20
192.4832261696976
 30
0.0
 40
200.0
100
AcDbArc
 50
359.999989999999
 51
2.295185346998137
  0
ARC
  5
1779
330
1F
100
AcDbEntity
  8
Innenkanten
100
AcDbCircle
 10
-25.97060183651155
 20
192.467480007858
 30
0.0
 40
198.5
100
AcDbArc
 50
357.0835699999999
 51
0.0000100000009696
  0
ARC
  5
177A
330
1F
100
AcDbEntity
  8
Innenkanten
100
AcDbCircle
 10
171.5317111634884
 20
198.344600007858
 30
0.0
 40
1.0
100
AcDbArc
 50
1.709410000000373
 51
90.00002
  0
LINE
  5
177B
330
1F
100
AcDbEntity
  8
Mittellinie
100
AcDbLine
 10
169.6648821634884
 20
202.944590007858
 30
0.0
 11
174.5756181634884
 21
202.944590007858
 31
0.0
  0
LINE
  5
177C
330
1F
100
AcDbEntity
  8
Innenkanten
100
AcDbLine
 10
173.0293841634884
 20
200.194590007858
 30
0.0
 11
172.0293841634884
 21
200.194590007858
 31
0.0
  0
LINE
  5
177D
330
1F
100
AcDbEntity
  8
Innenkanten
100
AcDbLine
 10
171.9976451634884
 20
205.694590007858
 30
0.0
 11
173.0293841634884
 21
205.694590007858
 31
0.0
  0
LINE
  5
177E
330
1F
100
AcDbEntity
  8
Innenkanten
100
AcDbLine
 10
172.5293991634884
 20
192.467480007858
 30
0.0
 11
172.5293991634884
 21
200.194590007858
 31
0.0
  0
LINE
  5
177F
330
1F
100
AcDbEntity
  8
0
100
AcDbLine
 10
174.0293991634884
 20
180.2561161696976
 30
0.0
 11
174.0294002497618
 21
192.5388383647447
 31
0.0
  0
LINE
  5
1780
330
1F
100
AcDbEntity
  8
0
100
AcDbLine
 10
174.0293841634884
 20
204.694590007858
 30
0.0
 11
174.0293841634884
 21
201.194590007858
 31
0.0
  0
ARC
  5
1781
330
1F
100
AcDbEntity
  8
Innenkanten
100
AcDbCircle
 10
173.0293841634884
 20
204.694590007858
 30
0.0
 40
1.0
100
AcDbArc
 50
359.9999800000012
 51
90.00002999999978
  0
ARC
  5
1782
330
1F
100
AcDbEntity
  8
Innenkanten
100
AcDbCircle
 10
173.0293841634884
 20
201.194590007858
 30
0.0
 40
1.0
100
AcDbArc
 50
269.9999819999999
 51
359.9999599999992
  0
LINE
  5
1783
330
1F
100
AcDbEntity
  8
Innenkanten
100
AcDbLine
 10
172.0293841634884
 20
200.444590007858
 30
0.0
 11
172.0293841634884
 21
205.4445900078579
 31
0.0
  0
ARC
  5
1784
330
1F
100
AcDbEntity
  8
Innenkanten
100
AcDbCircle
 10
171.0293841634884
 20
200.444590007858
 30
0.0
 40
1.0
100
AcDbArc
 50
269.9999819999999
 51
359.9999599999992
  0
LINE
  5
1785
330
1F
100
AcDbEntity
  8
Innenkanten
100
AcDbLine
 10
170.0293841634884
 20
199.444590007858
 30
0.0
 11
171.0293841634884
 21
199.444590007858
 31
0.0
  0
LINE
  5
1786
330
1F
100
AcDbEntity
  8
Innenkanten
100
AcDbLine
 10
171.5317111634884
 20
199.344600007858
 30
0.0
 11
170.0293841634884
 21
199.344600007858
 31
0.0
  0
ARC
  5
1787
330
1F
100
AcDbEntity
  8
Innenkanten
100
AcDbCircle
 10
171.7729521634884
 20
182.393350007858
 30
0.0
 40
0.5
100
AcDbArc
 50
270.0000030000001
 51
357.0835699999999
  0
ARC
  5
1788
330
1F
100
AcDbEntity
  8
0
100
AcDbCircle
 10
172.5729631634884
 20
211.9948061696976
 30
0.0
 40
0.5
100
AcDbArc
 50
5.612630000000871
 51
88.5496890000001
  0
CIRCLE
  5
1789
330
1F
100
AcDbEntity
  8
Innenkanten
100
AcDbCircle
 10
238.1741647181637
 20
192.4834454736611
 30
0.0
 40
15.0
  0
LINE
  5
178A
330
1F
100
AcDbEntity
  8
0
100
AcDbLine
 10
92.52939816348845
 20
172.4834731696976
 30
0.0
 11
92.52939816348845
 21
212.4834661696976
 31
0.0
  0
LINE
  5
178B
330
1F
100
AcDbEntity
  8
Innenkanten
100
AcDbLine
 10
97.52939816348845
 20
172.4834731696976
 30
0.0
 11
97.52939816348845
 21
212.4834661696976
 31
0.0
  0
LINE
  5
178C
330
1F
100
AcDbEntity
  8
0
100
AcDbLine
 10
90.02939816348845
 20
207.4834361696977
 30
0.0
 11
90.02939816348845
 21
177.4834461696976
 31
0.0
  0
LINE
  5
178D
330
1F
100
AcDbEntity
  8
Mittellinie
100
AcDbLine
 10
256.8669447181637
 20
173.7907084736611
 30
0.0
 11
251.0046347181637
 21
179.6530154736611
 31
0.0
  0
LINE
  5
178E
102
{ACAD_REACTORS
330
1BB7
102
}
330
1F
100
AcDbEntity
  8
Mittellinie
100
AcDbLine
 10
238.1741647181637
 20
144.4455394736611
 30
0.0
 11
238.1741647181637
 21
214.8573560783982
 31
0.0
  0
LINE
  5
178F
102
{ACAD_REACTORS
330
1B73
330
1BEE
102
}
330
1F
100
AcDbEntity
  8
0
100
AcDbLine
 10
258.1741647181636
 20
209.9834354736612
 30
0.0
 11
258.1741647181636
 21
174.9834414736611
 31
0.0
  0
LINE
  5
1790
330
1F
100
AcDbEntity
  8
0
100
AcDbLine
 10
218.1741647181636
 20
209.9834354736612
 30
0.0
 11
218.1741647181636
 21
174.9834414736611
 31
0.0
  0
LINE
  5
1791
330
1F
100
AcDbEntity
  8
0
100
AcDbLine
 10
90.02939816348845
 20
177.4834461696976
 30
0.0
 11
92.52939816348845
 21
177.4834461696976
 31
0.0
  0
LINE
  5
1792
330
1F
100
AcDbEntity
  8
0
100
AcDbLine
 10
249.7741747181636
 20
165.1834544736611
 30
0.0
 11
248.7741747181636
 21
165.1834544736611
 31
0.0
  0
LINE
  5
1793
330
1F
100
AcDbEntity
  8
0
100
AcDbLine
 10
249.7741747181636
 20
169.5834474736611
 30
0.0
 11
227.7741747181636
 21
169.5834474736611
 31
0.0
  0
LINE
  5
1794
330
1F
100
AcDbEntity
  8
0
100
AcDbLine
 10
255.6741647181636
 20
172.4834414736611
 30
0.0
 11
220.6741647181636
 21
172.4834414736611
 31
0.0
  0
LINE
  5
1795
330
1F
100
AcDbEntity
  8
0
100
AcDbLine
 10
243.6741647181637
 20
147.9194614736611
 30
0.0
 11
243.6741647181637
 21
137.1565834736611
 31
0.0
  0
LINE
  5
1796
330
1F
100
AcDbEntity
  8
0
100
AcDbLine
 10
232.6741647181636
 20
147.9194614736611
 30
0.0
 11
232.6741647181636
 21
137.1565834736611
 31
0.0
  0
LINE
  5
1797
330
1F
100
AcDbEntity
  8
0
100
AcDbLine
 10
229.1741947181637
 20
132.8267954736611
 30
0.0
 11
229.1801747181636
 21
128.4051904736611
 31
0.0
  0
LINE
  5
1798
330
1F
100
AcDbEntity
  8
0
100
AcDbLine
 10
247.1742847181637
 20
132.8281534736611
 30
0.0
 11
247.1742847181637
 21
128.4053324736611
 31
0.0
  0
LINE
  5
1799
330
1F
100
AcDbEntity
  8
0
100
AcDbLine
 10
229.2801247181637
 20
128.3053334736611
 30
0.0
 11
247.0741547181637
 21
128.3053334736611
 31
0.0
  0
LINE
  5
179A
330
1F
100
AcDbEntity
  8
0
100
AcDbLine
 10
239.8741447181637
 20
115.3053264736611
 30
0.0
 11
236.4741847181637
 21
115.3053264736611
 31
0.0
  0
LINE
  5
179B
330
1F
100
AcDbEntity
  8
0
100
AcDbLine
 10
231.1741647181637
 20
121.8053264736611
 30
0.0
 11
245.1741647181636
 21
121.8053264736611
 31
0.0
  0
LINE
  5
179C
330
1F
100
AcDbEntity
  8
0
100
AcDbLine
 10
231.1741647181637
 20
128.3053264736611
 30
0.0
 11
231.1741647181637
 21
121.8053264736611
 31
0.0
  0
LINE
  5
179D
330
1F
100
AcDbEntity
  8
0
100
AcDbLine
 10
235.5741547181636
 20
115.3053264736611
 30
0.0
 11
232.1741647181637
 21
115.3053264736611
 31
0.0
  0
LINE
  5
179E
330
1F
100
AcDbEntity
  8
0
100
AcDbLine
 10
232.1741647181637
 20
115.3053264736611
 30
0.0
 11
232.1741647181637
 21
121.8053264736611
 31
0.0
  0
LINE
  5
179F
330
1F
100
AcDbEntity
  8
0
100
AcDbLine
 10
235.5741547181636
 20
121.8053264736611
 30
0.0
 11
235.5741547181636
 21
115.3053264736611
 31
0.0
  0
LINE
  5
17A0
330
1F
100
AcDbEntity
  8
0
100
AcDbLine
 10
236.4741847181637
 20
115.3053264736611
 30
0.0
 11
236.4741847181637
 21
121.8053264736611
 31
0.0
  0
ARC
  5
17A1
330
1F
100
AcDbEntity
  8
0
100
AcDbCircle
 10
229.2801247181637
 20
128.4053324736611
 30
0.0
 40
0.1
100
AcDbArc
 50
180.0786699999992
 51
270.0000199999999
  0
LINE
  5
17A2
330
1F
100
AcDbEntity
  8
0
100
AcDbLine
 10
245.1741647181636
 20
121.8053264736611
 30
0.0
 11
245.1741647181636
 21
128.3053264736611
 31
0.0
  0
LINE
  5
17A3
330
1F
100
AcDbEntity
  8
0
100
AcDbLine
 10
244.1741647181637
 20
115.3053264736611
 30
0.0
 11
240.7741747181637
 21
115.3053264736611
 31
0.0
  0
LINE
  5
17A4
330
1F
100
AcDbEntity
  8
0
100
AcDbLine
 10
239.8741447181637
 20
121.8053264736611
 30
0.0
 11
239.8741447181637
 21
115.3053264736611
 31
0.0
  0
LINE
  5
17A5
330
1F
100
AcDbEntity
  8
0
100
AcDbLine
 10
240.7741747181637
 20
115.3053264736611
 30
0.0
 11
240.7741747181637
 21
121.8053264736611
 31
0.0
  0
LINE
  5
17A6
330
1F
100
AcDbEntity
  8
0
100
AcDbLine
 10
244.1741647181637
 20
121.8053264736611
 30
0.0
 11
244.1741647181637
 21
115.3053264736611
 31
0.0
  0
ARC
  5
17A7
330
1F
100
AcDbEntity
  8
0
100
AcDbCircle
 10
247.0741547181637
 20
128.4053324736611
 30
0.0
 40
0.1
100
AcDbArc
 50
270.0000199999999
 51
0.0
  0
LINE
  5
17A8
330
1F
100
AcDbEntity
  8
0
100
AcDbLine
 10
229.4670747181636
 20
133.5352954736611
 30
0.0
 11
232.3812847181637
 21
136.4494944736611
 31
0.0
  0
ARC
  5
17A9
330
1F
100
AcDbEntity
  8
0
100
AcDbCircle
 10
230.1741647181636
 20
132.8281534736611
 30
0.0
 40
1.0
100
AcDbArc
 50
135.0000099999999
 51
180.0773400000007
  0
ARC
  5
17AA
330
1F
100
AcDbEntity
  8
0
100
AcDbCircle
 10
231.6741647181637
 20
137.1565834736611
 30
0.0
 40
1.0
100
AcDbArc
 50
314.9999999999997
 51
0.0
  0
LINE
  5
17AB
330
1F
100
AcDbEntity
  8
0
100
AcDbLine
 10
243.9670447181637
 20
136.4494754736611
 30
0.0
 11
246.8812547181637
 21
133.5352564736611
 31
0.0
  0
ARC
  5
17AC
330
1F
100
AcDbEntity
  8
0
100
AcDbCircle
 10
246.1741647181637
 20
132.8281534736611
 30
0.0
 40
1.0
100
AcDbArc
 50
0.0
 51
44.99984399999894
  0
ARC
  5
17AD
330
1F
100
AcDbEntity
  8
0
100
AcDbCircle
 10
244.6741647181637
 20
137.1565834736611
 30
0.0
 40
1.0
100
AcDbArc
 50
179.9999800000012
 51
224.9999800000009
  0
ARC
  5
17AE
330
1F
100
AcDbEntity
  8
0
100
AcDbCircle
 10
227.7741747181636
 20
170.5834474736611
 30
0.0
 40
1.0
100
AcDbArc
 50
180.0000100000009
 51
270.0
  0
LINE
  5
17AF
330
1F
100
AcDbEntity
  8
0
100
AcDbLine
 10
226.5741547181637
 20
165.1834544736611
 30
0.0
 11
228.7741747181637
 21
165.1834544736611
 31
0.0
  0
LINE
  5
17B0
330
1F
100
AcDbEntity
  8
0
100
AcDbLine
 10
226.5741547181637
 20
165.1834544736611
 30
0.0
 11
226.7741747181637
 21
165.1834544736611
 31
0.0
  0
LINE
  5
17B1
330
1F
100
AcDbEntity
  8
0
100
AcDbLine
 10
225.5741547181636
 20
169.5834474736611
 30
0.0
 11
225.5741547181636
 21
172.4834414736611
 31
0.0
  0
LINE
  5
17B2
330
1F
100
AcDbEntity
  8
0
100
AcDbLine
 10
225.5741547181636
 20
166.1834544736611
 30
0.0
 11
225.5741547181636
 21
172.4834414736611
 31
0.0
  0
ARC
  5
17B3
330
1F
100
AcDbEntity
  8
0
100
AcDbCircle
 10
226.5741547181637
 20
166.1834544736611
 30
0.0
 40
1.0
100
AcDbArc
 50
179.9999899999989
 51
270.0
  0
ARC
  5
17B4
102
{ACAD_REACTORS
330
1B94
102
}
330
1F
100
AcDbEntity
  8
0
100
AcDbCircle
 10
220.6741647181636
 20
174.9834414736611
 30
0.0
 40
2.5
100
AcDbArc
 50
179.9999800000012
 51
270.0000299999997
  0
LINE
  5
17B5
330
1F
100
AcDbEntity
  8
0
100
AcDbLine
 10
228.7741747181637
 20
157.7834444736611
 30
0.0
 11
228.7741747181637
 21
166.7834444736611
 31
0.0
  0
LINE
  5
17B6
102
{ACAD_REACTORS
330
1C16
102
}
330
1F
100
AcDbEntity
  8
0
100
AcDbLine
 10
248.7741747181636
 20
157.7834444736611
 30
0.0
 11
248.7741747181636
 21
166.7834444736611
 31
0.0
  0
ARC
  5
17B7
330
1F
100
AcDbEntity
  8
0
100
AcDbCircle
 10
236.4241047181636
 20
153.7437724736611
 30
0.0
 40
3.5
100
AcDbArc
 50
240.0014399999995
 51
300.0014300000005
  0
ARC
  5
17B8
330
1F
100
AcDbEntity
  8
0
100
AcDbCircle
 10
236.4242547181636
 20
147.6815924736611
 30
0.0
 40
3.5
100
AcDbArc
 50
60.00146299999945
 51
120.0014599999992
  0
ARC
  5
17B9
330
1F
100
AcDbEntity
  8
0
100
AcDbCircle
 10
236.4208047181637
 20
155.7766704736611
 30
0.0
 40
3.5
100
AcDbArc
 50
240.0637399999997
 51
299.9999899999998
  0
LINE
  5
17BA
102
{ACAD_REACTORS
330
1C16
102
}
330
1F
100
AcDbEntity
  8
Innenkanten
100
AcDbLine
 10
248.7741747181636
 20
157.7834444736611
 30
0.0
 11
228.7741747181637
 21
157.7834444736611
 31
0.0
  0
LINE
  5
17BB
102
{ACAD_REACTORS
330
1BEE
102
}
330
1F
100
AcDbEntity
  8
0
100
AcDbLine
 10
247.7741747181636
 20
156.7834444736611
 30
0.0
 11
229.7741747181636
 21
156.7834444736611
 31
0.0
  0
LINE
  5
17BC
330
1F
100
AcDbEntity
  8
0
100
AcDbLine
 10
242.6741647181636
 20
148.9194614736611
 30
0.0
 11
233.6741647181637
 21
148.9194614736611
 31
0.0
  0
LINE
  5
17BD
330
1F
100
AcDbEntity
  8
0
100
AcDbLine
 10
231.6341547181636
 20
156.7834444736611
 30
0.0
 11
231.6341547181636
 21
153.8498354736611
 31
0.0
  0
LINE
  5
17BE
330
1F
100
AcDbEntity
  8
0
100
AcDbLine
 10
233.9141547181636
 20
156.7834444736611
 30
0.0
 11
233.9141547181636
 21
153.8555424736611
 31
0.0
  0
LINE
  5
17BF
330
1F
100
AcDbEntity
  8
0
100
AcDbLine
 10
237.9141547181636
 20
156.7834444736611
 30
0.0
 11
237.9141547181636
 21
153.8555424736611
 31
0.0
  0
LINE
  5
17C0
330
1F
100
AcDbEntity
  8
0
100
AcDbLine
 10
235.6341547181636
 20
156.7834444736611
 30
0.0
 11
235.6341547181636
 21
153.8498354736611
 31
0.0
  0
LINE
  5
17C1
330
1F
100
AcDbEntity
  8
0
100
AcDbLine
 10
234.6741647181636
 20
152.7436344736611
 30
0.0
 11
234.6741647181636
 21
156.7834444736611
 31
0.0
  0
ARC
  5
17C2
330
1F
100
AcDbEntity
  8
0
100
AcDbCircle
 10
232.1991547181637
 20
154.8514684736611
 30
0.0
 40
1.149999999999999
100
AcDbArc
 50
240.5736500000001
 51
299.9999800000001
  0
ARC
  5
17C3
330
1F
100
AcDbEntity
  8
0
100
AcDbCircle
 10
232.1991547181637
 20
152.8596164736611
 30
0.0
 40
1.149999999999999
100
AcDbArc
 50
59.99997399999937
 51
119.4262900000005
  0
ARC
  5
17C4
330
1F
100
AcDbEntity
  8
0
100
AcDbCircle
 10
233.6741647181637
 20
147.9194614736611
 30
0.0
 40
1.0
100
AcDbArc
 50
89.99998199999998
 51
179.9999599999992
  0
LINE
  5
17C5
330
1F
100
AcDbEntity
  8
0
100
AcDbLine
 10
234.6741647181636
 20
148.9194614736611
 30
0.0
 11
234.6741647181636
 21
150.7126364736611
 31
0.0
  0
ARC
  5
17C6
330
1F
100
AcDbEntity
  8
0
100
AcDbCircle
 10
233.3491547181636
 20
154.8514684736611
 30
0.0
 40
1.149999999999999
100
AcDbArc
 50
239.9999800000006
 51
299.4263499999998
  0
ARC
  5
17C7
330
1F
100
AcDbEntity
  8
0
100
AcDbCircle
 10
236.1991547181637
 20
152.8596164736611
 30
0.0
 40
1.149999999999999
100
AcDbArc
 50
59.99997399999937
 51
119.4262900000005
  0
ARC
  5
17C8
330
1F
100
AcDbEntity
  8
0
100
AcDbCircle
 10
236.1991547181637
 20
154.8514684736611
 30
0.0
 40
1.149999999999999
100
AcDbArc
 50
240.5736500000001
 51
299.9999800000001
  0
ARC
  5
17C9
330
1F
100
AcDbEntity
  8
0
100
AcDbCircle
 10
237.3491547181636
 20
154.8514684736611
 30
0.0
 40
1.149999999999999
100
AcDbArc
 50
239.9999800000006
 51
299.4263499999998
  0
ARC
  5
17CA
330
1F
100
AcDbEntity
  8
0
100
AcDbCircle
 10
229.7741747181636
 20
157.7834444736611
 30
0.0
 40
1.0
100
AcDbArc
 50
180.0000100000009
 51
270.0
  0
LINE
  5
17CB
330
1F
100
AcDbEntity
  8
0
100
AcDbLine
 10
243.6341547181636
 20
156.7834444736611
 30
0.0
 11
243.6341547181636
 21
153.8498354736611
 31
0.0
  0
LINE
  5
17CC
330
1F
100
AcDbEntity
  8
0
100
AcDbLine
 10
239.6341547181636
 20
156.7834444736611
 30
0.0
 11
239.6341547181636
 21
153.8498354736611
 31
0.0
  0
LINE
  5
17CD
330
1F
100
AcDbEntity
  8
0
100
AcDbLine
 10
241.9141547181636
 20
156.7834444736611
 30
0.0
 11
241.9141547181636
 21
153.8555424736611
 31
0.0
  0
LINE
  5
17CE
330
1F
100
AcDbEntity
  8
0
100
AcDbLine
 10
245.9141547181636
 20
156.7834444736611
 30
0.0
 11
245.9141547181636
 21
153.8555424736611
 31
0.0
  0
ARC
  5
17CF
330
1F
100
AcDbEntity
  8
0
100
AcDbCircle
 10
242.6741647181636
 20
147.9194614736611
 30
0.0
 40
1.0
100
AcDbArc
 50
0.0
 51
89.99998199999998
  0
ARC
  5
17D0
330
1F
100
AcDbEntity
  8
0
100
AcDbCircle
 10
239.9241047181636
 20
148.2759834736611
 30
0.0
 40
3.0
100
AcDbArc
 50
54.31321299999987
 51
125.683899999999
  0
LINE
  5
17D1
330
1F
100
AcDbEntity
  8
0
100
AcDbLine
 10
241.6741647181637
 20
150.7126364736611
 30
0.0
 11
241.6741647181637
 21
148.9194614736611
 31
0.0
  0
LINE
  5
17D2
330
1F
100
AcDbEntity
  8
0
100
AcDbLine
 10
241.6741647181637
 20
150.7126364736611
 30
0.0
 11
241.6741647181637
 21
148.9194614736611
 31
0.0
  0
ARC
  5
17D3
330
1F
100
AcDbEntity
  8
0
100
AcDbCircle
 10
239.9208047181637
 20
149.7144904736611
 30
0.0
 40
3.5
100
AcDbArc
 50
59.87095899999927
 51
120.0000199999993
  0
ARC
  5
17D4
330
1F
100
AcDbEntity
  8
0
100
AcDbCircle
 10
239.9206247181637
 20
155.7766704736611
 30
0.0
 40
3.5
100
AcDbArc
 50
240.0014399999995
 51
300.1319399999993
  0
ARC
  5
17D5
330
1F
100
AcDbEntity
  8
0
100
AcDbCircle
 10
240.1991547181637
 20
154.8514684736611
 30
0.0
 40
1.149999999999999
100
AcDbArc
 50
240.5736500000001
 51
299.9999800000001
  0
ARC
  5
17D6
330
1F
100
AcDbEntity
  8
0
100
AcDbCircle
 10
240.1991547181637
 20
152.8596164736611
 30
0.0
 40
1.149999999999999
100
AcDbArc
 50
59.99997399999937
 51
119.4262900000005
  0
ARC
  5
17D7
330
1F
100
AcDbEntity
  8
0
100
AcDbCircle
 10
241.3491547181636
 20
154.8514684736611
 30
0.0
 40
1.149999999999999
100
AcDbArc
 50
239.9999800000006
 51
299.4263499999998
  0
LINE
  5
17D8
330
1F
100
AcDbEntity
  8
0
100
AcDbLine
 10
241.6776147181636
 20
153.7493724736611
 30
0.0
 11
241.6776147181636
 21
152.7456264736611
 31
0.0
  0
ARC
  5
17D9
330
1F
100
AcDbEntity
  8
0
100
AcDbCircle
 10
244.1991547181637
 20
154.8514684736611
 30
0.0
 40
1.149999999999999
100
AcDbArc
 50
240.5736500000001
 51
299.9999800000001
  0
ARC
  5
17DA
330
1F
100
AcDbEntity
  8
0
100
AcDbCircle
 10
244.1991547181637
 20
152.8596164736611
 30
0.0
 40
1.149999999999999
100
AcDbArc
 50
59.99997399999937
 51
119.4262900000005
  0
ARC
  5
17DB
330
1F
100
AcDbEntity
  8
0
100
AcDbCircle
 10
245.3491547181636
 20
154.8514684736611
 30
0.0
 40
1.149999999999999
100
AcDbArc
 50
239.9999800000006
 51
299.4263499999998
  0
ARC
  5
17DC
330
1F
100
AcDbEntity
  8
0
100
AcDbCircle
 10
247.7741747181636
 20
157.7834444736611
 30
0.0
 40
1.0
100
AcDbArc
 50
270.0
 51
0.0
  0
LINE
  5
17DD
330
1F
100
AcDbEntity
  8
0
100
AcDbLine
 10
248.7741747181636
 20
166.7834444736611
 30
0.0
 11
228.7741747181637
 21
166.7834444736611
 31
0.0
  0
LINE
  5
17DE
330
1F
100
AcDbEntity
  8
0
100
AcDbLine
 10
226.7741747181637
 20
170.5834474736611
 30
0.0
 11
226.7741747181637
 21
172.4834414736611
 31
0.0
  0
LINE
  5
17DF
330
1F
100
AcDbEntity
  8
0
100
AcDbLine
 10
229.7741747181636
 20
166.7834444736611
 30
0.0
 11
229.7741747181636
 21
169.5834474736611
 31
0.0
  0
LINE
  5
17E0
330
1F
100
AcDbEntity
  8
0
100
AcDbLine
 10
247.7741747181636
 20
166.7834444736611
 30
0.0
 11
247.7741747181636
 21
169.5834474736611
 31
0.0
  0
LINE
  5
17E1
330
1F
100
AcDbEntity
  8
0
100
AcDbLine
 10
250.7741747181636
 20
166.1834544736611
 30
0.0
 11
250.7741747181636
 21
172.4834414736611
 31
0.0
  0
LINE
  5
17E2
330
1F
100
AcDbEntity
  8
0
100
AcDbLine
 10
250.7741747181636
 20
169.5834474736611
 30
0.0
 11
250.7741747181636
 21
172.4834414736611
 31
0.0
  0
ARC
  5
17E3
330
1F
100
AcDbEntity
  8
0
100
AcDbCircle
 10
249.7741747181636
 20
166.1834544736611
 30
0.0
 40
1.0
100
AcDbArc
 50
270.0
 51
0.0
  0
ARC
  5
17E4
330
1F
100
AcDbEntity
  8
0
100
AcDbCircle
 10
249.7741747181636
 20
170.5834474736611
 30
0.0
 40
1.0
100
AcDbArc
 50
270.0
 51
0.0
  0
CIRCLE
  5
17E5
330
1F
100
AcDbEntity
  8
0
100
AcDbCircle
 10
254.4376247181637
 20
176.2199954736611
 30
0.0
 40
2.25
  0
ARC
  5
17E6
330
1F
100
AcDbEntity
  8
Mittellinie
100
AcDbCircle
 10
238.1741647181637
 20
192.4834454736611
 30
0.0
 40
23.0
100
AcDbArc
 50
307.390019999999
 51
323.1494599999995
  0
ARC
  5
17E7
330
1F
100
AcDbEntity
  8
0
100
AcDbCircle
 10
255.6741647181636
 20
174.9834414736611
 30
0.0
 40
2.5
100
AcDbArc
 50
270.0000199999999
 51
0.0
  0
LINE
  5
17E8
330
1F
100
AcDbEntity
  8
0
100
AcDbLine
 10
90.02939816348845
 20
188.4834461696977
 30
0.0
 11
67.52939816348845
 21
188.4834461696977
 31
0.0
  0
LINE
  5
17E9
330
1F
100
AcDbEntity
  8
0
100
AcDbLine
 10
90.02939816348845
 20
196.4834461696976
 30
0.0
 11
67.52939816348845
 21
196.4834461696976
 31
0.0
  0
LINE
  5
17EA
330
1F
100
AcDbEntity
  8
0
100
AcDbLine
 10
92.52939816348845
 20
207.4834361696977
 30
0.0
 11
90.02939816348845
 21
207.4834361696977
 31
0.0
  0
LINE
  5
17EB
330
1F
100
AcDbEntity
  8
0
100
AcDbLine
 10
67.52939816348845
 20
188.4834461696977
 30
0.0
 11
67.52939816348845
 21
196.4834461696976
 31
0.0
  0
LINE
  5
17EC
330
1F
100
AcDbEntity
  8
Mittellinie
100
AcDbLine
 10
218.1741647181636
 20
192.4834454736611
 30
0.0
 11
258.1741047181636
 21
192.4834454736611
 31
0.0
  0
LINE
  5
17ED
330
1F
100
AcDbEntity
  8
0
100
AcDbLine
 10
255.6741647181636
 20
212.4834354736611
 30
0.0
 11
220.6741647181636
 21
212.4834354736611
 31
0.0
  0
ARC
  5
17EE
102
{ACAD_REACTORS
330
1BD1
102
}
330
1F
100
AcDbEntity
  8
Mittellinie
100
AcDbCircle
 10
238.1741647181637
 20
192.4834454736611
 30
0.0
 40
23.0
100
AcDbArc
 50
126.7360899999996
 51
143.7794399999992
  0
ARC
  5
17EF
102
{ACAD_REACTORS
330
1B73
330
1B94
102
}
330
1F
100
AcDbEntity
  8
0
100
AcDbCircle
 10
220.6741647181636
 20
209.9834354736612
 30
0.0
 40
2.5
100
AcDbArc
 50
89.99998199999998
 51
179.9999599999992
  0
LINE
  5
17F0
102
{ACAD_REACTORS
330
1BB7
330
1BFB
102
}
330
1F
100
AcDbEntity
  8
Mittellinie
100
AcDbLine
 10
219.4813847181637
 20
211.1762154736611
 30
0.0
 11
225.3437047181637
 21
205.3139054736611
 31
0.0
  0
CIRCLE
  5
17F1
330
1F
100
AcDbEntity
  8
Innenkanten
100
AcDbCircle
 10
221.9107047181636
 20
208.7468954736611
 30
0.0
 40
2.25
  0
CIRCLE
  5
17F2
330
1F
100
AcDbEntity
  8
Innenkanten
100
AcDbCircle
 10
238.1741647181637
 20
192.4834454736611
 30
0.0
 40
5.0
  0
CIRCLE
  5
17F3
330
1F
100
AcDbEntity
  8
Innenkanten
100
AcDbCircle
 10
238.1741647181637
 20
192.4834454736611
 30
0.0
 40
4.0
  0
ARC
  5
17F4
330
1F
100
AcDbEntity
  8
0
100
AcDbCircle
 10
255.6741647181636
 20
209.9834354736612
 30
0.0
 40
2.5
100
AcDbArc
 50
0.0
 51
89.99998199999998
  0
LINE
  5
17FA
330
1F
100
AcDbEntity
  8
0
100
AcDbLine
 10
26.2757037181637
 20
164.7834444736611
 30
0.0
 11
26.2757037181637
 21
171.0834324736611
 31
0.0
  0
LINE
  5
17FB
330
1F
100
AcDbEntity
  8
0
100
AcDbLine
 10
1.075702718163711
 20
164.7834444736611
 30
0.0
 11
1.075702718163711
 21
171.0834324736611
 31
0.0
  0
LINE
  5
17FD
330
1F
100
AcDbEntity
  8
0
100
AcDbLine
 10
127.5293981634884
 20
170.0834481696976
 30
0.0
 11
127.5293981634884
 21
172.4834731696976
 31
0.0
  0
LINE
  5
1AF0
330
1F
100
AcDbEntity
  8
0
100
AcDbLine
 10
324.6588999131079
 20
128.1435549657881
 30
0.0
 11
324.6588999131079
 21
148.7576899657881
 31
0.0
  0
LINE
  5
1AF1
330
1F
100
AcDbEntity
  8
0
100
AcDbLine
 10
306.6589009131079
 20
148.7576899657881
 30
0.0
 11
306.6589009131079
 21
128.1435549657881
 31
0.0
  0
LINE
  5
1AF2
330
1F
100
AcDbEntity
  8
Innenkanten
100
AcDbLine
 10
324.6588999131079
 20
136.5855869657881
 30
0.0
 11
306.6589009131079
 21
136.5855869657881
 31
0.0
  0
LINE
  5
1AF3
330
1F
100
AcDbEntity
  8
Innenkanten
100
AcDbLine
 10
324.6588999131079
 20
132.9855189657881
 30
0.0
 11
306.6589009131079
 21
132.9855189657881
 31
0.0
  0
LINE
  5
1AF4
330
1F
100
AcDbEntity
  8
0
100
AcDbLine
 10
313.0588939131079
 20
115.143554965788
 30
0.0
 11
309.6589009131079
 21
115.143554965788
 31
0.0
  0
LINE
  5
1AF5
330
1F
100
AcDbEntity
  8
0
100
AcDbLine
 10
322.6589009131079
 20
121.643554965788
 30
0.0
 11
308.6589009131079
 21
121.643554965788
 31
0.0
  0
LINE
  5
1AF6
330
1F
100
AcDbEntity
  8
0
100
AcDbLine
 10
306.6589009131079
 20
128.1435549657881
 30
0.0
 11
324.6588999131079
 21
128.1435549657881
 31
0.0
  0
LINE
  5
1AF7
330
1F
100
AcDbEntity
  8
0
100
AcDbLine
 10
308.6589009131079
 20
121.643554965788
 30
0.0
 11
308.6589009131079
 21
128.1435549657881
 31
0.0
  0
LINE
  5
1AF8
330
1F
100
AcDbEntity
  8
0
100
AcDbLine
 10
309.6589009131079
 20
115.143554965788
 30
0.0
 11
309.6589009131079
 21
121.643554965788
 31
0.0
  0
LINE
  5
1AF9
330
1F
100
AcDbEntity
  8
0
100
AcDbLine
 10
322.6589009131079
 20
128.1435549657881
 30
0.0
 11
322.6589009131079
 21
121.643554965788
 31
0.0
  0
LINE
  5
1AFA
330
1F
100
AcDbEntity
  8
0
100
AcDbLine
 10
321.6589009131079
 20
115.143554965788
 30
0.0
 11
318.2588759131078
 21
115.143554965788
 31
0.0
  0
LINE
  5
1AFB
330
1F
100
AcDbEntity
  8
0
100
AcDbLine
 10
317.3588819131079
 20
115.143554965788
 30
0.0
 11
317.3588819131079
 21
121.643554965788
 31
0.0
  0
LINE
  5
1AFC
330
1F
100
AcDbEntity
  8
0
100
AcDbLine
 10
318.2588759131078
 20
115.143554965788
 30
0.0
 11
318.2588759131078
 21
121.643554965788
 31
0.0
  0
LINE
  5
1AFD
330
1F
100
AcDbEntity
  8
0
100
AcDbLine
 10
313.9588879131078
 20
115.143554965788
 30
0.0
 11
313.9588879131078
 21
121.643554965788
 31
0.0
  0
LINE
  5
1AFE
330
1F
100
AcDbEntity
  8
0
100
AcDbLine
 10
313.0588939131079
 20
121.643554965788
 30
0.0
 11
313.0588939131079
 21
115.143554965788
 31
0.0
  0
LINE
  5
1AFF
330
1F
100
AcDbEntity
  8
0
100
AcDbLine
 10
317.3588819131079
 20
115.143554965788
 30
0.0
 11
313.9588879131078
 21
115.143554965788
 31
0.0
  0
LINE
  5
1B00
330
1F
100
AcDbEntity
  8
0
100
AcDbLine
 10
321.6588699131079
 20
115.143554965788
 30
0.0
 11
321.6588699131079
 21
121.643554965788
 31
0.0
  0
LINE
  5
1B01
330
1F
100
AcDbEntity
  8
Mittellinie
100
AcDbLine
 10
416.2695246561407
 20
192.4782454286141
 30
0.0
 11
304.9452896561407
 21
192.4782454286141
 31
0.0
  0
ARC
  5
1B02
330
1F
100
AcDbEntity
  8
Innenkanten
100
AcDbCircle
 10
508.8554499131078
 20
192.3197909657881
 30
0.0
 40
198.5
100
AcDbArc
 50
177.0835699999999
 51
180.000010000001
  0
LINE
  5
1B03
330
1F
100
AcDbEntity
  8
Mittellinie
100
AcDbLine
 10
313.2199659131079
 20
181.842680965788
 30
0.0
 11
308.3092299131078
 21
181.842680965788
 31
0.0
  0
LINE
  5
1B04
330
1F
100
AcDbEntity
  8
Innenkanten
100
AcDbLine
 10
310.8872029131079
 20
179.0926809657881
 30
0.0
 11
309.8554639131078
 21
179.0926809657881
 31
0.0
  0
LINE
  5
1B05
330
1F
100
AcDbEntity
  8
Innenkanten
100
AcDbLine
 10
309.8554639131078
 20
184.592680965788
 30
0.0
 11
310.8554639131078
 21
184.592680965788
 31
0.0
  0
ARC
  5
1B06
330
1F
100
AcDbEntity
  8
Innenkanten
100
AcDbCircle
 10
311.3531369131079
 20
186.4426709657881
 30
0.0
 40
1.0
100
AcDbArc
 50
181.7094100000003
 51
270.0000200000004
  0
ARC
  5
1B07
330
1F
100
AcDbEntity
  8
Innenkanten
100
AcDbCircle
 10
311.3554489131078
 20
177.2426709657881
 30
0.0
 40
1.0
100
AcDbArc
 50
90.00000300000095
 51
180.000010000001
  0
LINE
  5
1B08
330
1F
100
AcDbEntity
  8
Innenkanten
100
AcDbLine
 10
310.3554489131078
 20
172.4473499657881
 30
0.0
 11
327.8128599131079
 21
170.9200289657881
 31
0.0
  0
LINE
  5
1B09
330
1F
100
AcDbEntity
  8
0
100
AcDbLine
 10
324.6588999131079
 20
148.7576899657881
 30
0.0
 11
306.6589009131079
 21
148.7576899657881
 31
0.0
  0
LINE
  5
1B0A
330
1F
100
AcDbEntity
  8
0
100
AcDbLine
 10
309.6554519131078
 20
163.620009965788
 30
0.0
 11
322.3550369131078
 21
163.620009965788
 31
0.0
  0
LINE
  5
1B0B
102
{ACAD_REACTORS
330
1DA8
102
}
330
1F
100
AcDbEntity
  8
0
100
AcDbLine
 10
349.3554499131078
 20
213.320030965788
 30
0.0
 11
310.2992199131079
 21
212.331210965788
 31
0.0
  0
ARC
  5
1B0C
102
{ACAD_REACTORS
330
1DA8
102
}
330
1F
100
AcDbEntity
  8
0
100
AcDbCircle
 10
508.8554499131078
 20
192.3197909657881
 30
0.0
 40
200.0
100
AcDbArc
 50
174.3873699999991
 51
180.000010000001
  0
LINE
  5
1B0D
330
1F
100
AcDbEntity
  8
0
100
AcDbLine
 10
308.8554489131078
 20
180.0926809657881
 30
0.0
 11
308.8554489131078
 21
164.420012965788
 31
0.0
  0
ARC
  5
1B0E
330
1F
100
AcDbEntity
  8
0
100
AcDbCircle
 10
309.6554519131078
 20
164.420012965788
 30
0.0
 40
0.8000000099999999
100
AcDbArc
 50
179.9999899999989
 51
270.0
  0
LINE
  5
1B0F
330
1F
100
AcDbEntity
  8
0
100
AcDbLine
 10
308.8554639131078
 20
180.0926809657881
 30
0.0
 11
308.8554639131078
 21
183.592680965788
 31
0.0
  0
LINE
  5
1B10
330
1F
100
AcDbEntity
  8
Innenkanten
100
AcDbLine
 10
310.3554489131078
 20
179.0926809657881
 30
0.0
 11
310.3554489131078
 21
172.4473569657881
 31
0.0
  0
LINE
  5
1B11
330
1F
100
AcDbEntity
  8
Innenkanten
100
AcDbLine
 10
308.8554489131078
 20
174.5600129657881
 30
0.0
 11
310.3554489131078
 21
174.4287799657881
 31
0.0
  0
LINE
  5
1B12
330
1F
100
AcDbEntity
  8
Innenkanten
100
AcDbLine
 10
308.8554569131078
 20
173.860015965788
 30
0.0
 11
310.3554569131079
 21
173.7287829657881
 31
0.0
  0
ARC
  5
1B13
330
1F
100
AcDbEntity
  8
Innenkanten
100
AcDbCircle
 10
309.8554639131078
 20
180.0926809657881
 30
0.0
 40
1.0
100
AcDbArc
 50
179.9999800000012
 51
270.0000299999997
  0
LINE
  5
1B14
330
1F
100
AcDbEntity
  8
Innenkanten
100
AcDbLine
 10
310.3554489131078
 20
192.3197909657881
 30
0.0
 11
310.3554489131078
 21
184.592680965788
 31
0.0
  0
LINE
  5
1B15
330
1F
100
AcDbEntity
  8
0
100
AcDbLine
 10
308.8554489131078
 20
192.3197909657881
 30
0.0
 11
308.8554489131078
 21
183.592680965788
 31
0.0
  0
ARC
  5
1B16
330
1F
100
AcDbEntity
  8
Innenkanten
100
AcDbCircle
 10
309.8554639131078
 20
183.592680965788
 30
0.0
 40
1.0
100
AcDbArc
 50
89.99998199999916
 51
179.9999599999992
  0
ARC
  5
1B17
330
1F
100
AcDbEntity
  8
0
100
AcDbCircle
 10
310.3118849131078
 20
211.8313709657881
 30
0.0
 40
0.5
100
AcDbArc
 50
91.45031099999902
 51
174.3873699999991
  0
LINE
  5
1B18
330
1F
100
AcDbEntity
  8
Innenkanten
100
AcDbLine
 10
385.3554499131078
 20
202.893920965788
 30
0.0
 11
311.1118959131079
 21
202.893920965788
 31
0.0
  0
LINE
  5
1B19
330
1F
100
AcDbEntity
  8
0
100
AcDbLine
 10
390.3554499131078
 20
172.3200379657881
 30
0.0
 11
349.3554499131078
 21
172.3200379657881
 31
0.0
  0
LINE
  5
1B1A
330
1F
100
AcDbEntity
  8
0
100
AcDbLine
 10
349.3554499131078
 20
212.320030965788
 30
0.0
 11
390.3554499131078
 21
212.320030965788
 31
0.0
  0
LINE
  5
1B1B
330
1F
100
AcDbEntity
  8
Innenkanten
100
AcDbLine
 10
355.3554499131078
 20
172.3200379657881
 30
0.0
 11
355.3554499131078
 21
212.320030965788
 31
0.0
  0
LINE
  5
1B1C
330
1F
100
AcDbEntity
  8
0
100
AcDbLine
 10
349.3554499131078
 20
213.320030965788
 30
0.0
 11
349.3554499131078
 21
170.9200289657881
 31
0.0
  0
LINE
  5
1B1D
330
1F
100
AcDbEntity
  8
0
100
AcDbLine
 10
327.8128499131078
 20
170.9200289657881
 30
0.0
 11
349.3554499131078
 21
170.9200289657881
 31
0.0
  0
LINE
  5
1B1E
330
1F
100
AcDbEntity
  8
Innenkanten
100
AcDbLine
 10
313.6554519131078
 20
172.158645965788
 30
0.0
 11
313.6554519131078
 21
163.620009965788
 31
0.0
  0
LINE
  5
1B1F
330
1F
100
AcDbEntity
  8
0
100
AcDbLine
 10
319.1554519131078
 20
163.620009965788
 30
0.0
 11
319.1554519131078
 21
152.583854965788
 31
0.0
  0
LINE
  5
1B20
330
1F
100
AcDbEntity
  8
0
100
AcDbLine
 10
312.1554519131078
 20
163.620009965788
 30
0.0
 11
312.1554519131078
 21
152.583854965788
 31
0.0
  0
ARC
  5
1B21
330
1F
100
AcDbEntity
  8
0
100
AcDbCircle
 10
317.4053759131079
 20
155.614898965788
 30
0.0
 40
3.5
100
AcDbArc
 50
240.0014399999988
 51
300.1319399999998
  0
ARC
  5
1B22
330
1F
100
AcDbEntity
  8
0
100
AcDbCircle
 10
317.4055279131079
 20
149.5527189657881
 30
0.0
 40
3.5
100
AcDbArc
 50
59.87095899999933
 51
120.00002
  0
ARC
  5
1B23
330
1F
100
AcDbEntity
  8
0
100
AcDbCircle
 10
313.9055279131079
 20
155.614898965788
 30
0.0
 40
3.5
100
AcDbArc
 50
240.0637400000004
 51
299.9999900000003
  0
ARC
  5
1B24
330
1F
100
AcDbEntity
  8
0
100
AcDbCircle
 10
313.9088239131079
 20
153.582000965788
 30
0.0
 40
3.5
100
AcDbArc
 50
240.0014399999988
 51
300.0014300000009
  0
ARC
  5
1B25
330
1F
100
AcDbEntity
  8
0
100
AcDbCircle
 10
313.9089769131079
 20
147.519820965788
 30
0.0
 40
3.5
100
AcDbArc
 50
60.00146299999915
 51
120.0014599999996
  0
LINE
  5
1B26
330
1F
100
AcDbEntity
  8
0
100
AcDbLine
 10
312.1589009131079
 20
150.550864965788
 30
0.0
 11
312.1589009131079
 21
148.7576899657881
 31
0.0
  0
LINE
  5
1B27
330
1F
100
AcDbEntity
  8
0
100
AcDbLine
 10
319.1589009131079
 20
148.7576899657881
 30
0.0
 11
319.1589009131079
 21
150.550864965788
 31
0.0
  0
ARC
  5
1B28
330
1F
100
AcDbEntity
  8
0
100
AcDbCircle
 10
317.4088389131079
 20
148.1142119657881
 30
0.0
 40
3.0
100
AcDbArc
 50
54.31321299999921
 51
125.6838999999988
  0
LINE
  5
1B29
330
1F
100
AcDbEntity
  8
0
100
AcDbLine
 10
324.2344199131078
 20
164.9359669657881
 30
0.0
 11
325.9334699131079
 21
169.6040649657881
 31
0.0
  0
ARC
  5
1B2A
330
1F
100
AcDbEntity
  8
0
100
AcDbCircle
 10
322.3550369131078
 20
165.620009965788
 30
0.0
 40
2.0
100
AcDbArc
 50
270.0
 51
339.9999999999999
  0
ARC
  5
1B2B
330
1F
100
AcDbEntity
  8
0
100
AcDbCircle
 10
327.8128499131078
 20
168.9200289657881
 30
0.0
 40
2.0
100
AcDbArc
 50
90.00000300000095
 51
159.9999999999998
  0
LINE
  5
1B2C
330
1F
100
AcDbEntity
  8
Innenkanten
100
AcDbLine
 10
310.8554639131078
 20
184.342680965788
 30
0.0
 11
310.8554639131078
 21
179.3426809657881
 31
0.0
  0
LINE
  5
1B2D
330
1F
100
AcDbEntity
  8
Innenkanten
100
AcDbLine
 10
312.8554639131079
 20
185.4426709657881
 30
0.0
 11
312.8554639131079
 21
178.2426709657881
 31
0.0
  0
LINE
  5
1B2E
330
1F
100
AcDbEntity
  8
Innenkanten
100
AcDbLine
 10
312.8554639131079
 20
178.2426709657881
 30
0.0
 11
311.3554489131078
 21
178.2426709657881
 31
0.0
  0
LINE
  5
1B2F
330
1F
100
AcDbEntity
  8
Innenkanten
100
AcDbLine
 10
311.8554639131078
 20
178.3426809657881
 30
0.0
 11
312.8554639131079
 21
178.3426809657881
 31
0.0
  0
ARC
  5
1B30
330
1F
100
AcDbEntity
  8
Innenkanten
100
AcDbCircle
 10
311.8554639131078
 20
179.3426809657881
 30
0.0
 40
1.0
100
AcDbArc
 50
179.9999800000012
 51
270.0000299999997
  0
LINE
  5
1B31
330
1F
100
AcDbEntity
  8
Innenkanten
100
AcDbLine
 10
312.8554639131079
 20
185.342680965788
 30
0.0
 11
311.8554639131078
 21
185.342680965788
 31
0.0
  0
LINE
  5
1B32
330
1F
100
AcDbEntity
  8
Innenkanten
100
AcDbLine
 10
311.3531369131079
 20
185.4426709657881
 30
0.0
 11
312.8554639131079
 21
185.4426709657881
 31
0.0
  0
ARC
  5
1B33
330
1F
100
AcDbEntity
  8
Innenkanten
100
AcDbCircle
 10
311.8554639131078
 20
184.342680965788
 30
0.0
 40
1.0
100
AcDbArc
 50
89.99998199999916
 51
179.9999599999992
  0
LINE
  5
1B34
102
{ACAD_REACTORS
330
1D03
102
}
330
1F
100
AcDbEntity
  8
Mittellinie
100
AcDbLine
 10
360.8554499131078
 20
152.681388965788
 30
0.0
 11
360.8554499131078
 21
172.8630909657881
 31
0.0
  0
LINE
  5
1B35
330
1F
100
AcDbEntity
  8
0
100
AcDbLine
 10
355.3554499131078
 20
169.920012965788
 30
0.0
 11
355.3554499131078
 21
172.3200379657881
 31
0.0
  0
LINE
  5
1B36
330
1F
100
AcDbEntity
  8
0
100
AcDbLine
 10
366.3554499131078
 20
169.920012965788
 30
0.0
 11
366.3554499131078
 21
172.3200379657881
 31
0.0
  0
LINE
  5
1B37
330
1F
100
AcDbEntity
  8
0
100
AcDbLine
 10
365.8554499131078
 20
169.4200129657881
 30
0.0
 11
355.8554499131078
 21
169.4200129657881
 31
0.0
  0
LINE
  5
1B38
330
1F
100
AcDbEntity
  8
0
100
AcDbLine
 10
365.8054499131078
 20
166.620009965788
 30
0.0
 11
355.9054499131078
 21
166.620009965788
 31
0.0
  0
LINE
  5
1B39
330
1F
100
AcDbEntity
  8
0
100
AcDbLine
 10
364.8054499131078
 20
156.620009965788
 30
0.0
 11
356.9054499131078
 21
156.620009965788
 31
0.0
  0
LINE
  5
1B3A
330
1F
100
AcDbEntity
  8
0
100
AcDbLine
 10
365.8054499131078
 20
157.620009965788
 30
0.0
 11
355.9054499131078
 21
157.620009965788
 31
0.0
  0
LINE
  5
1B3B
330
1F
100
AcDbEntity
  8
0
100
AcDbLine
 10
355.9054499131078
 20
157.620009965788
 30
0.0
 11
355.9054499131078
 21
166.620009965788
 31
0.0
  0
LINE
  5
1B3C
330
1F
100
AcDbEntity
  8
0
100
AcDbLine
 10
360.0051999131078
 20
156.620009965788
 30
0.0
 11
360.0051999131078
 21
150.9827579657881
 31
0.0
  0
LINE
  5
1B3D
330
1F
100
AcDbEntity
  8
0
100
AcDbLine
 10
361.7056999131079
 20
150.9827419657881
 30
0.0
 11
361.7056999131079
 21
156.620009965788
 31
0.0
  0
ARC
  5
1B3E
330
1F
100
AcDbEntity
  8
0
100
AcDbCircle
 10
360.4307399131079
 20
151.7188719657881
 30
0.0
 40
0.8500000199999998
100
AcDbArc
 50
239.9986599999992
 51
299.9990299999997
  0
ARC
  5
1B3F
330
1F
100
AcDbEntity
  8
0
100
AcDbCircle
 10
361.2807099131079
 20
150.2466129657881
 30
0.0
 40
0.8500000199999998
100
AcDbArc
 50
60.0009850000009
 51
119.9990299999997
  0
ARC
  5
1B40
330
1F
100
AcDbEntity
  8
0
100
AcDbCircle
 10
361.2807099131079
 20
151.7188719657881
 30
0.0
 40
0.8500000199999998
100
AcDbArc
 50
240.0009499999997
 51
299.9990299999997
  0
ARC
  5
1B41
330
1F
100
AcDbEntity
  8
0
100
AcDbCircle
 10
356.9054499131078
 20
157.620009965788
 30
0.0
 40
1.0
100
AcDbArc
 50
179.9999899999989
 51
270.0
  0
LINE
  5
1B42
330
1F
100
AcDbEntity
  8
0
100
AcDbLine
 10
356.9554599131079
 20
166.620009965788
 30
0.0
 11
356.9554599131079
 21
169.4200129657881
 31
0.0
  0
ARC
  5
1B43
330
1F
100
AcDbEntity
  8
0
100
AcDbCircle
 10
355.8554499131078
 20
169.920012965788
 30
0.0
 40
0.5
100
AcDbArc
 50
179.9999899999989
 51
270.0
  0
LINE
  5
1B44
330
1F
100
AcDbEntity
  8
0
100
AcDbLine
 10
365.8054499131078
 20
157.620009965788
 30
0.0
 11
365.8054499131078
 21
166.620009965788
 31
0.0
  0
ARC
  5
1B45
330
1F
100
AcDbEntity
  8
0
100
AcDbCircle
 10
364.8054499131078
 20
157.620009965788
 30
0.0
 40
1.0
100
AcDbArc
 50
270.0
 51
0.0
  0
ARC
  5
1B46
330
1F
100
AcDbEntity
  8
0
100
AcDbCircle
 10
365.8554499131078
 20
169.920012965788
 30
0.0
 40
0.5
100
AcDbArc
 50
270.0
 51
0.0
  0
LINE
  5
1B47
330
1F
100
AcDbEntity
  8
0
100
AcDbLine
 10
364.7554399131079
 20
166.620009965788
 30
0.0
 11
364.7554399131079
 21
169.4200129657881
 31
0.0
  0
ARC
  5
1B48
330
1F
100
AcDbEntity
  8
Innenkanten
100
AcDbCircle
 10
311.1118959131079
 20
202.393920965788
 30
0.0
 40
0.5
100
AcDbArc
 50
90.00000300000095
 51
177.0835699999999
  0
LINE
  5
1B49
102
{ACAD_REACTORS
330
1C3B
102
}
330
1F
100
AcDbEntity
  8
Innenkanten
100
AcDbLine
 10
385.3554499131078
 20
172.3200379657881
 30
0.0
 11
385.3554499131078
 21
212.320030965788
 31
0.0
  0
LINE
  5
1B4A
102
{ACAD_REACTORS
330
1C7A
330
1D4B
102
}
330
1F
100
AcDbEntity
  8
0
100
AcDbLine
 10
415.3554499131078
 20
188.3200109657881
 30
0.0
 11
415.3554499131078
 21
196.3200109657881
 31
0.0
  0
LINE
  5
1B4B
330
1F
100
AcDbEntity
  8
0
100
AcDbLine
 10
392.8554499131078
 20
207.3200009657881
 30
0.0
 11
392.8554499131078
 21
177.3200109657881
 31
0.0
  0
LINE
  5
1B4C
102
{ACAD_REACTORS
330
1C3B
330
1C7A
330
1D03
102
}
330
1F
100
AcDbEntity
  8
0
100
AcDbLine
 10
390.3554499131078
 20
172.3200379657881
 30
0.0
 11
390.3554499131078
 21
212.320030965788
 31
0.0
  0
LINE
  5
1B4D
330
1F
100
AcDbEntity
  8
0
100
AcDbLine
 10
392.8554499131078
 20
188.3200109657881
 30
0.0
 11
415.3554499131078
 21
188.3200109657881
 31
0.0
  0
LINE
  5
1B4E
102
{ACAD_REACTORS
330
1D28
102
}
330
1F
100
AcDbEntity
  8
0
100
AcDbLine
 10
392.8554499131078
 20
177.3200109657881
 30
0.0
 11
390.3554499131078
 21
177.3200109657881
 31
0.0
  0
LINE
  5
1B4F
330
1F
100
AcDbEntity
  8
0
100
AcDbLine
 10
392.8554499131078
 20
196.3200109657881
 30
0.0
 11
415.3554499131078
 21
196.3200109657881
 31
0.0
  0
LINE
  5
1B50
102
{ACAD_REACTORS
330
1D6C
102
}
330
1F
100
AcDbEntity
  8
0
100
AcDbLine
 10
390.3554499131078
 20
207.3200009657881
 30
0.0
 11
392.8554499131078
 21
207.3200009657881
 31
0.0
  0
ARC
  5
1B5B
330
1F
100
AcDbEntity
  8
0
100
AcDbCircle
 10
-25.97060183651155
 20
192.4832261696976
 30
0.0
 40
200.0
100
AcDbArc
 50
3.762902606224555
 51
5.61263000000089
  0
DIMENSION
  5
1B5C
102
{ACAD_XDICTIONARY
360
1B69
102
}
102
{ACAD_REACTORS
330
1B73
102
}
330
1F
100
AcDbEntity
  8
Bemaßung
100
AcDbDimension
  2
*D0
 10
258.1741647181636
 20
225.9133228902295
 30
0.0
 11
238.174164718164
 21
227.7883228902295
 31
0.0
 70
    32
 71
     5
 42
39.99999999999937
  3
ISO-25
100
AcDbAlignedDimension
 13
218.1741647181643
 23
209.9834372189904
 33
0.0
 14
258.1741647181636
 24
209.9834354736612
 34
0.0
100
AcDbRotatedDimension
  0
DIMENSION
  5
1B7D
102
{ACAD_XDICTIONARY
360
1B8A
102
}
102
{ACAD_REACTORS
330
1B94
102
}
330
1F
100
AcDbEntity
  8
Bemaßung
100
AcDbDimension
  2
*D1
 10
207.1810772140621
 20
172.4834414736615
 30
0.0
 11
205.3060772140621
 21
192.4834384736613
 31
0.0
 70
    32
 71
     5
 42
39.99999399999956
  3
ISO-25
100
AcDbAlignedDimension
 13
220.6741655035618
 23
212.483435473661
 33
0.0
 14
220.6741660271605
 24
172.4834414736615
 34
0.0
 50
90.0
100
AcDbRotatedDimension
  0
DIMENSION
  5
1B9E
102
{ACAD_XDICTIONARY
360
1BAC
102
}
102
{ACAD_REACTORS
330
1BB7
102
}
330
1F
100
AcDbEntity
  8
Bemaßung
100
AcDbDimension
  2
*D2
 10
225.3437047181637
 20
205.3139054736611
 30
0.0
 11
227.4042596336184
 21
218.484286918616
 31
0.0
 70
    34
 71
     5
 42
0.7853990163028298
  3
ISO-25
100
AcDb2LineAngularDimension
 13
238.1741647181637
 23
144.4455394736611
 33
0.0
 14
238.1741647181637
 24
214.8573560783982
 34
0.0
 15
219.4813847181637
 25
211.1762154736611
 35
0.0
 16
231.3754757249155
 26
217.8564912532539
 36
0.0
  0
DIMENSION
  5
1BC2
102
{ACAD_XDICTIONARY
360
1BCB
102
}
102
{ACAD_REACTORS
330
1BD1
102
}
330
1F
100
AcDbEntity
  8
Bemaßung
100
AcDbDimension
  2
*D3
 10
256.7293762492073
 20
178.8928558971113
 30
0.0
 11
246.1259183093958
 21
186.6592585981039
 31
0.0
 70
   163
 71
     5
 42
46.00000000000005
  3
ISO-25
100
AcDbDiametricDimension
 15
219.61895318712
 25
206.074035050211
 35
0.0
 40
0.0
1001
ACAD
1000
DSTYLE
1002
{
1070
   279
1070
     1
1070
   288
1070
     1
1002
}
  0
DIMENSION
  5
1BD7
102
{ACAD_XDICTIONARY
360
1BE4
102
}
102
{ACAD_REACTORS
330
1BEE
102
}
330
1F
100
AcDbEntity
  8
Bemaßung
100
AcDbDimension
  2
*D4
 10
269.2336941029862
 20
156.7834444736611
 30
0.0
 11
267.1503607696529
 21
174.6334414736611
 31
0.0
 70
    32
 71
     5
 42
35.69999400000006
  3
ISO-25
100
AcDbAlignedDimension
 13
258.1741647181636
 23
192.4834384736611
 33
0.0
 14
247.7741747181636
 24
156.7834444736611
 34
0.0
 50
90.0
100
AcDbRotatedDimension
  0
LEADER
  5
1BF8
102
{ACAD_XDICTIONARY
360
1BFA
102
}
102
{ACAD_REACTORS
330
1BFB
102
}
330
1F
100
AcDbEntity
  8
Bemaßung
100
AcDbLeader
  3
ISO-25
 73
     0
 40
2.916666666666666
 41
17.91666666666666
 76
     3
 10
222.4125447181637
 20
208.2450604736611
 30
0.0
 10
214.6503735707357
 20
216.1496119395213
 30
0.0
 10
195.5444917050114
 20
216.1468020400327
 30
0.0
340
1BF9
213
-20.01816316330314
223
-0.9065696680272594
233
0.0
1001
ACAD
1000
DSTYLE
1002
{
1070
   147
1040
0.625
1070
    77
1070
     0
1002
}
  0
MTEXT
  5
1BF9
102
{ACAD_REACTORS
330
1BF8
102
}
330
1F
100
AcDbEntity
  8
Bemaßung
100
AcDbMText
 10
214.9376548683145
 20
217.05337170806
 30
0.0
 40
2.5
 41
22.00547885453602
 71
     9
 72
     1
  1
2 x ø4,5
 73
     1
 44
1.0
  0
DIMENSION
  5
1BFF
102
{ACAD_XDICTIONARY
360
1C0C
102
}
102
{ACAD_REACTORS
330
1C16
102
}
330
1F
100
AcDbEntity
  8
Bemaßung
100
AcDbDimension
  2
*D5
 10
248.7741747181637
 20
139.6193481641168
 30
0.0
 11
238.7741747181637
 21
141.4943481641168
 31
0.0
 70
    32
 71
     5
 42
20.00000000000005
  3
ISO-25
100
AcDbAlignedDimension
 13
228.7741747181637
 23
157.7834444736611
 33
0.0
 14
248.7741747181637
 24
157.7834444736611
 34
0.0
100
AcDbRotatedDimension
  0
DIMENSION
  5
1C20
102
{ACAD_XDICTIONARY
360
1C2F
102
}
102
{ACAD_REACTORS
330
1C3B
102
}
330
1F
100
AcDbEntity
  8
Bemaßung
100
AcDbDimension
  2
*D6
 10
385.3554499131078
 20
217.8740320124801
 30
0.0
 11
387.8554499131078
 21
219.7490320124801
 31
0.0
 70
    32
 71
     5
 42
5.0
  3
ISO-25
100
AcDbAlignedDimension
 13
390.3554499131078
 23
212.320030965788
 33
0.0
 14
385.3554499131078
 24
212.320030965788
 34
0.0
100
AcDbRotatedDimension
  0
DIMENSION
  5
1C63
102
{ACAD_XDICTIONARY
360
1C70
102
}
102
{ACAD_REACTORS
330
1C7A
102
}
330
1F
100
AcDbEntity
  8
Bemaßung
100
AcDbDimension
  2
*D7
 10
415.3554499131078
 20
224.3353113180959
 30
0.0
 11
402.536788053579
 21
224.3353113180959
 31
0.0
 70
   160
 71
     5
 42
25.0
  3
ISO-25
100
AcDbAlignedDimension
 13
390.3554499131078
 23
212.320030965788
 33
0.0
 14
415.3554499131078
 24
196.3200109657881
 34
0.0
100
AcDbRotatedDimension
  0
DIMENSION
  5
1CB9
330
1F
100
AcDbEntity
  8
Bemaßung
100
AcDbDimension
  2
*D8
 10
308.8554499131108
 20
224.3353113180959
 30
0.0
 11
349.6054499131094
 21
226.4186446514292
 31
0.0
 70
    32
 71
     5
 42
81.49999999999698
  3
ISO-25
100
AcDbAlignedDimension
 13
390.3554499131078
 23
212.320030965788
 33
0.0
 14
308.8554499131108
 24
207.3200109657881
 34
0.0
100
AcDbRotatedDimension
  0
DIMENSION
  5
1CEC
102
{ACAD_XDICTIONARY
360
1CF9
102
}
102
{ACAD_REACTORS
330
1D03
102
}
330
1F
100
AcDbEntity
  8
Bemaßung
100
AcDbDimension
  2
*D9
 10
390.3554499131078
 20
144.3520973010393
 30
0.0
 11
375.6054499131078
 21
146.4354306343726
 31
0.0
 70
    32
 71
     5
 42
29.5
  3
ISO-25
100
AcDbAlignedDimension
 13
360.8554499131078
 23
152.681388965788
 33
0.0
 14
390.3554499131078
 24
172.3200379657881
 34
0.0
100
AcDbRotatedDimension
  0
DIMENSION
  5
1D0D
102
{ACAD_XDICTIONARY
360
1D1C
102
}
102
{ACAD_REACTORS
330
1D28
102
}
330
1F
100
AcDbEntity
  8
Bemaßung
100
AcDbDimension
  2
*D10
 10
392.8554499131078
 20
144.3520973010393
 30
0.0
 11
401.1887832464411
 21
146.4354306343726
 31
0.0
 70
    32
 71
     5
 42
2.5
  3
ISO-25
100
AcDbAlignedDimension
 13
390.3554499131078
 23
171.6950379657881
 33
0.0
 14
392.8554499131078
 24
177.3200109657881
 34
0.0
100
AcDbRotatedDimension
  0
DIMENSION
  5
1D34
102
{ACAD_XDICTIONARY
360
1D41
102
}
102
{ACAD_REACTORS
330
1D4B
102
}
330
1F
100
AcDbEntity
  8
Bemaßung
100
AcDbDimension
  2
*D11
 10
426.5674609719456
 20
188.3200109657881
 30
0.0
 11
424.6924609719456
 21
192.3200109657881
 31
0.0
 70
    32
 71
     5
 42
8.0
  3
ISO-25
100
AcDbAlignedDimension
 13
415.3554499131078
 23
196.3200109657881
 33
0.0
 14
415.3554499131078
 24
188.3200109657881
 34
0.0
 50
90.0
100
AcDbRotatedDimension
  0
DIMENSION
  5
1D55
102
{ACAD_XDICTIONARY
360
1D62
102
}
102
{ACAD_REACTORS
330
1D6C
102
}
330
1F
100
AcDbEntity
  8
Bemaßung
100
AcDbDimension
  2
*D12
 10
434.7538900501198
 20
177.3200109657881
 30
0.0
 11
432.8788900501197
 21
192.3200059657881
 31
0.0
 70
    32
 71
     5
 42
29.99999000000002
  3
ISO-25
100
AcDbAlignedDimension
 13
392.8554499131078
 23
207.3200009657881
 33
0.0
 14
392.8554499131078
 24
177.3200109657881
 34
0.0
 50
90.0
100
AcDbRotatedDimension
  0
DIMENSION
  5
1D91
102
{ACAD_XDICTIONARY
360
1D9E
102
}
102
{ACAD_REACTORS
330
1DA8
102
}
330
1F
100
AcDbEntity
  8
Bemaßung
100
AcDbDimension
  2
*D13
 10
349.3554499131078
 20
217.8740320124801
 30
0.0
 11
329.1054499131094
 21
219.9573653458134
 31
0.0
 70
    32
 71
     5
 42
40.49999999999698
  3
ISO-25
100
AcDbAlignedDimension
 13
308.8554499131108
 23
192.3197560591995
 33
0.0
 14
349.3554499131078
 24
213.320030965788
 34
0.0
100
AcDbRotatedDimension
  0
DIMENSION
  5
1DB6
102
{ACAD_XDICTIONARY
360
1DC3
102
}
102
{ACAD_REACTORS
330
1DCD
102
}
330
1F
100
AcDbEntity
  8
Bemaßung
100
AcDbDimension
  2
*D14
 10
-7.325823481836321
 20
225.9133228902295
 30
0.0
 11
13.67417761816369
 21
227.7883228902295
 31
0.0
 70
    32
 71
     5
 42
42.00000220000004
  3
ISO-25
100
AcDbAlignedDimension
 13
34.67417871816371
 23
192.4834454736611
 33
0.0
 14
-7.325823481836323
 24
192.4834454736611
 34
0.0
100
AcDbRotatedDimension
  0
DIMENSION
  5
1DD7
102
{ACAD_XDICTIONARY
360
1DE4
102
}
102
{ACAD_REACTORS
330
1DEE
102
}
330
1F
100
AcDbEntity
  8
Bemaßung
100
AcDbDimension
  2
*D15
 10
45.34598726974297
 20
163.7834444736611
 30
0.0
 11
43.26265393640961
 21
178.1334449736611
 31
0.0
 70
    32
 71
     5
 42
28.70000100000004
  3
ISO-25
100
AcDbAlignedDimension
 13
38.9202877181637
 23
192.4834454736611
 33
0.0
 14
25.2757037181637
 24
163.7834444736611
 34
0.0
 50
90.0
100
AcDbRotatedDimension
  0
DIMENSION
  5
1DF8
102
{ACAD_XDICTIONARY
360
1E05
102
}
102
{ACAD_REACTORS
330
1E0F
102
}
330
1F
100
AcDbEntity
  8
Bemaßung
100
AcDbDimension
  2
*D16
 10
26.2757037181637
 20
140.0257621565729
 30
0.0
 11
13.67570321816371
 21
142.1090954899062
 31
0.0
 70
    32
 71
     5
 42
25.20000099999997
  3
ISO-25
100
AcDbAlignedDimension
 13
1.075702718163726
 23
164.783444648194
 33
0.0
 14
26.2757037181637
 24
164.783444466449
 34
0.0
100
AcDbRotatedDimension
  0
LINE
  5
1E22
330
1F
100
AcDbEntity
  8
0
100
AcDbLine
 10
217.1741647181637
 20
35.72911667357482
 30
0.0
 11
259.1741647181644
 21
35.72911667357499
 31
0.0
  0
LINE
  5
1E23
330
1F
100
AcDbEntity
  8
Innenkanten
100
AcDbLine
 10
218.1741647181636
 20
-0.270883326425178
 30
0.0
 11
258.1741647181642
 21
-0.2708833264249932
 31
0.0
  0
LINE
  5
1E24
330
1F
100
AcDbEntity
  8
0
100
AcDbLine
 10
218.1741647181636
 20
-5.270883326425149
 30
0.0
 11
218.1741647181636
 21
35.72911667357482
 31
0.0
  0
LINE
  5
1E25
330
1F
100
AcDbEntity
  8
0
100
AcDbLine
 10
258.1741647181642
 20
-5.270883326424993
 30
0.0
 11
258.1741647181639
 21
35.729116673575
 31
0.0
  0
LINE
  5
1E26
330
1F
100
AcDbEntity
  8
Innenkanten
100
AcDbLine
 10
217.1741647181637
 20
74.22911667357482
 30
0.0
 11
224.5726647181635
 21
74.22911667357486
 31
0.0
  0
LINE
  5
1E27
330
1F
100
AcDbEntity
  8
Innenkanten
100
AcDbLine
 10
224.5726647181638
 20
-0.2708833264251478
 30
0.0
 11
224.5726647181635
 21
76.22911667357486
 31
0.0
  0
LINE
  5
1E28
330
1F
100
AcDbEntity
  8
0
100
AcDbLine
 10
259.1741647181644
 20
35.72911667357499
 30
0.0
 11
259.1741647181642
 21
76.22911667357502
 31
0.0
  0
LINE
  5
1E29
330
1F
100
AcDbEntity
  8
0
100
AcDbLine
 10
223.1741647181637
 20
-7.770883326425121
 30
0.0
 11
253.1741647181636
 21
-7.770883326425007
 31
0.0
  0
LINE
  5
1E2A
330
1F
100
AcDbEntity
  8
0
100
AcDbLine
 10
218.1741647181636
 20
-5.270883326425149
 30
0.0
 11
258.1741647181642
 21
-5.270883326424993
 31
0.0
  0
LINE
  5
1E2B
330
1F
100
AcDbEntity
  8
0
100
AcDbLine
 10
223.1741647181637
 20
-7.770883326425121
 30
0.0
 11
223.1741647181637
 21
-5.270883326425128
 31
0.0
  0
LINE
  5
1E2C
330
1F
100
AcDbEntity
  8
0
100
AcDbLine
 10
253.1741647181636
 20
-7.770883326425007
 30
0.0
 11
253.1741647181637
 21
-5.270883326425014
 31
0.0
  0
LINE
  5
1E2D
330
1F
100
AcDbEntity
  8
0
100
AcDbLine
 10
233.1741647181636
 20
-30.27088332642509
 30
0.0
 11
243.1741647181636
 21
-30.27088332642503
 31
0.0
  0
LINE
  5
1E2E
330
1F
100
AcDbEntity
  8
0
100
AcDbLine
 10
233.1741647181636
 20
-30.27088332642509
 30
0.0
 11
233.1741647181636
 21
-7.770883326425085
 31
0.0
  0
LINE
  5
1E2F
330
1F
100
AcDbEntity
  8
0
100
AcDbLine
 10
243.1741647181636
 20
-30.27088332642503
 30
0.0
 11
243.1741647181636
 21
-7.770883326425042
 31
0.0
  0
LINE
  5
1E30
330
1F
100
AcDbEntity
  8
0
100
AcDbLine
 10
217.1741647181635
 20
76.22911667357482
 30
0.0
 11
259.1741647181642
 21
76.22911667357499
 31
0.0
  0
LINE
  5
1E33
330
1F
100
AcDbEntity
  8
0
100
AcDbLine
 10
217.1741647181637
 20
35.72911667357482
 30
0.0
 11
217.1741647181635
 21
76.22911667357482
 31
0.0
  0
LINE
  5
1E35
330
1F
100
AcDbEntity
  8
Innenkanten
100
AcDbLine
 10
218.1741647181636
 20
29.72911667357482
 30
0.0
 11
258.1741647181642
 21
29.72911667357503
 31
0.0
  0
LINE
  5
1E4E
330
1F
100
AcDbEntity
  8
0
100
AcDbLine
 10
218.1292733090457
 20
74.22911667357482
 30
0.0
 11
218.1292733090457
 21
75.21685470023706
 31
0.0
  0
LINE
  5
1E4F
330
1F
100
AcDbEntity
  8
Mittellinie
100
AcDbLine
 10
220.8792733090457
 20
71.85235270023705
 30
0.0
 11
220.8792733090457
 21
76.76308870023709
 31
0.0
  0
ARC
  5
1E50
330
1F
100
AcDbEntity
  8
0
100
AcDbCircle
 10
219.1292733090457
 20
75.21685470023705
 30
0.0
 40
1.0
100
AcDbArc
 50
89.99998000000124
 51
180.0000299999997
  0
LINE
  5
1E54
330
1F
100
AcDbEntity
  8
0
100
AcDbLine
 10
223.6292733090456
 20
75.21685470023706
 30
0.0
 11
223.6292733090456
 21
74.22911667357486
 31
0.0
  0
ARC
  5
1E55
330
1F
100
AcDbEntity
  8
0
100
AcDbCircle
 10
222.6292733090457
 20
75.21685470023705
 30
0.0
 40
1.0
100
AcDbArc
 50
359.9999819999975
 51
89.99995999999923
  0
LINE
  5
1E5B
330
1F
100
AcDbEntity
  8
Mittellinie
100
AcDbLine
 10
238.1741647181636
 20
-36.97647492305782
 30
0.0
 11
238.1741647181637
 21
80.76717307535387
 31
0.0
  0
VIEWPORT
  5
FF1
330
FEA
100
AcDbEntity
 67
     1
  8
0
100
AcDbViewport
 10
144.7270812988281
 20
111.1085416523249
 30
0.0
 40
377.5505027244501
 41
241.9178641406666
 68
     1
 69
     1
 12
144.7270812988281
 22
111.1085416523249
 13
0.0
 23
0.0
 14
10.0
 24
10.0
 15
10.0
 25
10.0
 16
0.0
 26
0.0
 36
1.0
 17
0.0
 27
0.0
 37
0.0
 42
50.0
 43
0.0
 44
0.0
 45
241.9178641406666
 50
0.0
 51
0.0
 72
   100
 90
    32800
  1

281
     0
 71
     1
 74
     0
110
0.0
120
0.0
130
0.0
111
1.0
121
0.0
131
0.0
112
0.0
122
1.0
132
0.0
 79
     0
146
0.0
  0
VIEWPORT
  5
FF3
330
FEA
100
AcDbEntity
 67
     1
  8
0
100
AcDbViewport
 10
144.7270812988279
 20
101.5933663914631
 30
0.0
 40
296.2546461044554
 41
209.0554971327303
 68
     2
 69
     2
 12
203.1282534378307
 22
126.0400189425975
 13
0.0
 23
0.0
 14
10.0
 24
10.0
 15
10.0
 25
10.0
 16
0.0
 26
0.0
 36
1.0
 17
0.0
 27
0.0
 37
0.0
 42
50.0
 43
0.0
 44
0.0
 45
382.825506506762
 50
0.0
 51
0.0
 72
   100
 90
    32864
  1

281
     0
 71
     1
 74
     0
110
-53.08748352590964
120
3.820899076262548
130
0.0
111
1.0
121
0.0
131
0.0
112
0.0
122
1.0
132
0.0
 79
     0
146
0.0
  0
ENDSEC
  0
SECTION
  2
OBJECTS
  0
DICTIONARY
  5
C
330
0
100
AcDbDictionary
281
     1
  3
ACAD_GROUP
350
D
  3
ACAD_LAYOUT
350
1A
  3
ACAD_MLINESTYLE
350
17
  3
ACAD_PLOTSETTINGS
350
19
  3
ACAD_PLOTSTYLENAME
350
E
  3
AcadDim
350
118B
  3
AcDbVariableDictionary
350
50
  3
DWGPROPS
350
A6A
  0
DICTIONARY
  5
1B69
330
1B5C
100
AcDbDictionary
280
     1
281
     1
  3
ACAD_DIMASSOC
360
1B73
  0
DICTIONARY
  5
1B8A
330
1B7D
100
AcDbDictionary
280
     1
281
     1
  3
ACAD_DIMASSOC
360
1B94
  0
DICTIONARY
  5
1BAC
330
1B9E
100
AcDbDictionary
280
     1
281
     1
  3
ACAD_DIMASSOC
360
1BB7
  0
DICTIONARY
  5
1BCB
330
1BC2
100
AcDbDictionary
280
     1
281
     1
  3
ACAD_DIMASSOC
360
1BD1
  0
DICTIONARY
  5
1BE4
330
1BD7
100
AcDbDictionary
280
     1
281
     1
  3
ACAD_DIMASSOC
360
1BEE
  0
DICTIONARY
  5
1BFA
330
1BF8
100
AcDbDictionary
280
     1
281
     1
  3
ACAD_DIMASSOC
360
1BFB
  0
DICTIONARY
  5
1C0C
330
1BFF
100
AcDbDictionary
280
     1
281
     1
  3
ACAD_DIMASSOC
360
1C16
  0
DICTIONARY
  5
1C2F
330
1C20
100
AcDbDictionary
280
     1
281
     1
  3
ACAD_DIMASSOC
360
1C3B
  0
DICTIONARY
  5
1C70
330
1C63
100
AcDbDictionary
280
     1
281
     1
  3
ACAD_DIMASSOC
360
1C7A
  0
DICTIONARY
  5
1CF9
330
1CEC
100
AcDbDictionary
280
     1
281
     1
  3
ACAD_DIMASSOC
360
1D03
  0
DICTIONARY
  5
1D1C
330
1D0D
100
AcDbDictionary
280
     1
281
     1
  3
ACAD_DIMASSOC
360
1D28
  0
DICTIONARY
  5
1D41
330
1D34
100
AcDbDictionary
280
     1
281
     1
  3
ACAD_DIMASSOC
360
1D4B
  0
DICTIONARY
  5
1D62
330
1D55
100
AcDbDictionary
280
     1
281
     1
  3
ACAD_DIMASSOC
360
1D6C
  0
DICTIONARY
  5
1D9E
330
1D91
100
AcDbDictionary
280
     1
281
     1
  3
ACAD_DIMASSOC
360
1DA8
  0
DICTIONARY
  5
1DC3
330
1DB6
100
AcDbDictionary
280
     1
281
     1
  3
ACAD_DIMASSOC
360
1DCD
  0
DICTIONARY
  5
1DE4
330
1DD7
100
AcDbDictionary
280
     1
281
     1
  3
ACAD_DIMASSOC
360
1DEE
  0
DICTIONARY
  5
1E05
330
1DF8
100
AcDbDictionary
280
     1
281
     1
  3
ACAD_DIMASSOC
360
1E0F
  0
DICTIONARY
  5
D
102
{ACAD_REACTORS
330
C
102
}
330
C
100
AcDbDictionary
281
     1
  3
*A1
350
2A6
  3
*A10
350
1A87
  3
*A11
350
94E
  3
*A12
350
85A
  3
*A13
350
3BE
  3
*A14
350
331
  3
*A15
350
369
  3
*A16
350
A72
  3
*A17
350
10FD
  3
*A18
350
413
  3
*A19
350
869
  3
*A2
350
8F6
  3
*A20
350
8E4
  3
*A21
350
885
  3
*A22
350
886
  3
*A23
350
8D4
  3
*A24
350
8E3
  3
*A25
350
8ED
  3
*A3
350
905
  3
*A4
350
93F
  3
*A5
350
90F
  3
*A6
350
91E
  3
*A7
350
92D
  3
*A8
350
936
  3
*A9
350
1578
  0
DICTIONARY
  5
1A
102
{ACAD_REACTORS
330
C
102
}
330
C
100
AcDbDictionary
281
     1
  3
Layout1
350
FEB
  3
Model
350
22
  0
DICTIONARY
  5
17
102
{ACAD_REACTORS
330
C
102
}
330
C
100
AcDbDictionary
281
     1
  3
Standard
350
18
  0
DICTIONARY
  5
19
102
{ACAD_REACTORS
330
C
102
}
330
C
100
AcDbDictionary
281
     1
  0
ACDBDICTIONARYWDFLT
  5
E
102
{ACAD_REACTORS
330
C
102
}
330
C
100
AcDbDictionary
281
     1
  3
Normal
350
F
100
AcDbDictionaryWithDefault
340
F
  0
XRECORD
  5
118B
102
{ACAD_REACTORS
330
C
102
}
330
C
100
AcDbXrecord
280
     1
 90
   990106
  3

 60
     0
 61
     0
 62
     1
 63
     3
 64
     0
 65
     0
 66
     0
 67
     3
 68
     1
 69
     0
 70
     0
 71
     0
 72
     0
 40
4.0
170
     0
340
1BF9
  0
DICTIONARY
  5
50
102
{ACAD_REACTORS
330
C
102
}
330
C
100
AcDbDictionary
281
     1
  3
DIMASSOC
350
52
  3
HIDETEXT
350
51
  0
XRECORD
  5
A6A
102
{ACAD_REACTORS
330
C
102
}
330
C
100
AcDbXrecord
280
     1
  1
DWGPROPS COOKIE
  2

  3

  4

  6

  7

  8

  9

300
=
301
=
302
=
303
=
304
=
305
=
306
=
307
=
308
=
309
=
 40
0.587026388888889
 41
2452181.498615972
 42
2452184.61255463
  1

 90
        0
  0
DIMASSOC
  5
1B73
102
{ACAD_REACTORS
330
1B69
102
}
330
1B69
100
AcDbDimAssoc
330
1B5C
 90
        3
 70
     0
 71
     0
  1
AcDbOsnapPointRef
 72
     1
331
17EF
 73
     2
 91
        0
 40
3.141591955458078
 10
218.1741647181643
 20
209.9834372189904
 30
0.0
 75
     0
  1
AcDbOsnapPointRef
 72
    13
331
178F
 73
     2
 91
        0
 40
0.0
 10
258.1741647181636
 20
209.9834354736612
 30
0.0
 75
     0
  0
DIMASSOC
  5
1B94
102
{ACAD_REACTORS
330
1B8A
102
}
330
1B8A
100
AcDbDimAssoc
330
1B7D
 90
        3
 70
     0
 71
     0
  1
AcDbOsnapPointRef
 72
    13
331
17EF
 73
     2
 91
        0
 40
1.570796012635621
 10
220.6741655035618
 20
212.483435473661
 30
0.0
 75
     0
  1
AcDbOsnapPointRef
 72
     1
331
17B4
 73
     2
 91
        0
 40
4.712389503983449
 10
220.6741660271605
 20
172.4834414736615
 30
0.0
 75
     0
  0
DIMASSOC
  5
1BB7
102
{ACAD_REACTORS
330
1BAC
102
}
330
1BAC
100
AcDbDimAssoc
330
1B9E
 90
       15
 70
     0
 71
     0
  1
AcDbOsnapPointRef
 72
    13
331
178E
 73
     2
 91
        0
 40
0.0
 10
238.1741647181637
 20
144.4455394736611
 30
0.0
 75
     0
  1
AcDbOsnapPointRef
 72
     1
331
178E
 73
     2
 91
        0
 40
1.0
 10
238.1741647181637
 20
214.8573560783982
 30
0.0
 75
     0
  1
AcDbOsnapPointRef
 72
    13
331
17F0
 73
     2
 91
        0
 40
0.0
 10
219.4813847181637
 20
211.1762154736611
 30
0.0
 75
     0
  1
AcDbOsnapPointRef
 72
     1
331
17F0
 73
     2
 91
        0
 40
1.0
 10
225.3437047181637
 20
205.3139054736611
 30
0.0
 75
     0
  0
DIMASSOC
  5
1BD1
102
{ACAD_REACTORS
330
1BCB
102
}
330
1BCB
100
AcDbDimAssoc
330
1BC2
 90
        2
 70
     0
 71
     0
  1
AcDbOsnapPointRef
 72
     3
331
17EE
 73
     2
 91
        0
 40
0.0
 10
0.0
 20
0.0
 30
0.0
 75
     0
  0
DIMASSOC
  5
1BEE
102
{ACAD_REACTORS
330
1BE4
102
}
330
1BE4
100
AcDbDimAssoc
330
1BD7
 90
        3
 70
     0
 71
     0
  1
AcDbOsnapPointRef
 72
     2
331
178F
 73
     2
 91
        0
 40
0.5
 10
258.1741647181636
 20
192.4834384736611
 30
0.0
 75
     0
  1
AcDbOsnapPointRef
 72
    13
331
17BB
 73
     2
 91
        0
 40
0.0
 10
247.7741747181636
 20
156.7834444736611
 30
0.0
 75
     0
  0
DIMASSOC
  5
1BFB
102
{ACAD_REACTORS
330
1BFA
102
}
330
1BFA
100
AcDbDimAssoc
330
1BF8
 90
        1
 70
     0
 71
     0
  1
AcDbOsnapPointRef
 72
     2
331
17F0
 73
     2
 91
        0
 40
0.5000000000000023
 10
222.4125447181637
 20
208.2450604736611
 30
0.0
 75
     0
  0
DIMASSOC
  5
1C16
102
{ACAD_REACTORS
330
1C0C
102
}
330
1C0C
100
AcDbDimAssoc
330
1BFF
 90
        3
 70
     0
 71
     0
  1
AcDbOsnapPointRef
 72
     1
331
17BA
 73
     2
 91
        0
 40
1.0
 10
228.7741747181637
 20
157.7834444736611
 30
0.0
 75
     0
  1
AcDbOsnapPointRef
 72
     8
331
17B6
 73
     2
 91
        0
 40
0.0
 10
248.7741747181636
 20
157.7834444736611
 30
0.0
 75
     1
  1
AcDbOsnapPointRef
 72
     1
331
17BA
 73
     2
 91
        0
 40
1.0
 10
228.7741747181637
 20
157.7834444736611
 30
0.0
 75
     0
  0
DIMASSOC
  5
1C3B
102
{ACAD_REACTORS
330
1C2F
102
}
330
1C2F
100
AcDbDimAssoc
330
1C20
 90
        3
 70
     0
 71
     0
  1
AcDbOsnapPointRef
 72
     1
331
1B4C
 73
     2
 91
        0
 40
1.0
 10
390.3554499131078
 20
212.320030965788
 30
0.0
 75
     0
  1
AcDbOsnapPointRef
 72
     1
331
1B49
 73
     2
 91
        0
 40
1.0
 10
385.3554499131078
 20
212.320030965788
 30
0.0
 75
     0
  0
DIMASSOC
  5
1C7A
102
{ACAD_REACTORS
330
1C70
102
}
330
1C70
100
AcDbDimAssoc
330
1C63
 90
        3
 70
     0
 71
     0
  1
AcDbOsnapPointRef
 72
     1
331
1B4C
 73
     2
 91
        0
 40
1.0
 10
390.3554499131078
 20
212.320030965788
 30
0.0
 75
     0
  1
AcDbOsnapPointRef
 72
     1
331
1B4A
 73
     2
 91
        0
 40
1.0
 10
415.3554499131078
 20
196.3200109657881
 30
0.0
 75
     0
  0
DIMASSOC
  5
1D03
102
{ACAD_REACTORS
330
1CF9
102
}
330
1CF9
100
AcDbDimAssoc
330
1CEC
 90
        3
 70
     0
 71
     0
  1
AcDbOsnapPointRef
 72
    13
331
1B34
 73
     2
 91
        0
 40
0.0
 10
360.8554499131078
 20
152.681388965788
 30
0.0
 75
     0
  1
AcDbOsnapPointRef
 72
    13
331
1B4C
 73
     2
 91
        0
 40
0.0
 10
390.3554499131078
 20
172.3200379657881
 30
0.0
 75
     0
  0
DIMASSOC
  5
1D28
102
{ACAD_REACTORS
330
1D1C
102
}
330
1D1C
100
AcDbDimAssoc
330
1D0D
 90
        2
 70
     0
 71
     0
  1
AcDbOsnapPointRef
 72
    13
331
1B4E
 73
     2
 91
        0
 40
0.0
 10
392.8554499131078
 20
177.3200109657881
 30
0.0
 75
     0
  0
DIMASSOC
  5
1D4B
102
{ACAD_REACTORS
330
1D41
102
}
330
1D41
100
AcDbDimAssoc
330
1D34
 90
        2
 70
     0
 71
     0
  1
AcDbOsnapPointRef
 72
    13
331
1B4A
 73
     2
 91
        0
 40
0.0
 10
415.3554499131078
 20
188.3200109657881
 30
0.0
 75
     0
  0
DIMASSOC
  5
1D6C
102
{ACAD_REACTORS
330
1D62
102
}
330
1D62
100
AcDbDimAssoc
330
1D55
 90
        1
 70
     0
 71
     0
  1
AcDbOsnapPointRef
 72
     1
331
1B50
 73
     2
 91
        0
 40
1.0
 10
392.8554499131078
 20
207.3200009657881
 30
0.0
 75
     0
  0
DIMASSOC
  5
1DA8
102
{ACAD_REACTORS
330
1D9E
102
}
330
1D9E
100
AcDbDimAssoc
330
1D91
 90
        3
 70
     0
 71
     0
  1
AcDbOsnapPointRef
 72
     1
331
1B0C
 73
     2
 91
        0
 40
3.141592828122735
 10
308.8554499131108
 20
192.3197560591995
 30
0.0
 75
     0
  1
AcDbOsnapPointRef
 72
    13
331
1B0B
 73
     2
 91
        0
 40
0.0
 10
349.3554499131078
 20
213.320030965788
 30
0.0
 75
     0
  0
DIMASSOC
  5
1DCD
102
{ACAD_REACTORS
330
1DC3
102
}
330
1DC3
100
AcDbDimAssoc
330
1DB6
 90
        3
 70
     0
 71
     0
  1
AcDbOsnapPointRef
 72
    11
331
1753
 73
     2
 91
        0
 40
0.9135338723510194
 10
34.67417871816371
 20
192.4834454736611
 30
0.0
332
16C7
 74
     2
 92
        0
 75
     0
  1
AcDbOsnapPointRef
 72
     8
331
1755
 73
     2
 91
        0
 40
0.0832392998249252
 10
-7.325823481836323
 20
192.4834454736611
 30
0.0
 75
     1
  1
AcDbOsnapPointRef
 72
    11
331
1753
 73
     2
 91
        0
 40
0.9135338723510194
 10
34.67417871816371
 20
192.4834454736611
 30
0.0
332
16C7
 74
     2
 92
        0
 75
     0
  0
DIMASSOC
  5
1DEE
102
{ACAD_REACTORS
330
1DE4
102
}
330
1DE4
100
AcDbDimAssoc
330
1DD7
 90
        3
 70
     0
 71
     0
  1
AcDbOsnapPointRef
 72
     1
331
1753
 73
     2
 91
        0
 40
1.0
 10
38.9202877181637
 20
192.4834454736611
 30
0.0
 75
     0
  1
AcDbOsnapPointRef
 72
    13
331
16EA
 73
     2
 91
        0
 40
0.0
 10
25.2757037181637
 20
163.7834444736611
 30
0.0
 75
     0
  0
DIMASSOC
  5
1E0F
102
{ACAD_REACTORS
330
1E05
102
}
330
1E05
100
AcDbDimAssoc
330
1DF8
 90
        3
 70
     0
 71
     0
  1
AcDbOsnapPointRef
 72
    13
331
16F8
 73
     2
 91
        0
 40
3.14159247905685
 10
1.075702718163726
 20
164.783444648194
 30
0.0
 75
     0
  1
AcDbOsnapPointRef
 72
     8
331
1709
 73
     2
 91
        0
 40
6.283185299967492
 10
26.2757037181637
 20
164.783444466449
 30
0.0
 75
     1
  1
AcDbOsnapPointRef
 72
    13
331
16F8
 73
     2
 91
        0
 40
3.14159247905685
 10
1.075702718163726
 20
164.783444648194
 30
0.0
 75
     0
  0
GROUP
  5
2A6
102
{ACAD_REACTORS
330
D
102
}
330
D
100
AcDbGroup
300

 70
     1
 71
     1
  0
GROUP
  5
1A87
102
{ACAD_REACTORS
330
D
102
}
330
D
100
AcDbGroup
300

 70
     1
 71
     1
  0
GROUP
  5
94E
102
{ACAD_REACTORS
330
D
102
}
330
D
100
AcDbGroup
300

 70
     1
 71
     1
  0
GROUP
  5
85A
102
{ACAD_REACTORS
330
D
102
}
330
D
100
AcDbGroup
300

 70
     1
 71
     1
  0
GROUP
  5
3BE
102
{ACAD_REACTORS
330
D
102
}
330
D
100
AcDbGroup
300

 70
     1
 71
     1
  0
GROUP
  5
331
102
{ACAD_REACTORS
330
D
102
}
330
D
100
AcDbGroup
300

 70
     1
 71
     1
  0
GROUP
  5
369
102
{ACAD_REACTORS
330
D
102
}
330
D
100
AcDbGroup
300

 70
     1
 71
     1
  0
GROUP
  5
A72
102
{ACAD_REACTORS
330
D
102
}
330
D
100
AcDbGroup
300

 70
     1
 71
     1
  0
GROUP
  5
10FD
102
{ACAD_REACTORS
330
D
102
}
330
D
100
AcDbGroup
300

 70
     1
 71
     1
  0
GROUP
  5
413
102
{ACAD_REACTORS
330
D
102
}
330
D
100
AcDbGroup
300

 70
     1
 71
     1
  0
GROUP
  5
869
102
{ACAD_REACTORS
330
D
102
}
330
D
100
AcDbGroup
300

 70
     1
 71
     1
  0
GROUP
  5
8F6
102
{ACAD_REACTORS
330
D
102
}
330
D
100
AcDbGroup
300

 70
     1
 71
     1
  0
GROUP
  5
8E4
102
{ACAD_REACTORS
330
D
102
}
330
D
100
AcDbGroup
300

 70
     1
 71
     1
  0
GROUP
  5
885
102
{ACAD_REACTORS
330
D
102
}
330
D
100
AcDbGroup
300

 70
     1
 71
     1
  0
GROUP
  5
886
102
{ACAD_REACTORS
330
D
102
}
330
D
100
AcDbGroup
300

 70
     1
 71
     1
  0
GROUP
  5
8D4
102
{ACAD_REACTORS
330
D
102
}
330
D
100
AcDbGroup
300

 70
     1
 71
     1
  0
GROUP
  5
8E3
102
{ACAD_REACTORS
330
D
102
}
330
D
100
AcDbGroup
300

 70
     1
 71
     1
  0
GROUP
  5
8ED
102
{ACAD_REACTORS
330
D
102
}
330
D
100
AcDbGroup
300

 70
     1
 71
     1
  0
GROUP
  5
905
102
{ACAD_REACTORS
330
D
102
}
330
D
100
AcDbGroup
300

 70
     1
 71
     1
  0
GROUP
  5
93F
102
{ACAD_REACTORS
330
D
102
}
330
D
100
AcDbGroup
300

 70
     1
 71
     1
  0
GROUP
  5
90F
102
{ACAD_REACTORS
330
D
102
}
330
D
100
AcDbGroup
300

 70
     1
 71
     1
  0
GROUP
  5
91E
102
{ACAD_REACTORS
330
D
102
}
330
D
100
AcDbGroup
300

 70
     1
 71
     1
  0
GROUP
  5
92D
102
{ACAD_REACTORS
330
D
102
}
330
D
100
AcDbGroup
300

 70
     1
 71
     1
  0
GROUP
  5
936
102
{ACAD_REACTORS
330
D
102
}
330
D
100
AcDbGroup
300

 70
     1
 71
     1
  0
GROUP
  5
1578
102
{ACAD_REACTORS
330
D
102
}
330
D
100
AcDbGroup
300

 70
     1
 71
     1
  0
LAYOUT
  5
FEB
102
{ACAD_REACTORS
330
1A
102
}
330
1A
100
AcDbPlotSettings
  1

  2
EPSON Stylus COLOR 1520
  4
A4
  6

 40
3.757083177566528
 41
14.7637300491333
 42
3.757080078125
 43
3.757080078125
 44
209.9733276367187
 45
296.9683227539062
 46
0.0
 47
0.0
 48
0.0
 49
0.0
140
0.0
141
0.0
142
1.0
143
1.0
 70
   688
 72
     1
 73
     1
 74
     5
  7

 75
    16
147
1.0
148
0.0
149
0.0
100
AcDbLayout
  1
Layout1
 70
     1
 71
     1
 10
-3.757080078125
 20
-3.757083177566528
 11
293.2112426757812
 21
206.2162444591522
 12
0.0
 22
0.0
 32
0.0
 14
-3.400241753399768
 24
-2.934382174902054
 34
0.0
 15
292.8544043510557
 25
206.1211149578283
 35
0.0
146
0.0
 13
0.0
 23
0.0
 33
0.0
 16
1.0
 26
0.0
 36
0.0
 17
0.0
 27
1.0
 37
0.0
 76
     0
330
FEA
331
FF1
  0
LAYOUT
  5
22
102
{ACAD_REACTORS
330
1A
102
}
330
1A
100
AcDbPlotSettings
  1

  2
EPSON Stylus COLOR 1520
  4
A4
  6

 40
3.757083177566528
 41
14.7637300491333
 42
3.757080078125
 43
3.757080078125
 44
209.9733276367187
 45
296.9683227539062
 46
0.0
 47
0.0
 48
0.0
 49
0.0
140
0.0
141
0.0
142
1.0
143
1.0
 70
 11952
 72
     1
 73
     1
 74
     0
  7

 75
     0
147
1.0
148
-89.73529411764705
149
0.0
100
AcDbLayout
  1
Model
 70
     1
 71
     0
 10
0.0
 20
0.0
 11
12.0
 21
9.0
 12
0.0
 22
0.0
 32
0.0
 14
0.0
 24
0.0
 34
0.0
 15
0.0
 25
0.0
 35
0.0
146
0.0
 13
0.0
 23
0.0
 33
0.0
 16
1.0
 26
0.0
 36
0.0
 17
0.0
 27
1.0
 37
0.0
 76
     0
330
1F
  0
MLINESTYLE
  5
18
102
{ACAD_REACTORS
330
17
102
}
330
17
100
AcDbMlineStyle
  2
STANDARD
 70
     0
  3

 62
   256
 51
90.0
 52
90.0
 71
     2
 49
0.5
 62
   256
  6
BYLAYER
 49
-0.5
 62
   256
  6
BYLAYER
  0
ACDBPLACEHOLDER
  5
F
102
{ACAD_REACTORS
330
E
102
}
330
E
  0
DICTIONARYVAR
  5
52
102
{ACAD_REACTORS
330
50
102
}
330
50
100
DictionaryVariables
280
     0
  1
2
  0
DICTIONARYVAR
  5
51
102
{ACAD_REACTORS
330
50
102
}
330
50
100
DictionaryVariables
280
     0
  1
1
  0
ENDSEC
  0
EOF
