  0
SECTION
  2
HEADER
  9
$ACADVER
  1
AC1015
  9
$ACADMAINTVER
 70
    13
  9
$DWGCODEPAGE
  3
ANSI_1252
  9
$INSBASE
 10
0.0
 20
0.0
 30
0.0
  9
$EXTMIN
 10
-361.557575219017
 20
-171.8516601789715
 30
0.0
  9
$EXTMAX
 10
622.5794714869343
 20
283.3442065026734
 30
0.0
  9
$LIMMIN
 10
0.0
 20
0.0
  9
$LIMMAX
 10
420.0
 20
297.0
  9
$ORTHOMODE
 70
     1
  9
$REGENMODE
 70
     1
  9
$FILLMODE
 70
     1
  9
$QTEXTMODE
 70
     0
  9
$MIRRTEXT
 70
     1
  9
$LTSCALE
 40
1.0
  9
$ATTMODE
 70
     1
  9
$TEXTSIZE
 40
26.5350450929028
  9
$TRACEWID
 40
1.0
  9
$TEXTSTYLE
  7
Standard
  9
$CLAYER
  8
0
  9
$CELTYPE
  6
ByLayer
  9
$CECOLOR
 62
   256
  9
$CELTSCALE
 40
1.0
  9
$DISPSILH
 70
     0
  9
$DIMSCALE
 40
1.0
  9
$DIMASZ
 40
2.5
  9
$DIMEXO
 40
0.625
  9
$DIMDLI
 40
3.75
  9
$DIMRND
 40
0.0
  9
$DIMDLE
 40
0.0
  9
$DIMEXE
 40
1.25
  9
$DIMTP
 40
0.0
  9
$DIMTM
 40
0.0
  9
$DIMTXT
 40
2.5
  9
$DIMCEN
 40
2.5
  9
$DIMTSZ
 40
0.0
  9
$DIMTOL
 70
     0
  9
$DIMLIM
 70
     0
  9
$DIMTIH
 70
     0
  9
$DIMTOH
 70
     0
  9
$DIMSE1
 70
     0
  9
$DIMSE2
 70
     0
  9
$DIMTAD
 70
     1
  9
$DIMZIN
 70
     8
  9
$DIMBLK
  1

  9
$DIMASO
 70
     1
  9
$DIMSHO
 70
     1
  9
$DIMPOST
  1

  9
$DIMAPOST
  1

  9
$DIMALT
 70
     0
  9
$DIMALTD
 70
     3
  9
$DIMALTF
 40
0.03937007874016
  9
$DIMLFAC
 40
1.0
  9
$DIMTOFL
 70
     1
  9
$DIMTVP
 40
0.0
  9
$DIMTIX
 70
     0
  9
$DIMSOXD
 70
     0
  9
$DIMSAH
 70
     0
  9
$DIMBLK1
  1

  9
$DIMBLK2
  1

  9
$DIMSTYLE
  2
ISO-25
  9
$DIMCLRD
 70
     0
  9
$DIMCLRE
 70
     0
  9
$DIMCLRT
 70
     0
  9
$DIMTFAC
 40
1.0
  9
$DIMGAP
 40
0.625
  9
$DIMJUST
 70
     0
  9
$DIMSD1
 70
     0
  9
$DIMSD2
 70
     0
  9
$DIMTOLJ
 70
     0
  9
$DIMTZIN
 70
     8
  9
$DIMALTZ
 70
     0
  9
$DIMALTTZ
 70
     0
  9
$DIMUPT
 70
     0
  9
$DIMDEC
 70
     2
  9
$DIMTDEC
 70
     2
  9
$DIMALTU
 70
     2
  9
$DIMALTTD
 70
     3
  9
$DIMTXSTY
  7
Standard
  9
$DIMAUNIT
 70
     0
  9
$DIMADEC
 70
     0
  9
$DIMALTRND
 40
0.0
  9
$DIMAZIN
 70
     0
  9
$DIMDSEP
 70
    44
  9
$DIMATFIT
 70
     3
  9
$DIMFRAC
 70
     0
  9
$DIMLDRBLK
  1

  9
$DIMLUNIT
 70
     2
  9
$DIMLWD
 70
    -2
  9
$DIMLWE
 70
    -2
  9
$DIMTMOVE
 70
     0
  9
$LUNITS
 70
     2
  9
$LUPREC
 70
     4
  9
$SKETCHINC
 40
1.0
  9
$FILLETRAD
 40
3.0
  9
$AUNITS
 70
     0
  9
$AUPREC
 70
     0
  9
$MENU
  1
.
  9
$ELEVATION
 40
0.0
  9
$PELEVATION
 40
0.0
  9
$THICKNESS
 40
0.0
  9
$LIMCHECK
 70
     0
  9
$CHAMFERA
 40
10.0
  9
$CHAMFERB
 40
10.0
  9
$CHAMFERC
 40
20.0
  9
$CHAMFERD
 40
0.0
  9
$SKPOLY
 70
     0
  9
$TDCREATE
 40
2452181.456949305
  9
$TDUCREATE
 40
2452181.415282638
  9
$TDUPDATE
 40
2452321.502516666
  9
$TDUUPDATE
 40
2452321.460850000
  9
$TDINDWG
 40
1.0420643519
  9
$TDUSRTIMER
 40
1.0420548611
  9
$USRTIMER
 70
     1
  9
$ANGBASE
 50
0.0
  9
$ANGDIR
 70
     0
  9
$PDMODE
 70
     0
  9
$PDSIZE
 40
0.0
  9
$PLINEWID
 40
0.0
  9
$SPLFRAME
 70
     0
  9
$SPLINETYPE
 70
     6
  9
$SPLINESEGS
 70
     8
  9
$HANDSEED
  5
28E4
  9
$SURFTAB1
 70
     6
  9
$SURFTAB2
 70
     6
  9
$SURFTYPE
 70
     6
  9
$SURFU
 70
     6
  9
$SURFV
 70
     6
  9
$UCSBASE
  2

  9
$UCSNAME
  2

  9
$UCSORG
 10
-53.08748352590964
 20
3.820899076262548
 30
0.0
  9
$UCSXDIR
 10
1.0
 20
0.0
 30
0.0
  9
$UCSYDIR
 10
0.0
 20
1.0
 30
0.0
  9
$UCSORTHOREF
  2

  9
$UCSORTHOVIEW
 70
     0
  9
$UCSORGTOP
 10
0.0
 20
0.0
 30
0.0
  9
$UCSORGBOTTOM
 10
0.0
 20
0.0
 30
0.0
  9
$UCSORGLEFT
 10
0.0
 20
0.0
 30
0.0
  9
$UCSORGRIGHT
 10
0.0
 20
0.0
 30
0.0
  9
$UCSORGFRONT
 10
0.0
 20
0.0
 30
0.0
  9
$UCSORGBACK
 10
0.0
 20
0.0
 30
0.0
  9
$PUCSBASE
  2

  9
$PUCSNAME
  2

  9
$PUCSORG
 10
0.0
 20
0.0
 30
0.0
  9
$PUCSXDIR
 10
1.0
 20
0.0
 30
0.0
  9
$PUCSYDIR
 10
0.0
 20
1.0
 30
0.0
  9
$PUCSORTHOREF
  2

  9
$PUCSORTHOVIEW
 70
     0
  9
$PUCSORGTOP
 10
0.0
 20
0.0
 30
0.0
  9
$PUCSORGBOTTOM
 10
0.0
 20
0.0
 30
0.0
  9
$PUCSORGLEFT
 10
0.0
 20
0.0
 30
0.0
  9
$PUCSORGRIGHT
 10
0.0
 20
0.0
 30
0.0
  9
$PUCSORGFRONT
 10
0.0
 20
0.0
 30
0.0
  9
$PUCSORGBACK
 10
0.0
 20
0.0
 30
0.0
  9
$USERI1
 70
     0
  9
$USERI2
 70
     0
  9
$USERI3
 70
     0
  9
$USERI4
 70
     0
  9
$USERI5
 70
     0
  9
$USERR1
 40
0.0
  9
$USERR2
 40
0.0
  9
$USERR3
 40
0.0
  9
$USERR4
 40
0.0
  9
$USERR5
 40
0.0
  9
$WORLDVIEW
 70
     1
  9
$SHADEDGE
 70
     3
  9
$SHADEDIF
 70
    70
  9
$TILEMODE
 70
     1
  9
$MAXACTVP
 70
    64
  9
$PINSBASE
 10
0.0
 20
0.0
 30
0.0
  9
$PLIMCHECK
 70
     0
  9
$PEXTMIN
 10
-3.400241753399768
 20
-2.934382174902054
 30
0.0
  9
$PEXTMAX
 10
292.8544043510557
 20
206.1211149578283
 30
0.0
  9
$PLIMMIN
 10
-3.757080078125
 20
-3.757083177566528
  9
$PLIMMAX
 10
293.2112426757812
 20
206.2162444591522
  9
$UNITMODE
 70
     0
  9
$VISRETAIN
 70
     1
  9
$PLINEGEN
 70
     0
  9
$PSLTSCALE
 70
     1
  9
$TREEDEPTH
 70
  3020
  9
$CMLSTYLE
  2
Standard
  9
$CMLJUST
 70
     0
  9
$CMLSCALE
 40
20.0
  9
$PROXYGRAPHICS
 70
     1
  9
$MEASUREMENT
 70
     1
  9
$CELWEIGHT
370
    -1
  9
$ENDCAPS
280
     0
  9
$JOINSTYLE
280
     0
  9
$LWDISPLAY
290
     0
  9
$INSUNITS
 70
     4
  9
$HYPERLINKBASE
  1

  9
$STYLESHEET
  1

  9
$XEDIT
290
     1
  9
$CEPSNTYPE
380
     0
  9
$PSTYLEMODE
290
     1
  9
$FINGERPRINTGUID
  2
{F84AA5D3-2765-4D6B-8594-ABD9F52FB735}
  9
$VERSIONGUID
  2
{E3C5A17C-4E9C-42FB-AEEC-68992366B2E6}
  9
$EXTNAMES
290
     1
  9
$PSVPSCALE
 40
0.0
  9
$OLESTARTUP
290
     0
  0
ENDSEC
  0
SECTION
  2
CLASSES
  0
CLASS
  1
ACDBDICTIONARYWDFLT
  2
AcDbDictionaryWithDefault
  3
AutoCAD 2000
 90
        0
280
     0
281
     0
  0
CLASS
  1
ACDBPLACEHOLDER
  2
AcDbPlaceHolder
  3
AutoCAD 2000
 90
        0
280
     0
281
     0
  0
CLASS
  1
LAYOUT
  2
AcDbLayout
  3
AutoCAD 2000
 90
        0
280
     0
281
     0
  0
CLASS
  1
DICTIONARYVAR
  2
AcDbDictionaryVar
  3
AutoCAD 2000
 90
        0
280
     0
281
     0
  0
CLASS
  1
DIMASSOC
  2
AcDbDimAssoc
  3
"AcDbDimAssoc|Product Desc:     AcDim ARX App For Dimension|Company:          Autodesk, Inc.|WEB Address:      www.autodesk.com"
 90
        0
280
     0
281
     0
  0
ENDSEC
  0
SECTION
  2
TABLES
  0
TABLE
  2
VPORT
  5
8
330
0
100
AcDbSymbolTable
 70
     2
  0
VPORT
  5
28E3
330
8
100
AcDbSymbolTableRecord
100
AcDbViewportTableRecord
  2
*Active
 70
     0
 10
0.0
 20
0.0
 11
1.0
 21
1.0
 12
241.2421862919174
 22
101.7123688564789
 13
0.0
 23
0.0
 14
10.0
 24
10.0
 15
10.0
 25
10.0
 16
0.0
 26
0.0
 36
1.0
 17
0.0
 27
0.0
 37
0.0
 40
767.8016170494276
 41
1.699453551912568
 42
50.0
 43
0.0
 44
0.0
 50
0.0
 51
0.0
 71
     0
 72
   100
 73
     1
 74
     3
 75
     1
 76
     0
 77
     0
 78
     0
281
     0
 65
     1
110
-53.08748352590964
120
3.820899076262548
130
0.0
111
1.0
121
0.0
131
0.0
112
0.0
122
1.0
132
0.0
 79
     0
146
0.0
  0
ENDTAB
  0
TABLE
  2
LTYPE
  5
5
330
0
100
AcDbSymbolTable
 70
     4
  0
LTYPE
  5
14
330
5
100
AcDbSymbolTableRecord
100
AcDbLinetypeTableRecord
  2
ByBlock
 70
     0
  3

 72
    65
 73
     0
 40
0.0
  0
LTYPE
  5
15
330
5
100
AcDbSymbolTableRecord
100
AcDbLinetypeTableRecord
  2
ByLayer
 70
     0
  3

 72
    65
 73
     0
 40
0.0
  0
LTYPE
  5
16
330
5
100
AcDbSymbolTableRecord
100
AcDbLinetypeTableRecord
  2
Continuous
 70
     0
  3
Solid line
 72
    65
 73
     0
 40
0.0
  0
LTYPE
  5
2D
330
5
100
AcDbSymbolTableRecord
100
AcDbLinetypeTableRecord
  2
MITTE
 70
     0
  3
Mitte ____ _ ____ _ ____ _ ____ _ ____ _ ____
 72
    65
 73
     4
 40
50.8
 49
31.75
 74
     0
 49
-6.349999999999999
 74
     0
 49
6.349999999999999
 74
     0
 49
-6.349999999999999
 74
     0
  0
LTYPE
  5
39
330
5
100
AcDbSymbolTableRecord
100
AcDbLinetypeTableRecord
  2
VERDECKT
 70
     0
  3
Verdeckt __ __ __ __ __ __ __ __ __ __ __ __ __
 72
    65
 73
     2
 40
9.524999999999998
 49
6.349999999999999
 74
     0
 49
-3.174999999999999
 74
     0
  0
LTYPE
  5
AE7
330
5
100
AcDbSymbolTableRecord
100
AcDbLinetypeTableRecord
  2
CENTER
 70
     0
  3
____ _ ____ _ ____ _ ____ _ ____ _ ____ _ ____
 72
    65
 73
     4
 40
17.5
 49
13.0
 74
     0
 49
-1.5
 74
     0
 49
1.5
 74
     0
 49
-1.5
 74
     0
  0
ENDTAB
  0
TABLE
  2
LAYER
  5
2
330
0
100
AcDbSymbolTable
 70
     6
  0
LAYER
  5
10
330
2
100
AcDbSymbolTableRecord
100
AcDbLayerTableRecord
  2
0
 70
     0
 62
     7
  6
Continuous
370
    35
390
F
  0
LAYER
  5
2E
330
2
100
AcDbSymbolTableRecord
100
AcDbLayerTableRecord
  2
Mittellinie
 70
     0
 62
     3
  6
MITTE
370
    18
390
F
  0
LAYER
  5
3A
330
2
100
AcDbSymbolTableRecord
100
AcDbLayerTableRecord
  2
Unsichtbar
 70
     0
 62
     5
  6
Continuous
370
    18
390
F
  0
LAYER
  5
87
330
2
100
AcDbSymbolTableRecord
100
AcDbLayerTableRecord
  2
Innenkanten
 70
     0
 62
     1
  6
Continuous
370
    25
390
F
  0
LAYER
  5
46F
330
2
100
AcDbSymbolTableRecord
100
AcDbLayerTableRecord
  2
Defpoints
 70
     0
 62
     6
  6
Continuous
290
     0
370
    15
390
F
  0
LAYER
  5
9F1
330
2
100
AcDbSymbolTableRecord
100
AcDbLayerTableRecord
  2
Bemaßung
 70
     0
 62
     6
  6
Continuous
370
    15
390
F
  0
ENDTAB
  0
TABLE
  2
STYLE
  5
3
330
0
100
AcDbSymbolTable
 70
     2
  0
STYLE
  5
11
330
3
100
AcDbSymbolTableRecord
100
AcDbTextStyleTableRecord
  2
Standard
 70
     0
 40
0.0
 41
1.0
 50
0.0
 71
     0
 42
26.5350450929028
  3
txt
  4

  0
STYLE
  5
2C
330
3
100
AcDbSymbolTableRecord
100
AcDbTextStyleTableRecord
  2

 70
     1
 40
0.0
 41
1.0
 50
0.0
 71
     0
 42
2.5
  3
ltypeshp.shx
  4

  0
ENDTAB
  0
TABLE
  2
VIEW
  5
6
330
0
100
AcDbSymbolTable
 70
     1
  0
VIEW
  5
81C
330
6
100
AcDbSymbolTableRecord
100
AcDbViewTableRecord
  2
tom
 70
     0
 40
127.2859585283894
 10
166.2856675397948
 20
206.2562233711272
 41
204.2020725054376
 11
0.0
 21
0.0
 31
1.0
 12
0.0
 22
0.0
 32
0.0
 42
50.0
 43
0.0
 44
0.0
 50
0.0
 71
     0
281
     0
 72
     1
110
-53.08748352590964
120
3.820899076262548
130
0.0
111
1.0
121
0.0
131
0.0
112
0.0
122
1.0
132
0.0
 79
     0
146
0.0
  0
ENDTAB
  0
TABLE
  2
UCS
  5
7
330
0
100
AcDbSymbolTable
 70
     0
  0
ENDTAB
  0
TABLE
  2
APPID
  5
9
330
0
100
AcDbSymbolTable
 70
     1
  0
APPID
  5
12
330
9
100
AcDbSymbolTableRecord
100
AcDbRegAppTableRecord
  2
ACAD
 70
     0
  0
ENDTAB
  0
TABLE
  2
DIMSTYLE
  5
A
330
0
100
AcDbSymbolTable
 70
     2
100
AcDbDimStyleTable
 71
     1
340
27
  0
DIMSTYLE
105
27
102
{ACAD_REACTORS
330
2602
330
2623
330
264A
330
266B
330
268C
330
26AD
330
26CE
330
26EF
330
2710
330
2733
330
2754
330
2775
330
2796
330
27C9
330
27E3
330
281C
102
}
330
A
100
AcDbSymbolTableRecord
100
AcDbDimStyleTableRecord
  2
ISO-25
 70
     0
 41
2.5
 42
0.625
 43
3.75
 44
1.25
 73
     0
 74
     0
 77
     1
 78
     8
140
2.5
141
2.5
143
0.03937007874016
147
0.625
171
     3
172
     1
271
     2
272
     2
274
     3
278
    44
283
     0
284
     8
340
11
  0
DIMSTYLE
105
AE8
330
A
100
AcDbSymbolTableRecord
100
AcDbDimStyleTableRecord
  2
STANDARD
 70
     0
 41
2.5
 73
     0
 77
     1
140
2.5
141
-0.09
147
0.2
176
     6
178
     6
271
     0
272
     0
279
     1
289
     2
340
11
371
    15
  0
ENDTAB
  0
TABLE
  2
BLOCK_RECORD
  5
1
330
0
100
AcDbSymbolTable
 70
    33
  0
BLOCK_RECORD
  5
1F
330
1
100
AcDbSymbolTableRecord
100
AcDbBlockTableRecord
  2
*Model_Space
340
22
  0
BLOCK_RECORD
  5
FEA
330
1
100
AcDbSymbolTableRecord
100
AcDbBlockTableRecord
  2
*Paper_Space
340
FEB
  0
BLOCK_RECORD
  5
2603
330
1
100
AcDbSymbolTableRecord
100
AcDbBlockTableRecord
  2
*D15
340
0
  0
BLOCK_RECORD
  5
2624
330
1
100
AcDbSymbolTableRecord
100
AcDbBlockTableRecord
  2
*D16
340
0
  0
BLOCK_RECORD
  5
264B
330
1
100
AcDbSymbolTableRecord
100
AcDbBlockTableRecord
  2
*D17
340
0
  0
BLOCK_RECORD
  5
266C
330
1
100
AcDbSymbolTableRecord
100
AcDbBlockTableRecord
  2
*D18
340
0
  0
BLOCK_RECORD
  5
268D
330
1
100
AcDbSymbolTableRecord
100
AcDbBlockTableRecord
  2
*D19
340
0
  0
BLOCK_RECORD
  5
26AE
330
1
100
AcDbSymbolTableRecord
100
AcDbBlockTableRecord
  2
*D20
340
0
  0
BLOCK_RECORD
  5
26CF
330
1
100
AcDbSymbolTableRecord
100
AcDbBlockTableRecord
  2
*D21
340
0
  0
BLOCK_RECORD
  5
26F0
330
1
100
AcDbSymbolTableRecord
100
AcDbBlockTableRecord
  2
*D22
340
0
  0
BLOCK_RECORD
  5
2711
330
1
100
AcDbSymbolTableRecord
100
AcDbBlockTableRecord
  2
*D23
340
0
  0
BLOCK_RECORD
  5
2734
330
1
100
AcDbSymbolTableRecord
100
AcDbBlockTableRecord
  2
*D24
340
0
  0
BLOCK_RECORD
  5
2755
330
1
100
AcDbSymbolTableRecord
100
AcDbBlockTableRecord
  2
*D25
340
0
  0
BLOCK_RECORD
  5
2776
330
1
100
AcDbSymbolTableRecord
100
AcDbBlockTableRecord
  2
*D26
340
0
  0
BLOCK_RECORD
  5
2797
330
1
100
AcDbSymbolTableRecord
100
AcDbBlockTableRecord
  2
*D27
340
0
  0
BLOCK_RECORD
  5
27CA
330
1
100
AcDbSymbolTableRecord
100
AcDbBlockTableRecord
  2
*D29
340
0
  0
BLOCK_RECORD
  5
27E4
330
1
100
AcDbSymbolTableRecord
100
AcDbBlockTableRecord
  2
*D30
340
0
  0
BLOCK_RECORD
  5
281D
330
1
100
AcDbSymbolTableRecord
100
AcDbBlockTableRecord
  2
*D32
340
0
  0
ENDTAB
  0
ENDSEC
  0
SECTION
  2
BLOCKS
  0
BLOCK
  5
20
330
1F
100
AcDbEntity
  8
0
100
AcDbBlockBegin
  2
*Model_Space
 70
     0
 10
0.0
 20
0.0
 30
0.0
  3
*Model_Space
  1

  0
ENDBLK
  5
21
330
1F
100
AcDbEntity
  8
0
100
AcDbBlockEnd
  0
BLOCK
  5
FEC
330
FEA
100
AcDbEntity
 67
     1
  8
0
100
AcDbBlockBegin
  2
*Paper_Space
 70
     0
 10
0.0
 20
0.0
 30
0.0
  3
*Paper_Space
  1

  0
ENDBLK
  5
FED
330
FEA
100
AcDbEntity
 67
     1
  8
0
100
AcDbBlockEnd
  0
BLOCK
  5
260D
330
2603
100
AcDbEntity
  8
0
100
AcDbBlockBegin
  2
*D15
 70
     1
 10
0.0
 20
0.0
 30
0.0
  3
*D15
  1

  0
LINE
  5
261A
330
2603
100
AcDbEntity
  8
Bemaßung
 62
     0
370
    -2
100
AcDbLine
 10
520.9775978189485
 20
258.3594138730005
 30
0.0
 11
520.9775978189485
 21
272.2149375038884
 31
0.0
  0
LINE
  5
261B
330
2603
100
AcDbEntity
  8
Bemaßung
 62
     0
370
    -2
100
AcDbLine
 10
532.9775978189485
 20
258.3594138730005
 30
0.0
 11
532.9775978189485
 21
272.2149375038884
 31
0.0
  0
LINE
  5
261C
330
2603
100
AcDbEntity
  8
Bemaßung
 62
     0
370
    -2
100
AcDbLine
 10
523.4775978189485
 20
270.9649375038884
 30
0.0
 11
530.4775978189485
 21
270.9649375038884
 31
0.0
  0
SOLID
  5
261D
330
2603
100
AcDbEntity
  8
Bemaßung
 62
     0
100
AcDbTrace
 10
523.4775978189485
 20
271.3816041705551
 30
0.0
 11
523.4775978189485
 21
270.5482708372217
 31
0.0
 12
520.9775978189485
 22
270.9649375038884
 32
0.0
 13
520.9775978189485
 23
270.9649375038884
 33
0.0
  0
SOLID
  5
261E
330
2603
100
AcDbEntity
  8
Bemaßung
 62
     0
100
AcDbTrace
 10
530.4775978189485
 20
271.3816041705551
 30
0.0
 11
530.4775978189485
 21
270.5482708372217
 31
0.0
 12
532.9775978189485
 22
270.9649375038884
 32
0.0
 13
532.9775978189485
 23
270.9649375038884
 33
0.0
  0
MTEXT
  5
261F
330
2603
100
AcDbEntity
  8
Bemaßung
 62
     0
100
AcDbMText
 10
526.9775978189485
 20
272.8399375038884
 30
0.0
 40
2.5
 41
0.0
 71
     5
 72
     1
  1
12
 73
     1
 44
1.0
  0
POINT
  5
2620
330
2603
100
AcDbEntity
  8
Defpoints
 62
     0
100
AcDbPoint
 10
520.9775978189485
 20
257.7344138730005
 30
0.0
  0
POINT
  5
2621
330
2603
100
AcDbEntity
  8
Defpoints
 62
     0
100
AcDbPoint
 10
532.9775978189485
 20
257.7344138730005
 30
0.0
  0
POINT
  5
2622
330
2603
100
AcDbEntity
  8
Defpoints
 62
     0
100
AcDbPoint
 10
532.9775978189485
 20
270.9649375038884
 30
0.0
  0
ENDBLK
  5
260E
330
2603
100
AcDbEntity
  8
0
100
AcDbBlockEnd
  0
BLOCK
  5
2630
330
2624
100
AcDbEntity
  8
0
100
AcDbBlockBegin
  2
*D16
 70
     1
 10
0.0
 20
0.0
 30
0.0
  3
*D16
  1

  0
LINE
  5
263F
330
2624
100
AcDbEntity
  8
Bemaßung
 62
     0
370
    -2
100
AcDbLine
 10
535.9775978189485
 20
248.3594138730005
 30
0.0
 11
535.9775978189485
 21
272.2149375038884
 31
0.0
  0
LINE
  5
2640
330
2624
100
AcDbEntity
  8
Bemaßung
 62
     0
370
    -2
100
AcDbLine
 10
532.9775978189485
 20
258.3594138730005
 30
0.0
 11
532.9775978189485
 21
272.2149375038884
 31
0.0
  0
LINE
  5
2641
330
2624
100
AcDbEntity
  8
Bemaßung
 62
     0
370
    -2
100
AcDbLine
 10
538.4775978189485
 20
270.9649375038884
 30
0.0
 11
540.9775978189485
 21
270.9649375038884
 31
0.0
  0
LINE
  5
2642
330
2624
100
AcDbEntity
  8
Bemaßung
 62
     0
370
    -2
100
AcDbLine
 10
530.4775978189485
 20
270.9649375038884
 30
0.0
 11
527.9775978189485
 21
270.9649375038884
 31
0.0
  0
LINE
  5
2643
330
2624
100
AcDbEntity
  8
Bemaßung
 62
     0
370
    -2
100
AcDbLine
 10
535.9775978189485
 20
270.9649375038884
 30
0.0
 11
532.9775978189485
 21
270.9649375038884
 31
0.0
  0
SOLID
  5
2644
330
2624
100
AcDbEntity
  8
Bemaßung
 62
     0
100
AcDbTrace
 10
538.4775978189485
 20
271.3816041705551
 30
0.0
 11
538.4775978189485
 21
270.5482708372217
 31
0.0
 12
535.9775978189485
 22
270.9649375038884
 32
0.0
 13
535.9775978189485
 23
270.9649375038884
 33
0.0
  0
SOLID
  5
2645
330
2624
100
AcDbEntity
  8
Bemaßung
 62
     0
100
AcDbTrace
 10
530.4775978189485
 20
271.3816041705551
 30
0.0
 11
530.4775978189485
 21
270.5482708372217
 31
0.0
 12
532.9775978189485
 22
270.9649375038884
 32
0.0
 13
532.9775978189485
 23
270.9649375038884
 33
0.0
  0
MTEXT
  5
2646
330
2624
100
AcDbEntity
  8
Bemaßung
 62
     0
100
AcDbMText
 10
534.4775978189485
 20
272.8399375038884
 30
0.0
 40
2.5
 41
0.0
 71
     5
 72
     1
  1
3
 73
     1
 44
1.0
  0
POINT
  5
2647
330
2624
100
AcDbEntity
  8
Defpoints
 62
     0
100
AcDbPoint
 10
535.9775978189485
 20
247.7344138730005
 30
0.0
  0
POINT
  5
2648
330
2624
100
AcDbEntity
  8
Defpoints
 62
     0
100
AcDbPoint
 10
532.9775978189485
 20
257.7344138730005
 30
0.0
  0
POINT
  5
2649
330
2624
100
AcDbEntity
  8
Defpoints
 62
     0
100
AcDbPoint
 10
532.9775978189485
 20
270.9649375038884
 30
0.0
  0
ENDBLK
  5
2631
330
2624
100
AcDbEntity
  8
0
100
AcDbBlockEnd
  0
BLOCK
  5
2655
330
264B
100
AcDbEntity
  8
0
100
AcDbBlockBegin
  2
*D17
 70
     1
 10
0.0
 20
0.0
 30
0.0
  3
*D17
  1

  0
LINE
  5
2662
330
264B
100
AcDbEntity
  8
Bemaßung
 62
     0
370
    -2
100
AcDbLine
 10
532.9775978189485
 20
258.3594138730005
 30
0.0
 11
532.9775978189485
 21
281.4692065026733
 31
0.0
  0
LINE
  5
2663
330
264B
100
AcDbEntity
  8
Bemaßung
 62
     0
370
    -2
100
AcDbLine
 10
587.9776278189486
 20
205.3594138730005
 30
0.0
 11
587.9776278189486
 21
281.4692065026733
 31
0.0
  0
LINE
  5
2664
330
264B
100
AcDbEntity
  8
Bemaßung
 62
     0
370
    -2
100
AcDbLine
 10
535.4775978189485
 20
280.2192065026734
 30
0.0
 11
585.4776278189485
 21
280.2192065026734
 31
0.0
  0
SOLID
  5
2665
330
264B
100
AcDbEntity
  8
Bemaßung
 62
     0
100
AcDbTrace
 10
535.4775978189485
 20
280.63587316934
 30
0.0
 11
535.4775978189485
 21
279.8025398360067
 31
0.0
 12
532.9775978189485
 22
280.2192065026734
 32
0.0
 13
532.9775978189485
 23
280.2192065026734
 33
0.0
  0
SOLID
  5
2666
330
264B
100
AcDbEntity
  8
Bemaßung
 62
     0
100
AcDbTrace
 10
585.4776278189485
 20
280.63587316934
 30
0.0
 11
585.4776278189485
 21
279.8025398360067
 31
0.0
 12
587.9776278189486
 22
280.2192065026734
 32
0.0
 13
587.9776278189486
 23
280.2192065026734
 33
0.0
  0
MTEXT
  5
2667
330
264B
100
AcDbEntity
  8
Bemaßung
 62
     0
100
AcDbMText
 10
560.4776128189485
 20
282.0942065026733
 30
0.0
 40
2.5
 41
0.0
 71
     5
 72
     1
  1
55
 73
     1
 44
1.0
  0
POINT
  5
2668
330
264B
100
AcDbEntity
  8
Defpoints
 62
     0
100
AcDbPoint
 10
532.9775978189485
 20
257.7344138730005
 30
0.0
  0
POINT
  5
2669
330
264B
100
AcDbEntity
  8
Defpoints
 62
     0
100
AcDbPoint
 10
587.9776278189486
 20
204.7344138730005
 30
0.0
  0
POINT
  5
266A
330
264B
100
AcDbEntity
  8
Defpoints
 62
     0
100
AcDbPoint
 10
587.9776278189486
 20
280.2192065026734
 30
0.0
  0
ENDBLK
  5
2656
330
264B
100
AcDbEntity
  8
0
100
AcDbBlockEnd
  0
BLOCK
  5
2676
330
266C
100
AcDbEntity
  8
0
100
AcDbBlockBegin
  2
*D18
 70
     1
 10
0.0
 20
0.0
 30
0.0
  3
*D18
  1

  0
LINE
  5
2683
330
266C
100
AcDbEntity
  8
Bemaßung
 62
     0
370
    -2
100
AcDbLine
 10
537.9775978189485
 20
208.3594138730005
 30
0.0
 11
537.9775978189485
 21
257.8708204305703
 31
0.0
  0
LINE
  5
2684
330
266C
100
AcDbEntity
  8
Bemaßung
 62
     0
370
    -2
100
AcDbLine
 10
587.9776278189486
 20
205.3594138730005
 30
0.0
 11
587.9776278189486
 21
257.8708204305703
 31
0.0
  0
LINE
  5
2685
330
266C
100
AcDbEntity
  8
Bemaßung
 62
     0
370
    -2
100
AcDbLine
 10
540.4775978189485
 20
256.6208204305703
 30
0.0
 11
585.4776278189485
 21
256.6208204305703
 31
0.0
  0
SOLID
  5
2686
330
266C
100
AcDbEntity
  8
Bemaßung
 62
     0
100
AcDbTrace
 10
540.4775978189485
 20
257.037487097237
 30
0.0
 11
540.4775978189485
 21
256.2041537639036
 31
0.0
 12
537.9775978189485
 22
256.6208204305703
 32
0.0
 13
537.9775978189485
 23
256.6208204305703
 33
0.0
  0
SOLID
  5
2687
330
266C
100
AcDbEntity
  8
Bemaßung
 62
     0
100
AcDbTrace
 10
585.4776278189485
 20
257.037487097237
 30
0.0
 11
585.4776278189485
 21
256.2041537639036
 31
0.0
 12
587.9776278189486
 22
256.6208204305703
 32
0.0
 13
587.9776278189486
 23
256.6208204305703
 33
0.0
  0
MTEXT
  5
2688
330
266C
100
AcDbEntity
  8
Bemaßung
 62
     0
100
AcDbMText
 10
562.9776128189485
 20
258.4958204305703
 30
0.0
 40
2.5
 41
0.0
 71
     5
 72
     1
  1
50
 73
     1
 44
1.0
  0
POINT
  5
2689
330
266C
100
AcDbEntity
  8
Defpoints
 62
     0
100
AcDbPoint
 10
537.9775978189485
 20
207.7344138730005
 30
0.0
  0
POINT
  5
268A
330
266C
100
AcDbEntity
  8
Defpoints
 62
     0
100
AcDbPoint
 10
587.9776278189486
 20
204.7344138730005
 30
0.0
  0
POINT
  5
268B
330
266C
100
AcDbEntity
  8
Defpoints
 62
     0
100
AcDbPoint
 10
587.9776278189486
 20
256.6208204305703
 30
0.0
  0
ENDBLK
  5
2677
330
266C
100
AcDbEntity
  8
0
100
AcDbBlockEnd
  0
BLOCK
  5
2697
330
268D
100
AcDbEntity
  8
0
100
AcDbBlockBegin
  2
*D19
 70
     1
 10
0.0
 20
0.0
 30
0.0
  3
*D19
  1

  0
LINE
  5
26A4
330
268D
100
AcDbEntity
  8
Bemaßung
 62
     0
370
    -2
100
AcDbLine
 10
532.9775978189485
 20
258.3594138730005
 30
0.0
 11
532.9775978189485
 21
281.4692065026733
 31
0.0
  0
LINE
  5
26A5
330
268D
100
AcDbEntity
  8
Bemaßung
 62
     0
370
    -2
100
AcDbLine
 10
412.9774778189485
 20
193.3594138730005
 30
0.0
 11
412.9774778189485
 21
281.4692065026733
 31
0.0
  0
LINE
  5
26A6
330
268D
100
AcDbEntity
  8
Bemaßung
 62
     0
370
    -2
100
AcDbLine
 10
530.4775978189485
 20
280.2192065026734
 30
0.0
 11
415.4774778189485
 21
280.2192065026734
 31
0.0
  0
SOLID
  5
26A7
330
268D
100
AcDbEntity
  8
Bemaßung
 62
     0
100
AcDbTrace
 10
530.4775978189485
 20
280.63587316934
 30
0.0
 11
530.4775978189485
 21
279.8025398360067
 31
0.0
 12
532.9775978189485
 22
280.2192065026734
 32
0.0
 13
532.9775978189485
 23
280.2192065026734
 33
0.0
  0
SOLID
  5
26A8
330
268D
100
AcDbEntity
  8
Bemaßung
 62
     0
100
AcDbTrace
 10
415.4774778189485
 20
280.63587316934
 30
0.0
 11
415.4774778189485
 21
279.8025398360067
 31
0.0
 12
412.9774778189485
 22
280.2192065026734
 32
0.0
 13
412.9774778189485
 23
280.2192065026734
 33
0.0
  0
MTEXT
  5
26A9
330
268D
100
AcDbEntity
  8
Bemaßung
 62
     0
100
AcDbMText
 10
472.9775378189486
 20
282.0942065026733
 30
0.0
 40
2.5
 41
0.0
 71
     5
 72
     1
  1
120
 73
     1
 44
1.0
  0
POINT
  5
26AA
330
268D
100
AcDbEntity
  8
Defpoints
 62
     0
100
AcDbPoint
 10
532.9775978189485
 20
257.7344138730005
 30
0.0
  0
POINT
  5
26AB
330
268D
100
AcDbEntity
  8
Defpoints
 62
     0
100
AcDbPoint
 10
412.9774778189485
 20
192.7344138730005
 30
0.0
  0
POINT
  5
26AC
330
268D
100
AcDbEntity
  8
Defpoints
 62
     0
100
AcDbPoint
 10
412.9774778189485
 20
280.2192065026734
 30
0.0
  0
ENDBLK
  5
2698
330
268D
100
AcDbEntity
  8
0
100
AcDbBlockEnd
  0
BLOCK
  5
26B8
330
26AE
100
AcDbEntity
  8
0
100
AcDbBlockBegin
  2
*D20
 70
     1
 10
0.0
 20
0.0
 30
0.0
  3
*D20
  1

  0
LINE
  5
26C5
330
26AE
100
AcDbEntity
  8
Bemaßung
 62
     0
370
    -2
100
AcDbLine
 10
588.6026278189485
 20
204.7344138730005
 30
0.0
 11
610.5442015433009
 21
204.7344138730005
 31
0.0
  0
LINE
  5
26C6
330
26AE
100
AcDbEntity
  8
Bemaßung
 62
     0
370
    -2
100
AcDbLine
 10
588.6026278189485
 20
180.7344138730005
 30
0.0
 11
610.5442015433009
 21
180.7344138730005
 31
0.0
  0
LINE
  5
26C7
330
26AE
100
AcDbEntity
  8
Bemaßung
 62
     0
370
    -2
100
AcDbLine
 10
609.2942015433009
 20
202.2344138730005
 30
0.0
 11
609.2942015433009
 21
183.2344138730005
 31
0.0
  0
SOLID
  5
26C8
330
26AE
100
AcDbEntity
  8
Bemaßung
 62
     0
100
AcDbTrace
 10
608.8775348766342
 20
202.2344138730005
 30
0.0
 11
609.7108682099675
 21
202.2344138730005
 31
0.0
 12
609.2942015433009
 22
204.7344138730005
 32
0.0
 13
609.2942015433009
 23
204.7344138730005
 33
0.0
  0
SOLID
  5
26C9
330
26AE
100
AcDbEntity
  8
Bemaßung
 62
     0
100
AcDbTrace
 10
608.8775348766342
 20
183.2344138730005
 30
0.0
 11
609.7108682099675
 21
183.2344138730005
 31
0.0
 12
609.2942015433009
 22
180.7344138730005
 32
0.0
 13
609.2942015433009
 23
180.7344138730005
 33
0.0
  0
MTEXT
  5
26CA
330
26AE
100
AcDbEntity
  8
Bemaßung
 62
     0
100
AcDbMText
 10
607.4192015433009
 20
192.7344138730006
 30
0.0
 40
2.5
 41
0.0
 71
     5
 72
     1
  1
24
 11
0.0000000000000001
 21
1.0
 31
0.0
 73
     1
 44
1.0
  0
POINT
  5
26CB
330
26AE
100
AcDbEntity
  8
Defpoints
 62
     0
100
AcDbPoint
 10
587.9776278189486
 20
204.7344138730005
 30
0.0
  0
POINT
  5
26CC
330
26AE
100
AcDbEntity
  8
Defpoints
 62
     0
100
AcDbPoint
 10
587.9776278189486
 20
180.7344138730005
 30
0.0
  0
POINT
  5
26CD
330
26AE
100
AcDbEntity
  8
Defpoints
 62
     0
100
AcDbPoint
 10
609.2942015433009
 20
180.7344138730005
 30
0.0
  0
ENDBLK
  5
26B9
330
26AE
100
AcDbEntity
  8
0
100
AcDbBlockEnd
  0
BLOCK
  5
26D9
330
26CF
100
AcDbEntity
  8
0
100
AcDbBlockBegin
  2
*D21
 70
     1
 10
0.0
 20
0.0
 30
0.0
  3
*D21
  1

  0
LINE
  5
26E6
330
26CF
100
AcDbEntity
  8
Bemaßung
 62
     0
370
    -2
100
AcDbLine
 10
536.6025978189485
 20
247.7344138730005
 30
0.0
 11
622.5794714869343
 21
247.7344138730005
 31
0.0
  0
LINE
  5
26E7
330
26CF
100
AcDbEntity
  8
Bemaßung
 62
     0
370
    -2
100
AcDbLine
 10
536.6025978189485
 20
137.7344138730005
 30
0.0
 11
622.5794714869343
 21
137.7344138730005
 31
0.0
  0
LINE
  5
26E8
330
26CF
100
AcDbEntity
  8
Bemaßung
 62
     0
370
    -2
100
AcDbLine
 10
621.3294714869343
 20
245.2344138730005
 30
0.0
 11
621.3294714869343
 21
140.2344138730005
 31
0.0
  0
SOLID
  5
26E9
330
26CF
100
AcDbEntity
  8
Bemaßung
 62
     0
100
AcDbTrace
 10
620.9128048202678
 20
245.2344138730005
 30
0.0
 11
621.746138153601
 21
245.2344138730005
 31
0.0
 12
621.3294714869343
 22
247.7344138730005
 32
0.0
 13
621.3294714869343
 23
247.7344138730005
 33
0.0
  0
SOLID
  5
26EA
330
26CF
100
AcDbEntity
  8
Bemaßung
 62
     0
100
AcDbTrace
 10
620.9128048202678
 20
140.2344138730005
 30
0.0
 11
621.746138153601
 21
140.2344138730005
 31
0.0
 12
621.3294714869343
 22
137.7344138730005
 32
0.0
 13
621.3294714869343
 23
137.7344138730005
 33
0.0
  0
MTEXT
  5
26EB
330
26CF
100
AcDbEntity
  8
Bemaßung
 62
     0
100
AcDbMText
 10
619.4544714869343
 20
192.7344138730006
 30
0.0
 40
2.5
 41
0.0
 71
     5
 72
     1
  1
110
 11
0.0000000000000001
 21
1.0
 31
0.0
 73
     1
 44
1.0
  0
POINT
  5
26EC
330
26CF
100
AcDbEntity
  8
Defpoints
 62
     0
100
AcDbPoint
 10
535.9775978189485
 20
247.7344138730005
 30
0.0
  0
POINT
  5
26ED
330
26CF
100
AcDbEntity
  8
Defpoints
 62
     0
100
AcDbPoint
 10
535.9775978189485
 20
137.7344138730005
 30
0.0
  0
POINT
  5
26EE
330
26CF
100
AcDbEntity
  8
Defpoints
 62
     0
100
AcDbPoint
 10
621.3294714869343
 20
137.7344138730005
 30
0.0
  0
ENDBLK
  5
26DA
330
26CF
100
AcDbEntity
  8
0
100
AcDbBlockEnd
  0
BLOCK
  5
26FA
330
26F0
100
AcDbEntity
  8
0
100
AcDbBlockBegin
  2
*D22
 70
     1
 10
0.0
 20
0.0
 30
0.0
  3
*D22
  1

  0
LINE
  5
2707
330
26F0
100
AcDbEntity
  8
Bemaßung
 62
     0
370
    -2
100
AcDbLine
 10
532.9775978189485
 20
127.1094138730005
 30
0.0
 11
532.9775978189485
 21
60.30934398804038
 31
0.0
  0
LINE
  5
2708
330
26F0
100
AcDbEntity
  8
Bemaßung
 62
     0
370
    -2
100
AcDbLine
 10
481.4775978189485
 20
74.16920387300058
 30
0.0
 11
481.4775978189485
 21
60.30934398804038
 31
0.0
  0
LINE
  5
2709
330
26F0
100
AcDbEntity
  8
Bemaßung
 62
     0
370
    -2
100
AcDbLine
 10
530.4775978189485
 20
61.55934398804038
 30
0.0
 11
483.9775978189485
 21
61.55934398804038
 31
0.0
  0
SOLID
  5
270A
330
26F0
100
AcDbEntity
  8
Bemaßung
 62
     0
100
AcDbTrace
 10
530.4775978189485
 20
61.97601065470704
 30
0.0
 11
530.4775978189485
 21
61.14267732137371
 31
0.0
 12
532.9775978189485
 22
61.55934398804038
 32
0.0
 13
532.9775978189485
 23
61.55934398804038
 33
0.0
  0
SOLID
  5
270B
330
26F0
100
AcDbEntity
  8
Bemaßung
 62
     0
100
AcDbTrace
 10
483.9775978189485
 20
61.97601065470704
 30
0.0
 11
483.9775978189485
 21
61.14267732137371
 31
0.0
 12
481.4775978189485
 22
61.55934398804038
 32
0.0
 13
481.4775978189485
 23
61.55934398804038
 33
0.0
  0
MTEXT
  5
270C
330
26F0
100
AcDbEntity
  8
Bemaßung
 62
     0
100
AcDbMText
 10
507.2275978189485
 20
63.64267732137371
 30
0.0
 40
2.5
 41
0.0
 71
     5
 72
     1
  1
51,5
 73
     1
 44
1.0
  0
POINT
  5
270D
330
26F0
100
AcDbEntity
  8
Defpoints
 62
     0
100
AcDbPoint
 10
532.9775978189485
 20
127.7344138730005
 30
0.0
  0
POINT
  5
270E
330
26F0
100
AcDbEntity
  8
Defpoints
 62
     0
100
AcDbPoint
 10
481.4775978189485
 20
74.79420387300058
 30
0.0
  0
POINT
  5
270F
330
26F0
100
AcDbEntity
  8
Defpoints
 62
     0
100
AcDbPoint
 10
481.4775978189485
 20
61.55934398804038
 30
0.0
  0
ENDBLK
  5
26FB
330
26F0
100
AcDbEntity
  8
0
100
AcDbBlockEnd
  0
BLOCK
  5
271B
330
2711
100
AcDbEntity
  8
0
100
AcDbBlockBegin
  2
*D23
 70
     1
 10
0.0
 20
0.0
 30
0.0
  3
*D23
  1

  0
LINE
  5
2728
330
2711
100
AcDbEntity
  8
Bemaßung
 62
     0
370
    -2
100
AcDbLine
 10
412.9774778189485
 20
192.1094138730005
 30
0.0
 11
412.9774778189485
 21
85.52722632112295
 31
0.0
  0
LINE
  5
2729
330
2711
100
AcDbEntity
  8
Bemaßung
 62
     0
370
    -2
100
AcDbLine
 10
432.4775978189485
 20
103.8666738730006
 30
0.0
 11
432.4775978189485
 21
85.52722632112295
 31
0.0
  0
LINE
  5
272A
330
2711
100
AcDbEntity
  8
Bemaßung
 62
     0
370
    -2
100
AcDbLine
 10
415.4774778189485
 20
86.77722632112295
 30
0.0
 11
429.9775978189485
 21
86.77722632112295
 31
0.0
  0
SOLID
  5
272B
330
2711
100
AcDbEntity
  8
Bemaßung
 62
     0
100
AcDbTrace
 10
415.4774778189485
 20
87.19389298778962
 30
0.0
 11
415.4774778189485
 21
86.36055965445628
 31
0.0
 12
412.9774778189485
 22
86.77722632112295
 32
0.0
 13
412.9774778189485
 23
86.77722632112295
 33
0.0
  0
SOLID
  5
272C
330
2711
100
AcDbEntity
  8
Bemaßung
 62
     0
100
AcDbTrace
 10
429.9775978189485
 20
87.19389298778962
 30
0.0
 11
429.9775978189485
 21
86.36055965445628
 31
0.0
 12
432.4775978189485
 22
86.77722632112295
 32
0.0
 13
432.4775978189485
 23
86.77722632112295
 33
0.0
  0
MTEXT
  5
272D
330
2711
100
AcDbEntity
  8
Bemaßung
 62
     0
100
AcDbMText
 10
422.7275378189485
 20
88.86055965445628
 30
0.0
 40
2.5
 41
0.0
 71
     5
 72
     1
  1
19,5
 73
     1
 44
1.0
  0
POINT
  5
272E
330
2711
100
AcDbEntity
  8
Defpoints
 62
     0
100
AcDbPoint
 10
412.9774778189485
 20
192.7344138730005
 30
0.0
  0
POINT
  5
272F
330
2711
100
AcDbEntity
  8
Defpoints
 62
     0
100
AcDbPoint
 10
432.4775978189485
 20
104.4916738730006
 30
0.0
  0
POINT
  5
2730
330
2711
100
AcDbEntity
  8
Defpoints
 62
     0
100
AcDbPoint
 10
432.4775978189485
 20
86.77722632112295
 30
0.0
  0
ENDBLK
  5
271C
330
2711
100
AcDbEntity
  8
0
100
AcDbBlockEnd
  0
BLOCK
  5
273E
330
2734
100
AcDbEntity
  8
0
100
AcDbBlockBegin
  2
*D24
 70
     1
 10
0.0
 20
0.0
 30
0.0
  3
*D24
  1

  0
LINE
  5
274B
330
2734
100
AcDbEntity
  8
Bemaßung
 62
     0
370
    -2
100
AcDbLine
 10
173.1655933831132
 20
244.174367031282
 30
0.0
 11
173.1655933831132
 21
281.4692065026733
 31
0.0
  0
LINE
  5
274C
330
2734
100
AcDbEntity
  8
Bemaßung
 62
     0
370
    -2
100
AcDbLine
 10
303.165244780983
 20
244.1733347713668
 30
0.0
 11
303.165244780983
 21
281.4692065026733
 31
0.0
  0
LINE
  5
274D
330
2734
100
AcDbEntity
  8
Bemaßung
 62
     0
370
    -2
100
AcDbLine
 10
175.6655933831132
 20
280.2192065026734
 30
0.0
 11
300.665244780983
 21
280.2192065026734
 31
0.0
  0
SOLID
  5
274E
330
2734
100
AcDbEntity
  8
Bemaßung
 62
     0
100
AcDbTrace
 10
175.6655933831132
 20
280.63587316934
 30
0.0
 11
175.6655933831132
 21
279.8025398360067
 31
0.0
 12
173.1655933831132
 22
280.2192065026734
 32
0.0
 13
173.1655933831132
 23
280.2192065026734
 33
0.0
  0
SOLID
  5
274F
330
2734
100
AcDbEntity
  8
Bemaßung
 62
     0
100
AcDbTrace
 10
300.665244780983
 20
280.63587316934
 30
0.0
 11
300.665244780983
 21
279.8025398360067
 31
0.0
 12
303.165244780983
 22
280.2192065026734
 32
0.0
 13
303.165244780983
 23
280.2192065026734
 33
0.0
  0
MTEXT
  5
2750
330
2734
100
AcDbEntity
  8
Bemaßung
 62
     0
100
AcDbMText
 10
238.1654190820481
 20
282.0942065026733
 30
0.0
 40
2.5
 41
0.0
 71
     5
 72
     1
  1
130
 73
     1
 44
1.0
  0
POINT
  5
2751
330
2734
100
AcDbEntity
  8
Defpoints
 62
     0
100
AcDbPoint
 10
173.1655933831132
 20
243.549367031282
 30
0.0
  0
POINT
  5
2752
330
2734
100
AcDbEntity
  8
Defpoints
 62
     0
100
AcDbPoint
 10
303.165244780983
 20
243.5483347713668
 30
0.0
  0
POINT
  5
2753
330
2734
100
AcDbEntity
  8
Defpoints
 62
     0
100
AcDbPoint
 10
303.165244780983
 20
280.2192065026734
 30
0.0
  0
ENDBLK
  5
273F
330
2734
100
AcDbEntity
  8
0
100
AcDbBlockEnd
  0
BLOCK
  5
275F
330
2755
100
AcDbEntity
  8
0
100
AcDbBlockBegin
  2
*D25
 70
     1
 10
0.0
 20
0.0
 30
0.0
  3
*D25
  1

  0
LINE
  5
276C
330
2755
100
AcDbEntity
  8
Bemaßung
 62
     0
370
    -2
100
AcDbLine
 10
186.7343447809829
 20
257.7428847713668
 30
0.0
 11
141.809164680179
 21
257.7428847713668
 31
0.0
  0
LINE
  5
276D
330
2755
100
AcDbEntity
  8
Bemaßung
 62
     0
370
    -2
100
AcDbLine
 10
186.7331590757688
 20
127.7433120480738
 30
0.0
 11
141.809164680179
 21
127.7433120480738
 31
0.0
  0
LINE
  5
276E
330
2755
100
AcDbEntity
  8
Bemaßung
 62
     0
370
    -2
100
AcDbLine
 10
143.059164680179
 20
255.2428847713669
 30
0.0
 11
143.059164680179
 21
130.2433120480738
 31
0.0
  0
SOLID
  5
276F
330
2755
100
AcDbEntity
  8
Bemaßung
 62
     0
100
AcDbTrace
 10
142.6424980135124
 20
255.2428847713669
 30
0.0
 11
143.4758313468457
 21
255.2428847713669
 31
0.0
 12
143.059164680179
 22
257.7428847713668
 32
0.0
 13
143.059164680179
 23
257.7428847713668
 33
0.0
  0
SOLID
  5
2770
330
2755
100
AcDbEntity
  8
Bemaßung
 62
     0
100
AcDbTrace
 10
142.6424980135123
 20
130.2433120480738
 30
0.0
 11
143.4758313468456
 21
130.2433120480738
 31
0.0
 12
143.059164680179
 22
127.7433120480738
 32
0.0
 13
143.059164680179
 23
127.7433120480738
 33
0.0
  0
MTEXT
  5
2771
330
2755
100
AcDbEntity
  8
Bemaßung
 62
     0
100
AcDbMText
 10
141.1841646801789
 20
192.7430984097204
 30
0.0
 40
2.5
 41
0.0
 71
     5
 72
     1
  1
130
 11
0.0000000000000001
 21
1.0
 31
0.0
 73
     1
 44
1.0
  0
POINT
  5
2772
330
2755
100
AcDbEntity
  8
Defpoints
 62
     0
100
AcDbPoint
 10
187.3593447809829
 20
257.7428847713668
 30
0.0
  0
POINT
  5
2773
330
2755
100
AcDbEntity
  8
Defpoints
 62
     0
100
AcDbPoint
 10
187.3581590757688
 20
127.7433120480738
 30
0.0
  0
POINT
  5
2774
330
2755
100
AcDbEntity
  8
Defpoints
 62
     0
100
AcDbPoint
 10
143.059164680179
 20
127.7433120480738
 30
0.0
  0
ENDBLK
  5
2760
330
2755
100
AcDbEntity
  8
0
100
AcDbBlockEnd
  0
BLOCK
  5
2780
330
2776
100
AcDbEntity
  8
0
100
AcDbBlockBegin
  2
*D26
 70
     1
 10
0.0
 20
0.0
 30
0.0
  3
*D26
  1

  0
ARC
  5
278D
330
2776
100
AcDbEntity
  8
Bemaßung
 62
     0
370
    -2
100
AcDbCircle
 10
238.1650047809829
 20
192.7425506291617
 30
0.0
 40
78.64762321089401
100
AcDbArc
 50
91.82135802985285
 51
133.1785692200988
  0
SOLID
  5
278E
330
2776
100
AcDbEntity
  8
Bemaßung
 62
     0
100
AcDbTrace
 10
235.6586981963377
 20
271.7670536814844
 30
0.0
 11
235.6719429280173
 21
270.9338256085493
 31
0.0
 12
238.1650047809829
 22
271.3901738400557
 32
0.0
 13
238.1650047809829
 23
271.3901738400557
 33
0.0
  0
SOLID
  5
278F
330
2776
100
AcDbEntity
  8
Bemaßung
 62
     0
100
AcDbTrace
 10
184.638357396704
 20
249.7950603031803
 30
0.0
 11
184.058542375634
 21
250.3936076996212
 31
0.0
 12
182.5528076968464
 22
248.3548889381909
 32
0.0
 13
182.5528076968464
 23
248.3548889381909
 33
0.0
  0
MTEXT
  5
2790
330
2776
100
AcDbEntity
  8
Bemaßung
 62
     0
100
AcDbMText
 10
207.3503781771654
 20
267.1357736809351
 30
0.0
 40
2.5
 41
0.0
 71
     5
 72
     1
  1
45°
 11
0.9238797754630102
 21
0.3826828458272174
 31
0.0
 73
     1
 44
1.0
  0
POINT
  5
2791
330
2776
100
AcDbEntity
  8
Defpoints
 62
     0
100
AcDbPoint
 10
217.8095341947568
 20
268.7103296801254
 30
0.0
  0
POINT
  5
2792
330
2776
100
AcDbEntity
  8
Defpoints
 62
     0
100
AcDbPoint
 10
181.4040147809829
 20
249.5036847713669
 30
0.0
  0
POINT
  5
2793
330
2776
100
AcDbEntity
  8
Defpoints
 62
     0
100
AcDbPoint
 10
238.1650047809829
 20
71.0815447713669
 30
0.0
  0
POINT
  5
2794
330
2776
100
AcDbEntity
  8
Defpoints
 62
     0
100
AcDbPoint
 10
238.1650047809829
 20
273.3770947713667
 30
0.0
  0
POINT
  5
2795
330
2776
100
AcDbEntity
  8
Defpoints
 62
     0
100
AcDbPoint
 10
193.2175547809828
 20
237.6901147713668
 30
0.0
  0
ENDBLK
  5
2781
330
2776
100
AcDbEntity
  8
0
100
AcDbBlockEnd
  0
BLOCK
  5
279D
330
2797
100
AcDbEntity
  8
0
100
AcDbBlockBegin
  2
*D27
 70
     1
 10
0.0
 20
0.0
 30
0.0
  3
*D27
  1

  0
LINE
  5
27A6
330
2797
100
AcDbEntity
  8
Bemaßung
 62
     0
370
    -2
100
AcDbLine
 10
267.1283826666461
 20
168.9901981390847
 30
0.0
 11
184.0385197965539
 21
237.1309623274979
 31
0.0
  0
MTEXT
  5
27A7
330
2797
100
AcDbEntity
  8
Bemaßung
 62
     0
100
AcDbMText
 10
264.6122689564179
 20
173.478501408879
 30
0.0
 40
2.5
 41
0.0
 71
     5
 72
     1
  1
\U+2205145
 11
0.7732354997775569
 21
-0.6341189650875866
 31
0.0
 73
     1
 44
1.0
  0
SOLID
  5
27A8
330
2797
100
AcDbEntity
  8
Bemaßung
 62
     0
100
AcDbTrace
 10
184.3027360320071
 20
237.4531437857386
 30
0.0
 11
183.7743035611008
 21
236.8087808692572
 31
0.0
 12
182.10543104711
 22
238.7162597402169
 32
0.0
 13
182.10543104711
 23
238.7162597402169
 33
0.0
  0
POINT
  5
27A9
330
2797
100
AcDbEntity
  8
Defpoints
 62
     0
100
AcDbPoint
 10
182.10543104711
 20
238.7162597402169
 30
0.0
  0
POINT
  5
27AA
330
2797
100
AcDbEntity
  8
Defpoints
 62
     0
100
AcDbPoint
 10
294.2245785148559
 20
146.7690098025168
 30
0.0
  0
ENDBLK
  5
279E
330
2797
100
AcDbEntity
  8
0
100
AcDbBlockEnd
  0
BLOCK
  5
27D0
330
27CA
100
AcDbEntity
  8
0
100
AcDbBlockBegin
  2
*D29
 70
     1
 10
0.0
 20
0.0
 30
0.0
  3
*D29
  1

  0
LINE
  5
27DE
330
27CA
100
AcDbEntity
  8
Bemaßung
 62
     0
370
    -2
100
AcDbLine
 10
209.9950184801451
 20
168.3509590301798
 30
0.0
 11
298.643822215048
 21
245.1097068852174
 31
0.0
  0
MTEXT
  5
27DF
330
27CA
100
AcDbEntity
  8
Bemaßung
 62
     0
100
AcDbMText
 10
212.3900948457814
 20
172.9050015911596
 30
0.0
 40
2.5
 41
0.0
 71
     5
 72
     1
  1
\U+2205165
 11
0.7559853596730691
 21
0.6545885241584827
 31
0.0
 73
     1
 44
1.0
  0
SOLID
  5
27E0
330
27CA
100
AcDbEntity
  8
Bemaßung
 62
     0
100
AcDbTrace
 10
298.3710769966486
 20
245.4247007850812
 30
0.0
 11
298.9165674334474
 21
244.7947129853537
 31
0.0
 12
300.5337856142307
 22
246.7461781956136
 32
0.0
 13
300.5337856142307
 23
246.7461781956136
 33
0.0
  0
POINT
  5
27E1
330
27CA
100
AcDbEntity
  8
Defpoints
 62
     0
100
AcDbPoint
 10
300.5337856142307
 20
246.7461781956136
 30
0.0
  0
POINT
  5
27E2
330
27CA
100
AcDbEntity
  8
Defpoints
 62
     0
100
AcDbPoint
 10
175.796223947735
 20
138.7390913471198
 30
0.0
  0
ENDBLK
  5
27D1
330
27CA
100
AcDbEntity
  8
0
100
AcDbBlockEnd
  0
BLOCK
  5
27EE
330
27E4
100
AcDbEntity
  8
0
100
AcDbBlockBegin
  2
*D30
 70
     1
 10
0.0
 20
0.0
 30
0.0
  3
*D30
  1

  0
LINE
  5
27FB
330
27E4
100
AcDbEntity
  8
Bemaßung
 62
     0
370
    -2
100
AcDbLine
 10
315.9974047809829
 20
192.7426347713668
 30
0.0
 11
332.3441293846922
 21
192.7426347713668
 31
0.0
  0
LINE
  5
27FC
330
27E4
100
AcDbEntity
  8
Bemaßung
 62
     0
370
    -2
100
AcDbLine
 10
255.1899647809829
 20
81.74266477136677
 30
0.0
 11
332.3441293846922
 21
81.74266477136676
 31
0.0
  0
LINE
  5
27FD
330
27E4
100
AcDbEntity
  8
Bemaßung
 62
     0
370
    -2
100
AcDbLine
 10
331.0941293846922
 20
190.2426347713668
 30
0.0
 11
331.0941293846922
 21
84.24266477136676
 31
0.0
  0
SOLID
  5
27FE
330
27E4
100
AcDbEntity
  8
Bemaßung
 62
     0
100
AcDbTrace
 10
330.6774627180256
 20
190.2426347713668
 30
0.0
 11
331.5107960513589
 21
190.2426347713668
 31
0.0
 12
331.0941293846922
 22
192.7426347713668
 32
0.0
 13
331.0941293846922
 23
192.7426347713668
 33
0.0
  0
SOLID
  5
27FF
330
27E4
100
AcDbEntity
  8
Bemaßung
 62
     0
100
AcDbTrace
 10
330.6774627180255
 20
84.24266477136676
 30
0.0
 11
331.5107960513589
 21
84.24266477136676
 31
0.0
 12
331.0941293846922
 22
81.74266477136676
 32
0.0
 13
331.0941293846922
 23
81.74266477136676
 33
0.0
  0
MTEXT
  5
2800
330
27E4
100
AcDbEntity
  8
Bemaßung
 62
     0
100
AcDbMText
 10
329.2191293846922
 20
137.2426497713668
 30
0.0
 40
2.5
 41
0.0
 71
     5
 72
     1
  1
111
 11
0.0000000000000001
 21
1.0
 31
0.0
 73
     1
 44
1.0
  0
POINT
  5
2801
330
27E4
100
AcDbEntity
  8
Defpoints
 62
     0
100
AcDbPoint
 10
315.3724047809829
 20
192.7426347713668
 30
0.0
  0
POINT
  5
2802
330
27E4
100
AcDbEntity
  8
Defpoints
 62
     0
100
AcDbPoint
 10
254.5649647809828
 20
81.74266477136677
 30
0.0
  0
POINT
  5
2803
330
27E4
100
AcDbEntity
  8
Defpoints
 62
     0
100
AcDbPoint
 10
331.0941293846922
 20
81.74266477136676
 30
0.0
  0
ENDBLK
  5
27EF
330
27E4
100
AcDbEntity
  8
0
100
AcDbBlockEnd
  0
BLOCK
  5
2827
330
281D
100
AcDbEntity
  8
0
100
AcDbBlockBegin
  2
*D32
 70
     1
 10
0.0
 20
0.0
 30
0.0
  3
*D32
  1

  0
LINE
  5
2834
330
281D
100
AcDbEntity
  8
Bemaßung
 62
     0
370
    -2
100
AcDbLine
 10
258.6650047809829
 20
100.1176547713669
 30
0.0
 11
258.6650047809829
 21
55.85926631601092
 31
0.0
  0
LINE
  5
2835
330
281D
100
AcDbEntity
  8
Bemaßung
 62
     0
370
    -2
100
AcDbLine
 10
217.6650047809829
 20
100.1176547713668
 30
0.0
 11
217.6650047809829
 21
55.85926631601092
 31
0.0
  0
LINE
  5
2836
330
281D
100
AcDbEntity
  8
Bemaßung
 62
     0
370
    -2
100
AcDbLine
 10
256.1650047809829
 20
57.10926631601092
 30
0.0
 11
220.1650047809829
 21
57.10926631601092
 31
0.0
  0
SOLID
  5
2837
330
281D
100
AcDbEntity
  8
Bemaßung
 62
     0
100
AcDbTrace
 10
256.1650047809829
 20
57.52593298267758
 30
0.0
 11
256.1650047809829
 21
56.69259964934425
 31
0.0
 12
258.6650047809829
 22
57.10926631601092
 32
0.0
 13
258.6650047809829
 23
57.10926631601092
 33
0.0
  0
SOLID
  5
2838
330
281D
100
AcDbEntity
  8
Bemaßung
 62
     0
100
AcDbTrace
 10
220.1650047809829
 20
57.52593298267758
 30
0.0
 11
220.1650047809829
 21
56.69259964934425
 31
0.0
 12
217.6650047809829
 22
57.10926631601092
 32
0.0
 13
217.6650047809829
 23
57.10926631601092
 33
0.0
  0
MTEXT
  5
2839
330
281D
100
AcDbEntity
  8
Bemaßung
 62
     0
100
AcDbMText
 10
238.1650047809829
 20
58.98426631601092
 30
0.0
 40
2.5
 41
0.0
 71
     5
 72
     1
  1
41
 73
     1
 44
1.0
  0
POINT
  5
283A
330
281D
100
AcDbEntity
  8
Defpoints
 62
     0
100
AcDbPoint
 10
258.6650047809829
 20
100.7426547713669
 30
0.0
  0
POINT
  5
283B
330
281D
100
AcDbEntity
  8
Defpoints
 62
     0
100
AcDbPoint
 10
217.6650047809829
 20
100.7426547713669
 30
0.0
  0
POINT
  5
283C
330
281D
100
AcDbEntity
  8
Defpoints
 62
     0
100
AcDbPoint
 10
217.6650047809829
 20
57.10926631601092
 30
0.0
  0
ENDBLK
  5
2828
330
281D
100
AcDbEntity
  8
0
100
AcDbBlockEnd
  0
ENDSEC
  0
SECTION
  2
ENTITIES
  0
LINE
  5
21EF
330
1F
100
AcDbEntity
  8
0
100
AcDbLine
 10
-303.347915219017
 20
100.7423047713668
 30
0.0
 11
-303.347915219017
 21
104.5423047713668
 31
0.0
  0
LINE
  5
21F0
330
1F
100
AcDbEntity
  8
0
100
AcDbLine
 10
-262.347915219017
 20
100.7423047713668
 30
0.0
 11
-262.347915219017
 21
104.5423047713668
 31
0.0
  0
LINE
  5
21F1
330
1F
100
AcDbEntity
  8
Mittellinie
100
AcDbLine
 10
-282.847915219017
 20
66.70097477136687
 30
0.0
 11
-282.847915219017
 21
268.1155947713668
 31
0.0
  0
LINE
  5
21F2
330
1F
100
AcDbEntity
  8
0
100
AcDbLine
 10
-303.347915219017
 20
100.7423047713668
 30
0.0
 11
-262.347915219017
 21
100.7423047713668
 31
0.0
  0
LINE
  5
21F3
330
1F
100
AcDbEntity
  8
Innenkanten
100
AcDbLine
 10
-300.247945219017
 20
97.7423047713669
 30
0.0
 11
-265.447925219017
 21
97.7423047713669
 31
0.0
  0
LINE
  5
21F4
330
1F
100
AcDbEntity
  8
0
100
AcDbLine
 10
-300.247945219017
 20
82.74230477136688
 30
0.0
 11
-265.447925219017
 21
82.74230477136688
 31
0.0
  0
LINE
  5
21F5
330
1F
100
AcDbEntity
  8
0
100
AcDbLine
 10
-299.2479252190171
 20
81.74230477136688
 30
0.0
 11
-266.447925219017
 21
81.74230477136688
 31
0.0
  0
LINE
  5
21F6
330
1F
100
AcDbEntity
  8
Innenkanten
100
AcDbLine
 10
-300.247945219017
 20
82.74230477136688
 30
0.0
 11
-265.447925219017
 21
82.74230477136688
 31
0.0
  0
LINE
  5
21F7
330
1F
100
AcDbEntity
  8
0
100
AcDbLine
 10
-299.247945219017
 20
81.74230477136688
 30
0.0
 11
-266.447925219017
 21
81.74230477136688
 31
0.0
  0
LINE
  5
21F8
330
1F
100
AcDbEntity
  8
Innenkanten
100
AcDbLine
 10
-299.247945219017
 20
81.74230477136688
 30
0.0
 11
-299.247945219017
 21
97.7423047713669
 31
0.0
  0
LINE
  5
21F9
330
1F
100
AcDbEntity
  8
0
100
AcDbLine
 10
-300.247945219017
 20
82.74231477136686
 30
0.0
 11
-300.247945219017
 21
100.7423047713668
 31
0.0
  0
LINE
  5
21FA
330
1F
100
AcDbEntity
  8
0
100
AcDbLine
 10
-299.2479252190171
 20
81.74230477136688
 30
0.0
 11
-300.247955219017
 21
82.74231477136686
 31
0.0
  0
LINE
  5
21FB
330
1F
100
AcDbEntity
  8
0
100
AcDbLine
 10
-299.247945219017
 20
81.74230477136688
 30
0.0
 11
-300.247945219017
 21
82.74230477136688
 31
0.0
  0
LINE
  5
21FC
330
1F
100
AcDbEntity
  8
0
100
AcDbLine
 10
-265.447925219017
 20
82.74230477136688
 30
0.0
 11
-265.447925219017
 21
100.7423047713668
 31
0.0
  0
LINE
  5
21FD
330
1F
100
AcDbEntity
  8
Innenkanten
100
AcDbLine
 10
-266.447925219017
 20
81.74230477136688
 30
0.0
 11
-266.447925219017
 21
97.7423047713669
 31
0.0
  0
LINE
  5
21FE
330
1F
100
AcDbEntity
  8
0
100
AcDbLine
 10
-266.447925219017
 20
81.74230477136688
 30
0.0
 11
-265.447925219017
 21
82.74230477136688
 31
0.0
  0
LINE
  5
21FF
330
1F
100
AcDbEntity
  8
0
100
AcDbLine
 10
-266.447925219017
 20
81.74230477136688
 30
0.0
 11
-265.447925219017
 21
82.74230477136688
 31
0.0
  0
ARC
  5
2200
330
1F
100
AcDbEntity
  8
0
100
AcDbCircle
 10
-282.847915219017
 20
192.7427247713668
 30
0.0
 40
40.0
100
AcDbArc
 50
300.8304799999987
 51
239.1694800000013
  0
ARC
  5
2201
330
1F
100
AcDbEntity
  8
Innenkanten
100
AcDbCircle
 10
-282.847915219017
 20
192.7427247713668
 30
0.0
 40
38.5
100
AcDbArc
 50
299.5712899999996
 51
240.428670000002
  0
LINE
  5
2202
330
1F
100
AcDbEntity
  8
Innenkanten
100
AcDbLine
 10
-303.347915219017
 20
104.5423047713668
 30
0.0
 11
-262.347915219017
 21
104.5423047713668
 31
0.0
  0
LINE
  5
2203
330
1F
100
AcDbEntity
  8
Innenkanten
100
AcDbLine
 10
-303.347915219017
 20
103.5423047713668
 30
0.0
 11
-262.347915219017
 21
103.5423047713668
 31
0.0
  0
LINE
  5
2204
330
1F
100
AcDbEntity
  8
Innenkanten
100
AcDbLine
 10
-310.3609552190171
 20
235.2332947713668
 30
0.0
 11
-255.334915219017
 21
235.2332947713668
 31
0.0
  0
LINE
  5
2205
330
1F
100
AcDbEntity
  8
Innenkanten
100
AcDbLine
 10
-303.347915219017
 20
134.3427047713668
 30
0.0
 11
-262.347915219017
 21
134.3427047713668
 31
0.0
  0
LINE
  5
2206
330
1F
100
AcDbEntity
  8
0
100
AcDbLine
 10
-333.653845219017
 20
257.7427547713668
 30
0.0
 11
-232.041995219017
 21
257.7427547713668
 31
0.0
  0
LINE
  5
2207
330
1F
100
AcDbEntity
  8
0
100
AcDbLine
 10
-333.6539152190171
 20
127.7427547713668
 30
0.0
 11
-297.6479352190171
 21
127.7427547713668
 31
0.0
  0
LINE
  5
2208
330
1F
100
AcDbEntity
  8
Mittellinie
100
AcDbLine
 10
-361.557575219017
 20
192.7427247713668
 30
0.0
 11
-207.634235219017
 21
192.7427247713668
 31
0.0
  0
ARC
  5
2209
330
1F
100
AcDbEntity
  8
Mittellinie
100
AcDbCircle
 10
-282.847915219017
 20
192.7427247713668
 30
0.0
 40
66.99998499999999
100
AcDbArc
 50
114.9992499999994
 51
125.1620100000021
  0
ARC
  5
220A
330
1F
100
AcDbEntity
  8
Mittellinie
100
AcDbCircle
 10
-282.847915219017
 20
192.7427247713668
 30
0.0
 40
72.5
100
AcDbArc
 50
129.123030000003
 51
141.0764399999972
  0
CIRCLE
  5
220B
330
1F
100
AcDbEntity
  8
Innenkanten
100
AcDbCircle
 10
-316.347935219017
 20
250.7664747713669
 30
0.0
 40
3.0
  0
ARC
  5
220C
330
1F
100
AcDbEntity
  8
0
100
AcDbCircle
 10
-282.847915219017
 20
192.7427247713668
 30
0.0
 40
82.49997699999999
100
AcDbArc
 50
128.0122399999975
 51
141.9877599999979
  0
LINE
  5
220D
330
1F
100
AcDbEntity
  8
Innenkanten
100
AcDbLine
 10
-325.347915219017
 20
247.2427247713668
 30
0.0
 11
-325.347915219017
 21
255.7427547713668
 31
0.0
  0
LINE
  5
220E
330
1F
100
AcDbEntity
  8
Mittellinie
100
AcDbLine
 10
-339.269165219017
 20
249.1639647713668
 30
0.0
 11
-328.734315219017
 21
238.6291447713669
 31
0.0
  0
LINE
  5
220F
330
1F
100
AcDbEntity
  8
Mittellinie
100
AcDbLine
 10
-313.572295219017
 20
245.9589447713668
 30
0.0
 11
-318.544455219017
 21
254.5709747713668
 31
0.0
  0
LINE
  5
2210
330
1F
100
AcDbEntity
  8
Innenkanten
100
AcDbLine
 10
-317.020875219017
 20
248.2549947713668
 30
0.0
 11
-315.675025219017
 21
253.2778247713669
 31
0.0
  0
ARC
  5
2211
330
1F
100
AcDbEntity
  8
Innenkanten
100
AcDbCircle
 10
152.1531047809829
 20
192.7428547713668
 30
0.0
 40
500.0010099999999
100
AcDbArc
 50
175.3352900000013
 51
184.6647200000005
  0
LINE
  5
2212
330
1F
100
AcDbEntity
  8
Innenkanten
100
AcDbLine
 10
-325.347915219017
 20
165.2391847713669
 30
0.0
 11
-325.347915219017
 21
220.2463247713668
 31
0.0
  0
LINE
  5
2213
330
1F
100
AcDbEntity
  8
0
100
AcDbLine
 10
-347.847919219017
 20
141.9367547713669
 30
0.0
 11
-347.847919219017
 21
243.5487547713668
 31
0.0
  0
CIRCLE
  5
2214
330
1F
100
AcDbEntity
  8
Innenkanten
100
AcDbCircle
 10
-334.113185219017
 20
141.4775347713668
 30
0.0
 40
4.5
  0
ARC
  5
2215
330
1F
100
AcDbEntity
  8
Mittellinie
100
AcDbCircle
 10
-282.847915219017
 20
192.7427247713668
 30
0.0
 40
72.5
100
AcDbArc
 50
218.5609599999996
 51
231.889409999999
  0
ARC
  5
2216
330
1F
100
AcDbEntity
  8
Innenkanten
100
AcDbCircle
 10
-337.347915219017
 20
138.2427247713668
 30
0.0
 40
12.0
100
AcDbArc
 50
0.0
 51
89.9999820000008
  0
ARC
  5
2217
330
1F
100
AcDbEntity
  8
0
100
AcDbCircle
 10
-282.847915219017
 20
192.7427247713668
 30
0.0
 40
82.49997699999999
100
AcDbArc
 50
218.012240000002
 51
231.9876899999995
  0
LINE
  5
2218
330
1F
100
AcDbEntity
  8
Mittellinie
100
AcDbLine
 10
-339.880885219017
 20
135.7098347713669
 30
0.0
 11
-327.514885219017
 21
148.0757947713668
 31
0.0
  0
LINE
  5
2219
330
1F
100
AcDbEntity
  8
0
100
AcDbLine
 10
-303.347915219017
 20
134.3427047713668
 30
0.0
 11
-303.347915219017
 21
158.3954047713668
 31
0.0
  0
LINE
  5
221A
330
1F
100
AcDbEntity
  8
0
100
AcDbLine
 10
-303.347915219017
 20
104.5423047713668
 30
0.0
 11
-303.347915219017
 21
127.7332947713669
 31
0.0
  0
ARC
  5
221B
330
1F
100
AcDbEntity
  8
Innenkanten
100
AcDbCircle
 10
-323.347915219017
 20
129.7427547713668
 30
0.0
 40
2.0
100
AcDbArc
 50
179.9999799999979
 51
270.0000299999997
  0
LINE
  5
221C
330
1F
100
AcDbEntity
  8
Innenkanten
100
AcDbLine
 10
-325.347915219017
 20
138.2427247713668
 30
0.0
 11
-325.347915219017
 21
129.7427547713668
 31
0.0
  0
ARC
  5
221D
330
1F
100
AcDbEntity
  8
Mittellinie
100
AcDbCircle
 10
-282.847915219017
 20
192.7427247713668
 30
0.0
 40
66.99998499999999
100
AcDbArc
 50
204.9992100000026
 51
215.1619900000016
  0
CIRCLE
  5
221E
330
1F
100
AcDbEntity
  8
Innenkanten
100
AcDbCircle
 10
-340.871635219017
 20
159.2427847713669
 30
0.0
 40
3.0
  0
LINE
  5
221F
330
1F
100
AcDbEntity
  8
Innenkanten
100
AcDbLine
 10
-341.544585219017
 20
156.7313447713669
 30
0.0
 11
-340.1987252190171
 21
161.7541447713668
 31
0.0
  0
LINE
  5
2220
330
1F
100
AcDbEntity
  8
Innenkanten
100
AcDbLine
 10
-344.198335219017
 20
150.2427247713668
 30
0.0
 11
-337.347915219017
 21
150.2427247713668
 31
0.0
  0
ARC
  5
2221
330
1F
100
AcDbEntity
  8
Innenkanten
100
AcDbCircle
 10
-344.198335219017
 20
152.2427247713668
 30
0.0
 40
2.0
100
AcDbArc
 50
184.6649700000021
 51
270.0000199999987
  0
LINE
  5
2222
330
1F
100
AcDbEntity
  8
Innenkanten
100
AcDbLine
 10
-343.383055219017
 20
159.9157047713669
 30
0.0
 11
-338.3602252190171
 21
158.5698447713668
 31
0.0
  0
LINE
  5
2223
330
1F
100
AcDbEntity
  8
Mittellinie
100
AcDbLine
 10
-344.676125219017
 20
157.0461947713669
 30
0.0
 11
-336.0641352190171
 21
162.0183647713669
 31
0.0
  0
LINE
  5
2224
330
1F
100
AcDbEntity
  8
Innenkanten
100
AcDbLine
 10
-325.347925219017
 20
165.2391847713669
 30
0.0
 11
-310.342065219017
 21
150.2332947713669
 31
0.0
  0
LINE
  5
2225
330
1F
100
AcDbEntity
  8
Innenkanten
100
AcDbLine
 10
-310.342065219017
 20
150.2332947713669
 30
0.0
 11
-303.347915219017
 21
150.2332947713669
 31
0.0
  0
ARC
  5
2226
330
1F
100
AcDbEntity
  8
Innenkanten
100
AcDbCircle
 10
-318.0820552190171
 20
163.1698547713669
 30
0.0
 40
4.5
100
AcDbArc
 50
310.0000899999979
 51
129.999989999998
  0
CIRCLE
  5
2227
330
1F
100
AcDbEntity
  8
Innenkanten
100
AcDbCircle
 10
-318.0820552190171
 20
163.1698547713669
 30
0.0
 40
2.399999999999999
  0
ARC
  5
2228
330
1F
100
AcDbEntity
  8
Mittellinie
100
AcDbCircle
 10
-282.847915219017
 20
192.7427247713668
 30
0.0
 40
46.0
100
AcDbArc
 50
215.3915100000002
 51
223.9694700000022
  0
LINE
  5
2229
330
1F
100
AcDbEntity
  8
Innenkanten
100
AcDbLine
 10
-315.189535219017
 20
159.7226447713668
 30
0.0
 11
-317.7135352190171
 21
157.6047547713668
 31
0.0
  0
LINE
  5
222A
330
1F
100
AcDbEntity
  8
Innenkanten
100
AcDbLine
 10
-316.093555219017
 20
163.0002047713668
 30
0.0
 11
-320.078305219017
 21
163.3488347713667
 31
0.0
  0
LINE
  5
222B
330
1F
100
AcDbEntity
  8
Mittellinie
100
AcDbLine
 10
-314.9562452190171
 20
165.7927447713668
 30
0.0
 11
-320.6081552190171
 21
161.0502247713668
 31
0.0
  0
LINE
  5
222C
330
1F
100
AcDbEntity
  8
Innenkanten
100
AcDbLine
 10
-320.9746152190171
 20
166.6170247713667
 30
0.0
 11
-324.101795219017
 21
163.9930047713668
 31
0.0
  0
LINE
  5
222D
330
1F
100
AcDbEntity
  8
Innenkanten
100
AcDbLine
 10
-318.2602652190171
 20
161.1821247713668
 30
0.0
 11
-317.911635219017
 21
165.1669247713667
 31
0.0
  0
CIRCLE
  5
222E
330
1F
100
AcDbEntity
  8
Innenkanten
100
AcDbCircle
 10
-334.113145219017
 20
244.0079847713668
 30
0.0
 40
4.5
  0
ARC
  5
222F
330
1F
100
AcDbEntity
  8
Innenkanten
100
AcDbCircle
 10
-337.347915219017
 20
247.2427247713668
 30
0.0
 40
12.0
100
AcDbArc
 50
270.0000199999987
 51
0.0
  0
LINE
  5
2230
330
1F
100
AcDbEntity
  8
Innenkanten
100
AcDbLine
 10
-344.198335219017
 20
235.2427247713668
 30
0.0
 11
-337.347915219017
 21
235.2427247713668
 31
0.0
  0
ARC
  5
2231
330
1F
100
AcDbEntity
  8
Innenkanten
100
AcDbCircle
 10
-344.198335219017
 20
233.2427247713668
 30
0.0
 40
2.0
100
AcDbArc
 50
89.9999820000008
 51
175.3350299999978
  0
ARC
  5
2232
330
1F
100
AcDbEntity
  8
Innenkanten
100
AcDbCircle
 10
-312.4208152190171
 20
227.9768547713668
 30
0.0
 40
4.5
100
AcDbArc
 50
220.0000999999983
 51
39.99999500000031
  0
CIRCLE
  5
2233
330
1F
100
AcDbEntity
  8
Innenkanten
100
AcDbCircle
 10
-312.4208152190171
 20
227.9768547713668
 30
0.0
 40
2.399999999999999
  0
ARC
  5
2234
330
1F
100
AcDbEntity
  8
Mittellinie
100
AcDbCircle
 10
-282.847915219017
 20
192.7427247713668
 30
0.0
 40
46.0
100
AcDbArc
 50
125.3915000000016
 51
133.9694600000003
  0
LINE
  5
2235
330
1F
100
AcDbEntity
  8
Mittellinie
100
AcDbLine
 10
-309.797935219017
 20
224.8510347713669
 30
0.0
 11
-314.540475219017
 21
230.5029847713668
 31
0.0
  0
LINE
  5
2236
330
1F
100
AcDbEntity
  8
Innenkanten
100
AcDbLine
 10
-310.360935219017
 20
235.2332947713668
 30
0.0
 11
-325.347925219017
 21
220.2462947713669
 31
0.0
  0
LINE
  5
2237
330
1F
100
AcDbEntity
  8
Innenkanten
100
AcDbLine
 10
-315.867995219017
 20
225.0843147713668
 30
0.0
 11
-317.985885219017
 21
227.6083247713669
 31
0.0
  0
LINE
  5
2238
330
1F
100
AcDbEntity
  8
Innenkanten
100
AcDbLine
 10
-312.590455219017
 20
225.9883347713667
 30
0.0
 11
-312.241825219017
 21
229.9731047713668
 31
0.0
  0
LINE
  5
2239
330
1F
100
AcDbEntity
  8
Innenkanten
100
AcDbLine
 10
-314.408545219017
 20
228.1550547713669
 30
0.0
 11
-310.4237252190171
 21
227.8064147713668
 31
0.0
  0
LINE
  5
223A
330
1F
100
AcDbEntity
  8
Innenkanten
100
AcDbLine
 10
-308.9736052190171
 20
230.8694047713669
 30
0.0
 11
-311.5976252190171
 21
233.9966047713668
 31
0.0
  0
LINE
  5
223B
330
1F
100
AcDbEntity
  8
Innenkanten
100
AcDbLine
 10
-318.859315219017
 20
251.4394147713668
 30
0.0
 11
-313.836525219017
 21
250.0935547713669
 31
0.0
  0
ARC
  5
223C
330
1F
100
AcDbEntity
  8
Innenkanten
100
AcDbCircle
 10
-323.347915219017
 20
255.7427547713668
 30
0.0
 40
2.0
100
AcDbArc
 50
89.9999820000008
 51
179.9999599999959
  0
ARC
  5
223D
330
1F
100
AcDbEntity
  8
Mittellinie
100
AcDbCircle
 10
-282.847915219017
 20
192.7427247713668
 30
0.0
 40
72.5
100
AcDbArc
 50
38.80801099999823
 51
51.29240899999888
  0
ARC
  5
223E
330
1F
100
AcDbEntity
  8
0
100
AcDbCircle
 10
-282.847915219017
 20
192.7427247713668
 30
0.0
 40
82.49997699999999
100
AcDbArc
 50
38.0122840000005
 51
51.98777699999963
  0
LINE
  5
223F
330
1F
100
AcDbEntity
  8
Innenkanten
100
AcDbLine
 10
-240.347935219017
 20
255.7427547713668
 30
0.0
 11
-240.347935219017
 21
247.2427247713668
 31
0.0
  0
LINE
  5
2240
330
1F
100
AcDbEntity
  8
Mittellinie
100
AcDbLine
 10
-237.682895219017
 20
237.9077647713668
 30
0.0
 11
-225.937455219017
 21
249.6532547713669
 31
0.0
  0
ARC
  5
2241
330
1F
100
AcDbEntity
  8
Innenkanten
100
AcDbCircle
 10
-717.845855219017
 20
192.7427547713668
 30
0.0
 40
499.99789
100
AcDbArc
 50
355.334980000001
 51
4.664019999997608
  0
LINE
  5
2242
330
1F
100
AcDbEntity
  8
Innenkanten
100
AcDbLine
 10
-240.347935219017
 20
165.2391847713669
 30
0.0
 11
-240.347935219017
 21
220.2463247713668
 31
0.0
  0
LINE
  5
2243
330
1F
100
AcDbEntity
  8
0
100
AcDbLine
 10
-217.847935219017
 20
141.9367547713669
 30
0.0
 11
-217.847935219017
 21
243.5487547713668
 31
0.0
  0
LINE
  5
2244
330
1F
100
AcDbEntity
  8
Innenkanten
100
AcDbLine
 10
-255.353795219017
 20
150.2333247713669
 30
0.0
 11
-240.347905219017
 21
165.2392147713668
 31
0.0
  0
LINE
  5
2245
330
1F
100
AcDbEntity
  8
0
100
AcDbLine
 10
-268.047935219017
 20
127.7427547713668
 30
0.0
 11
-232.041915219017
 21
127.7427547713668
 31
0.0
  0
LINE
  5
2246
330
1F
100
AcDbEntity
  8
Mittellinie
100
AcDbLine
 10
-252.123525219017
 20
139.5265447713669
 30
0.0
 11
-247.151375219017
 21
130.9145447713668
 31
0.0
  0
LINE
  5
2247
330
1F
100
AcDbEntity
  8
0
100
AcDbLine
 10
-262.347915219017
 20
134.3427047713668
 30
0.0
 11
-262.347915219017
 21
158.3952247713667
 31
0.0
  0
LINE
  5
2248
330
1F
100
AcDbEntity
  8
Innenkanten
100
AcDbLine
 10
-263.847915219017
 20
134.3427047713668
 30
0.0
 11
-263.847915219017
 21
159.2575547713669
 31
0.0
  0
LINE
  5
2249
330
1F
100
AcDbEntity
  8
Innenkanten
100
AcDbLine
 10
-301.847915219017
 20
134.3427047713668
 30
0.0
 11
-301.847915219017
 21
159.2578947713668
 31
0.0
  0
LINE
  5
224A
330
1F
100
AcDbEntity
  8
Innenkanten
100
AcDbLine
 10
-301.847915219017
 20
133.3427047713668
 30
0.0
 11
-263.847915219017
 21
133.3427047713668
 31
0.0
  0
LINE
  5
224B
330
1F
100
AcDbEntity
  8
0
100
AcDbLine
 10
-301.847915219017
 20
130.5426847713669
 30
0.0
 11
-263.847915219017
 21
130.5426847713669
 31
0.0
  0
LINE
  5
224C
330
1F
100
AcDbEntity
  8
Innenkanten
100
AcDbLine
 10
-297.6479352190171
 20
127.5427147713668
 30
0.0
 11
-268.047935219017
 21
127.5427147713668
 31
0.0
  0
LINE
  5
224D
330
1F
100
AcDbEntity
  8
Innenkanten
100
AcDbLine
 10
-297.6479252190171
 20
112.2426947713669
 30
0.0
 11
-268.047935219017
 21
112.2426947713669
 31
0.0
  0
LINE
  5
224E
330
1F
100
AcDbEntity
  8
0
100
AcDbLine
 10
-296.647935219017
 20
111.2426947713669
 30
0.0
 11
-269.047935219017
 21
111.2426947713669
 31
0.0
  0
LINE
  5
224F
330
1F
100
AcDbEntity
  8
Innenkanten
100
AcDbLine
 10
-296.647935219017
 20
111.2426947713669
 30
0.0
 11
-296.647935219017
 21
127.5427147713668
 31
0.0
  0
LINE
  5
2250
330
1F
100
AcDbEntity
  8
0
100
AcDbLine
 10
-297.6479352190171
 20
112.2426947713669
 30
0.0
 11
-297.6479352190171
 21
130.5426847713669
 31
0.0
  0
LINE
  5
2251
330
1F
100
AcDbEntity
  8
0
100
AcDbLine
 10
-297.6479252190171
 20
112.2427147713668
 30
0.0
 11
-296.647925219017
 21
111.2427147713668
 31
0.0
  0
LINE
  5
2252
330
1F
100
AcDbEntity
  8
0
100
AcDbLine
 10
-301.8979352190171
 20
130.5426847713669
 30
0.0
 11
-301.8979352190171
 21
134.3427047713668
 31
0.0
  0
LINE
  5
2253
330
1F
100
AcDbEntity
  8
0
100
AcDbLine
 10
-268.047935219017
 20
112.2426947713669
 30
0.0
 11
-268.047935219017
 21
130.5426847713669
 31
0.0
  0
LINE
  5
2254
330
1F
100
AcDbEntity
  8
Innenkanten
100
AcDbLine
 10
-269.047935219017
 20
111.2426947713669
 30
0.0
 11
-269.047935219017
 21
127.5427147713668
 31
0.0
  0
LINE
  5
2255
330
1F
100
AcDbEntity
  8
0
100
AcDbLine
 10
-262.347915219017
 20
104.5423047713668
 30
0.0
 11
-262.347915219017
 21
127.7332947713669
 31
0.0
  0
LINE
  5
2256
330
1F
100
AcDbEntity
  8
0
100
AcDbLine
 10
-269.047915219017
 20
111.2426947713669
 30
0.0
 11
-268.0479152190171
 21
112.2426947713669
 31
0.0
  0
LINE
  5
2257
330
1F
100
AcDbEntity
  8
0
100
AcDbLine
 10
-263.797935219017
 20
130.5426847713669
 30
0.0
 11
-263.797935219017
 21
134.3427047713668
 31
0.0
  0
ARC
  5
2258
330
1F
100
AcDbEntity
  8
Mittellinie
100
AcDbCircle
 10
-282.847915219017
 20
192.7427247713668
 30
0.0
 40
66.99998499999999
100
AcDbArc
 50
294.9992200000018
 51
305.1619999999986
  0
CIRCLE
  5
2259
330
1F
100
AcDbEntity
  8
Innenkanten
100
AcDbCircle
 10
-249.347915219017
 20
134.7191047713669
 30
0.0
 40
3.0
  0
LINE
  5
225A
330
1F
100
AcDbEntity
  8
Innenkanten
100
AcDbLine
 10
-251.8593352190171
 20
135.3920247713668
 30
0.0
 11
-246.836525219017
 21
134.0461947713669
 31
0.0
  0
LINE
  5
225B
330
1F
100
AcDbEntity
  8
Innenkanten
100
AcDbLine
 10
-250.020875219017
 20
132.2076047713668
 30
0.0
 11
-248.675025219017
 21
137.2304247713668
 31
0.0
  0
CIRCLE
  5
225C
330
1F
100
AcDbEntity
  8
Innenkanten
100
AcDbCircle
 10
-297.547935219017
 20
147.2332947713669
 30
0.0
 40
2.0
  0
LINE
  5
225D
330
1F
100
AcDbEntity
  8
Mittellinie
100
AcDbLine
 10
-297.547935219017
 20
145.1412847713669
 30
0.0
 11
-297.547935219017
 21
150.1412847713669
 31
0.0
  0
LINE
  5
225E
330
1F
100
AcDbEntity
  8
Mittellinie
100
AcDbLine
 10
-300.078785219017
 20
147.2332947713669
 30
0.0
 11
-295.366225219017
 21
147.2332947713669
 31
0.0
  0
ARC
  5
225F
330
1F
100
AcDbEntity
  8
Innenkanten
100
AcDbCircle
 10
-253.275025219017
 20
157.5085947713668
 30
0.0
 40
4.5
100
AcDbArc
 50
40.0001560000011
 51
220.0000500000024
  0
CIRCLE
  5
2260
330
1F
100
AcDbEntity
  8
Innenkanten
100
AcDbCircle
 10
-253.275025219017
 20
157.5085947713668
 30
0.0
 40
2.399999999999999
  0
ARC
  5
2261
330
1F
100
AcDbEntity
  8
Mittellinie
100
AcDbCircle
 10
-282.847915219017
 20
192.7427247713668
 30
0.0
 40
46.0
100
AcDbArc
 50
305.3915900000004
 51
313.9695500000026
  0
LINE
  5
2262
330
1F
100
AcDbEntity
  8
Innenkanten
100
AcDbLine
 10
-253.105395219017
 20
159.4970947713668
 30
0.0
 11
-253.454025219017
 21
155.5123547713668
 31
0.0
  0
LINE
  5
2263
330
1F
100
AcDbEntity
  8
Mittellinie
100
AcDbLine
 10
-255.897935219017
 20
160.6344247713668
 30
0.0
 11
-251.1553952190169
 21
154.9824747713668
 31
0.0
  0
LINE
  5
2264
330
1F
100
AcDbEntity
  8
Innenkanten
100
AcDbLine
 10
-255.353805219017
 20
150.2332947713669
 30
0.0
 11
-262.347915219017
 21
150.2332947713669
 31
0.0
  0
CIRCLE
  5
2265
330
1F
100
AcDbEntity
  8
Innenkanten
100
AcDbCircle
 10
-268.147935219017
 20
147.2332947713669
 30
0.0
 40
2.0
  0
LINE
  5
2266
330
1F
100
AcDbEntity
  8
Mittellinie
100
AcDbLine
 10
-268.147935219017
 20
144.9495147713668
 30
0.0
 11
-268.147935219017
 21
149.9495147713668
 31
0.0
  0
LINE
  5
2267
330
1F
100
AcDbEntity
  8
Mittellinie
100
AcDbLine
 10
-265.831075219017
 20
147.2332947713669
 30
0.0
 11
-270.7354052190171
 21
147.2332947713669
 31
0.0
  0
LINE
  5
2268
330
1F
100
AcDbEntity
  8
Innenkanten
100
AcDbLine
 10
-256.722215219017
 20
154.6160447713669
 30
0.0
 11
-254.098195219017
 21
151.4888547713668
 31
0.0
  0
LINE
  5
2269
330
1F
100
AcDbEntity
  8
Innenkanten
100
AcDbLine
 10
-251.287295219017
 20
157.3304047713669
 30
0.0
 11
-255.2721152190169
 21
157.6790347713669
 31
0.0
  0
LINE
  5
226A
330
1F
100
AcDbEntity
  8
Innenkanten
100
AcDbLine
 10
-249.8278652190171
 20
160.4011447713668
 30
0.0
 11
-247.709965219017
 21
157.8771247713668
 31
0.0
  0
CIRCLE
  5
226B
330
1F
100
AcDbEntity
  8
Innenkanten
100
AcDbCircle
 10
-231.582675219017
 20
141.4774947713668
 30
0.0
 40
4.5
  0
ARC
  5
226C
330
1F
100
AcDbEntity
  8
Mittellinie
100
AcDbCircle
 10
-282.847915219017
 20
192.7427247713668
 30
0.0
 40
72.5
100
AcDbArc
 50
309.1839899999987
 51
320.4414100000009
  0
ARC
  5
226D
330
1F
100
AcDbEntity
  8
Innenkanten
100
AcDbCircle
 10
-228.347935219017
 20
138.2427247713668
 30
0.0
 40
12.0
100
AcDbArc
 50
89.9999820000008
 51
179.9999599999959
  0
ARC
  5
226E
330
1F
100
AcDbEntity
  8
0
100
AcDbCircle
 10
-282.847915219017
 20
192.7427247713668
 30
0.0
 40
82.49997699999999
100
AcDbArc
 50
308.0122900000016
 51
321.987719999999
  0
LINE
  5
226F
330
1F
100
AcDbEntity
  8
Mittellinie
100
AcDbLine
 10
-226.384585219017
 20
136.2794147713668
 30
0.0
 11
-236.661765219017
 21
146.5565747713668
 31
0.0
  0
ARC
  5
2270
330
1F
100
AcDbEntity
  8
Innenkanten
100
AcDbCircle
 10
-242.347935219017
 20
129.7427547713668
 30
0.0
 40
2.0
100
AcDbArc
 50
270.0000199999987
 51
0.0
  0
LINE
  5
2271
330
1F
100
AcDbEntity
  8
Innenkanten
100
AcDbLine
 10
-240.347935219017
 20
138.2427247713668
 30
0.0
 11
-240.347935219017
 21
129.7427547713668
 31
0.0
  0
LINE
  5
2272
330
1F
100
AcDbEntity
  8
Innenkanten
100
AcDbLine
 10
-228.347935219017
 20
150.2427247713668
 30
0.0
 11
-221.499285219017
 21
150.2427247713668
 31
0.0
  0
ARC
  5
2273
330
1F
100
AcDbEntity
  8
Innenkanten
100
AcDbCircle
 10
-221.499285219017
 20
152.2427247713668
 30
0.0
 40
2.0
100
AcDbArc
 50
270.0000199999987
 51
357.6676899999991
  0
LINE
  5
2274
330
1F
100
AcDbEntity
  8
Innenkanten
100
AcDbLine
 10
-244.721215219017
 20
218.8684247713668
 30
0.0
 11
-241.5940252190171
 21
221.4924547713668
 31
0.0
  0
LINE
  5
2275
330
1F
100
AcDbEntity
  8
Innenkanten
100
AcDbLine
 10
-255.334915219017
 20
235.2332947713668
 30
0.0
 11
-240.347935219017
 21
220.2463247713668
 31
0.0
  0
ARC
  5
2276
330
1F
100
AcDbEntity
  8
Innenkanten
100
AcDbCircle
 10
-247.613785219017
 20
222.3156047713668
 30
0.0
 40
4.5
100
AcDbArc
 50
130.0001499999998
 51
310.0000499999978
  0
CIRCLE
  5
2277
330
1F
100
AcDbEntity
  8
Innenkanten
100
AcDbCircle
 10
-247.613785219017
 20
222.3156047713668
 30
0.0
 40
2.399999999999999
  0
ARC
  5
2278
330
1F
100
AcDbEntity
  8
Mittellinie
100
AcDbCircle
 10
-282.847915219017
 20
192.7427247713668
 30
0.0
 40
46.0
100
AcDbArc
 50
35.39158100000299
 51
43.96954800000098
  0
LINE
  5
2279
330
1F
100
AcDbEntity
  8
Mittellinie
100
AcDbLine
 10
-250.739585219017
 20
219.6927047713669
 30
0.0
 11
-245.087655219017
 21
224.4352647713668
 31
0.0
  0
LINE
  5
227A
330
1F
100
AcDbEntity
  8
Innenkanten
100
AcDbLine
 10
-247.435585219017
 20
224.3033647713667
 30
0.0
 11
-247.784215219017
 21
220.3185347713668
 31
0.0
  0
LINE
  5
227B
330
1F
100
AcDbEntity
  8
Innenkanten
100
AcDbLine
 10
-250.5063052190171
 20
225.7628047713668
 30
0.0
 11
-247.982285219017
 21
227.8806947713668
 31
0.0
  0
LINE
  5
227C
330
1F
100
AcDbEntity
  8
Innenkanten
100
AcDbLine
 10
-249.602295219017
 20
222.4852547713668
 30
0.0
 11
-245.617545219017
 21
222.1366147713669
 31
0.0
  0
ARC
  5
227D
330
1F
100
AcDbEntity
  8
Mittellinie
100
AcDbCircle
 10
-282.847915219017
 20
192.7427247713668
 30
0.0
 40
66.99998499999999
100
AcDbArc
 50
24.99923899999805
 51
35.16201499999936
  0
LINE
  5
227E
330
1F
100
AcDbEntity
  8
Mittellinie
100
AcDbLine
 10
-229.6317152190171
 20
223.4671547713668
 30
0.0
 11
-221.019705219017
 21
228.4392647713667
 31
0.0
  0
CIRCLE
  5
227F
330
1F
100
AcDbEntity
  8
Innenkanten
100
AcDbCircle
 10
-224.824225219017
 20
226.2426947713669
 30
0.0
 40
3.0
  0
LINE
  5
2280
330
1F
100
AcDbEntity
  8
Innenkanten
100
AcDbLine
 10
-222.312825219017
 20
225.5697847713669
 30
0.0
 11
-227.335635219017
 21
226.9156447713668
 31
0.0
  0
LINE
  5
2281
330
1F
100
AcDbEntity
  8
Innenkanten
100
AcDbLine
 10
-224.151295219017
 20
228.7541447713668
 30
0.0
 11
-225.4971652190171
 21
223.7313447713669
 31
0.0
  0
CIRCLE
  5
2282
330
1F
100
AcDbEntity
  8
Innenkanten
100
AcDbCircle
 10
-231.582695219017
 20
244.0079847713668
 30
0.0
 40
4.5
  0
LINE
  5
2283
330
1F
100
AcDbEntity
  8
Innenkanten
100
AcDbLine
 10
-228.347935219017
 20
235.2427247713668
 30
0.0
 11
-221.498925219017
 21
235.2427247713668
 31
0.0
  0
ARC
  5
2284
330
1F
100
AcDbEntity
  8
Innenkanten
100
AcDbCircle
 10
-228.347935219017
 20
247.2427247713668
 30
0.0
 40
12.0
100
AcDbArc
 50
179.9999799999979
 51
270.0000299999997
  0
ARC
  5
2285
330
1F
100
AcDbEntity
  8
Innenkanten
100
AcDbCircle
 10
-221.498925219017
 20
233.2427247713668
 30
0.0
 40
2.0
100
AcDbArc
 50
2.332313999998035
 51
89.9999820000008
  0
ARC
  5
2297
330
1F
100
AcDbEntity
  8
Innenkanten
100
AcDbCircle
 10
-242.347935219017
 20
255.7427547713668
 30
0.0
 40
2.0
100
AcDbArc
 50
0.0
 51
89.9999820000008
  0
LINE
  5
2298
102
{ACAD_REACTORS
330
2833
102
}
330
1F
100
AcDbEntity
  8
0
100
AcDbLine
 10
217.6650047809829
 20
127.7426347713668
 30
0.0
 11
217.6650047809829
 21
100.7426547713669
 31
0.0
  0
LINE
  5
2299
102
{ACAD_REACTORS
330
2833
102
}
330
1F
100
AcDbEntity
  8
0
100
AcDbLine
 10
258.6650047809829
 20
100.7426547713669
 30
0.0
 11
258.6650047809829
 21
127.7426347713668
 31
0.0
  0
LINE
  5
229A
102
{ACAD_REACTORS
330
278C
102
}
330
1F
100
AcDbEntity
  8
Mittellinie
100
AcDbLine
 10
238.1650047809829
 20
71.0815447713669
 30
0.0
 11
238.1650047809829
 21
273.3770947713668
 31
0.0
  0
LINE
  5
22A9
330
1F
100
AcDbEntity
  8
Innenkanten
100
AcDbLine
 10
220.7649847809828
 20
82.74265477136692
 30
0.0
 11
255.5650247809829
 21
82.74265477136692
 31
0.0
  0
LINE
  5
22AA
330
1F
100
AcDbEntity
  8
Innenkanten
100
AcDbLine
 10
255.5650247809829
 20
97.74265477136692
 30
0.0
 11
220.7649847809828
 21
97.74265477136692
 31
0.0
  0
LINE
  5
22AB
330
1F
100
AcDbEntity
  8
0
100
AcDbLine
 10
221.7649847809829
 20
81.74265477136691
 30
0.0
 11
254.5650247809829
 21
81.74265477136691
 31
0.0
  0
LINE
  5
22AC
330
1F
100
AcDbEntity
  8
0
100
AcDbLine
 10
217.6650047809829
 20
100.7426547713669
 30
0.0
 11
258.6650047809829
 21
100.7426547713669
 31
0.0
  0
LINE
  5
22AD
330
1F
100
AcDbEntity
  8
Innenkanten
100
AcDbLine
 10
221.7649847809829
 20
97.74265477136692
 30
0.0
 11
221.7649847809829
 21
81.74265477136691
 31
0.0
  0
LINE
  5
22AE
330
1F
100
AcDbEntity
  8
0
100
AcDbLine
 10
220.7649847809828
 20
100.7426547713669
 30
0.0
 11
220.7649847809828
 21
82.74265477136692
 31
0.0
  0
LINE
  5
22AF
330
1F
100
AcDbEntity
  8
0
100
AcDbLine
 10
220.7649847809828
 20
82.74266477136677
 30
0.0
 11
221.7649847809829
 21
81.74266477136677
 31
0.0
  0
LINE
  5
22B0
330
1F
100
AcDbEntity
  8
Innenkanten
100
AcDbLine
 10
254.5650247809829
 20
81.74265477136691
 30
0.0
 11
254.5650247809829
 21
97.74265477136692
 31
0.0
  0
LINE
  5
22B1
330
1F
100
AcDbEntity
  8
0
100
AcDbLine
 10
255.5650247809829
 20
82.74265477136692
 30
0.0
 11
255.5650247809829
 21
100.7426547713669
 31
0.0
  0
LINE
  5
22B2
102
{ACAD_REACTORS
330
27FA
102
}
330
1F
100
AcDbEntity
  8
0
100
AcDbLine
 10
254.5649647809828
 20
81.74266477136677
 30
0.0
 11
255.5650247809829
 21
82.74268477136685
 31
0.0
  0
ARC
  5
22B3
102
{ACAD_REACTORS
330
274A
102
}
330
1F
100
AcDbEntity
  8
0
100
AcDbCircle
 10
238.1650047809829
 20
192.7426347713668
 30
0.0
 40
82.499985
100
AcDbArc
 50
128.0120099999995
 51
141.9870700000009
  0
ARC
  5
22B4
102
{ACAD_REACTORS
330
276B
102
}
330
1F
100
AcDbEntity
  8
0
100
AcDbCircle
 10
238.1650047809829
 20
192.7426347713668
 30
0.0
 40
82.499985
100
AcDbArc
 50
218.0119599999976
 51
231.986969999999
  0
LINE
  5
22B5
102
{ACAD_REACTORS
330
27FA
102
}
330
1F
100
AcDbEntity
  8
Mittellinie
100
AcDbLine
 10
163.2144447809829
 20
192.7426347713668
 30
0.0
 11
315.3724047809829
 21
192.7426347713668
 31
0.0
  0
CIRCLE
  5
22E8
330
1F
100
AcDbEntity
  8
Innenkanten
100
AcDbCircle
 10
271.6650047809829
 20
250.7646347713667
 30
0.0
 40
2.5
  0
ARC
  5
22E9
102
{ACAD_REACTORS
330
27D8
102
}
330
1F
100
AcDbEntity
  8
0
100
AcDbCircle
 10
238.1650047809829
 20
192.7426347713668
 30
0.0
 40
82.499985
100
AcDbArc
 50
38.01199700000028
 51
51.98704599999865
  0
ARC
  5
22EA
102
{ACAD_REACTORS
330
27A5
102
}
330
1F
100
AcDbEntity
  8
Mittellinie
100
AcDbCircle
 10
238.1650047809829
 20
192.7426347713668
 30
0.0
 40
72.5
100
AcDbArc
 50
127.9402900000007
 51
142.0288300000011
  0
ARC
  5
22EB
330
1F
100
AcDbEntity
  8
Mittellinie
100
AcDbCircle
 10
238.1650047809829
 20
192.7426347713668
 30
0.0
 40
72.5
100
AcDbArc
 50
38.07747800000124
 51
52.03165400000223
  0
LINE
  5
22EC
330
1F
100
AcDbEntity
  8
Mittellinie
100
AcDbLine
 10
270.1645147809829
 20
248.1675647713668
 30
0.0
 11
273.2118147809828
 21
253.4454547713668
 31
0.0
  0
LINE
  5
22ED
330
1F
100
AcDbEntity
  8
Mittellinie
100
AcDbLine
 10
283.1648847809828
 20
237.7424847713669
 30
0.0
 11
295.0944447809829
 21
249.6720747713668
 31
0.0
  0
LINE
  5
22EE
102
{ACAD_REACTORS
330
278C
102
}
330
1F
100
AcDbEntity
  8
Mittellinie
100
AcDbLine
 10
181.4040147809829
 20
249.5036847713669
 30
0.0
 11
193.2175547809829
 21
237.6901147713669
 31
0.0
  0
CIRCLE
  5
22EF
330
1F
100
AcDbEntity
  8
Innenkanten
100
AcDbCircle
 10
289.4302647809828
 20
141.4774047713668
 30
0.0
 40
4.5
  0
CIRCLE
  5
22F0
330
1F
100
AcDbEntity
  8
Innenkanten
100
AcDbCircle
 10
289.4302647809828
 20
244.0078647713668
 30
0.0
 40
4.5
  0
ARC
  5
22F1
330
1F
100
AcDbEntity
  8
0
100
AcDbCircle
 10
238.1650047809829
 20
192.7426347713668
 30
0.0
 40
82.499985
100
AcDbArc
 50
308.0119900000015
 51
321.9870400000012
  0
ARC
  5
22F2
330
1F
100
AcDbEntity
  8
Mittellinie
100
AcDbCircle
 10
238.1650047809829
 20
192.7426347713668
 30
0.0
 40
72.5
100
AcDbArc
 50
308.0598199999996
 51
321.9699699999992
  0
CIRCLE
  5
22F3
330
1F
100
AcDbEntity
  8
Innenkanten
100
AcDbCircle
 10
238.1650047809829
 20
192.7426347713668
 30
0.0
 40
55.0
  0
LINE
  5
22F4
330
1F
100
AcDbEntity
  8
Mittellinie
100
AcDbLine
 10
283.6562747809829
 20
147.2513947713667
 30
0.0
 11
295.2380047809829
 21
135.6696947713668
 31
0.0
  0
CIRCLE
  5
22F5
330
1F
100
AcDbEntity
  8
Innenkanten
100
AcDbCircle
 10
238.1650047809829
 20
192.7426347713668
 30
0.0
 40
22.5
  0
CIRCLE
  5
22F6
330
1F
100
AcDbEntity
  8
Innenkanten
100
AcDbCircle
 10
238.1650047809829
 20
192.7426347713668
 30
0.0
 40
44.0
  0
LINE
  5
22F7
330
1F
100
AcDbEntity
  8
0
100
AcDbLine
 10
173.1656147809828
 20
243.5494647713668
 30
0.0
 11
173.1647647809828
 21
141.9369747713668
 31
0.0
  0
LINE
  5
22F8
330
1F
100
AcDbEntity
  8
Innenkanten
100
AcDbLine
 10
217.6650047809829
 20
103.5426347713669
 30
0.0
 11
258.6650047809829
 21
103.5426347713669
 31
0.0
  0
LINE
  5
22F9
330
1F
100
AcDbEntity
  8
Innenkanten
100
AcDbLine
 10
217.6650047809829
 20
104.5426347713669
 30
0.0
 11
258.6650047809829
 21
104.5426347713669
 31
0.0
  0
LINE
  5
22FA
330
1F
100
AcDbEntity
  8
Innenkanten
100
AcDbLine
 10
217.6650047809829
 20
126.7426347713668
 30
0.0
 11
258.6650047809829
 21
126.7426347713668
 31
0.0
  0
LINE
  5
22FB
330
1F
100
AcDbEntity
  8
0
100
AcDbLine
 10
187.3581847809829
 20
127.7432747713668
 30
0.0
 11
288.9706647809829
 21
127.7423947713668
 31
0.0
  0
CIRCLE
  5
22FC
330
1F
100
AcDbEntity
  8
Innenkanten
100
AcDbCircle
 10
186.8997447809829
 20
141.4773747713668
 30
0.0
 40
4.5
  0
ARC
  5
22FD
330
1F
100
AcDbEntity
  8
Mittellinie
100
AcDbCircle
 10
238.1650047809829
 20
192.7426347713668
 30
0.0
 40
72.5
100
AcDbArc
 50
217.923600000002
 51
231.9687900000003
  0
LINE
  5
22FE
330
1F
100
AcDbEntity
  8
Mittellinie
100
AcDbLine
 10
181.2604047809829
 20
135.8380347713668
 30
0.0
 11
192.3784447809829
 21
146.9560447713669
 31
0.0
  0
ARC
  5
22FF
330
1F
100
AcDbEntity
  8
Innenkanten
100
AcDbCircle
 10
238.1650047809829
 20
192.7426347713668
 30
0.0
 40
67.0
100
AcDbArc
 50
237.7160000000019
 51
242.4039599999975
  0
CIRCLE
  5
2300
330
1F
100
AcDbEntity
  8
Innenkanten
100
AcDbCircle
 10
204.6649447809829
 20
134.7189547713668
 30
0.0
 40
2.5
  0
CIRCLE
  5
2301
330
1F
100
AcDbEntity
  8
Innenkanten
100
AcDbCircle
 10
204.6649447809829
 20
134.7189547713668
 30
0.0
 40
1.5
  0
LINE
  5
2302
330
1F
100
AcDbEntity
  8
Innenkanten
100
AcDbLine
 10
203.1182547809829
 20
132.0399047713668
 30
0.0
 11
206.1653747809829
 21
137.3178047713669
 31
0.0
  0
CIRCLE
  5
2303
330
1F
100
AcDbEntity
  8
Innenkanten
100
AcDbCircle
 10
238.1650047809829
 20
157.7426047713669
 30
0.0
 40
2.5
  0
LINE
  5
2304
330
1F
100
AcDbEntity
  8
Innenkanten
100
AcDbLine
 10
236.8921747809829
 20
159.0154947713668
 30
0.0
 11
239.437774780983
 21
156.4698347713668
 31
0.0
  0
LINE
  5
2305
330
1F
100
AcDbEntity
  8
Innenkanten
100
AcDbLine
 10
236.8921747809829
 20
156.4698347713668
 30
0.0
 11
239.4377047809829
 21
159.0154347713668
 31
0.0
  0
ARC
  5
2306
330
1F
100
AcDbEntity
  8
Mittellinie
100
AcDbCircle
 10
238.1650047809829
 20
192.7426347713668
 30
0.0
 40
35.000034
100
AcDbArc
 50
261.2279199999993
 51
278.7020100000012
  0
CIRCLE
  5
2307
330
1F
100
AcDbEntity
  8
Innenkanten
100
AcDbCircle
 10
238.1650047809829
 20
192.7426347713668
 30
0.0
 40
12.0
  0
CIRCLE
  5
2308
330
1F
100
AcDbEntity
  8
Innenkanten
100
AcDbCircle
 10
238.1650047809829
 20
192.7426347713668
 30
0.0
 40
15.0
  0
CIRCLE
  5
2309
330
1F
100
AcDbEntity
  8
Innenkanten
100
AcDbCircle
 10
207.8541547809829
 20
210.2426647713667
 30
0.0
 40
2.5
  0
ARC
  5
230A
330
1F
100
AcDbEntity
  8
Mittellinie
100
AcDbCircle
 10
238.1650047809829
 20
192.7426347713668
 30
0.0
 40
35.000034
100
AcDbArc
 50
141.0030700000019
 51
158.8820700000014
  0
LINE
  5
230B
330
1F
100
AcDbEntity
  8
Mittellinie
100
AcDbLine
 10
203.4579747809829
 20
212.7806347713668
 30
0.0
 11
212.0041147809829
 21
207.8466047713668
 31
0.0
  0
LINE
  5
230C
330
1F
100
AcDbEntity
  8
Innenkanten
100
AcDbLine
 10
208.319974780983
 20
208.5039547713669
 30
0.0
 11
207.3882747809828
 21
211.9813147713667
 31
0.0
  0
LINE
  5
230D
330
1F
100
AcDbEntity
  8
Innenkanten
100
AcDbLine
 10
206.115444780983
 20
209.7767847713668
 30
0.0
 11
209.5927347809829
 21
210.7085147713668
 31
0.0
  0
ARC
  5
230E
330
1F
100
AcDbEntity
  8
Mittellinie
100
AcDbCircle
 10
238.1650047809829
 20
192.7426347713668
 30
0.0
 40
67.0
100
AcDbArc
 50
147.7159800000027
 51
152.4040199999994
  0
CIRCLE
  5
230F
330
1F
100
AcDbEntity
  8
Innenkanten
100
AcDbCircle
 10
180.1430347809829
 20
226.2426347713668
 30
0.0
 40
1.5
  0
CIRCLE
  5
2310
330
1F
100
AcDbEntity
  8
Innenkanten
100
AcDbCircle
 10
180.1430347809829
 20
226.2426347713668
 30
0.0
 40
2.5
  0
LINE
  5
2311
330
1F
100
AcDbEntity
  8
Mittellinie
100
AcDbLine
 10
177.4626147809829
 20
227.7901847713668
 30
0.0
 11
182.740444780983
 21
224.7429447713668
 31
0.0
  0
CIRCLE
  5
2312
330
1F
100
AcDbEntity
  8
Innenkanten
100
AcDbCircle
 10
186.8998047809828
 20
244.0078947713668
 30
0.0
 40
4.5
  0
CIRCLE
  5
2313
330
1F
100
AcDbEntity
  8
Innenkanten
100
AcDbCircle
 10
268.4758547809829
 20
210.2426347713668
 30
0.0
 40
2.5
  0
ARC
  5
2314
330
1F
100
AcDbEntity
  8
Mittellinie
100
AcDbCircle
 10
238.1650047809829
 20
192.7426347713668
 30
0.0
 40
35.000034
100
AcDbArc
 50
21.79150999999885
 51
38.71940000000122
  0
LINE
  5
2315
330
1F
100
AcDbEntity
  8
Mittellinie
100
AcDbLine
 10
264.1033547809829
 20
207.7181947713669
 30
0.0
 11
273.124594780983
 21
212.9265647713667
 31
0.0
  0
LINE
  5
2316
330
1F
100
AcDbEntity
  8
Innenkanten
100
AcDbLine
 10
268.0100347809828
 20
208.5039547713669
 30
0.0
 11
268.9417947809829
 21
211.9813447713669
 31
0.0
  0
LINE
  5
2317
330
1F
100
AcDbEntity
  8
Innenkanten
100
AcDbLine
 10
266.7371447809829
 20
210.7085747713668
 30
0.0
 11
270.2145647809828
 21
209.7767847713668
 31
0.0
  0
LINE
  5
2318
102
{ACAD_REACTORS
330
274A
102
}
330
1F
100
AcDbEntity
  8
0
100
AcDbLine
 10
303.164394780983
 20
141.9358147713668
 30
0.0
 11
303.165244780983
 21
243.5483347713668
 31
0.0
  0
CIRCLE
  5
2319
330
1F
100
AcDbEntity
  8
Innenkanten
100
AcDbCircle
 10
296.1869747809829
 20
159.2426347713668
 30
0.0
 40
2.5
  0
CIRCLE
  5
231A
330
1F
100
AcDbEntity
  8
Innenkanten
100
AcDbCircle
 10
296.1869747809829
 20
159.2426347713668
 30
0.0
 40
1.5
  0
ARC
  5
231B
330
1F
100
AcDbEntity
  8
Mittellinie
100
AcDbCircle
 10
238.1650047809829
 20
192.7426347713668
 30
0.0
 40
67.0
100
AcDbArc
 50
327.715990000001
 51
332.4039800000011
  0
LINE
  5
231C
330
1F
100
AcDbEntity
  8
Mittellinie
100
AcDbLine
 10
298.8677647809828
 20
157.6958547713669
 30
0.0
 11
293.5898047809829
 21
160.7430647713669
 31
0.0
  0
LINE
  5
231D
102
{ACAD_REACTORS
330
276B
102
}
330
1F
100
AcDbEntity
  8
0
100
AcDbLine
 10
288.9718247809829
 20
257.7419947713668
 30
0.0
 11
187.3593447809829
 21
257.7428847713668
 31
0.0
  0
ARC
  5
231E
330
1F
100
AcDbEntity
  8
Mittellinie
100
AcDbCircle
 10
238.1650047809829
 20
192.7426347713668
 30
0.0
 40
67.0
100
AcDbArc
 50
57.71602099999899
 51
62.40400299999883
  0
CIRCLE
  5
231F
330
1F
100
AcDbEntity
  8
Innenkanten
100
AcDbCircle
 10
271.6650047809829
 20
250.7646347713667
 30
0.0
 40
1.5
  0
LINE
  5
2390
102
{ACAD_REACTORS
330
26A3
102
}
330
1F
100
AcDbEntity
  8
Mittellinie
100
AcDbLine
 10
596.1565778189485
 20
192.7344138730005
 30
0.0
 11
377.7870778189485
 21
192.7344138730005
 31
0.0
  0
LINE
  5
2391
330
1F
100
AcDbEntity
  8
0
100
AcDbLine
 10
537.9775978189485
 20
204.7344138730005
 30
0.0
 11
587.9776278189486
 21
204.7344138730005
 31
0.0
  0
LINE
  5
2392
330
1F
100
AcDbEntity
  8
0
100
AcDbLine
 10
587.9776278189486
 20
180.7344138730005
 30
0.0
 11
537.9775978189485
 21
180.7344138730005
 31
0.0
  0
LINE
  5
2393
330
1F
100
AcDbEntity
  8
0
100
AcDbLine
 10
451.9775978189485
 20
150.2344138730005
 30
0.0
 11
451.9775978189485
 21
137.2183938730005
 31
0.0
  0
LINE
  5
2394
330
1F
100
AcDbEntity
  8
Innenkanten
100
AcDbLine
 10
414.4775978189485
 20
231.6533938730005
 30
0.0
 11
414.4775978189485
 21
134.3344238730005
 31
0.0
  0
LINE
  5
2395
102
{ACAD_REACTORS
330
2619
102
}
330
1F
100
AcDbEntity
  8
Innenkanten
100
AcDbLine
 10
520.9775978189485
 20
127.7344138730005
 30
0.0
 11
520.9775978189485
 21
257.7344138730005
 31
0.0
  0
LINE
  5
2396
330
1F
100
AcDbEntity
  8
Innenkanten
100
AcDbLine
 10
456.9775978189485
 20
257.7344138730005
 30
0.0
 11
456.9775978189485
 21
127.7344138730005
 31
0.0
  0
LINE
  5
2397
330
1F
100
AcDbEntity
  8
Innenkanten
100
AcDbLine
 10
516.9775978189485
 20
257.7344138730005
 30
0.0
 11
516.9775978189485
 21
127.7344138730005
 31
0.0
  0
LINE
  5
2398
102
{ACAD_REACTORS
330
263E
330
26E5
102
}
330
1F
100
AcDbEntity
  8
0
100
AcDbLine
 10
535.9775978189485
 20
137.7344138730005
 30
0.0
 11
535.9775978189485
 21
247.7344138730005
 31
0.0
  0
LINE
  5
2399
102
{ACAD_REACTORS
330
2619
330
263E
330
2661
330
26A3
330
2706
102
}
330
1F
100
AcDbEntity
  8
0
100
AcDbLine
 10
532.9775978189485
 20
127.7344138730005
 30
0.0
 11
532.9775978189485
 21
257.7344138730005
 31
0.0
  0
LINE
  5
239A
330
1F
100
AcDbEntity
  8
0
100
AcDbLine
 10
452.4775978189485
 20
257.7344138730005
 30
0.0
 11
452.4775978189485
 21
127.7344138730005
 31
0.0
  0
LINE
  5
239B
102
{ACAD_REACTORS
330
26A3
102
}
330
1F
100
AcDbEntity
  8
0
100
AcDbLine
 10
412.9774778189485
 20
222.7274838730005
 30
0.0
 11
412.9774778189485
 21
134.3344238730005
 31
0.0
  0
LINE
  5
239C
330
1F
100
AcDbEntity
  8
Innenkanten
100
AcDbLine
 10
450.4775978189485
 20
133.3344238730005
 30
0.0
 11
413.4275778189484
 21
133.3344238730005
 31
0.0
  0
LINE
  5
239D
330
1F
100
AcDbEntity
  8
0
100
AcDbLine
 10
412.9775678189485
 20
134.3344238730005
 30
0.0
 11
450.4775978189485
 21
134.3344238730005
 31
0.0
  0
LINE
  5
239E
330
1F
100
AcDbEntity
  8
0
100
AcDbLine
 10
451.5275878189485
 20
130.5344338730005
 30
0.0
 11
413.4275778189484
 21
130.5344338730005
 31
0.0
  0
LINE
  5
239F
330
1F
100
AcDbEntity
  8
0
100
AcDbLine
 10
413.4275778189484
 20
130.5344338730005
 30
0.0
 11
413.4275778189484
 21
134.3344238730005
 31
0.0
  0
LINE
  5
23A0
102
{ACAD_REACTORS
330
2706
102
}
330
1F
100
AcDbEntity
  8
Mittellinie
100
AcDbLine
 10
481.4775978189485
 20
74.79420387300058
 30
0.0
 11
481.4775978189485
 21
111.6687538730005
 31
0.0
  0
LINE
  5
23A1
330
1F
100
AcDbEntity
  8
0
100
AcDbLine
 10
501.9775978189485
 20
104.5342938730005
 30
0.0
 11
501.9775978189485
 21
100.7343038730006
 31
0.0
  0
LINE
  5
23A2
330
1F
100
AcDbEntity
  8
0
100
AcDbLine
 10
460.9775978189485
 20
100.7343038730006
 30
0.0
 11
460.9775978189485
 21
104.5342938730005
 31
0.0
  0
LINE
  5
23A3
330
1F
100
AcDbEntity
  8
Innenkanten
100
AcDbLine
 10
498.8775578189486
 20
97.73430387300061
 30
0.0
 11
464.0775678189485
 21
97.73430387300061
 31
0.0
  0
LINE
  5
23A4
330
1F
100
AcDbEntity
  8
Innenkanten
100
AcDbLine
 10
464.0775678189485
 20
82.73430387300061
 30
0.0
 11
498.8775578189486
 21
82.73430387300061
 31
0.0
  0
LINE
  5
23A5
330
1F
100
AcDbEntity
  8
0
100
AcDbLine
 10
465.0775678189485
 20
81.73430387300061
 30
0.0
 11
497.8775578189485
 21
81.73430387300061
 31
0.0
  0
LINE
  5
23A6
330
1F
100
AcDbEntity
  8
0
100
AcDbLine
 10
501.9775978189485
 20
100.7343038730006
 30
0.0
 11
460.9775978189485
 21
100.7343038730006
 31
0.0
  0
LINE
  5
23A7
330
1F
100
AcDbEntity
  8
Innenkanten
100
AcDbLine
 10
465.0775678189485
 20
97.73430387300061
 30
0.0
 11
465.0775678189485
 21
81.73430387300061
 31
0.0
  0
LINE
  5
23A8
330
1F
100
AcDbEntity
  8
0
100
AcDbLine
 10
464.0775678189485
 20
100.7343038730006
 30
0.0
 11
464.0775678189485
 21
82.73430387300061
 31
0.0
  0
LINE
  5
23A9
330
1F
100
AcDbEntity
  8
0
100
AcDbLine
 10
464.0775378189485
 20
82.73427387300058
 30
0.0
 11
465.0775378189485
 21
81.73426387300059
 31
0.0
  0
LINE
  5
23AA
330
1F
100
AcDbEntity
  8
Innenkanten
100
AcDbLine
 10
497.8775578189485
 20
81.73430387300061
 30
0.0
 11
497.8775578189485
 21
97.73430387300061
 31
0.0
  0
LINE
  5
23AB
330
1F
100
AcDbEntity
  8
0
100
AcDbLine
 10
498.8775578189486
 20
82.73430387300061
 30
0.0
 11
498.8775578189486
 21
100.7343038730006
 31
0.0
  0
LINE
  5
23AC
330
1F
100
AcDbEntity
  8
0
100
AcDbLine
 10
497.8775278189486
 20
81.73430387300061
 30
0.0
 11
498.8775278189486
 21
82.73430387300061
 31
0.0
  0
LINE
  5
23AD
330
1F
100
AcDbEntity
  8
0
100
AcDbLine
 10
498.8775578189486
 20
100.7343038730006
 30
0.0
 11
498.8775578189486
 21
97.73430387300061
 31
0.0
  0
LINE
  5
23AE
330
1F
100
AcDbEntity
  8
Innenkanten
100
AcDbLine
 10
460.9775978189485
 20
103.5342938730005
 30
0.0
 11
501.9775978189485
 21
103.5342938730005
 31
0.0
  0
LINE
  5
23AF
330
1F
100
AcDbEntity
  8
Innenkanten
100
AcDbLine
 10
513.9775978189485
 20
126.9503538730006
 30
0.0
 11
458.9775978189485
 21
126.9502938730005
 31
0.0
  0
LINE
  5
23B0
330
1F
100
AcDbEntity
  8
0
100
AcDbLine
 10
503.9774778189486
 20
104.5352238730005
 30
0.0
 11
458.9775978189485
 21
104.5352238730005
 31
0.0
  0
LINE
  5
23B1
330
1F
100
AcDbEntity
  8
0
100
AcDbLine
 10
532.9775978189485
 20
127.7344138730005
 30
0.0
 11
452.4775978189485
 21
127.7344138730005
 31
0.0
  0
LINE
  5
23B2
330
1F
100
AcDbEntity
  8
Innenkanten
100
AcDbLine
 10
446.2775878189486
 20
111.2344338730006
 30
0.0
 11
446.2775878189486
 21
127.5344338730005
 31
0.0
  0
LINE
  5
23B3
330
1F
100
AcDbEntity
  8
Innenkanten
100
AcDbLine
 10
418.6776078189486
 20
127.5344338730005
 30
0.0
 11
418.6776078189486
 21
111.2344338730006
 31
0.0
  0
LINE
  5
23B4
102
{ACAD_REACTORS
330
2727
102
}
330
1F
100
AcDbEntity
  8
Mittellinie
100
AcDbLine
 10
432.4775978189485
 20
137.7936238730005
 30
0.0
 11
432.4775978189485
 21
104.4916738730006
 31
0.0
  0
LINE
  5
23B5
330
1F
100
AcDbEntity
  8
0
100
AcDbLine
 10
447.2775878189485
 20
112.2344338730006
 30
0.0
 11
447.2775878189485
 21
130.5344338730005
 31
0.0
  0
LINE
  5
23B6
330
1F
100
AcDbEntity
  8
0
100
AcDbLine
 10
458.9775978189485
 20
127.7122638730005
 30
0.0
 11
458.9775978189485
 21
104.5342938730005
 31
0.0
  0
LINE
  5
23B7
330
1F
100
AcDbEntity
  8
0
100
AcDbLine
 10
417.6776078189485
 20
130.5344338730005
 30
0.0
 11
417.6776078189485
 21
112.2344338730006
 31
0.0
  0
LINE
  5
23B8
330
1F
100
AcDbEntity
  8
Innenkanten
100
AcDbLine
 10
417.6776078189485
 20
112.2344338730006
 30
0.0
 11
447.2775878189485
 21
112.2344338730006
 31
0.0
  0
LINE
  5
23B9
330
1F
100
AcDbEntity
  8
0
100
AcDbLine
 10
418.6776078189486
 20
111.2344338730006
 30
0.0
 11
446.2775878189486
 21
111.2344338730006
 31
0.0
  0
LINE
  5
23BA
330
1F
100
AcDbEntity
  8
0
100
AcDbLine
 10
417.6775778189485
 20
112.2344138730005
 30
0.0
 11
418.6775778189485
 21
111.2344138730005
 31
0.0
  0
LINE
  5
23BB
330
1F
100
AcDbEntity
  8
0
100
AcDbLine
 10
446.2775478189485
 20
111.2344138730005
 30
0.0
 11
447.2775478189485
 21
112.2344138730005
 31
0.0
  0
LINE
  5
23BC
330
1F
100
AcDbEntity
  8
Innenkanten
100
AcDbLine
 10
447.2775878189485
 20
127.5344338730005
 30
0.0
 11
417.6776078189485
 21
127.5344338730005
 31
0.0
  0
LINE
  5
23BD
330
1F
100
AcDbEntity
  8
0
100
AcDbLine
 10
450.4775978189485
 20
137.2183938730005
 30
0.0
 11
450.4775978189485
 21
132.2183938730005
 31
0.0
  0
LINE
  5
23BE
330
1F
100
AcDbEntity
  8
0
100
AcDbLine
 10
451.5275878189485
 20
132.2183938730005
 30
0.0
 11
451.5275878189485
 21
130.5344338730005
 31
0.0
  0
LINE
  5
23BF
330
1F
100
AcDbEntity
  8
Mittellinie
100
AcDbLine
 10
453.5400378189486
 20
134.7183938730005
 30
0.0
 11
449.8525978189485
 21
134.7183938730005
 31
0.0
  0
LINE
  5
23C0
330
1F
100
AcDbEntity
  8
0
100
AcDbLine
 10
450.4775978189485
 20
132.2183938730005
 30
0.0
 11
452.4775978189485
 21
132.2183938730005
 31
0.0
  0
LINE
  5
23C1
330
1F
100
AcDbEntity
  8
0
100
AcDbLine
 10
452.4775978189485
 20
137.2183938730005
 30
0.0
 11
450.4775978189485
 21
137.2183938730005
 31
0.0
  0
ARC
  5
23C2
330
1F
100
AcDbEntity
  8
0
100
AcDbCircle
 10
455.3416678189485
 20
139.6715138730005
 30
0.0
 40
60.0
100
AcDbArc
 50
324.1542699999991
 51
347.759289999998
  0
LINE
  5
23C3
330
1F
100
AcDbEntity
  8
0
100
AcDbLine
 10
513.9775978189485
 20
126.9503538730006
 30
0.0
 11
513.9775978189485
 21
127.8004538730004
 31
0.0
  0
LINE
  5
23C4
330
1F
100
AcDbEntity
  8
Innenkanten
100
AcDbLine
 10
520.9775978189485
 20
141.9284138730005
 30
0.0
 11
532.9775978189485
 21
141.9284138730005
 31
0.0
  0
LINE
  5
23C5
330
1F
100
AcDbEntity
  8
0
100
AcDbLine
 10
532.9775978189485
 20
137.7344138730005
 30
0.0
 11
535.9775978189485
 21
137.7344138730005
 31
0.0
  0
LINE
  5
23C6
330
1F
100
AcDbEntity
  8
Innenkanten
100
AcDbLine
 10
414.4775978189485
 20
158.3870338730006
 30
0.0
 11
439.4775978189485
 21
158.3870338730006
 31
0.0
  0
LINE
  5
23C7
330
1F
100
AcDbEntity
  8
0
100
AcDbLine
 10
439.4776278189485
 20
232.7344438730004
 30
0.0
 11
415.1216978189485
 21
231.9187438730005
 31
0.0
  0
LINE
  5
23C8
330
1F
100
AcDbEntity
  8
Innenkanten
100
AcDbLine
 10
412.9775678189485
 20
159.2494638730005
 30
0.0
 11
414.4775978189485
 21
158.3870338730006
 31
0.0
  0
ARC
  5
23C9
330
1F
100
AcDbEntity
  8
0
100
AcDbCircle
 10
443.0255378189485
 20
222.7274838730005
 30
0.0
 40
30.047937
100
AcDbArc
 50
163.6191800000019
 51
179.9868200000033
  0
ARC
  5
23CA
330
1F
100
AcDbEntity
  8
0
100
AcDbCircle
 10
415.1567378189485
 20
230.9191638730005
 30
0.0
 40
1.000159999999999
100
AcDbArc
 50
92.00739500000016
 51
163.5949800000011
  0
LINE
  5
23CB
330
1F
100
AcDbEntity
  8
Innenkanten
100
AcDbLine
 10
445.4775978189485
 20
150.2344138730005
 30
0.0
 11
445.4775978189485
 21
235.2344138730005
 31
0.0
  0
LINE
  5
23CC
102
{ACAD_REACTORS
330
2682
102
}
330
1F
100
AcDbEntity
  8
0
100
AcDbLine
 10
537.9775978189485
 20
177.7344138730005
 30
0.0
 11
537.9775978189485
 21
207.7344138730005
 31
0.0
  0
LINE
  5
23CD
330
1F
100
AcDbEntity
  8
0
100
AcDbLine
 10
439.4775978189485
 20
235.2344138730005
 30
0.0
 11
439.4775978189485
 21
150.2344138730005
 31
0.0
  0
LINE
  5
23CE
330
1F
100
AcDbEntity
  8
0
100
AcDbLine
 10
439.4775978189485
 20
150.2344138730005
 30
0.0
 11
520.9775978189485
 21
150.2344138730005
 31
0.0
  0
LINE
  5
23CF
330
1F
100
AcDbEntity
  8
Innenkanten
100
AcDbLine
 10
516.9775978189485
 20
164.7344138730005
 30
0.0
 11
456.9857778189485
 21
164.7344138730005
 31
0.0
  0
LINE
  5
23D0
330
1F
100
AcDbEntity
  8
Innenkanten
100
AcDbLine
 10
516.9775978189485
 20
167.7344138730005
 30
0.0
 11
456.9857778189485
 21
167.7344138730005
 31
0.0
  0
LINE
  5
23D1
330
1F
100
AcDbEntity
  8
Innenkanten
100
AcDbLine
 10
516.9775978189485
 20
170.7344138730005
 30
0.0
 11
456.9857778189485
 21
170.7344138730005
 31
0.0
  0
LINE
  5
23D2
330
1F
100
AcDbEntity
  8
Innenkanten
100
AcDbLine
 10
516.9775978189485
 20
173.7344138730005
 30
0.0
 11
456.9857778189485
 21
173.7344138730005
 31
0.0
  0
LINE
  5
23D3
330
1F
100
AcDbEntity
  8
Innenkanten
100
AcDbLine
 10
439.4775978189485
 20
165.2309638730006
 30
0.0
 11
452.4775978189485
 21
165.2309638730006
 31
0.0
  0
LINE
  5
23D4
330
1F
100
AcDbEntity
  8
Mittellinie
100
AcDbLine
 10
441.1484278189485
 20
157.5593338730005
 30
0.0
 11
447.9697178189485
 21
157.5593338730005
 31
0.0
  0
LINE
  5
23D5
330
1F
100
AcDbEntity
  8
Innenkanten
100
AcDbLine
 10
445.4775978189485
 20
151.7112538730005
 30
0.0
 11
439.4775978189485
 21
151.7112538730005
 31
0.0
  0
LINE
  5
23D6
330
1F
100
AcDbEntity
  8
0
100
AcDbLine
 10
439.4775978189485
 20
158.0752038730005
 30
0.0
 11
445.4775978189485
 21
158.0752038730005
 31
0.0
  0
ARC
  5
23D7
330
1F
100
AcDbEntity
  8
0
100
AcDbCircle
 10
444.4775978189485
 20
156.0593338730005
 30
0.0
 40
1.0
100
AcDbArc
 50
179.9999799999979
 51
270.0000299999997
  0
LINE
  5
23D8
330
1F
100
AcDbEntity
  8
0
100
AcDbLine
 10
443.4775978189485
 20
158.0752038730005
 30
0.0
 11
443.4775978189485
 21
156.0593338730005
 31
0.0
  0
LINE
  5
23D9
330
1F
100
AcDbEntity
  8
0
100
AcDbLine
 10
444.4775978189485
 20
155.0593338730005
 30
0.0
 11
445.4775978189485
 21
155.0593338730005
 31
0.0
  0
LINE
  5
23DA
330
1F
100
AcDbEntity
  8
0
100
AcDbLine
 10
535.9775978189485
 20
177.7344138730005
 30
0.0
 11
537.9775978189485
 21
177.7344138730005
 31
0.0
  0
LINE
  5
23DB
330
1F
100
AcDbEntity
  8
0
100
AcDbLine
 10
439.4775978189485
 20
235.2344138730005
 30
0.0
 11
520.9775978189485
 21
235.2344138730005
 31
0.0
  0
LINE
  5
23DC
330
1F
100
AcDbEntity
  8
Innenkanten
100
AcDbLine
 10
516.9775978189485
 20
211.7344138730005
 30
0.0
 11
456.9857778189485
 21
211.7344138730005
 31
0.0
  0
LINE
  5
23DD
330
1F
100
AcDbEntity
  8
Innenkanten
100
AcDbLine
 10
516.9775978189485
 20
214.7344138730005
 30
0.0
 11
456.9857778189485
 21
214.7344138730005
 31
0.0
  0
LINE
  5
23DE
330
1F
100
AcDbEntity
  8
Innenkanten
100
AcDbLine
 10
516.9775978189485
 20
217.7344138730005
 30
0.0
 11
456.9857778189485
 21
217.7344138730005
 31
0.0
  0
LINE
  5
23DF
330
1F
100
AcDbEntity
  8
Innenkanten
100
AcDbLine
 10
516.9775978189485
 20
220.7344138730005
 30
0.0
 11
456.9857778189485
 21
220.7344138730005
 31
0.0
  0
LINE
  5
23E0
330
1F
100
AcDbEntity
  8
Innenkanten
100
AcDbLine
 10
452.4775978189485
 20
220.2381038730005
 30
0.0
 11
439.4775978189485
 21
220.2381038730005
 31
0.0
  0
LINE
  5
23E1
330
1F
100
AcDbEntity
  8
Mittellinie
100
AcDbLine
 10
441.1484278189485
 20
222.3469038730005
 30
0.0
 11
447.9697178189485
 21
222.3469038730005
 31
0.0
  0
ARC
  5
23E2
330
1F
100
AcDbEntity
  8
0
100
AcDbCircle
 10
444.4775978189485
 20
223.8469038730005
 30
0.0
 40
1.0
100
AcDbArc
 50
89.9999820000008
 51
179.9999599999959
  0
LINE
  5
23E3
330
1F
100
AcDbEntity
  8
0
100
AcDbLine
 10
439.4775978189485
 20
221.7147938730005
 30
0.0
 11
445.4775978189485
 21
221.7147938730005
 31
0.0
  0
LINE
  5
23E4
330
1F
100
AcDbEntity
  8
0
100
AcDbLine
 10
443.4775978189485
 20
223.8469038730005
 30
0.0
 11
443.4775978189485
 21
221.7147938730005
 31
0.0
  0
LINE
  5
23E5
330
1F
100
AcDbEntity
  8
Innenkanten
100
AcDbLine
 10
439.4775978189485
 20
228.0787738730006
 30
0.0
 11
445.4775978189485
 21
228.0787738730006
 31
0.0
  0
LINE
  5
23E6
330
1F
100
AcDbEntity
  8
0
100
AcDbLine
 10
444.4775978189485
 20
224.8469038730005
 30
0.0
 11
445.4775978189485
 21
224.8469038730005
 31
0.0
  0
LINE
  5
23E7
330
1F
100
AcDbEntity
  8
0
100
AcDbLine
 10
450.4775978189485
 20
223.6969738730004
 30
0.0
 11
450.4775978189485
 21
228.6969738730005
 31
0.0
  0
LINE
  5
23E8
330
1F
100
AcDbEntity
  8
0
100
AcDbLine
 10
452.4775978189485
 20
223.6969738730004
 30
0.0
 11
450.4775978189485
 21
223.6969738730004
 31
0.0
  0
LINE
  5
23E9
330
1F
100
AcDbEntity
  8
Mittellinie
100
AcDbLine
 10
448.5572478189485
 20
226.1969738730005
 30
0.0
 11
454.6683278189485
 21
226.1969738730005
 31
0.0
  0
LINE
  5
23EA
330
1F
100
AcDbEntity
  8
0
100
AcDbLine
 10
450.4775978189485
 20
228.6969738730005
 30
0.0
 11
452.4775978189485
 21
228.6969738730005
 31
0.0
  0
LINE
  5
23EB
330
1F
100
AcDbEntity
  8
0
100
AcDbLine
 10
537.9775978189485
 20
207.7344138730005
 30
0.0
 11
535.9775978189485
 21
207.7344138730005
 31
0.0
  0
LINE
  5
23EC
330
1F
100
AcDbEntity
  8
0
100
AcDbLine
 10
452.4775978189485
 20
257.7344138730005
 30
0.0
 11
532.9775978189485
 21
257.7344138730005
 31
0.0
  0
LINE
  5
23ED
330
1F
100
AcDbEntity
  8
0
100
AcDbLine
 10
450.4775978189485
 20
253.2657838730006
 30
0.0
 11
450.4775978189485
 21
248.2657838730006
 31
0.0
  0
LINE
  5
23EE
330
1F
100
AcDbEntity
  8
Mittellinie
100
AcDbLine
 10
454.6683278189485
 20
250.7657838730005
 30
0.0
 11
448.7963178189485
 21
250.7657838730005
 31
0.0
  0
LINE
  5
23EF
330
1F
100
AcDbEntity
  8
0
100
AcDbLine
 10
450.4775978189485
 20
248.2657838730006
 30
0.0
 11
452.4775978189485
 21
248.2657838730006
 31
0.0
  0
LINE
  5
23F0
330
1F
100
AcDbEntity
  8
0
100
AcDbLine
 10
452.4775978189485
 20
253.2657838730006
 30
0.0
 11
450.4775978189485
 21
253.2657838730006
 31
0.0
  0
LINE
  5
23F1
330
1F
100
AcDbEntity
  8
Innenkanten
100
AcDbLine
 10
520.9775978189485
 20
243.5404138730006
 30
0.0
 11
532.9775978189485
 21
243.5404138730006
 31
0.0
  0
LINE
  5
23F2
330
1F
100
AcDbEntity
  8
0
100
AcDbLine
 10
532.9775978189485
 20
247.7344138730005
 30
0.0
 11
535.9775978189485
 21
247.7344138730005
 31
0.0
  0
LINE
  5
23F3
102
{ACAD_REACTORS
330
2661
330
26C4
102
}
330
1F
100
AcDbEntity
  8
0
100
AcDbLine
 10
587.9776278189486
 20
204.7344138730005
 30
0.0
 11
587.9776278189486
 21
180.7344138730005
 31
0.0
  0
LINE
  5
2461
102
{ACAD_REACTORS
330
24C5
102
}
330
1F
100
AcDbEntity
  8
Innenkanten
100
AcDbLine
 10
54.17235537758813
 20
231.6604815127522
 30
0.0
 11
54.17235537758813
 21
134.3415115127522
 31
0.0
  0
LINE
  5
2462
102
{ACAD_REACTORS
330
24C5
102
}
330
1F
100
AcDbEntity
  8
Mittellinie
100
AcDbLine
 10
-127.5066246224118
 20
192.7415015127522
 30
0.0
 11
90.86287537758812
 21
192.7415015127522
 31
0.0
  0
LINE
  5
2463
102
{ACAD_REACTORS
330
24C5
102
}
330
1F
100
AcDbEntity
  8
0
100
AcDbLine
 10
-69.32764462241187
 20
204.7415015127522
 30
0.0
 11
-119.3276746224119
 21
204.7415015127522
 31
0.0
  0
LINE
  5
2464
102
{ACAD_REACTORS
330
24C5
102
}
330
1F
100
AcDbEntity
  8
0
100
AcDbLine
 10
-119.3276746224119
 20
180.7415015127522
 30
0.0
 11
-69.32764462241187
 21
180.7415015127522
 31
0.0
  0
LINE
  5
2465
102
{ACAD_REACTORS
330
24C5
102
}
330
1F
100
AcDbEntity
  8
0
100
AcDbLine
 10
16.67235537758813
 20
150.2415015127522
 30
0.0
 11
16.67235537758813
 21
137.2254815127522
 31
0.0
  0
LINE
  5
2466
102
{ACAD_REACTORS
330
24C5
102
}
330
1F
100
AcDbEntity
  8
Innenkanten
100
AcDbLine
 10
-52.32764462241187
 20
127.7415015127522
 30
0.0
 11
-52.32764462241187
 21
257.7415015127523
 31
0.0
  0
LINE
  5
2467
102
{ACAD_REACTORS
330
24C5
102
}
330
1F
100
AcDbEntity
  8
Innenkanten
100
AcDbLine
 10
11.67235537758813
 20
257.7415015127523
 30
0.0
 11
11.67235537758813
 21
127.7415015127522
 31
0.0
  0
LINE
  5
2468
102
{ACAD_REACTORS
330
24C5
102
}
330
1F
100
AcDbEntity
  8
Innenkanten
100
AcDbLine
 10
-48.32764462241186
 20
257.7415015127523
 30
0.0
 11
-48.32764462241186
 21
127.7415015127522
 31
0.0
  0
LINE
  5
2469
102
{ACAD_REACTORS
330
24C5
102
}
330
1F
100
AcDbEntity
  8
0
100
AcDbLine
 10
-67.32764462241187
 20
137.7415015127522
 30
0.0
 11
-67.32764462241187
 21
247.7415015127522
 31
0.0
  0
LINE
  5
246A
102
{ACAD_REACTORS
330
24C5
102
}
330
1F
100
AcDbEntity
  8
0
100
AcDbLine
 10
-64.32764462241187
 20
127.7415015127522
 30
0.0
 11
-64.32764462241187
 21
257.7415015127523
 31
0.0
  0
LINE
  5
246B
102
{ACAD_REACTORS
330
24C5
102
}
330
1F
100
AcDbEntity
  8
0
100
AcDbLine
 10
16.17235537758813
 20
257.7415015127523
 30
0.0
 11
16.17235537758813
 21
127.7415015127522
 31
0.0
  0
LINE
  5
246C
102
{ACAD_REACTORS
330
24C5
102
}
330
1F
100
AcDbEntity
  8
0
100
AcDbLine
 10
55.67247537758811
 20
222.7345715127522
 30
0.0
 11
55.67247537758811
 21
134.3415115127522
 31
0.0
  0
LINE
  5
246D
102
{ACAD_REACTORS
330
24C5
102
}
330
1F
100
AcDbEntity
  8
Innenkanten
100
AcDbLine
 10
18.17235537758813
 20
133.3415115127522
 30
0.0
 11
55.22237537758815
 21
133.3415115127522
 31
0.0
  0
LINE
  5
246E
102
{ACAD_REACTORS
330
24C5
102
}
330
1F
100
AcDbEntity
  8
0
100
AcDbLine
 10
55.67238537758811
 20
134.3415115127522
 30
0.0
 11
18.17235537758813
 21
134.3415115127522
 31
0.0
  0
LINE
  5
246F
102
{ACAD_REACTORS
330
24C5
102
}
330
1F
100
AcDbEntity
  8
0
100
AcDbLine
 10
17.12236537758809
 20
130.5415215127522
 30
0.0
 11
55.22237537758815
 21
130.5415215127522
 31
0.0
  0
LINE
  5
2470
102
{ACAD_REACTORS
330
24C5
102
}
330
1F
100
AcDbEntity
  8
0
100
AcDbLine
 10
55.22237537758815
 20
130.5415215127522
 30
0.0
 11
55.22237537758815
 21
134.3415115127522
 31
0.0
  0
LINE
  5
2471
102
{ACAD_REACTORS
330
24C5
102
}
330
1F
100
AcDbEntity
  8
Mittellinie
100
AcDbLine
 10
-12.82764462241186
 20
74.8012915127523
 30
0.0
 11
-12.82764462241186
 21
111.6758415127522
 31
0.0
  0
LINE
  5
2472
102
{ACAD_REACTORS
330
24C5
102
}
330
1F
100
AcDbEntity
  8
0
100
AcDbLine
 10
-33.32764462241186
 20
104.5413815127523
 30
0.0
 11
-33.32764462241186
 21
100.7413915127523
 31
0.0
  0
LINE
  5
2473
102
{ACAD_REACTORS
330
24C5
102
}
330
1F
100
AcDbEntity
  8
0
100
AcDbLine
 10
7.672355377588132
 20
100.7413915127523
 30
0.0
 11
7.672355377588132
 21
104.5413815127523
 31
0.0
  0
LINE
  5
2474
102
{ACAD_REACTORS
330
24C5
102
}
330
1F
100
AcDbEntity
  8
Innenkanten
100
AcDbLine
 10
-30.22760462241189
 20
97.74139151275234
 30
0.0
 11
4.572385377588148
 21
97.74139151275234
 31
0.0
  0
LINE
  5
2475
102
{ACAD_REACTORS
330
24C5
102
}
330
1F
100
AcDbEntity
  8
Innenkanten
100
AcDbLine
 10
4.572385377588148
 20
82.74139151275234
 30
0.0
 11
-30.22760462241189
 21
82.74139151275234
 31
0.0
  0
LINE
  5
2476
102
{ACAD_REACTORS
330
24C5
102
}
330
1F
100
AcDbEntity
  8
0
100
AcDbLine
 10
3.572385377588148
 20
81.74139151275232
 30
0.0
 11
-29.22760462241189
 21
81.74139151275232
 31
0.0
  0
LINE
  5
2477
102
{ACAD_REACTORS
330
24C5
102
}
330
1F
100
AcDbEntity
  8
0
100
AcDbLine
 10
-33.32764462241186
 20
100.7413915127523
 30
0.0
 11
7.672355377588132
 21
100.7413915127523
 31
0.0
  0
LINE
  5
2478
102
{ACAD_REACTORS
330
24C5
102
}
330
1F
100
AcDbEntity
  8
Innenkanten
100
AcDbLine
 10
3.572385377588148
 20
97.74139151275234
 30
0.0
 11
3.572385377588148
 21
81.74139151275232
 31
0.0
  0
LINE
  5
2479
102
{ACAD_REACTORS
330
24C5
102
}
330
1F
100
AcDbEntity
  8
0
100
AcDbLine
 10
4.572385377588148
 20
100.7413915127523
 30
0.0
 11
4.572385377588148
 21
82.74139151275234
 31
0.0
  0
LINE
  5
247A
102
{ACAD_REACTORS
330
24C5
102
}
330
1F
100
AcDbEntity
  8
0
100
AcDbLine
 10
4.572415377588129
 20
82.74136151275229
 30
0.0
 11
3.572415377588129
 21
81.74135151275232
 31
0.0
  0
LINE
  5
247B
102
{ACAD_REACTORS
330
24C5
102
}
330
1F
100
AcDbEntity
  8
Innenkanten
100
AcDbLine
 10
-29.22760462241189
 20
81.74139151275232
 30
0.0
 11
-29.22760462241189
 21
97.74139151275234
 31
0.0
  0
LINE
  5
247C
102
{ACAD_REACTORS
330
24C5
102
}
330
1F
100
AcDbEntity
  8
0
100
AcDbLine
 10
-30.22760462241189
 20
82.74139151275234
 30
0.0
 11
-30.22760462241189
 21
100.7413915127523
 31
0.0
  0
LINE
  5
247D
102
{ACAD_REACTORS
330
24C5
102
}
330
1F
100
AcDbEntity
  8
0
100
AcDbLine
 10
-29.2275746224119
 20
81.74139151275232
 30
0.0
 11
-30.22757462241191
 21
82.74139151275234
 31
0.0
  0
LINE
  5
247E
102
{ACAD_REACTORS
330
24C5
102
}
330
1F
100
AcDbEntity
  8
0
100
AcDbLine
 10
-30.22760462241189
 20
100.7413915127523
 30
0.0
 11
-30.22760462241189
 21
97.74139151275234
 31
0.0
  0
LINE
  5
247F
102
{ACAD_REACTORS
330
24C5
102
}
330
1F
100
AcDbEntity
  8
Innenkanten
100
AcDbLine
 10
7.672355377588132
 20
103.5413815127523
 30
0.0
 11
-33.32764462241186
 21
103.5413815127523
 31
0.0
  0
LINE
  5
2480
102
{ACAD_REACTORS
330
24C5
102
}
330
1F
100
AcDbEntity
  8
Innenkanten
100
AcDbLine
 10
-45.32764462241186
 20
126.9574415127523
 30
0.0
 11
9.672355377588132
 21
126.9573815127522
 31
0.0
  0
LINE
  5
2481
102
{ACAD_REACTORS
330
24C5
102
}
330
1F
100
AcDbEntity
  8
0
100
AcDbLine
 10
-35.32752462241194
 20
104.5423115127522
 30
0.0
 11
9.672355377588132
 21
104.5423115127522
 31
0.0
  0
LINE
  5
2482
102
{ACAD_REACTORS
330
24C5
102
}
330
1F
100
AcDbEntity
  8
0
100
AcDbLine
 10
-64.32764462241187
 20
127.7415015127522
 30
0.0
 11
16.17235537758813
 21
127.7415015127522
 31
0.0
  0
LINE
  5
2483
102
{ACAD_REACTORS
330
24C5
102
}
330
1F
100
AcDbEntity
  8
Innenkanten
100
AcDbLine
 10
22.37236537758809
 20
111.2415215127523
 30
0.0
 11
22.37236537758809
 21
127.5415215127523
 31
0.0
  0
LINE
  5
2484
102
{ACAD_REACTORS
330
24C5
102
}
330
1F
100
AcDbEntity
  8
Innenkanten
100
AcDbLine
 10
49.97234537758811
 20
127.5415215127523
 30
0.0
 11
49.97234537758811
 21
111.2415215127523
 31
0.0
  0
LINE
  5
2485
102
{ACAD_REACTORS
330
24C5
102
}
330
1F
100
AcDbEntity
  8
Mittellinie
100
AcDbLine
 10
36.17235537758813
 20
137.8007115127522
 30
0.0
 11
36.17235537758813
 21
104.4987615127523
 31
0.0
  0
LINE
  5
2486
102
{ACAD_REACTORS
330
24C5
102
}
330
1F
100
AcDbEntity
  8
0
100
AcDbLine
 10
21.37236537758809
 20
112.2415215127523
 30
0.0
 11
21.37236537758809
 21
130.5415215127522
 31
0.0
  0
LINE
  5
2487
102
{ACAD_REACTORS
330
24C5
102
}
330
1F
100
AcDbEntity
  8
0
100
AcDbLine
 10
9.672355377588132
 20
127.7193515127522
 30
0.0
 11
9.672355377588132
 21
104.5413815127523
 31
0.0
  0
LINE
  5
2488
102
{ACAD_REACTORS
330
24C5
102
}
330
1F
100
AcDbEntity
  8
0
100
AcDbLine
 10
50.97234537758811
 20
130.5415215127522
 30
0.0
 11
50.97234537758811
 21
112.2415215127523
 31
0.0
  0
LINE
  5
2489
102
{ACAD_REACTORS
330
24C5
102
}
330
1F
100
AcDbEntity
  8
Innenkanten
100
AcDbLine
 10
50.97234537758811
 20
112.2415215127523
 30
0.0
 11
21.37236537758809
 21
112.2415215127523
 31
0.0
  0
LINE
  5
248A
102
{ACAD_REACTORS
330
24C5
102
}
330
1F
100
AcDbEntity
  8
0
100
AcDbLine
 10
49.97234537758811
 20
111.2415215127523
 30
0.0
 11
22.37236537758809
 21
111.2415215127523
 31
0.0
  0
LINE
  5
248B
102
{ACAD_REACTORS
330
24C5
102
}
330
1F
100
AcDbEntity
  8
0
100
AcDbLine
 10
50.97237537758815
 20
112.2415015127522
 30
0.0
 11
49.97237537758815
 21
111.2415015127522
 31
0.0
  0
LINE
  5
248C
102
{ACAD_REACTORS
330
24C5
102
}
330
1F
100
AcDbEntity
  8
0
100
AcDbLine
 10
22.37240537758811
 20
111.2415015127522
 30
0.0
 11
21.37240537758811
 21
112.2415015127522
 31
0.0
  0
LINE
  5
248D
102
{ACAD_REACTORS
330
24C5
102
}
330
1F
100
AcDbEntity
  8
Innenkanten
100
AcDbLine
 10
21.37236537758809
 20
127.5415215127523
 30
0.0
 11
50.97234537758811
 21
127.5415215127523
 31
0.0
  0
LINE
  5
248E
102
{ACAD_REACTORS
330
24C5
102
}
330
1F
100
AcDbEntity
  8
0
100
AcDbLine
 10
18.17235537758813
 20
137.2254815127522
 30
0.0
 11
18.17235537758813
 21
132.2254815127522
 31
0.0
  0
LINE
  5
248F
102
{ACAD_REACTORS
330
24C5
102
}
330
1F
100
AcDbEntity
  8
0
100
AcDbLine
 10
17.12236537758809
 20
132.2254815127522
 30
0.0
 11
17.12236537758809
 21
130.5415215127522
 31
0.0
  0
LINE
  5
2490
102
{ACAD_REACTORS
330
24C5
102
}
330
1F
100
AcDbEntity
  8
Mittellinie
100
AcDbLine
 10
15.10991537758809
 20
134.7254815127522
 30
0.0
 11
18.79735537758813
 21
134.7254815127522
 31
0.0
  0
LINE
  5
2491
102
{ACAD_REACTORS
330
24C5
102
}
330
1F
100
AcDbEntity
  8
0
100
AcDbLine
 10
18.17235537758813
 20
132.2254815127522
 30
0.0
 11
16.17235537758813
 21
132.2254815127522
 31
0.0
  0
LINE
  5
2492
102
{ACAD_REACTORS
330
24C5
102
}
330
1F
100
AcDbEntity
  8
0
100
AcDbLine
 10
16.17235537758813
 20
137.2254815127522
 30
0.0
 11
18.17235537758813
 21
137.2254815127522
 31
0.0
  0
ARC
  5
2493
102
{ACAD_REACTORS
330
24C5
102
}
330
1F
100
AcDbEntity
  8
0
100
AcDbCircle
 10
13.30828537758816
 20
139.6786015127522
 30
0.0
 40
60.0
100
AcDbArc
 50
192.2407100000019
 51
215.8457299999995
  0
LINE
  5
2494
102
{ACAD_REACTORS
330
24C5
102
}
330
1F
100
AcDbEntity
  8
0
100
AcDbLine
 10
-45.32764462241186
 20
126.9574415127523
 30
0.0
 11
-45.32764462241186
 21
127.8075415127522
 31
0.0
  0
LINE
  5
2495
102
{ACAD_REACTORS
330
24C5
102
}
330
1F
100
AcDbEntity
  8
Innenkanten
100
AcDbLine
 10
-52.32764462241187
 20
141.9355015127522
 30
0.0
 11
-64.32764462241187
 21
141.9355015127522
 31
0.0
  0
LINE
  5
2496
102
{ACAD_REACTORS
330
24C5
102
}
330
1F
100
AcDbEntity
  8
0
100
AcDbLine
 10
-64.32764462241187
 20
137.7415015127522
 30
0.0
 11
-67.32764462241187
 21
137.7415015127522
 31
0.0
  0
LINE
  5
2497
102
{ACAD_REACTORS
330
24C5
102
}
330
1F
100
AcDbEntity
  8
Innenkanten
100
AcDbLine
 10
54.17235537758813
 20
158.3941215127523
 30
0.0
 11
29.17235537758813
 21
158.3941215127523
 31
0.0
  0
LINE
  5
2498
102
{ACAD_REACTORS
330
24C5
102
}
330
1F
100
AcDbEntity
  8
0
100
AcDbLine
 10
29.17232537758815
 20
232.7415315127522
 30
0.0
 11
53.5282553775881
 21
231.9258315127523
 31
0.0
  0
LINE
  5
2499
102
{ACAD_REACTORS
330
24C5
102
}
330
1F
100
AcDbEntity
  8
Innenkanten
100
AcDbLine
 10
55.67238537758811
 20
159.2565515127522
 30
0.0
 11
54.17235537758813
 21
158.3941215127523
 31
0.0
  0
ARC
  5
249A
102
{ACAD_REACTORS
330
24C5
102
}
330
1F
100
AcDbEntity
  8
0
100
AcDbCircle
 10
25.62441537758809
 20
222.7345715127522
 30
0.0
 40
30.047937
100
AcDbArc
 50
0.0131799999966519
 51
16.38081999999815
  0
ARC
  5
249B
102
{ACAD_REACTORS
330
24C5
102
}
330
1F
100
AcDbEntity
  8
0
100
AcDbCircle
 10
53.49321537758811
 20
230.9262515127522
 30
0.0
 40
1.000159999999999
100
AcDbArc
 50
16.40501999999914
 51
87.99260499999984
  0
LINE
  5
249C
102
{ACAD_REACTORS
330
24C5
102
}
330
1F
100
AcDbEntity
  8
Innenkanten
100
AcDbLine
 10
23.17235537758813
 20
150.2415015127522
 30
0.0
 11
23.17235537758813
 21
235.2415015127522
 31
0.0
  0
LINE
  5
249D
102
{ACAD_REACTORS
330
24C5
102
}
330
1F
100
AcDbEntity
  8
0
100
AcDbLine
 10
-69.32764462241187
 20
177.7415015127522
 30
0.0
 11
-69.32764462241187
 21
207.7415015127523
 31
0.0
  0
LINE
  5
249E
102
{ACAD_REACTORS
330
24C5
102
}
330
1F
100
AcDbEntity
  8
0
100
AcDbLine
 10
29.17235537758813
 20
235.2415015127522
 30
0.0
 11
29.17235537758813
 21
150.2415015127522
 31
0.0
  0
LINE
  5
249F
102
{ACAD_REACTORS
330
24C5
102
}
330
1F
100
AcDbEntity
  8
0
100
AcDbLine
 10
29.17235537758813
 20
150.2415015127522
 30
0.0
 11
-52.32764462241187
 21
150.2415015127522
 31
0.0
  0
LINE
  5
24A0
102
{ACAD_REACTORS
330
24C5
102
}
330
1F
100
AcDbEntity
  8
Innenkanten
100
AcDbLine
 10
-48.32764462241186
 20
164.7415015127522
 30
0.0
 11
11.66417537758815
 21
164.7415015127522
 31
0.0
  0
LINE
  5
24A1
102
{ACAD_REACTORS
330
24C5
102
}
330
1F
100
AcDbEntity
  8
Innenkanten
100
AcDbLine
 10
-48.32764462241186
 20
167.7415015127522
 30
0.0
 11
11.66417537758815
 21
167.7415015127522
 31
0.0
  0
LINE
  5
24A2
102
{ACAD_REACTORS
330
24C5
102
}
330
1F
100
AcDbEntity
  8
Innenkanten
100
AcDbLine
 10
-48.32764462241186
 20
170.7415015127522
 30
0.0
 11
11.66417537758815
 21
170.7415015127522
 31
0.0
  0
LINE
  5
24A3
102
{ACAD_REACTORS
330
24C5
102
}
330
1F
100
AcDbEntity
  8
Innenkanten
100
AcDbLine
 10
-48.32764462241186
 20
173.7415015127522
 30
0.0
 11
11.66417537758815
 21
173.7415015127522
 31
0.0
  0
LINE
  5
24A4
102
{ACAD_REACTORS
330
24C5
102
}
330
1F
100
AcDbEntity
  8
Innenkanten
100
AcDbLine
 10
29.17235537758813
 20
165.2380515127523
 30
0.0
 11
16.17235537758813
 21
165.2380515127523
 31
0.0
  0
LINE
  5
24A5
102
{ACAD_REACTORS
330
24C5
102
}
330
1F
100
AcDbEntity
  8
Mittellinie
100
AcDbLine
 10
27.50152537758811
 20
157.5664215127523
 30
0.0
 11
20.68023537758813
 21
157.5664215127523
 31
0.0
  0
LINE
  5
24A6
102
{ACAD_REACTORS
330
24C5
102
}
330
1F
100
AcDbEntity
  8
Innenkanten
100
AcDbLine
 10
23.17235537758813
 20
151.7183415127523
 30
0.0
 11
29.17235537758813
 21
151.7183415127523
 31
0.0
  0
LINE
  5
24A7
102
{ACAD_REACTORS
330
24C5
102
}
330
1F
100
AcDbEntity
  8
0
100
AcDbLine
 10
29.17235537758813
 20
158.0822915127522
 30
0.0
 11
23.17235537758813
 21
158.0822915127522
 31
0.0
  0
ARC
  5
24A8
102
{ACAD_REACTORS
330
24C5
102
}
330
1F
100
AcDbEntity
  8
0
100
AcDbCircle
 10
24.17235537758813
 20
156.0664215127522
 30
0.0
 40
1.0
100
AcDbArc
 50
269.9999700000002
 51
0.0000200000020199
  0
LINE
  5
24A9
102
{ACAD_REACTORS
330
24C5
102
}
330
1F
100
AcDbEntity
  8
0
100
AcDbLine
 10
25.17235537758813
 20
158.0822915127522
 30
0.0
 11
25.17235537758813
 21
156.0664215127522
 31
0.0
  0
LINE
  5
24AA
102
{ACAD_REACTORS
330
24C5
102
}
330
1F
100
AcDbEntity
  8
0
100
AcDbLine
 10
24.17235537758813
 20
155.0664215127522
 30
0.0
 11
23.17235537758813
 21
155.0664215127522
 31
0.0
  0
LINE
  5
24AB
102
{ACAD_REACTORS
330
24C5
102
}
330
1F
100
AcDbEntity
  8
0
100
AcDbLine
 10
-67.32764462241187
 20
177.7415015127522
 30
0.0
 11
-69.32764462241187
 21
177.7415015127522
 31
0.0
  0
LINE
  5
24AC
102
{ACAD_REACTORS
330
24C5
102
}
330
1F
100
AcDbEntity
  8
0
100
AcDbLine
 10
29.17235537758813
 20
235.2415015127522
 30
0.0
 11
-52.32764462241187
 21
235.2415015127522
 31
0.0
  0
LINE
  5
24AD
102
{ACAD_REACTORS
330
24C5
102
}
330
1F
100
AcDbEntity
  8
Innenkanten
100
AcDbLine
 10
-48.32764462241186
 20
211.7415015127522
 30
0.0
 11
11.66417537758815
 21
211.7415015127522
 31
0.0
  0
LINE
  5
24AE
102
{ACAD_REACTORS
330
24C5
102
}
330
1F
100
AcDbEntity
  8
Innenkanten
100
AcDbLine
 10
-48.32764462241186
 20
214.7415015127522
 30
0.0
 11
11.66417537758815
 21
214.7415015127522
 31
0.0
  0
LINE
  5
24AF
102
{ACAD_REACTORS
330
24C5
102
}
330
1F
100
AcDbEntity
  8
Innenkanten
100
AcDbLine
 10
-48.32764462241186
 20
217.7415015127522
 30
0.0
 11
11.66417537758815
 21
217.7415015127522
 31
0.0
  0
LINE
  5
24B0
102
{ACAD_REACTORS
330
24C5
102
}
330
1F
100
AcDbEntity
  8
Innenkanten
100
AcDbLine
 10
-48.32764462241186
 20
220.7415015127522
 30
0.0
 11
11.66417537758815
 21
220.7415015127522
 31
0.0
  0
LINE
  5
24B1
102
{ACAD_REACTORS
330
24C5
102
}
330
1F
100
AcDbEntity
  8
Innenkanten
100
AcDbLine
 10
16.17235537758813
 20
220.2451915127523
 30
0.0
 11
29.17235537758813
 21
220.2451915127523
 31
0.0
  0
LINE
  5
24B2
102
{ACAD_REACTORS
330
24C5
102
}
330
1F
100
AcDbEntity
  8
Mittellinie
100
AcDbLine
 10
27.50152537758811
 20
222.3539915127522
 30
0.0
 11
20.68023537758813
 21
222.3539915127522
 31
0.0
  0
ARC
  5
24B3
102
{ACAD_REACTORS
330
24C5
102
}
330
1F
100
AcDbEntity
  8
0
100
AcDbCircle
 10
24.17235537758813
 20
223.8539915127522
 30
0.0
 40
1.0
100
AcDbArc
 50
0.0000400000040327
 51
90.00001799999919
  0
LINE
  5
24B4
102
{ACAD_REACTORS
330
24C5
102
}
330
1F
100
AcDbEntity
  8
0
100
AcDbLine
 10
29.17235537758813
 20
221.7218815127522
 30
0.0
 11
23.17235537758813
 21
221.7218815127522
 31
0.0
  0
LINE
  5
24B5
102
{ACAD_REACTORS
330
24C5
102
}
330
1F
100
AcDbEntity
  8
0
100
AcDbLine
 10
25.17235537758813
 20
223.8539915127522
 30
0.0
 11
25.17235537758813
 21
221.7218815127522
 31
0.0
  0
LINE
  5
24B6
102
{ACAD_REACTORS
330
24C5
102
}
330
1F
100
AcDbEntity
  8
Innenkanten
100
AcDbLine
 10
29.17235537758813
 20
228.0858615127523
 30
0.0
 11
23.17235537758813
 21
228.0858615127523
 31
0.0
  0
LINE
  5
24B7
102
{ACAD_REACTORS
330
24C5
102
}
330
1F
100
AcDbEntity
  8
0
100
AcDbLine
 10
24.17235537758813
 20
224.8539915127522
 30
0.0
 11
23.17235537758813
 21
224.8539915127522
 31
0.0
  0
LINE
  5
24B8
102
{ACAD_REACTORS
330
24C5
102
}
330
1F
100
AcDbEntity
  8
0
100
AcDbLine
 10
18.17235537758813
 20
223.7040615127522
 30
0.0
 11
18.17235537758813
 21
228.7040615127522
 31
0.0
  0
LINE
  5
24B9
102
{ACAD_REACTORS
330
24C5
102
}
330
1F
100
AcDbEntity
  8
0
100
AcDbLine
 10
16.17235537758813
 20
223.7040615127522
 30
0.0
 11
18.17235537758813
 21
223.7040615127522
 31
0.0
  0
LINE
  5
24BA
102
{ACAD_REACTORS
330
24C5
102
}
330
1F
100
AcDbEntity
  8
Mittellinie
100
AcDbLine
 10
20.09270537758812
 20
226.2040615127522
 30
0.0
 11
13.9816253775881
 21
226.2040615127522
 31
0.0
  0
LINE
  5
24BB
102
{ACAD_REACTORS
330
24C5
102
}
330
1F
100
AcDbEntity
  8
0
100
AcDbLine
 10
18.17235537758813
 20
228.7040615127522
 30
0.0
 11
16.17235537758813
 21
228.7040615127522
 31
0.0
  0
LINE
  5
24BC
102
{ACAD_REACTORS
330
24C5
102
}
330
1F
100
AcDbEntity
  8
0
100
AcDbLine
 10
-69.32764462241187
 20
207.7415015127523
 30
0.0
 11
-67.32764462241187
 21
207.7415015127523
 31
0.0
  0
LINE
  5
24BD
102
{ACAD_REACTORS
330
24C5
102
}
330
1F
100
AcDbEntity
  8
0
100
AcDbLine
 10
16.17235537758813
 20
257.7415015127523
 30
0.0
 11
-64.32764462241187
 21
257.7415015127523
 31
0.0
  0
LINE
  5
24BE
102
{ACAD_REACTORS
330
24C5
102
}
330
1F
100
AcDbEntity
  8
0
100
AcDbLine
 10
18.17235537758813
 20
253.2728715127523
 30
0.0
 11
18.17235537758813
 21
248.2728715127523
 31
0.0
  0
LINE
  5
24BF
102
{ACAD_REACTORS
330
24C5
102
}
330
1F
100
AcDbEntity
  8
Mittellinie
100
AcDbLine
 10
13.9816253775881
 20
250.7728715127523
 30
0.0
 11
19.85363537758814
 21
250.7728715127523
 31
0.0
  0
LINE
  5
24C0
102
{ACAD_REACTORS
330
24C5
102
}
330
1F
100
AcDbEntity
  8
0
100
AcDbLine
 10
18.17235537758813
 20
248.2728715127523
 30
0.0
 11
16.17235537758813
 21
248.2728715127523
 31
0.0
  0
LINE
  5
24C1
102
{ACAD_REACTORS
330
24C5
102
}
330
1F
100
AcDbEntity
  8
0
100
AcDbLine
 10
16.17235537758813
 20
253.2728715127523
 30
0.0
 11
18.17235537758813
 21
253.2728715127523
 31
0.0
  0
LINE
  5
24C2
102
{ACAD_REACTORS
330
24C5
102
}
330
1F
100
AcDbEntity
  8
Innenkanten
100
AcDbLine
 10
-52.32764462241187
 20
243.5475015127523
 30
0.0
 11
-64.32764462241187
 21
243.5475015127523
 31
0.0
  0
LINE
  5
24C3
102
{ACAD_REACTORS
330
24C5
102
}
330
1F
100
AcDbEntity
  8
0
100
AcDbLine
 10
-64.32764462241187
 20
247.7415015127522
 30
0.0
 11
-67.32764462241187
 21
247.7415015127522
 31
0.0
  0
LINE
  5
24C4
102
{ACAD_REACTORS
330
24C5
102
}
330
1F
100
AcDbEntity
  8
0
100
AcDbLine
 10
-119.3276746224119
 20
204.7415015127522
 30
0.0
 11
-119.3276746224119
 21
180.7415015127522
 31
0.0
  0
DIMENSION
  5
2602
102
{ACAD_XDICTIONARY
360
260F
102
}
102
{ACAD_REACTORS
330
2619
102
}
330
1F
100
AcDbEntity
  8
Bemaßung
100
AcDbDimension
  2
*D15
 10
532.9775978189485
 20
270.9649375038884
 30
0.0
 11
526.9775978189485
 21
272.8399375038884
 31
0.0
 70
    32
 71
     5
 42
12.0
  3
ISO-25
100
AcDbAlignedDimension
 13
520.9775978189485
 23
257.7344138730005
 33
0.0
 14
532.9775978189485
 24
257.7344138730005
 34
0.0
100
AcDbRotatedDimension
  0
DIMENSION
  5
2623
102
{ACAD_XDICTIONARY
360
2632
102
}
102
{ACAD_REACTORS
330
263E
102
}
330
1F
100
AcDbEntity
  8
Bemaßung
100
AcDbDimension
  2
*D16
 10
532.9775978189485
 20
270.9649375038884
 30
0.0
 11
534.4775978189485
 21
272.8399375038884
 31
0.0
 70
    32
 71
     5
 42
3.0
  3
ISO-25
100
AcDbAlignedDimension
 13
535.9775978189485
 23
247.7344138730005
 33
0.0
 14
532.9775978189485
 24
257.7344138730005
 34
0.0
100
AcDbRotatedDimension
  0
DIMENSION
  5
264A
102
{ACAD_XDICTIONARY
360
2657
102
}
102
{ACAD_REACTORS
330
2661
102
}
330
1F
100
AcDbEntity
  8
Bemaßung
100
AcDbDimension
  2
*D17
 10
587.9776278189486
 20
280.2192065026734
 30
0.0
 11
560.4776128189485
 21
282.0942065026733
 31
0.0
 70
    32
 71
     5
 42
55.00003000000003
  3
ISO-25
100
AcDbAlignedDimension
 13
532.9775978189485
 23
257.7344138730005
 33
0.0
 14
587.9776278189486
 24
204.7344138730005
 34
0.0
100
AcDbRotatedDimension
  0
DIMENSION
  5
266B
102
{ACAD_XDICTIONARY
360
2678
102
}
102
{ACAD_REACTORS
330
2682
102
}
330
1F
100
AcDbEntity
  8
Bemaßung
100
AcDbDimension
  2
*D18
 10
587.9776278189486
 20
256.6208204305703
 30
0.0
 11
562.9776128189485
 21
258.4958204305703
 31
0.0
 70
    32
 71
     5
 42
50.00003000000003
  3
ISO-25
100
AcDbAlignedDimension
 13
537.9775978189485
 23
207.7344138730005
 33
0.0
 14
587.9776278189486
 24
204.7344138730005
 34
0.0
100
AcDbRotatedDimension
  0
DIMENSION
  5
268C
102
{ACAD_XDICTIONARY
360
2699
102
}
102
{ACAD_REACTORS
330
26A3
102
}
330
1F
100
AcDbEntity
  8
Bemaßung
100
AcDbDimension
  2
*D19
 10
412.9774778189485
 20
280.2192065026734
 30
0.0
 11
472.9775378189486
 21
282.0942065026733
 31
0.0
 70
    32
 71
     5
 42
120.0001199999999
  3
ISO-25
100
AcDbAlignedDimension
 13
532.9775978189485
 23
257.7344138730005
 33
0.0
 14
412.9774778189485
 24
192.7344138730005
 34
0.0
100
AcDbRotatedDimension
  0
DIMENSION
  5
26AD
102
{ACAD_XDICTIONARY
360
26BA
102
}
102
{ACAD_REACTORS
330
26C4
102
}
330
1F
100
AcDbEntity
  8
Bemaßung
100
AcDbDimension
  2
*D20
 10
609.2942015433009
 20
180.7344138730005
 30
0.0
 11
607.4192015433009
 21
192.7344138730006
 31
0.0
 70
    32
 71
     5
 42
24.0
  3
ISO-25
100
AcDbAlignedDimension
 13
587.9776278189486
 23
204.7344138730005
 33
0.0
 14
587.9776278189486
 24
180.7344138730005
 34
0.0
 50
90.0
100
AcDbRotatedDimension
  0
DIMENSION
  5
26CE
102
{ACAD_XDICTIONARY
360
26DB
102
}
102
{ACAD_REACTORS
330
26E5
102
}
330
1F
100
AcDbEntity
  8
Bemaßung
100
AcDbDimension
  2
*D21
 10
621.3294714869343
 20
137.7344138730005
 30
0.0
 11
619.4544714869343
 21
192.7344138730006
 31
0.0
 70
    32
 71
     5
 42
110.0
  3
ISO-25
100
AcDbAlignedDimension
 13
535.9775978189485
 23
247.7344138730005
 33
0.0
 14
535.9775978189485
 24
137.7344138730005
 34
0.0
 50
90.0
100
AcDbRotatedDimension
  0
DIMENSION
  5
26EF
102
{ACAD_XDICTIONARY
360
26FC
102
}
102
{ACAD_REACTORS
330
2706
102
}
330
1F
100
AcDbEntity
  8
Bemaßung
100
AcDbDimension
  2
*D22
 10
481.4775978189485
 20
61.55934398804038
 30
0.0
 11
507.2275978189485
 21
63.64267732137371
 31
0.0
 70
    32
 71
     5
 42
51.5
  3
ISO-25
100
AcDbAlignedDimension
 13
532.9775978189485
 23
127.7344138730005
 33
0.0
 14
481.4775978189485
 24
74.79420387300058
 34
0.0
100
AcDbRotatedDimension
  0
DIMENSION
  5
2710
102
{ACAD_XDICTIONARY
360
271D
102
}
102
{ACAD_REACTORS
330
2727
102
}
330
1F
100
AcDbEntity
  8
Bemaßung
100
AcDbDimension
  2
*D23
 10
432.4775978189485
 20
86.77722632112295
 30
0.0
 11
422.7275378189485
 21
88.86055965445628
 31
0.0
 70
    32
 71
     5
 42
19.50011999999998
  3
ISO-25
100
AcDbAlignedDimension
 13
412.9774778189485
 23
192.7344138730005
 33
0.0
 14
432.4775978189485
 24
104.4916738730006
 34
0.0
100
AcDbRotatedDimension
  0
DIMENSION
  5
2733
102
{ACAD_XDICTIONARY
360
2740
102
}
102
{ACAD_REACTORS
330
274A
102
}
330
1F
100
AcDbEntity
  8
Bemaßung
100
AcDbDimension
  2
*D24
 10
303.165244780983
 20
280.2192065026734
 30
0.0
 11
238.1654190820481
 21
282.0942065026733
 31
0.0
 70
    32
 71
     5
 42
129.9996513978697
  3
ISO-25
100
AcDbAlignedDimension
 13
173.1655933831132
 23
243.549367031282
 33
0.0
 14
303.165244780983
 24
243.5483347713668
 34
0.0
100
AcDbRotatedDimension
  0
DIMENSION
  5
2754
102
{ACAD_XDICTIONARY
360
2761
102
}
102
{ACAD_REACTORS
330
276B
102
}
330
1F
100
AcDbEntity
  8
Bemaßung
100
AcDbDimension
  2
*D25
 10
143.059164680179
 20
127.7433120480738
 30
0.0
 11
141.1841646801789
 21
192.7430984097204
 31
0.0
 70
    32
 71
     5
 42
129.999572723293
  3
ISO-25
100
AcDbAlignedDimension
 13
187.3593447809829
 23
257.7428847713668
 33
0.0
 14
187.3581590757688
 24
127.7433120480738
 34
0.0
 50
90.0
100
AcDbRotatedDimension
  0
DIMENSION
  5
2775
102
{ACAD_XDICTIONARY
360
2782
102
}
102
{ACAD_REACTORS
330
278C
102
}
330
1F
100
AcDbEntity
  8
Bemaßung
100
AcDbDimension
  2
*D26
 10
193.2175547809829
 20
237.6901147713669
 30
0.0
 11
207.3503781771653
 21
267.1357736809351
 31
0.0
 70
    34
 71
     5
 42
0.7853968936695745
  3
ISO-25
100
AcDb2LineAngularDimension
 13
238.1650047809829
 23
71.0815447713669
 33
0.0
 14
238.1650047809829
 24
273.3770947713668
 34
0.0
 15
181.4040147809829
 25
249.5036847713669
 35
0.0
 16
217.8095341947568
 26
268.7103296801254
 36
0.0
  0
DIMENSION
  5
2796
102
{ACAD_XDICTIONARY
360
279F
102
}
102
{ACAD_REACTORS
330
27A5
102
}
330
1F
100
AcDbEntity
  8
Bemaßung
100
AcDbDimension
  2
*D27
 10
294.2245785148559
 20
146.7690098025168
 30
0.0
 11
263.4232958968786
 21
172.028684846796
 31
0.0
 70
   163
 71
     5
 42
145.0
  3
ISO-25
100
AcDbDiametricDimension
 15
182.10543104711
 25
238.7162597402169
 35
0.0
 40
0.0
1001
ACAD
1000
DSTYLE
1002
{
1070
   279
1070
     1
1070
   288
1070
     1
1002
}
  0
DIMENSION
  5
27C9
102
{ACAD_XDICTIONARY
360
27D2
102
}
102
{ACAD_REACTORS
330
27D8
102
}
330
1F
100
AcDbEntity
  8
Bemaßung
100
AcDbDimension
  2
*D29
 10
175.796223947735
 20
138.7390913471198
 30
0.0
 11
213.6174483285786
 21
171.4875290417726
 31
0.0
 70
   163
 71
     5
 42
164.99997
  3
ISO-25
100
AcDbDiametricDimension
 15
300.5337856142307
 25
246.7461781956136
 35
0.0
 40
0.0
1001
ACAD
1000
DSTYLE
1002
{
1070
   279
1070
     1
1070
   288
1070
     1
1002
}
  0
DIMENSION
  5
27E3
102
{ACAD_XDICTIONARY
360
27F0
102
}
102
{ACAD_REACTORS
330
27FA
102
}
330
1F
100
AcDbEntity
  8
Bemaßung
100
AcDbDimension
  2
*D30
 10
331.0941293846922
 20
81.74266477136676
 30
0.0
 11
329.2191293846922
 21
137.2426497713668
 31
0.0
 70
    32
 71
     5
 42
110.99997
  3
ISO-25
100
AcDbAlignedDimension
 13
315.3724047809829
 23
192.7426347713668
 33
0.0
 14
254.5649647809828
 24
81.74266477136677
 34
0.0
 50
90.0
100
AcDbRotatedDimension
  0
DIMENSION
  5
281C
102
{ACAD_XDICTIONARY
360
2829
102
}
102
{ACAD_REACTORS
330
2833
102
}
330
1F
100
AcDbEntity
  8
Bemaßung
100
AcDbDimension
  2
*D32
 10
217.6650047809829
 20
57.10926631601092
 30
0.0
 11
238.1650047809829
 21
58.98426631601092
 31
0.0
 70
    32
 71
     5
 42
41.0
  3
ISO-25
100
AcDbAlignedDimension
 13
258.6650047809829
 23
100.7426547713669
 33
0.0
 14
217.6650047809829
 24
100.7426547713669
 34
0.0
100
AcDbRotatedDimension
  0
LINE
  5
2851
330
1F
100
AcDbEntity
  8
0
100
AcDbLine
 10
187.3593447809829
 20
257.7428847713668
 30
0.0
 11
187.3593447809829
 21
103.1116609578357
 31
0.0
  0
LINE
  5
2854
330
1F
100
AcDbEntity
  8
0
100
AcDbLine
 10
173.1621881344169
 20
-106.085935129675
 30
0.0
 11
303.1618181357846
 21
-106.0870225909986
 31
0.0
  0
LINE
  5
2855
330
1F
100
AcDbEntity
  8
Innenkanten
100
AcDbLine
 10
173.1621881344169
 20
-94.08593512967502
 30
0.0
 11
303.1618181357846
 21
-94.08702259099868
 31
0.0
  0
LINE
  5
2856
330
1F
100
AcDbEntity
  8
0
100
AcDbLine
 10
173.1621881344169
 20
-106.085935129675
 30
0.0
 11
173.1622885157775
 21
-94.08593513051471
 31
0.0
  0
LINE
  5
2857
330
1F
100
AcDbEntity
  8
0
100
AcDbLine
 10
303.1618181357846
 20
-106.0870225909986
 30
0.0
 11
303.1619185171155
 21
-94.0870225918384
 31
0.0
  0
LINE
  5
2858
330
1F
100
AcDbEntity
  8
Innenkanten
100
AcDbLine
 10
187.3593447809829
 20
-106.086053890465
 30
0.0
 11
187.3594451623139
 21
-94.08605389130471
 31
0.0
  0
LINE
  5
2859
330
1F
100
AcDbEntity
  8
Innenkanten
100
AcDbLine
 10
288.9717642677861
 20
-106.0869038896242
 30
0.0
 11
288.971864649117
 21
-94.08690389046389
 31
0.0
  0
LINE
  5
285B
330
1F
100
AcDbEntity
  8
0
100
AcDbLine
 10
173.1621881344169
 20
-94.08593512967502
 30
0.0
 11
173.1621881344169
 21
-25.58593512967502
 31
0.0
  0
LINE
  5
285D
330
1F
100
AcDbEntity
  8
0
100
AcDbLine
 10
173.1621881344169
 20
-25.58593512967502
 30
0.0
 11
303.1619185171155
 21
-25.5870225918384
 31
0.0
  0
LINE
  5
285E
330
1F
100
AcDbEntity
  8
0
100
AcDbLine
 10
303.1619185171155
 20
-25.5870225918384
 30
0.0
 11
303.1619185171155
 21
-94.0870225918384
 31
0.0
  0
LINE
  5
285F
330
1F
100
AcDbEntity
  8
0
100
AcDbLine
 10
183.1650047809829
 20
-109.0860188043457
 30
0.0
 11
293.1650047809829
 21
-109.0860188043457
 31
0.0
  0
LINE
  5
2860
330
1F
100
AcDbEntity
  8
0
100
AcDbLine
 10
183.1650047809829
 20
-109.0860188043457
 30
0.0
 11
183.1650298763156
 21
-106.0860188045556
 31
0.0
  0
LINE
  5
2861
330
1F
100
AcDbEntity
  8
0
100
AcDbLine
 10
293.1650047809829
 20
-109.0860188043457
 30
0.0
 11
293.1650047809829
 21
-106.0869389665461
 31
0.0
  0
LINE
  5
2862
330
1F
100
AcDbEntity
  8
0
100
AcDbLine
 10
223.1650047809829
 20
-161.0860188043457
 30
0.0
 11
253.1650047809829
 21
-161.0860188043457
 31
0.0
  0
LINE
  5
2863
330
1F
100
AcDbEntity
  8
0
100
AcDbLine
 10
223.1650047809829
 20
-161.0860188043457
 30
0.0
 11
223.1650047809829
 21
-111.0860188043457
 31
0.0
  0
LINE
  5
2867
330
1F
100
AcDbEntity
  8
0
100
AcDbLine
 10
215.6650047809829
 20
-111.0860188043457
 30
0.0
 11
260.6650047809829
 21
-111.0860188043457
 31
0.0
  0
LINE
  5
2868
330
1F
100
AcDbEntity
  8
0
100
AcDbLine
 10
215.6650047809829
 20
-111.0860188043457
 30
0.0
 11
215.6650047809829
 21
-109.0860188043457
 31
0.0
  0
LINE
  5
2869
330
1F
100
AcDbEntity
  8
0
100
AcDbLine
 10
260.6650047809829
 20
-111.0860188043457
 30
0.0
 11
260.6650047809829
 21
-109.0860188043457
 31
0.0
  0
LINE
  5
286A
330
1F
100
AcDbEntity
  8
0
100
AcDbLine
 10
253.1650047809829
 20
-161.0860188043457
 30
0.0
 11
253.1650047809829
 21
-111.0860188043457
 31
0.0
  0
LINE
  5
287D
330
1F
100
AcDbEntity
  8
Innenkanten
100
AcDbLine
 10
173.1571628046275
 20
-90.08840485440385
 30
0.0
 11
303.1571628046275
 21
-90.08840485440385
 31
0.0
  0
LINE
  5
287E
330
1F
100
AcDbEntity
  8
Innenkanten
100
AcDbLine
 10
210.1571628046275
 20
-90.08840485440385
 30
0.0
 11
210.1571628046275
 21
-30.09658485440382
 31
0.0
  0
LINE
  5
287F
330
1F
100
AcDbEntity
  8
Innenkanten
100
AcDbLine
 10
213.1571628046275
 20
-90.08840485440385
 30
0.0
 11
213.1571628046275
 21
-30.09658485440382
 31
0.0
  0
LINE
  5
2880
330
1F
100
AcDbEntity
  8
Innenkanten
100
AcDbLine
 10
216.1571628046275
 20
-90.08840485440385
 30
0.0
 11
216.1571628046275
 21
-30.09658485440382
 31
0.0
  0
LINE
  5
2881
330
1F
100
AcDbEntity
  8
Innenkanten
100
AcDbLine
 10
219.1571628046275
 20
-90.08840485440385
 30
0.0
 11
219.1571628046275
 21
-30.09658485440382
 31
0.0
  0
LINE
  5
2882
330
1F
100
AcDbEntity
  8
Innenkanten
100
AcDbLine
 10
257.1571628046275
 20
-90.08840485440385
 30
0.0
 11
257.1571628046275
 21
-30.09658485440382
 31
0.0
  0
LINE
  5
2883
330
1F
100
AcDbEntity
  8
Innenkanten
100
AcDbLine
 10
260.1571628046275
 20
-90.08840485440385
 30
0.0
 11
260.1571628046275
 21
-30.09658485440382
 31
0.0
  0
LINE
  5
2884
330
1F
100
AcDbEntity
  8
Innenkanten
100
AcDbLine
 10
263.1571628046275
 20
-90.08840485440385
 30
0.0
 11
263.1571628046275
 21
-30.09658485440382
 31
0.0
  0
LINE
  5
2885
330
1F
100
AcDbEntity
  8
Innenkanten
100
AcDbLine
 10
266.1571628046275
 20
-90.08840485440385
 30
0.0
 11
266.1571628046275
 21
-30.09658485440382
 31
0.0
  0
LINE
  5
2886
330
1F
100
AcDbEntity
  8
Innenkanten
100
AcDbLine
 10
173.1571628046275
 20
-30.08840485440384
 30
0.0
 11
303.1571628046275
 21
-30.08840485440384
 31
0.0
  0
LINE
  5
28B1
330
1F
100
AcDbEntity
  8
Innenkanten
100
AcDbLine
 10
195.6567883780966
 20
-18.57427676010604
 30
0.0
 11
280.6567883780966
 21
-18.5742767601061
 31
0.0
  0
LINE
  5
28B2
330
1F
100
AcDbEntity
  8
0
100
AcDbLine
 10
280.6567883780966
 20
-12.5742767601061
 30
0.0
 11
195.6567883780966
 21
-12.57427676010604
 31
0.0
  0
LINE
  5
28B7
330
1F
100
AcDbEntity
  8
0
100
AcDbLine
 10
195.6567883780966
 20
-12.57427676010604
 30
0.0
 11
195.6567883780966
 21
-94.07427676010604
 31
0.0
  0
LINE
  5
28B8
330
1F
100
AcDbEntity
  8
Innenkanten
100
AcDbLine
 10
197.1336283780966
 20
-18.57427676010604
 30
0.0
 11
197.1336283780966
 21
-12.57427676010604
 31
0.0
  0
LINE
  5
28B9
330
1F
100
AcDbEntity
  8
Mittellinie
100
AcDbLine
 10
202.9817083780966
 20
-14.24510676010612
 30
0.0
 11
202.9817083780966
 21
-21.0663967601061
 31
0.0
  0
ARC
  5
28BA
330
1F
100
AcDbEntity
  8
0
100
AcDbCircle
 10
201.4817083780966
 20
-17.57427676010607
 30
0.0
 40
1.0
100
AcDbArc
 50
89.99997999999797
 51
180.0000299999997
  0
LINE
  5
28BB
330
1F
100
AcDbEntity
  8
0
100
AcDbLine
 10
203.4975783780966
 20
-16.5742767601061
 30
0.0
 11
201.4817083780966
 21
-16.5742767601061
 31
0.0
  0
LINE
  5
28BC
330
1F
100
AcDbEntity
  8
0
100
AcDbLine
 10
200.4817083780966
 20
-17.5742767601061
 30
0.0
 11
200.4817083780966
 21
-18.5742767601061
 31
0.0
  0
LINE
  5
28BD
330
1F
100
AcDbEntity
  8
0
100
AcDbLine
 10
203.4975783780966
 20
-12.5742767601061
 30
0.0
 11
203.4975783780966
 21
-18.5742767601061
 31
0.0
  0
LINE
  5
28BE
330
1F
100
AcDbEntity
  8
Innenkanten
100
AcDbLine
 10
210.6533383780966
 20
-12.5742767601061
 30
0.0
 11
210.6533383780966
 21
-25.5742767601061
 31
0.0
  0
LINE
  5
28C3
330
1F
100
AcDbEntity
  8
0
100
AcDbLine
 10
280.6567883780966
 20
-12.5742767601061
 30
0.0
 11
280.6567883780966
 21
-94.07427676010611
 31
0.0
  0
LINE
  5
28C4
330
1F
100
AcDbEntity
  8
0
100
AcDbLine
 10
269.1193483780965
 20
-23.5742767601061
 30
0.0
 11
274.1193483780965
 21
-23.5742767601061
 31
0.0
  0
LINE
  5
28C5
330
1F
100
AcDbEntity
  8
Innenkanten
100
AcDbLine
 10
265.6604783780966
 20
-25.5742767601061
 30
0.0
 11
265.6604783780966
 21
-12.5742767601061
 31
0.0
  0
LINE
  5
28C6
330
1F
100
AcDbEntity
  8
Mittellinie
100
AcDbLine
 10
267.7692783780965
 20
-14.24510676010612
 30
0.0
 11
267.7692783780965
 21
-21.0663967601061
 31
0.0
  0
LINE
  5
28C7
330
1F
100
AcDbEntity
  8
0
100
AcDbLine
 10
270.2692783780966
 20
-17.5742767601061
 30
0.0
 11
270.2692783780966
 21
-18.5742767601061
 31
0.0
  0
LINE
  5
28C8
330
1F
100
AcDbEntity
  8
0
100
AcDbLine
 10
269.2692783780965
 20
-16.5742767601061
 30
0.0
 11
267.1371683780965
 21
-16.5742767601061
 31
0.0
  0
ARC
  5
28C9
330
1F
100
AcDbEntity
  8
0
100
AcDbCircle
 10
269.2692783780965
 20
-17.57427676010608
 30
0.0
 40
1.0
100
AcDbArc
 50
359.9999820000007
 51
89.99995999999596
  0
LINE
  5
28CA
330
1F
100
AcDbEntity
  8
0
100
AcDbLine
 10
267.1371683780965
 20
-12.5742767601061
 30
0.0
 11
267.1371683780965
 21
-18.5742767601061
 31
0.0
  0
LINE
  5
28CB
330
1F
100
AcDbEntity
  8
Innenkanten
100
AcDbLine
 10
273.5011483780966
 20
-12.5742767601061
 30
0.0
 11
273.5011483780966
 21
-18.5742767601061
 31
0.0
  0
LINE
  5
28CC
330
1F
100
AcDbEntity
  8
Mittellinie
100
AcDbLine
 10
271.6193483780965
 20
-21.65392676010611
 30
0.0
 11
271.6193483780965
 21
-27.76500676010613
 31
0.0
  0
LINE
  5
28CD
330
1F
100
AcDbEntity
  8
0
100
AcDbLine
 10
269.1193483780965
 20
-25.5742767601061
 30
0.0
 11
269.1193483780965
 21
-23.5742767601061
 31
0.0
  0
LINE
  5
28CE
330
1F
100
AcDbEntity
  8
0
100
AcDbLine
 10
274.1193483780965
 20
-23.5742767601061
 30
0.0
 11
274.1193483780965
 21
-25.5742767601061
 31
0.0
  0
LINE
  5
28D9
330
1F
100
AcDbEntity
  8
0
100
AcDbLine
 10
198.1453198351903
 20
14.01312323989395
 30
0.0
 11
278.1453198351903
 21
14.01312323989395
 31
0.0
  0
LINE
  5
28DA
330
1F
100
AcDbEntity
  8
0
100
AcDbLine
 10
198.1453198351903
 20
14.01312323989395
 30
0.0
 11
198.1453198351902
 21
-12.57427676010604
 31
0.0
  0
LINE
  5
28DB
330
1F
100
AcDbEntity
  8
0
100
AcDbLine
 10
278.1453198351903
 20
14.01312323989395
 30
0.0
 11
278.1453198351902
 21
-12.57427676010608
 31
0.0
  0
LINE
  5
28DC
330
1F
100
AcDbEntity
  8
Mittellinie
100
AcDbLine
 10
238.1650047809829
 20
25.03928677088129
 30
0.0
 11
238.1650047809829
 21
-171.8516601789715
 31
0.0
  0
VIEWPORT
  5
FF1
330
FEA
100
AcDbEntity
 67
     1
  8
0
100
AcDbViewport
 10
227.944573763241
 20
164.4306744288919
 30
0.0
 40
543.9854876532758
 41
348.5621296938007
 68
     1
 69
     1
 12
227.944573763241
 22
164.4306744288919
 13
0.0
 23
0.0
 14
10.0
 24
10.0
 15
10.0
 25
10.0
 16
0.0
 26
0.0
 36
1.0
 17
0.0
 27
0.0
 37
0.0
 42
50.0
 43
0.0
 44
0.0
 45
348.5621296938007
 50
0.0
 51
0.0
 72
   100
 90
    32800
  1

281
     0
 71
     1
 74
     0
110
0.0
120
0.0
130
0.0
111
1.0
121
0.0
131
0.0
112
0.0
122
1.0
132
0.0
 79
     0
146
0.0
  0
VIEWPORT
  5
FF3
330
FEA
100
AcDbEntity
 67
     1
  8
0
100
AcDbViewport
 10
144.7270812988279
 20
101.5933663914631
 30
0.0
 40
296.2546461044554
 41
209.0554971327303
 68
     2
 69
     2
 12
203.1282534378307
 22
126.0400189425975
 13
0.0
 23
0.0
 14
10.0
 24
10.0
 15
10.0
 25
10.0
 16
0.0
 26
0.0
 36
1.0
 17
0.0
 27
0.0
 37
0.0
 42
50.0
 43
0.0
 44
0.0
 45
382.825506506762
 50
0.0
 51
0.0
 72
   100
 90
    32864
  1

281
     0
 71
     1
 74
     0
110
-53.08748352590964
120
3.820899076262548
130
0.0
111
1.0
121
0.0
131
0.0
112
0.0
122
1.0
132
0.0
 79
     0
146
0.0
  0
ENDSEC
  0
SECTION
  2
OBJECTS
  0
DICTIONARY
  5
C
330
0
100
AcDbDictionary
281
     1
  3
ACAD_GROUP
350
D
  3
ACAD_LAYOUT
350
1A
  3
ACAD_MLINESTYLE
350
17
  3
ACAD_PLOTSETTINGS
350
19
  3
ACAD_PLOTSTYLENAME
350
E
  3
AcadDim
350
118B
  3
AcDbVariableDictionary
350
50
  3
DWGPROPS
350
A6A
  0
DICTIONARY
  5
260F
330
2602
100
AcDbDictionary
280
     1
281
     1
  3
ACAD_DIMASSOC
360
2619
  0
DICTIONARY
  5
2632
330
2623
100
AcDbDictionary
280
     1
281
     1
  3
ACAD_DIMASSOC
360
263E
  0
DICTIONARY
  5
2657
330
264A
100
AcDbDictionary
280
     1
281
     1
  3
ACAD_DIMASSOC
360
2661
  0
DICTIONARY
  5
2678
330
266B
100
AcDbDictionary
280
     1
281
     1
  3
ACAD_DIMASSOC
360
2682
  0
DICTIONARY
  5
2699
330
268C
100
AcDbDictionary
280
     1
281
     1
  3
ACAD_DIMASSOC
360
26A3
  0
DICTIONARY
  5
26BA
330
26AD
100
AcDbDictionary
280
     1
281
     1
  3
ACAD_DIMASSOC
360
26C4
  0
DICTIONARY
  5
26DB
330
26CE
100
AcDbDictionary
280
     1
281
     1
  3
ACAD_DIMASSOC
360
26E5
  0
DICTIONARY
  5
26FC
330
26EF
100
AcDbDictionary
280
     1
281
     1
  3
ACAD_DIMASSOC
360
2706
  0
DICTIONARY
  5
271D
330
2710
100
AcDbDictionary
280
     1
281
     1
  3
ACAD_DIMASSOC
360
2727
  0
DICTIONARY
  5
2740
330
2733
100
AcDbDictionary
280
     1
281
     1
  3
ACAD_DIMASSOC
360
274A
  0
DICTIONARY
  5
2761
330
2754
100
AcDbDictionary
280
     1
281
     1
  3
ACAD_DIMASSOC
360
276B
  0
DICTIONARY
  5
2782
330
2775
100
AcDbDictionary
280
     1
281
     1
  3
ACAD_DIMASSOC
360
278C
  0
DICTIONARY
  5
279F
330
2796
100
AcDbDictionary
280
     1
281
     1
  3
ACAD_DIMASSOC
360
27A5
  0
DICTIONARY
  5
27D2
330
27C9
100
AcDbDictionary
280
     1
281
     1
  3
ACAD_DIMASSOC
360
27D8
  0
DICTIONARY
  5
27F0
330
27E3
100
AcDbDictionary
280
     1
281
     1
  3
ACAD_DIMASSOC
360
27FA
  0
DICTIONARY
  5
2829
330
281C
100
AcDbDictionary
280
     1
281
     1
  3
ACAD_DIMASSOC
360
2833
  0
DICTIONARY
  5
D
102
{ACAD_REACTORS
330
C
102
}
330
C
100
AcDbDictionary
281
     1
  3
*A1
350
2A6
  3
*A10
350
1C68
  3
*A11
350
1E89
  3
*A12
350
85A
  3
*A13
350
1F44
  3
*A14
350
94E
  3
*A15
350
3BE
  3
*A16
350
331
  3
*A17
350
369
  3
*A18
350
A72
  3
*A19
350
10FD
  3
*A2
350
8F6
  3
*A20
350
413
  3
*A21
350
2093
  3
*A22
350
869
  3
*A23
350
23F7
  3
*A24
350
24C5
  3
*A25
350
25FE
  3
*A26
350
8E4
  3
*A27
350
885
  3
*A28
350
886
  3
*A29
350
8D4
  3
*A3
350
905
  3
*A30
350
8E3
  3
*A31
350
8ED
  3
*A4
350
93F
  3
*A5
350
90F
  3
*A6
350
91E
  3
*A7
350
92D
  3
*A8
350
936
  3
*A9
350
1578
  0
DICTIONARY
  5
1A
102
{ACAD_REACTORS
330
C
102
}
330
C
100
AcDbDictionary
281
     1
  3
Layout1
350
FEB
  3
Model
350
22
  0
DICTIONARY
  5
17
102
{ACAD_REACTORS
330
C
102
}
330
C
100
AcDbDictionary
281
     1
  3
Standard
350
18
  0
DICTIONARY
  5
19
102
{ACAD_REACTORS
330
C
102
}
330
C
100
AcDbDictionary
281
     1
  0
ACDBDICTIONARYWDFLT
  5
E
102
{ACAD_REACTORS
330
C
102
}
330
C
100
AcDbDictionary
281
     1
  3
Normal
350
F
100
AcDbDictionaryWithDefault
340
F
  0
XRECORD
  5
118B
102
{ACAD_REACTORS
330
C
102
}
330
C
100
AcDbXrecord
280
     1
 90
   990106
  3

 60
     0
 61
     0
 62
     1
 63
     3
 64
     0
 65
     0
 66
     0
 67
     3
 68
     1
 69
     0
 70
     0
 71
     0
 72
     0
 40
2.0
170
     0
340
0
  0
DICTIONARY
  5
50
102
{ACAD_REACTORS
330
C
102
}
330
C
100
AcDbDictionary
281
     1
  3
DIMASSOC
350
52
  3
HIDETEXT
350
51
  0
XRECORD
  5
A6A
102
{ACAD_REACTORS
330
C
102
}
330
C
100
AcDbXrecord
280
     1
  1
DWGPROPS COOKIE
  2

  3

  4

  6

  7

  8

  9

300
=
301
=
302
=
303
=
304
=
305
=
306
=
307
=
308
=
309
=
 40
0.587026388888889
 41
2452181.498615972
 42
2452184.61255463
  1

 90
        0
  0
DIMASSOC
  5
2619
102
{ACAD_REACTORS
330
260F
102
}
330
260F
100
AcDbDimAssoc
330
2602
 90
        3
 70
     0
 71
     0
  1
AcDbOsnapPointRef
 72
     1
331
2395
 73
     2
 91
        0
 40
1.0
 10
520.9775978189485
 20
257.7344138730005
 30
0.0
 75
     0
  1
AcDbOsnapPointRef
 72
     1
331
2399
 73
     2
 91
        0
 40
1.0
 10
532.9775978189485
 20
257.7344138730005
 30
0.0
 75
     0
  0
DIMASSOC
  5
263E
102
{ACAD_REACTORS
330
2632
102
}
330
2632
100
AcDbDimAssoc
330
2623
 90
        3
 70
     0
 71
     0
  1
AcDbOsnapPointRef
 72
     1
331
2398
 73
     2
 91
        0
 40
1.0
 10
535.9775978189485
 20
247.7344138730005
 30
0.0
 75
     0
  1
AcDbOsnapPointRef
 72
     1
331
2399
 73
     2
 91
        0
 40
1.0
 10
532.9775978189485
 20
257.7344138730005
 30
0.0
 75
     0
  0
DIMASSOC
  5
2661
102
{ACAD_REACTORS
330
2657
102
}
330
2657
100
AcDbDimAssoc
330
264A
 90
        3
 70
     0
 71
     0
  1
AcDbOsnapPointRef
 72
     1
331
2399
 73
     2
 91
        0
 40
1.0
 10
532.9775978189485
 20
257.7344138730005
 30
0.0
 75
     0
  1
AcDbOsnapPointRef
 72
    13
331
23F3
 73
     2
 91
        0
 40
0.0
 10
587.9776278189486
 20
204.7344138730005
 30
0.0
 75
     0
  0
DIMASSOC
  5
2682
102
{ACAD_REACTORS
330
2678
102
}
330
2678
100
AcDbDimAssoc
330
266B
 90
        1
 70
     0
 71
     0
  1
AcDbOsnapPointRef
 72
     1
331
23CC
 73
     2
 91
        0
 40
1.0
 10
537.9775978189485
 20
207.7344138730005
 30
0.0
 75
     0
  0
DIMASSOC
  5
26A3
102
{ACAD_REACTORS
330
2699
102
}
330
2699
100
AcDbDimAssoc
330
268C
 90
        3
 70
     0
 71
     0
  1
AcDbOsnapPointRef
 72
     1
331
2399
 73
     2
 91
        0
 40
1.0
 10
532.9775978189485
 20
257.7344138730005
 30
0.0
 75
     0
  1
AcDbOsnapPointRef
 72
    11
331
239B
 73
     2
 91
        0
 40
0.3393147606837006
 10
412.9774778189485
 20
192.7344138730005
 30
0.0
332
2390
 74
     2
 92
        0
 75
     0
  0
DIMASSOC
  5
26C4
102
{ACAD_REACTORS
330
26BA
102
}
330
26BA
100
AcDbDimAssoc
330
26AD
 90
        2
 70
     0
 71
     0
  1
AcDbOsnapPointRef
 72
     1
331
23F3
 73
     2
 91
        0
 40
1.0
 10
587.9776278189486
 20
180.7344138730005
 30
0.0
 75
     0
  0
DIMASSOC
  5
26E5
102
{ACAD_REACTORS
330
26DB
102
}
330
26DB
100
AcDbDimAssoc
330
26CE
 90
        3
 70
     0
 71
     0
  1
AcDbOsnapPointRef
 72
     1
331
2398
 73
     2
 91
        0
 40
1.0
 10
535.9775978189485
 20
247.7344138730005
 30
0.0
 75
     0
  1
AcDbOsnapPointRef
 72
    13
331
2398
 73
     2
 91
        0
 40
0.0
 10
535.9775978189485
 20
137.7344138730005
 30
0.0
 75
     0
  0
DIMASSOC
  5
2706
102
{ACAD_REACTORS
330
26FC
102
}
330
26FC
100
AcDbDimAssoc
330
26EF
 90
        3
 70
     0
 71
     0
  1
AcDbOsnapPointRef
 72
    13
331
2399
 73
     2
 91
        0
 40
0.0
 10
532.9775978189485
 20
127.7344138730005
 30
0.0
 75
     0
  1
AcDbOsnapPointRef
 72
    13
331
23A0
 73
     2
 91
        0
 40
0.0
 10
481.4775978189485
 20
74.79420387300058
 30
0.0
 75
     0
  0
DIMASSOC
  5
2727
102
{ACAD_REACTORS
330
271D
102
}
330
271D
100
AcDbDimAssoc
330
2710
 90
        2
 70
     0
 71
     0
  1
AcDbOsnapPointRef
 72
     1
331
23B4
 73
     2
 91
        0
 40
1.0
 10
432.4775978189485
 20
104.4916738730006
 30
0.0
 75
     0
  0
DIMASSOC
  5
274A
102
{ACAD_REACTORS
330
2740
102
}
330
2740
100
AcDbDimAssoc
330
2733
 90
        3
 70
     0
 71
     0
  1
AcDbOsnapPointRef
 72
     1
331
22B3
 73
     2
 91
        0
 40
2.478141866759682
 10
173.1655933831132
 20
243.549367031282
 30
0.0
 75
     0
  1
AcDbOsnapPointRef
 72
     1
331
2318
 73
     2
 91
        0
 40
1.0
 10
303.165244780983
 20
243.5483347713668
 30
0.0
 75
     0
  0
DIMASSOC
  5
276B
102
{ACAD_REACTORS
330
2761
102
}
330
2761
100
AcDbDimAssoc
330
2754
 90
        3
 70
     0
 71
     0
  1
AcDbOsnapPointRef
 72
     1
331
231D
 73
     2
 91
        0
 40
1.0
 10
187.3593447809829
 20
257.7428847713668
 30
0.0
 75
     0
  1
AcDbOsnapPointRef
 72
     1
331
22B4
 73
     2
 91
        0
 40
4.048936448225292
 10
187.3581590757688
 20
127.7433120480738
 30
0.0
 75
     0
  0
DIMASSOC
  5
278C
102
{ACAD_REACTORS
330
2782
102
}
330
2782
100
AcDbDimAssoc
330
2775
 90
       15
 70
     0
 71
     0
  1
AcDbOsnapPointRef
 72
    13
331
229A
 73
     2
 91
        0
 40
0.0
 10
238.1650047809829
 20
71.0815447713669
 30
0.0
 75
     0
  1
AcDbOsnapPointRef
 72
     1
331
229A
 73
     2
 91
        0
 40
1.0
 10
238.1650047809829
 20
273.3770947713668
 30
0.0
 75
     0
  1
AcDbOsnapPointRef
 72
    13
331
22EE
 73
     2
 91
        0
 40
0.0
 10
181.4040147809829
 20
249.5036847713669
 30
0.0
 75
     0
  1
AcDbOsnapPointRef
 72
     1
331
22EE
 73
     2
 91
        0
 40
1.0
 10
193.2175547809829
 20
237.6901147713669
 30
0.0
 75
     0
  0
DIMASSOC
  5
27A5
102
{ACAD_REACTORS
330
279F
102
}
330
279F
100
AcDbDimAssoc
330
2796
 90
        2
 70
     0
 71
     0
  1
AcDbOsnapPointRef
 72
     3
331
22EA
 73
     2
 91
        0
 40
0.0
 10
0.0
 20
0.0
 30
0.0
 75
     0
  0
DIMASSOC
  5
27D8
102
{ACAD_REACTORS
330
27D2
102
}
330
27D2
100
AcDbDimAssoc
330
27C9
 90
        2
 70
     0
 71
     0
  1
AcDbOsnapPointRef
 72
     3
331
22E9
 73
     2
 91
        0
 40
0.0
 10
238.1650047809829
 20
192.7426347713668
 30
0.0
 75
     0
  0
DIMASSOC
  5
27FA
102
{ACAD_REACTORS
330
27F0
102
}
330
27F0
100
AcDbDimAssoc
330
27E3
 90
        3
 70
     0
 71
     0
  1
AcDbOsnapPointRef
 72
     1
331
22B5
 73
     2
 91
        0
 40
1.0
 10
315.3724047809829
 20
192.7426347713668
 30
0.0
 75
     0
  1
AcDbOsnapPointRef
 72
    13
331
22B2
 73
     2
 91
        0
 40
0.0
 10
254.5649647809828
 20
81.74266477136677
 30
0.0
 75
     0
  0
DIMASSOC
  5
2833
102
{ACAD_REACTORS
330
2829
102
}
330
2829
100
AcDbDimAssoc
330
281C
 90
        3
 70
     0
 71
     0
  1
AcDbOsnapPointRef
 72
    13
331
2299
 73
     2
 91
        0
 40
0.0
 10
258.6650047809829
 20
100.7426547713669
 30
0.0
 75
     0
  1
AcDbOsnapPointRef
 72
     8
331
2298
 73
     2
 91
        0
 40
1.0
 10
217.6650047809829
 20
100.7426547713669
 30
0.0
 75
     1
  1
AcDbOsnapPointRef
 72
    13
331
2299
 73
     2
 91
        0
 40
0.0
 10
258.6650047809829
 20
100.7426547713669
 30
0.0
 75
     0
  0
GROUP
  5
2A6
102
{ACAD_REACTORS
330
D
102
}
330
D
100
AcDbGroup
300

 70
     1
 71
     1
  0
GROUP
  5
1C68
102
{ACAD_REACTORS
330
D
102
}
330
D
100
AcDbGroup
300

 70
     1
 71
     1
  0
GROUP
  5
1E89
102
{ACAD_REACTORS
330
D
102
}
330
D
100
AcDbGroup
300

 70
     1
 71
     1
  0
GROUP
  5
85A
102
{ACAD_REACTORS
330
D
102
}
330
D
100
AcDbGroup
300

 70
     1
 71
     1
  0
GROUP
  5
1F44
102
{ACAD_REACTORS
330
D
102
}
330
D
100
AcDbGroup
300

 70
     1
 71
     1
  0
GROUP
  5
94E
102
{ACAD_REACTORS
330
D
102
}
330
D
100
AcDbGroup
300

 70
     1
 71
     1
  0
GROUP
  5
3BE
102
{ACAD_REACTORS
330
D
102
}
330
D
100
AcDbGroup
300

 70
     1
 71
     1
  0
GROUP
  5
331
102
{ACAD_REACTORS
330
D
102
}
330
D
100
AcDbGroup
300

 70
     1
 71
     1
  0
GROUP
  5
369
102
{ACAD_REACTORS
330
D
102
}
330
D
100
AcDbGroup
300

 70
     1
 71
     1
  0
GROUP
  5
A72
102
{ACAD_REACTORS
330
D
102
}
330
D
100
AcDbGroup
300

 70
     1
 71
     1
  0
GROUP
  5
10FD
102
{ACAD_REACTORS
330
D
102
}
330
D
100
AcDbGroup
300

 70
     1
 71
     1
  0
GROUP
  5
8F6
102
{ACAD_REACTORS
330
D
102
}
330
D
100
AcDbGroup
300

 70
     1
 71
     1
  0
GROUP
  5
413
102
{ACAD_REACTORS
330
D
102
}
330
D
100
AcDbGroup
300

 70
     1
 71
     1
  0
GROUP
  5
2093
102
{ACAD_REACTORS
330
D
102
}
330
D
100
AcDbGroup
300

 70
     1
 71
     1
  0
GROUP
  5
869
102
{ACAD_REACTORS
330
D
102
}
330
D
100
AcDbGroup
300

 70
     1
 71
     1
  0
GROUP
  5
23F7
102
{ACAD_REACTORS
330
D
102
}
330
D
100
AcDbGroup
300

 70
     1
 71
     1
  0
GROUP
  5
24C5
102
{ACAD_REACTORS
330
D
102
}
330
D
100
AcDbGroup
300

 70
     1
 71
     1
340
2462
340
2471
340
2478
340
2479
340
247B
340
247C
340
2475
340
2476
340
247D
340
247A
340
2461
340
2466
340
2467
340
2468
340
2469
340
246A
340
246B
340
246C
340
249C
340
249D
340
249E
340
24C4
340
2495
340
2482
340
2496
340
2464
340
24AB
340
2465
340
2474
340
2477
340
247F
340
2480
340
2481
340
2493
340
247E
340
2472
340
2494
340
2483
340
2484
340
2485
340
2486
340
2487
340
2488
340
2489
340
248A
340
2473
340
248C
340
248B
340
246D
340
246E
340
246F
340
248D
340
2490
340
2492
340
2491
340
248E
340
248F
340
2470
340
249F
340
24A0
340
24A1
340
24A2
340
24A3
340
2497
340
24A9
340
24A8
340
24A6
340
24AA
340
24A5
340
24A7
340
2499
340
24A4
340
24C2
340
24BD
340
2463
340
24BC
340
24C3
340
2498
340
24AD
340
24AE
340
24AF
340
24B0
340
24B1
340
24BB
340
24B9
340
24BA
340
24B8
340
24B3
340
24B2
340
24B4
340
24B7
340
24B5
340
24B6
340
249A
340
249B
340
24AC
340
24C1
340
24BF
340
24C0
340
24BE
  0
GROUP
  5
25FE
102
{ACAD_REACTORS
330
D
102
}
330
D
100
AcDbGroup
300

 70
     1
 71
     1
  0
GROUP
  5
8E4
102
{ACAD_REACTORS
330
D
102
}
330
D
100
AcDbGroup
300

 70
     1
 71
     1
  0
GROUP
  5
885
102
{ACAD_REACTORS
330
D
102
}
330
D
100
AcDbGroup
300

 70
     1
 71
     1
  0
GROUP
  5
886
102
{ACAD_REACTORS
330
D
102
}
330
D
100
AcDbGroup
300

 70
     1
 71
     1
  0
GROUP
  5
8D4
102
{ACAD_REACTORS
330
D
102
}
330
D
100
AcDbGroup
300

 70
     1
 71
     1
  0
GROUP
  5
905
102
{ACAD_REACTORS
330
D
102
}
330
D
100
AcDbGroup
300

 70
     1
 71
     1
  0
GROUP
  5
8E3
102
{ACAD_REACTORS
330
D
102
}
330
D
100
AcDbGroup
300

 70
     1
 71
     1
  0
GROUP
  5
8ED
102
{ACAD_REACTORS
330
D
102
}
330
D
100
AcDbGroup
300

 70
     1
 71
     1
  0
GROUP
  5
93F
102
{ACAD_REACTORS
330
D
102
}
330
D
100
AcDbGroup
300

 70
     1
 71
     1
  0
GROUP
  5
90F
102
{ACAD_REACTORS
330
D
102
}
330
D
100
AcDbGroup
300

 70
     1
 71
     1
  0
GROUP
  5
91E
102
{ACAD_REACTORS
330
D
102
}
330
D
100
AcDbGroup
300

 70
     1
 71
     1
  0
GROUP
  5
92D
102
{ACAD_REACTORS
330
D
102
}
330
D
100
AcDbGroup
300

 70
     1
 71
     1
  0
GROUP
  5
936
102
{ACAD_REACTORS
330
D
102
}
330
D
100
AcDbGroup
300

 70
     1
 71
     1
  0
GROUP
  5
1578
102
{ACAD_REACTORS
330
D
102
}
330
D
100
AcDbGroup
300

 70
     1
 71
     1
  0
LAYOUT
  5
FEB
102
{ACAD_REACTORS
330
1A
102
}
330
1A
100
AcDbPlotSettings
  1

  2
EPSON Stylus COLOR 1520
  4
A4
  6

 40
3.757083177566528
 41
14.7637300491333
 42
3.757080078125
 43
3.757080078125
 44
209.9733276367187
 45
296.9683227539062
 46
0.0
 47
0.0
 48
0.0
 49
0.0
140
0.0
141
0.0
142
1.0
143
1.0
 70
   688
 72
     1
 73
     1
 74
     5
  7

 75
    16
147
1.0
148
0.0
149
0.0
100
AcDbLayout
  1
Layout1
 70
     1
 71
     1
 10
-3.757080078125
 20
-3.757083177566528
 11
293.2112426757812
 21
206.2162444591522
 12
0.0
 22
0.0
 32
0.0
 14
-3.400241753399768
 24
-2.934382174902054
 34
0.0
 15
292.8544043510557
 25
206.1211149578283
 35
0.0
146
0.0
 13
0.0
 23
0.0
 33
0.0
 16
1.0
 26
0.0
 36
0.0
 17
0.0
 27
1.0
 37
0.0
 76
     0
330
FEA
331
FF1
  0
LAYOUT
  5
22
102
{ACAD_REACTORS
330
1A
102
}
330
1A
100
AcDbPlotSettings
  1

  2
EPSON Stylus COLOR 1520
  4
A4
  6

 40
3.757083177566528
 41
14.7637300491333
 42
3.757080078125
 43
3.757080078125
 44
209.9733276367187
 45
296.9683227539062
 46
0.0
 47
0.0
 48
0.0
 49
0.0
140
0.0
141
0.0
142
1.0
143
1.0
 70
 11952
 72
     1
 73
     1
 74
     0
  7

 75
     0
147
1.0
148
-89.73529411764705
149
0.0
100
AcDbLayout
  1
Model
 70
     1
 71
     0
 10
0.0
 20
0.0
 11
12.0
 21
9.0
 12
0.0
 22
0.0
 32
0.0
 14
0.0
 24
0.0
 34
0.0
 15
0.0
 25
0.0
 35
0.0
146
0.0
 13
0.0
 23
0.0
 33
0.0
 16
1.0
 26
0.0
 36
0.0
 17
0.0
 27
1.0
 37
0.0
 76
     0
330
1F
  0
MLINESTYLE
  5
18
102
{ACAD_REACTORS
330
17
102
}
330
17
100
AcDbMlineStyle
  2
STANDARD
 70
     0
  3

 62
   256
 51
90.0
 52
90.0
 71
     2
 49
0.5
 62
   256
  6
BYLAYER
 49
-0.5
 62
   256
  6
BYLAYER
  0
ACDBPLACEHOLDER
  5
F
102
{ACAD_REACTORS
330
E
102
}
330
E
  0
DICTIONARYVAR
  5
52
102
{ACAD_REACTORS
330
50
102
}
330
50
100
DictionaryVariables
280
     0
  1
2
  0
DICTIONARYVAR
  5
51
102
{ACAD_REACTORS
330
50
102
}
330
50
100
DictionaryVariables
280
     0
  1
1
  0
ENDSEC
  0
EOF
