  0
SECTION
  2
HEADER
  9
$ACADVER
  1
AC1015
  9
$ACADMAINTVER
 70
    13
  9
$DWGCODEPAGE
  3
ANSI_1252
  9
$INSBASE
 10
0.0
 20
0.0
 30
0.0
  9
$EXTMIN
 10
-418.1038542741871
 20
-317.9997190780561
 30
0.0
  9
$EXTMAX
 10
745.8642076439887
 20
287.0552205545623
 30
0.0
  9
$LIMMIN
 10
0.0
 20
0.0
  9
$LIMMAX
 10
420.0
 20
297.0
  9
$ORTHOMODE
 70
     1
  9
$REGENMODE
 70
     1
  9
$FILLMODE
 70
     1
  9
$QTEXTMODE
 70
     0
  9
$MIRRTEXT
 70
     1
  9
$LTSCALE
 40
1.0
  9
$ATTMODE
 70
     1
  9
$TEXTSIZE
 40
26.5350450929028
  9
$TRACEWID
 40
1.0
  9
$TEXTSTYLE
  7
Standard
  9
$CLAYER
  8
0
  9
$CELTYPE
  6
ByLayer
  9
$CECOLOR
 62
   256
  9
$CELTSCALE
 40
1.0
  9
$DISPSILH
 70
     0
  9
$DIMSCALE
 40
1.0
  9
$DIMASZ
 40
2.5
  9
$DIMEXO
 40
0.625
  9
$DIMDLI
 40
3.75
  9
$DIMRND
 40
0.0
  9
$DIMDLE
 40
0.0
  9
$DIMEXE
 40
1.25
  9
$DIMTP
 40
0.0
  9
$DIMTM
 40
0.0
  9
$DIMTXT
 40
2.5
  9
$DIMCEN
 40
2.5
  9
$DIMTSZ
 40
0.0
  9
$DIMTOL
 70
     0
  9
$DIMLIM
 70
     0
  9
$DIMTIH
 70
     0
  9
$DIMTOH
 70
     0
  9
$DIMSE1
 70
     0
  9
$DIMSE2
 70
     0
  9
$DIMTAD
 70
     1
  9
$DIMZIN
 70
     8
  9
$DIMBLK
  1

  9
$DIMASO
 70
     1
  9
$DIMSHO
 70
     1
  9
$DIMPOST
  1

  9
$DIMAPOST
  1

  9
$DIMALT
 70
     0
  9
$DIMALTD
 70
     3
  9
$DIMALTF
 40
0.03937007874016
  9
$DIMLFAC
 40
1.0
  9
$DIMTOFL
 70
     1
  9
$DIMTVP
 40
0.0
  9
$DIMTIX
 70
     0
  9
$DIMSOXD
 70
     0
  9
$DIMSAH
 70
     0
  9
$DIMBLK1
  1

  9
$DIMBLK2
  1

  9
$DIMSTYLE
  2
ISO-25
  9
$DIMCLRD
 70
     0
  9
$DIMCLRE
 70
     0
  9
$DIMCLRT
 70
     0
  9
$DIMTFAC
 40
1.0
  9
$DIMGAP
 40
0.625
  9
$DIMJUST
 70
     0
  9
$DIMSD1
 70
     0
  9
$DIMSD2
 70
     0
  9
$DIMTOLJ
 70
     0
  9
$DIMTZIN
 70
     8
  9
$DIMALTZ
 70
     0
  9
$DIMALTTZ
 70
     0
  9
$DIMUPT
 70
     0
  9
$DIMDEC
 70
     2
  9
$DIMTDEC
 70
     2
  9
$DIMALTU
 70
     2
  9
$DIMALTTD
 70
     3
  9
$DIMTXSTY
  7
Standard
  9
$DIMAUNIT
 70
     0
  9
$DIMADEC
 70
     0
  9
$DIMALTRND
 40
0.0
  9
$DIMAZIN
 70
     0
  9
$DIMDSEP
 70
    44
  9
$DIMATFIT
 70
     3
  9
$DIMFRAC
 70
     0
  9
$DIMLDRBLK
  1

  9
$DIMLUNIT
 70
     2
  9
$DIMLWD
 70
    -2
  9
$DIMLWE
 70
    -2
  9
$DIMTMOVE
 70
     0
  9
$LUNITS
 70
     2
  9
$LUPREC
 70
     4
  9
$SKETCHINC
 40
1.0
  9
$FILLETRAD
 40
3.0
  9
$AUNITS
 70
     0
  9
$AUPREC
 70
     0
  9
$MENU
  1
.
  9
$ELEVATION
 40
0.0
  9
$PELEVATION
 40
0.0
  9
$THICKNESS
 40
0.0
  9
$LIMCHECK
 70
     0
  9
$CHAMFERA
 40
10.0
  9
$CHAMFERB
 40
10.0
  9
$CHAMFERC
 40
20.0
  9
$CHAMFERD
 40
0.0
  9
$SKPOLY
 70
     0
  9
$TDCREATE
 40
2452181.456949305
  9
$TDUCREATE
 40
2452181.415282638
  9
$TDUPDATE
 40
2452321.499633796
  9
$TDUUPDATE
 40
2452321.457967129
  9
$TDINDWG
 40
0.9165614583
  9
$TDUSRTIMER
 40
0.9165519676
  9
$USRTIMER
 70
     1
  9
$ANGBASE
 50
0.0
  9
$ANGDIR
 70
     0
  9
$PDMODE
 70
     0
  9
$PDSIZE
 40
0.0
  9
$PLINEWID
 40
0.0
  9
$SPLFRAME
 70
     0
  9
$SPLINETYPE
 70
     6
  9
$SPLINESEGS
 70
     8
  9
$HANDSEED
  5
2684
  9
$SURFTAB1
 70
     6
  9
$SURFTAB2
 70
     6
  9
$SURFTYPE
 70
     6
  9
$SURFU
 70
     6
  9
$SURFV
 70
     6
  9
$UCSBASE
  2

  9
$UCSNAME
  2

  9
$UCSORG
 10
-53.08748352590964
 20
3.820899076262548
 30
0.0
  9
$UCSXDIR
 10
1.0
 20
0.0
 30
0.0
  9
$UCSYDIR
 10
0.0
 20
1.0
 30
0.0
  9
$UCSORTHOREF
  2

  9
$UCSORTHOVIEW
 70
     0
  9
$UCSORGTOP
 10
0.0
 20
0.0
 30
0.0
  9
$UCSORGBOTTOM
 10
0.0
 20
0.0
 30
0.0
  9
$UCSORGLEFT
 10
0.0
 20
0.0
 30
0.0
  9
$UCSORGRIGHT
 10
0.0
 20
0.0
 30
0.0
  9
$UCSORGFRONT
 10
0.0
 20
0.0
 30
0.0
  9
$UCSORGBACK
 10
0.0
 20
0.0
 30
0.0
  9
$PUCSBASE
  2

  9
$PUCSNAME
  2

  9
$PUCSORG
 10
0.0
 20
0.0
 30
0.0
  9
$PUCSXDIR
 10
1.0
 20
0.0
 30
0.0
  9
$PUCSYDIR
 10
0.0
 20
1.0
 30
0.0
  9
$PUCSORTHOREF
  2

  9
$PUCSORTHOVIEW
 70
     0
  9
$PUCSORGTOP
 10
0.0
 20
0.0
 30
0.0
  9
$PUCSORGBOTTOM
 10
0.0
 20
0.0
 30
0.0
  9
$PUCSORGLEFT
 10
0.0
 20
0.0
 30
0.0
  9
$PUCSORGRIGHT
 10
0.0
 20
0.0
 30
0.0
  9
$PUCSORGFRONT
 10
0.0
 20
0.0
 30
0.0
  9
$PUCSORGBACK
 10
0.0
 20
0.0
 30
0.0
  9
$USERI1
 70
     0
  9
$USERI2
 70
     0
  9
$USERI3
 70
     0
  9
$USERI4
 70
     0
  9
$USERI5
 70
     0
  9
$USERR1
 40
0.0
  9
$USERR2
 40
0.0
  9
$USERR3
 40
0.0
  9
$USERR4
 40
0.0
  9
$USERR5
 40
0.0
  9
$WORLDVIEW
 70
     1
  9
$SHADEDGE
 70
     3
  9
$SHADEDIF
 70
    70
  9
$TILEMODE
 70
     1
  9
$MAXACTVP
 70
    64
  9
$PINSBASE
 10
0.0
 20
0.0
 30
0.0
  9
$PLIMCHECK
 70
     0
  9
$PEXTMIN
 10
-3.400241753399768
 20
-2.934382174902054
 30
0.0
  9
$PEXTMAX
 10
292.8544043510557
 20
206.1211149578283
 30
0.0
  9
$PLIMMIN
 10
-3.757080078125
 20
-3.757083177566528
  9
$PLIMMAX
 10
293.2112426757812
 20
206.2162444591522
  9
$UNITMODE
 70
     0
  9
$VISRETAIN
 70
     1
  9
$PLINEGEN
 70
     0
  9
$PSLTSCALE
 70
     1
  9
$TREEDEPTH
 70
  3020
  9
$CMLSTYLE
  2
Standard
  9
$CMLJUST
 70
     0
  9
$CMLSCALE
 40
20.0
  9
$PROXYGRAPHICS
 70
     1
  9
$MEASUREMENT
 70
     1
  9
$CELWEIGHT
370
    -1
  9
$ENDCAPS
280
     0
  9
$JOINSTYLE
280
     0
  9
$LWDISPLAY
290
     0
  9
$INSUNITS
 70
     4
  9
$HYPERLINKBASE
  1

  9
$STYLESHEET
  1

  9
$XEDIT
290
     1
  9
$CEPSNTYPE
380
     0
  9
$PSTYLEMODE
290
     1
  9
$FINGERPRINTGUID
  2
{F84AA5D3-2765-4D6B-8594-ABD9F52FB735}
  9
$VERSIONGUID
  2
{A11D02B9-954E-447B-AA43-228D8E1E9FE5}
  9
$EXTNAMES
290
     1
  9
$PSVPSCALE
 40
0.0
  9
$OLESTARTUP
290
     0
  0
ENDSEC
  0
SECTION
  2
CLASSES
  0
CLASS
  1
ACDBDICTIONARYWDFLT
  2
AcDbDictionaryWithDefault
  3
AutoCAD 2000
 90
        0
280
     0
281
     0
  0
CLASS
  1
ACDBPLACEHOLDER
  2
AcDbPlaceHolder
  3
AutoCAD 2000
 90
        0
280
     0
281
     0
  0
CLASS
  1
LAYOUT
  2
AcDbLayout
  3
AutoCAD 2000
 90
        0
280
     0
281
     0
  0
CLASS
  1
DICTIONARYVAR
  2
AcDbDictionaryVar
  3
AutoCAD 2000
 90
        0
280
     0
281
     0
  0
CLASS
  1
DIMASSOC
  2
AcDbDimAssoc
  3
"AcDbDimAssoc|Product Desc:     AcDim ARX App For Dimension|Company:          Autodesk, Inc.|WEB Address:      www.autodesk.com"
 90
        0
280
     0
281
     0
  0
ENDSEC
  0
SECTION
  2
TABLES
  0
TABLE
  2
VPORT
  5
8
330
0
100
AcDbSymbolTable
 70
     2
  0
VPORT
  5
2683
330
8
100
AcDbSymbolTableRecord
100
AcDbViewportTableRecord
  2
*Active
 70
     0
 10
0.0
 20
0.0
 11
1.0
 21
1.0
 12
293.431600835957
 22
-10.50912461784253
 13
0.0
 23
0.0
 14
10.0
 24
10.0
 15
10.0
 25
10.0
 16
0.0
 26
0.0
 36
1.0
 17
0.0
 27
0.0
 37
0.0
 40
840.9226964326395
 41
1.699453551912568
 42
50.0
 43
0.0
 44
0.0
 50
0.0
 51
0.0
 71
     0
 72
   100
 73
     1
 74
     3
 75
     1
 76
     0
 77
     0
 78
     0
281
     0
 65
     1
110
-53.08748352590964
120
3.820899076262548
130
0.0
111
1.0
121
0.0
131
0.0
112
0.0
122
1.0
132
0.0
 79
     0
146
0.0
  0
ENDTAB
  0
TABLE
  2
LTYPE
  5
5
330
0
100
AcDbSymbolTable
 70
     4
  0
LTYPE
  5
14
330
5
100
AcDbSymbolTableRecord
100
AcDbLinetypeTableRecord
  2
ByBlock
 70
     0
  3

 72
    65
 73
     0
 40
0.0
  0
LTYPE
  5
15
330
5
100
AcDbSymbolTableRecord
100
AcDbLinetypeTableRecord
  2
ByLayer
 70
     0
  3

 72
    65
 73
     0
 40
0.0
  0
LTYPE
  5
16
330
5
100
AcDbSymbolTableRecord
100
AcDbLinetypeTableRecord
  2
Continuous
 70
     0
  3
Solid line
 72
    65
 73
     0
 40
0.0
  0
LTYPE
  5
2D
330
5
100
AcDbSymbolTableRecord
100
AcDbLinetypeTableRecord
  2
MITTE
 70
     0
  3
Mitte ____ _ ____ _ ____ _ ____ _ ____ _ ____
 72
    65
 73
     4
 40
50.8
 49
31.75
 74
     0
 49
-6.349999999999999
 74
     0
 49
6.349999999999999
 74
     0
 49
-6.349999999999999
 74
     0
  0
LTYPE
  5
39
330
5
100
AcDbSymbolTableRecord
100
AcDbLinetypeTableRecord
  2
VERDECKT
 70
     0
  3
Verdeckt __ __ __ __ __ __ __ __ __ __ __ __ __
 72
    65
 73
     2
 40
9.524999999999998
 49
6.349999999999999
 74
     0
 49
-3.174999999999999
 74
     0
  0
LTYPE
  5
AE7
330
5
100
AcDbSymbolTableRecord
100
AcDbLinetypeTableRecord
  2
CENTER
 70
     0
  3
____ _ ____ _ ____ _ ____ _ ____ _ ____ _ ____
 72
    65
 73
     4
 40
17.5
 49
13.0
 74
     0
 49
-1.5
 74
     0
 49
1.5
 74
     0
 49
-1.5
 74
     0
  0
ENDTAB
  0
TABLE
  2
LAYER
  5
2
330
0
100
AcDbSymbolTable
 70
     6
  0
LAYER
  5
10
330
2
100
AcDbSymbolTableRecord
100
AcDbLayerTableRecord
  2
0
 70
     0
 62
     7
  6
Continuous
370
    35
390
F
  0
LAYER
  5
2E
330
2
100
AcDbSymbolTableRecord
100
AcDbLayerTableRecord
  2
Mittellinie
 70
     0
 62
     3
  6
MITTE
370
    18
390
F
  0
LAYER
  5
3A
330
2
100
AcDbSymbolTableRecord
100
AcDbLayerTableRecord
  2
Unsichtbar
 70
     0
 62
     5
  6
Continuous
370
    18
390
F
  0
LAYER
  5
87
330
2
100
AcDbSymbolTableRecord
100
AcDbLayerTableRecord
  2
Innenkanten
 70
     0
 62
     1
  6
Continuous
370
    25
390
F
  0
LAYER
  5
46F
330
2
100
AcDbSymbolTableRecord
100
AcDbLayerTableRecord
  2
Defpoints
 70
     0
 62
     6
  6
Continuous
290
     0
370
    15
390
F
  0
LAYER
  5
9F1
330
2
100
AcDbSymbolTableRecord
100
AcDbLayerTableRecord
  2
Bemaßung
 70
     0
 62
     6
  6
Continuous
370
    15
390
F
  0
ENDTAB
  0
TABLE
  2
STYLE
  5
3
330
0
100
AcDbSymbolTable
 70
     2
  0
STYLE
  5
11
330
3
100
AcDbSymbolTableRecord
100
AcDbTextStyleTableRecord
  2
Standard
 70
     0
 40
0.0
 41
1.0
 50
0.0
 71
     0
 42
26.5350450929028
  3
txt
  4

  0
STYLE
  5
2C
330
3
100
AcDbSymbolTableRecord
100
AcDbTextStyleTableRecord
  2

 70
     1
 40
0.0
 41
1.0
 50
0.0
 71
     0
 42
2.5
  3
ltypeshp.shx
  4

  0
ENDTAB
  0
TABLE
  2
VIEW
  5
6
330
0
100
AcDbSymbolTable
 70
     1
  0
VIEW
  5
81C
330
6
100
AcDbSymbolTableRecord
100
AcDbViewTableRecord
  2
tom
 70
     0
 40
127.2859585283894
 10
166.2856675397948
 20
206.2562233711272
 41
204.2020725054376
 11
0.0
 21
0.0
 31
1.0
 12
0.0
 22
0.0
 32
0.0
 42
50.0
 43
0.0
 44
0.0
 50
0.0
 71
     0
281
     0
 72
     1
110
-53.08748352590964
120
3.820899076262548
130
0.0
111
1.0
121
0.0
131
0.0
112
0.0
122
1.0
132
0.0
 79
     0
146
0.0
  0
ENDTAB
  0
TABLE
  2
UCS
  5
7
330
0
100
AcDbSymbolTable
 70
     0
  0
ENDTAB
  0
TABLE
  2
APPID
  5
9
330
0
100
AcDbSymbolTable
 70
     1
  0
APPID
  5
12
330
9
100
AcDbSymbolTableRecord
100
AcDbRegAppTableRecord
  2
ACAD
 70
     0
  0
ENDTAB
  0
TABLE
  2
DIMSTYLE
  5
A
330
0
100
AcDbSymbolTable
 70
     2
100
AcDbDimStyleTable
 71
     1
340
27
  0
DIMSTYLE
105
27
102
{ACAD_REACTORS
330
22CA
330
22EB
330
2312
330
2358
330
238B
330
23B5
330
23E0
330
2401
330
243A
330
245C
330
247D
330
249E
330
24D2
330
24E7
330
2501
102
}
330
A
100
AcDbSymbolTableRecord
100
AcDbDimStyleTableRecord
  2
ISO-25
 70
     0
 41
2.5
 42
0.625
 43
3.75
 44
1.25
 73
     0
 74
     0
 77
     1
 78
     8
140
2.5
141
2.5
143
0.03937007874016
147
0.625
171
     3
172
     1
271
     2
272
     2
274
     3
278
    44
283
     0
284
     8
340
11
  0
DIMSTYLE
105
AE8
330
A
100
AcDbSymbolTableRecord
100
AcDbDimStyleTableRecord
  2
STANDARD
 70
     0
 41
2.5
 73
     0
 77
     1
140
2.5
141
-0.09
147
0.2
176
     6
178
     6
271
     0
272
     0
279
     1
289
     2
340
11
371
    15
  0
ENDTAB
  0
TABLE
  2
BLOCK_RECORD
  5
1
330
0
100
AcDbSymbolTable
 70
    34
  0
BLOCK_RECORD
  5
1F
330
1
100
AcDbSymbolTableRecord
100
AcDbBlockTableRecord
  2
*Model_Space
340
22
  0
BLOCK_RECORD
  5
FEA
330
1
100
AcDbSymbolTableRecord
100
AcDbBlockTableRecord
  2
*Paper_Space
340
FEB
  0
BLOCK_RECORD
  5
22CB
330
1
100
AcDbSymbolTableRecord
100
AcDbBlockTableRecord
  2
*D15
340
0
  0
BLOCK_RECORD
  5
22EC
330
1
100
AcDbSymbolTableRecord
100
AcDbBlockTableRecord
  2
*D16
340
0
  0
BLOCK_RECORD
  5
2313
330
1
100
AcDbSymbolTableRecord
100
AcDbBlockTableRecord
  2
*D17
340
0
  0
BLOCK_RECORD
  5
2359
330
1
100
AcDbSymbolTableRecord
100
AcDbBlockTableRecord
  2
*D18
340
0
  0
BLOCK_RECORD
  5
238C
330
1
100
AcDbSymbolTableRecord
100
AcDbBlockTableRecord
  2
*D19
340
0
  0
BLOCK_RECORD
  5
23B6
330
1
100
AcDbSymbolTableRecord
100
AcDbBlockTableRecord
  2
*D20
340
0
  0
BLOCK_RECORD
  5
23E1
330
1
100
AcDbSymbolTableRecord
100
AcDbBlockTableRecord
  2
*D21
340
0
  0
BLOCK_RECORD
  5
2402
330
1
100
AcDbSymbolTableRecord
100
AcDbBlockTableRecord
  2
*D22
340
0
  0
BLOCK_RECORD
  5
243B
330
1
100
AcDbSymbolTableRecord
100
AcDbBlockTableRecord
  2
*D24
340
0
  0
BLOCK_RECORD
  5
245D
330
1
100
AcDbSymbolTableRecord
100
AcDbBlockTableRecord
  2
*D25
340
0
  0
BLOCK_RECORD
  5
247E
330
1
100
AcDbSymbolTableRecord
100
AcDbBlockTableRecord
  2
*D26
340
0
  0
BLOCK_RECORD
  5
249F
330
1
100
AcDbSymbolTableRecord
100
AcDbBlockTableRecord
  2
*D27
340
0
  0
BLOCK_RECORD
  5
24D3
330
1
100
AcDbSymbolTableRecord
100
AcDbBlockTableRecord
  2
*D29
340
0
  0
BLOCK_RECORD
  5
24E8
330
1
100
AcDbSymbolTableRecord
100
AcDbBlockTableRecord
  2
*D30
340
0
  0
BLOCK_RECORD
  5
2502
330
1
100
AcDbSymbolTableRecord
100
AcDbBlockTableRecord
  2
*D31
340
0
  0
ENDTAB
  0
ENDSEC
  0
SECTION
  2
BLOCKS
  0
BLOCK
  5
20
330
1F
100
AcDbEntity
  8
0
100
AcDbBlockBegin
  2
*Model_Space
 70
     0
 10
0.0
 20
0.0
 30
0.0
  3
*Model_Space
  1

  0
ENDBLK
  5
21
330
1F
100
AcDbEntity
  8
0
100
AcDbBlockEnd
  0
BLOCK
  5
FEC
330
FEA
100
AcDbEntity
 67
     1
  8
0
100
AcDbBlockBegin
  2
*Paper_Space
 70
     0
 10
0.0
 20
0.0
 30
0.0
  3
*Paper_Space
  1

  0
ENDBLK
  5
FED
330
FEA
100
AcDbEntity
 67
     1
  8
0
100
AcDbBlockEnd
  0
BLOCK
  5
22D5
330
22CB
100
AcDbEntity
  8
0
100
AcDbBlockBegin
  2
*D15
 70
     1
 10
0.0
 20
0.0
 30
0.0
  3
*D15
  1

  0
LINE
  5
2658
330
22CB
100
AcDbEntity
  8
Bemaßung
 62
     0
370
    -2
100
AcDbLine
 10
629.035341160182
 20
258.2237325747588
 30
0.0
 11
629.035341160182
 21
272.4449315606157
 31
0.0
  0
LINE
  5
2659
330
22CB
100
AcDbEntity
  8
Bemaßung
 62
     0
370
    -2
100
AcDbLine
 10
641.035341160182
 20
258.2237325747588
 30
0.0
 11
641.035341160182
 21
272.4449315606157
 31
0.0
  0
LINE
  5
265A
330
22CB
100
AcDbEntity
  8
Bemaßung
 62
     0
370
    -2
100
AcDbLine
 10
631.535341160182
 20
271.1949315606157
 30
0.0
 11
638.535341160182
 21
271.1949315606157
 31
0.0
  0
SOLID
  5
265B
330
22CB
100
AcDbEntity
  8
Bemaßung
 62
     0
100
AcDbTrace
 10
631.535341160182
 20
271.6115982272824
 30
0.0
 11
631.535341160182
 21
270.778264893949
 31
0.0
 12
629.035341160182
 22
271.1949315606157
 32
0.0
 13
629.035341160182
 23
271.1949315606157
 33
0.0
  0
SOLID
  5
265C
330
22CB
100
AcDbEntity
  8
Bemaßung
 62
     0
100
AcDbTrace
 10
638.535341160182
 20
271.6115982272824
 30
0.0
 11
638.535341160182
 21
270.778264893949
 31
0.0
 12
641.035341160182
 22
271.1949315606157
 32
0.0
 13
641.035341160182
 23
271.1949315606157
 33
0.0
  0
MTEXT
  5
265D
330
22CB
100
AcDbEntity
  8
Bemaßung
 62
     0
100
AcDbMText
 10
635.035341160182
 20
273.0699315606157
 30
0.0
 40
2.5
 41
0.0
 71
     5
 72
     1
  1
12
 73
     1
 44
1.0
  0
POINT
  5
265E
330
22CB
100
AcDbEntity
  8
Defpoints
 62
     0
100
AcDbPoint
 10
629.035341160182
 20
257.5987325747588
 30
0.0
  0
POINT
  5
265F
330
22CB
100
AcDbEntity
  8
Defpoints
 62
     0
100
AcDbPoint
 10
641.035341160182
 20
257.5987325747588
 30
0.0
  0
POINT
  5
2660
330
22CB
100
AcDbEntity
  8
Defpoints
 62
     0
100
AcDbPoint
 10
641.035341160182
 20
271.1949315606157
 30
0.0
  0
ENDBLK
  5
22D6
330
22CB
100
AcDbEntity
  8
0
100
AcDbBlockEnd
  0
BLOCK
  5
22F8
330
22EC
100
AcDbEntity
  8
0
100
AcDbBlockBegin
  2
*D16
 70
     1
 10
0.0
 20
0.0
 30
0.0
  3
*D16
  1

  0
LINE
  5
263B
330
22EC
100
AcDbEntity
  8
Bemaßung
 62
     0
370
    -2
100
AcDbLine
 10
644.035341160182
 20
248.2237325747588
 30
0.0
 11
644.035341160182
 21
272.4449315606157
 31
0.0
  0
LINE
  5
263C
330
22EC
100
AcDbEntity
  8
Bemaßung
 62
     0
370
    -2
100
AcDbLine
 10
641.035341160182
 20
258.2237325747588
 30
0.0
 11
641.035341160182
 21
272.4449315606157
 31
0.0
  0
LINE
  5
263D
330
22EC
100
AcDbEntity
  8
Bemaßung
 62
     0
370
    -2
100
AcDbLine
 10
646.535341160182
 20
271.1949315606157
 30
0.0
 11
649.035341160182
 21
271.1949315606157
 31
0.0
  0
LINE
  5
263E
330
22EC
100
AcDbEntity
  8
Bemaßung
 62
     0
370
    -2
100
AcDbLine
 10
638.535341160182
 20
271.1949315606157
 30
0.0
 11
636.035341160182
 21
271.1949315606157
 31
0.0
  0
LINE
  5
263F
330
22EC
100
AcDbEntity
  8
Bemaßung
 62
     0
370
    -2
100
AcDbLine
 10
644.035341160182
 20
271.1949315606157
 30
0.0
 11
641.035341160182
 21
271.1949315606157
 31
0.0
  0
SOLID
  5
2640
330
22EC
100
AcDbEntity
  8
Bemaßung
 62
     0
100
AcDbTrace
 10
646.535341160182
 20
271.6115982272824
 30
0.0
 11
646.535341160182
 21
270.778264893949
 31
0.0
 12
644.035341160182
 22
271.1949315606157
 32
0.0
 13
644.035341160182
 23
271.1949315606157
 33
0.0
  0
SOLID
  5
2641
330
22EC
100
AcDbEntity
  8
Bemaßung
 62
     0
100
AcDbTrace
 10
638.535341160182
 20
271.6115982272824
 30
0.0
 11
638.535341160182
 21
270.778264893949
 31
0.0
 12
641.035341160182
 22
271.1949315606157
 32
0.0
 13
641.035341160182
 23
271.1949315606157
 33
0.0
  0
MTEXT
  5
2642
330
22EC
100
AcDbEntity
  8
Bemaßung
 62
     0
100
AcDbMText
 10
642.535341160182
 20
273.0699315606157
 30
0.0
 40
2.5
 41
0.0
 71
     5
 72
     1
  1
3
 73
     1
 44
1.0
  0
POINT
  5
2643
330
22EC
100
AcDbEntity
  8
Defpoints
 62
     0
100
AcDbPoint
 10
644.035341160182
 20
247.5987325747588
 30
0.0
  0
POINT
  5
2644
330
22EC
100
AcDbEntity
  8
Defpoints
 62
     0
100
AcDbPoint
 10
641.035341160182
 20
257.5987325747588
 30
0.0
  0
POINT
  5
2645
330
22EC
100
AcDbEntity
  8
Defpoints
 62
     0
100
AcDbPoint
 10
641.035341160182
 20
271.1949315606157
 30
0.0
  0
ENDBLK
  5
22F9
330
22EC
100
AcDbEntity
  8
0
100
AcDbBlockEnd
  0
BLOCK
  5
231D
330
2313
100
AcDbEntity
  8
0
100
AcDbBlockBegin
  2
*D17
 70
     1
 10
0.0
 20
0.0
 30
0.0
  3
*D17
  1

  0
LINE
  5
2646
330
2313
100
AcDbEntity
  8
Bemaßung
 62
     0
370
    -2
100
AcDbLine
 10
704.035341160182
 20
207.2237355747587
 30
0.0
 11
704.035341160182
 21
244.5748893929828
 31
0.0
  0
LINE
  5
2647
330
2313
100
AcDbEntity
  8
Bemaßung
 62
     0
370
    -2
100
AcDbLine
 10
646.035341160182
 20
208.2237355747587
 30
0.0
 11
646.035341160182
 21
244.5748893929828
 31
0.0
  0
LINE
  5
2648
330
2313
100
AcDbEntity
  8
Bemaßung
 62
     0
370
    -2
100
AcDbLine
 10
701.535341160182
 20
243.3248893929828
 30
0.0
 11
648.535341160182
 21
243.3248893929828
 31
0.0
  0
SOLID
  5
2649
330
2313
100
AcDbEntity
  8
Bemaßung
 62
     0
100
AcDbTrace
 10
701.535341160182
 20
243.7415560596495
 30
0.0
 11
701.535341160182
 21
242.9082227263162
 31
0.0
 12
704.035341160182
 22
243.3248893929828
 32
0.0
 13
704.035341160182
 23
243.3248893929828
 33
0.0
  0
SOLID
  5
264A
330
2313
100
AcDbEntity
  8
Bemaßung
 62
     0
100
AcDbTrace
 10
648.535341160182
 20
243.7415560596495
 30
0.0
 11
648.535341160182
 21
242.9082227263162
 31
0.0
 12
646.035341160182
 22
243.3248893929828
 32
0.0
 13
646.035341160182
 23
243.3248893929828
 33
0.0
  0
MTEXT
  5
264B
330
2313
100
AcDbEntity
  8
Bemaßung
 62
     0
100
AcDbMText
 10
675.035341160182
 20
245.1998893929828
 30
0.0
 40
2.5
 41
0.0
 71
     5
 72
     1
  1
58
 73
     1
 44
1.0
  0
POINT
  5
264C
330
2313
100
AcDbEntity
  8
Defpoints
 62
     0
100
AcDbPoint
 10
704.035341160182
 20
206.5987355747587
 30
0.0
  0
POINT
  5
264D
330
2313
100
AcDbEntity
  8
Defpoints
 62
     0
100
AcDbPoint
 10
646.035341160182
 20
207.5987355747587
 30
0.0
  0
POINT
  5
264E
330
2313
100
AcDbEntity
  8
Defpoints
 62
     0
100
AcDbPoint
 10
646.035341160182
 20
243.3248893929828
 30
0.0
  0
ENDBLK
  5
231E
330
2313
100
AcDbEntity
  8
0
100
AcDbBlockEnd
  0
BLOCK
  5
2363
330
2359
100
AcDbEntity
  8
0
100
AcDbBlockBegin
  2
*D18
 70
     1
 10
0.0
 20
0.0
 30
0.0
  3
*D18
  1

  0
LINE
  5
2632
330
2359
100
AcDbEntity
  8
Bemaßung
 62
     0
370
    -2
100
AcDbLine
 10
704.035341160182
 20
207.2237355747587
 30
0.0
 11
704.035341160182
 21
285.1802205545623
 31
0.0
  0
LINE
  5
2633
330
2359
100
AcDbEntity
  8
Bemaßung
 62
     0
370
    -2
100
AcDbLine
 10
641.035341160182
 20
258.2237325747588
 30
0.0
 11
641.035341160182
 21
285.1802205545623
 31
0.0
  0
LINE
  5
2634
330
2359
100
AcDbEntity
  8
Bemaßung
 62
     0
370
    -2
100
AcDbLine
 10
701.535341160182
 20
283.9302205545623
 30
0.0
 11
643.535341160182
 21
283.9302205545623
 31
0.0
  0
SOLID
  5
2635
330
2359
100
AcDbEntity
  8
Bemaßung
 62
     0
100
AcDbTrace
 10
701.535341160182
 20
284.3468872212289
 30
0.0
 11
701.535341160182
 21
283.5135538878956
 31
0.0
 12
704.035341160182
 22
283.9302205545623
 32
0.0
 13
704.035341160182
 23
283.9302205545623
 33
0.0
  0
SOLID
  5
2636
330
2359
100
AcDbEntity
  8
Bemaßung
 62
     0
100
AcDbTrace
 10
643.535341160182
 20
284.3468872212289
 30
0.0
 11
643.535341160182
 21
283.5135538878956
 31
0.0
 12
641.035341160182
 22
283.9302205545623
 32
0.0
 13
641.035341160182
 23
283.9302205545623
 33
0.0
  0
MTEXT
  5
2637
330
2359
100
AcDbEntity
  8
Bemaßung
 62
     0
100
AcDbMText
 10
672.535341160182
 20
285.8052205545623
 30
0.0
 40
2.5
 41
0.0
 71
     5
 72
     1
  1
63
 73
     1
 44
1.0
  0
POINT
  5
2638
330
2359
100
AcDbEntity
  8
Defpoints
 62
     0
100
AcDbPoint
 10
704.035341160182
 20
206.5987355747587
 30
0.0
  0
POINT
  5
2639
330
2359
100
AcDbEntity
  8
Defpoints
 62
     0
100
AcDbPoint
 10
641.035341160182
 20
257.5987325747588
 30
0.0
  0
POINT
  5
263A
330
2359
100
AcDbEntity
  8
Defpoints
 62
     0
100
AcDbPoint
 10
641.035341160182
 20
283.9302205545623
 30
0.0
  0
ENDBLK
  5
2364
330
2359
100
AcDbEntity
  8
0
100
AcDbBlockEnd
  0
BLOCK
  5
2396
330
238C
100
AcDbEntity
  8
0
100
AcDbBlockBegin
  2
*D19
 70
     1
 10
0.0
 20
0.0
 30
0.0
  3
*D19
  1

  0
LINE
  5
2673
330
238C
100
AcDbEntity
  8
Bemaßung
 62
     0
370
    -2
100
AcDbLine
 10
641.035341160182
 20
258.2237325747588
 30
0.0
 11
641.035341160182
 21
285.1802205545622
 31
0.0
  0
LINE
  5
2674
330
238C
100
AcDbEntity
  8
Bemaßung
 62
     0
370
    -2
100
AcDbLine
 10
367.035351160182
 20
193.2237355747588
 30
0.0
 11
367.035351160182
 21
285.1802205545622
 31
0.0
  0
LINE
  5
2675
330
238C
100
AcDbEntity
  8
Bemaßung
 62
     0
370
    -2
100
AcDbLine
 10
638.535341160182
 20
283.9302205545622
 30
0.0
 11
369.535351160182
 21
283.9302205545622
 31
0.0
  0
SOLID
  5
2676
330
238C
100
AcDbEntity
  8
Bemaßung
 62
     0
100
AcDbTrace
 10
638.535341160182
 20
284.3468872212289
 30
0.0
 11
638.535341160182
 21
283.5135538878955
 31
0.0
 12
641.035341160182
 22
283.9302205545622
 32
0.0
 13
641.035341160182
 23
283.9302205545622
 33
0.0
  0
SOLID
  5
2677
330
238C
100
AcDbEntity
  8
Bemaßung
 62
     0
100
AcDbTrace
 10
369.535351160182
 20
284.3468872212289
 30
0.0
 11
369.535351160182
 21
283.5135538878955
 31
0.0
 12
367.035351160182
 22
283.9302205545622
 32
0.0
 13
367.035351160182
 23
283.9302205545622
 33
0.0
  0
MTEXT
  5
2678
330
238C
100
AcDbEntity
  8
Bemaßung
 62
     0
100
AcDbMText
 10
504.035346160182
 20
285.8052205545622
 30
0.0
 40
2.5
 41
0.0
 71
     5
 72
     1
  1
274
 73
     1
 44
1.0
  0
POINT
  5
2679
330
238C
100
AcDbEntity
  8
Defpoints
 62
     0
100
AcDbPoint
 10
641.035341160182
 20
257.5987325747588
 30
0.0
  0
POINT
  5
267A
330
238C
100
AcDbEntity
  8
Defpoints
 62
     0
100
AcDbPoint
 10
367.035351160182
 20
192.5987355747587
 30
0.0
  0
POINT
  5
267B
330
238C
100
AcDbEntity
  8
Defpoints
 62
     0
100
AcDbPoint
 10
367.035351160182
 20
283.9302205545622
 30
0.0
  0
ENDBLK
  5
2397
330
238C
100
AcDbEntity
  8
0
100
AcDbBlockEnd
  0
BLOCK
  5
23C0
330
23B6
100
AcDbEntity
  8
0
100
AcDbBlockBegin
  2
*D20
 70
     1
 10
0.0
 20
0.0
 30
0.0
  3
*D20
  1

  0
LINE
  5
23D7
330
23B6
100
AcDbEntity
  8
Bemaßung
 62
     0
370
    -2
100
AcDbLine
 10
367.035351160182
 20
193.2237355747588
 30
0.0
 11
367.035351160182
 21
272.4449315606157
 31
0.0
  0
LINE
  5
23D8
330
23B6
100
AcDbEntity
  8
Bemaßung
 62
     0
370
    -2
100
AcDbLine
 10
406.5353551601821
 20
258.2237325747588
 30
0.0
 11
406.5353551601821
 21
272.4449315606157
 31
0.0
  0
LINE
  5
23D9
330
23B6
100
AcDbEntity
  8
Bemaßung
 62
     0
370
    -2
100
AcDbLine
 10
369.535351160182
 20
271.1949315606157
 30
0.0
 11
404.035355160182
 21
271.1949315606157
 31
0.0
  0
SOLID
  5
23DA
330
23B6
100
AcDbEntity
  8
Bemaßung
 62
     0
100
AcDbTrace
 10
369.535351160182
 20
271.6115982272824
 30
0.0
 11
369.535351160182
 21
270.778264893949
 31
0.0
 12
367.035351160182
 22
271.1949315606157
 32
0.0
 13
367.035351160182
 23
271.1949315606157
 33
0.0
  0
SOLID
  5
23DB
330
23B6
100
AcDbEntity
  8
Bemaßung
 62
     0
100
AcDbTrace
 10
404.035355160182
 20
271.6115982272824
 30
0.0
 11
404.035355160182
 21
270.778264893949
 31
0.0
 12
406.5353551601821
 22
271.1949315606157
 32
0.0
 13
406.5353551601821
 23
271.1949315606157
 33
0.0
  0
MTEXT
  5
23DC
330
23B6
100
AcDbEntity
  8
Bemaßung
 62
     0
100
AcDbMText
 10
386.785353160182
 20
273.278264893949
 30
0.0
 40
2.5
 41
0.0
 71
     5
 72
     1
  1
39,5
 73
     1
 44
1.0
  0
POINT
  5
23DD
330
23B6
100
AcDbEntity
  8
Defpoints
 62
     0
100
AcDbPoint
 10
367.035351160182
 20
192.5987355747587
 30
0.0
  0
POINT
  5
23DE
330
23B6
100
AcDbEntity
  8
Defpoints
 62
     0
100
AcDbPoint
 10
406.5353551601821
 20
257.5987325747588
 30
0.0
  0
POINT
  5
23DF
330
23B6
100
AcDbEntity
  8
Defpoints
 62
     0
100
AcDbPoint
 10
406.5353551601821
 20
271.1949315606157
 30
0.0
  0
ENDBLK
  5
23C1
330
23B6
100
AcDbEntity
  8
0
100
AcDbBlockEnd
  0
BLOCK
  5
23EB
330
23E1
100
AcDbEntity
  8
0
100
AcDbBlockBegin
  2
*D21
 70
     1
 10
0.0
 20
0.0
 30
0.0
  3
*D21
  1

  0
LINE
  5
2661
330
23E1
100
AcDbEntity
  8
Bemaßung
 62
     0
370
    -2
100
AcDbLine
 10
704.660341160182
 20
206.5987355747587
 30
0.0
 11
730.2811700770307
 21
206.5987355747587
 31
0.0
  0
LINE
  5
2662
330
23E1
100
AcDbEntity
  8
Bemaßung
 62
     0
370
    -2
100
AcDbLine
 10
647.660341160182
 20
178.5987355747588
 30
0.0
 11
730.2811700770307
 21
178.5987355747587
 31
0.0
  0
LINE
  5
2663
330
23E1
100
AcDbEntity
  8
Bemaßung
 62
     0
370
    -2
100
AcDbLine
 10
729.0311700770307
 20
204.0987355747587
 30
0.0
 11
729.0311700770307
 21
181.0987355747587
 31
0.0
  0
SOLID
  5
2664
330
23E1
100
AcDbEntity
  8
Bemaßung
 62
     0
100
AcDbTrace
 10
728.6145034103641
 20
204.0987355747587
 30
0.0
 11
729.4478367436973
 21
204.0987355747587
 31
0.0
 12
729.0311700770307
 22
206.5987355747587
 32
0.0
 13
729.0311700770307
 23
206.5987355747587
 33
0.0
  0
SOLID
  5
2665
330
23E1
100
AcDbEntity
  8
Bemaßung
 62
     0
100
AcDbTrace
 10
728.6145034103641
 20
181.0987355747587
 30
0.0
 11
729.4478367436973
 21
181.0987355747587
 31
0.0
 12
729.0311700770307
 22
178.5987355747587
 32
0.0
 13
729.0311700770307
 23
178.5987355747587
 33
0.0
  0
MTEXT
  5
2666
330
23E1
100
AcDbEntity
  8
Bemaßung
 62
     0
100
AcDbMText
 10
727.1561700770307
 20
192.5987355747588
 30
0.0
 40
2.5
 41
0.0
 71
     5
 72
     1
  1
28
 11
0.0000000000000001
 21
1.0
 31
0.0
 73
     1
 44
1.0
  0
POINT
  5
2667
330
23E1
100
AcDbEntity
  8
Defpoints
 62
     0
100
AcDbPoint
 10
704.035341160182
 20
206.5987355747587
 30
0.0
  0
POINT
  5
2668
330
23E1
100
AcDbEntity
  8
Defpoints
 62
     0
100
AcDbPoint
 10
647.035341160182
 20
178.5987355747588
 30
0.0
  0
POINT
  5
2669
330
23E1
100
AcDbEntity
  8
Defpoints
 62
     0
100
AcDbPoint
 10
729.0311700770307
 20
178.5987355747587
 30
0.0
  0
ENDBLK
  5
23EC
330
23E1
100
AcDbEntity
  8
0
100
AcDbBlockEnd
  0
BLOCK
  5
240C
330
2402
100
AcDbEntity
  8
0
100
AcDbBlockBegin
  2
*D22
 70
     1
 10
0.0
 20
0.0
 30
0.0
  3
*D22
  1

  0
LINE
  5
2629
330
2402
100
AcDbEntity
  8
Bemaßung
 62
     0
370
    -2
100
AcDbLine
 10
644.660341160182
 20
247.5987325747588
 30
0.0
 11
745.8642076439887
 21
247.5987325747588
 31
0.0
  0
LINE
  5
262A
330
2402
100
AcDbEntity
  8
Bemaßung
 62
     0
370
    -2
100
AcDbLine
 10
644.660341160182
 20
137.5987355747587
 30
0.0
 11
745.8642076439887
 21
137.5987355747587
 31
0.0
  0
LINE
  5
262B
330
2402
100
AcDbEntity
  8
Bemaßung
 62
     0
370
    -2
100
AcDbLine
 10
744.6142076439887
 20
245.0987325747588
 30
0.0
 11
744.6142076439887
 21
140.0987355747587
 31
0.0
  0
SOLID
  5
262C
330
2402
100
AcDbEntity
  8
Bemaßung
 62
     0
100
AcDbTrace
 10
744.197540977322
 20
245.0987325747588
 30
0.0
 11
745.0308743106553
 21
245.0987325747588
 31
0.0
 12
744.6142076439887
 22
247.5987325747588
 32
0.0
 13
744.6142076439887
 23
247.5987325747588
 33
0.0
  0
SOLID
  5
262D
330
2402
100
AcDbEntity
  8
Bemaßung
 62
     0
100
AcDbTrace
 10
744.197540977322
 20
140.0987355747587
 30
0.0
 11
745.0308743106553
 21
140.0987355747587
 31
0.0
 12
744.6142076439887
 22
137.5987355747587
 32
0.0
 13
744.6142076439887
 23
137.5987355747587
 33
0.0
  0
MTEXT
  5
262E
330
2402
100
AcDbEntity
  8
Bemaßung
 62
     0
100
AcDbMText
 10
742.7392076439887
 20
192.5987340747589
 30
0.0
 40
2.5
 41
0.0
 71
     5
 72
     1
  1
110
 11
0.0000000000000001
 21
1.0
 31
0.0
 73
     1
 44
1.0
  0
POINT
  5
262F
330
2402
100
AcDbEntity
  8
Defpoints
 62
     0
100
AcDbPoint
 10
644.035341160182
 20
247.5987325747588
 30
0.0
  0
POINT
  5
2630
330
2402
100
AcDbEntity
  8
Defpoints
 62
     0
100
AcDbPoint
 10
644.035341160182
 20
137.5987355747587
 30
0.0
  0
POINT
  5
2631
330
2402
100
AcDbEntity
  8
Defpoints
 62
     0
100
AcDbPoint
 10
744.6142076439887
 20
137.5987355747587
 30
0.0
  0
ENDBLK
  5
240D
330
2402
100
AcDbEntity
  8
0
100
AcDbBlockEnd
  0
BLOCK
  5
2445
330
243B
100
AcDbEntity
  8
0
100
AcDbBlockBegin
  2
*D24
 70
     1
 10
0.0
 20
0.0
 30
0.0
  3
*D24
  1

  0
LINE
  5
266A
330
243B
100
AcDbEntity
  8
Bemaßung
 62
     0
370
    -2
100
AcDbLine
 10
641.035341160182
 20
126.9737355747588
 30
0.0
 11
641.035341160182
 21
55.89525204422324
 31
0.0
  0
LINE
  5
266B
330
243B
100
AcDbEntity
  8
Bemaßung
 62
     0
370
    -2
100
AcDbLine
 10
436.0358311601821
 20
64.65824557475878
 30
0.0
 11
436.0358311601821
 21
55.89525204422324
 31
0.0
  0
LINE
  5
266C
330
243B
100
AcDbEntity
  8
Bemaßung
 62
     0
370
    -2
100
AcDbLine
 10
638.535341160182
 20
57.14525204422324
 30
0.0
 11
438.535831160182
 21
57.14525204422324
 31
0.0
  0
SOLID
  5
266D
330
243B
100
AcDbEntity
  8
Bemaßung
 62
     0
100
AcDbTrace
 10
638.535341160182
 20
57.5619187108899
 30
0.0
 11
638.535341160182
 21
56.72858537755658
 31
0.0
 12
641.035341160182
 22
57.14525204422324
 32
0.0
 13
641.035341160182
 23
57.14525204422324
 33
0.0
  0
SOLID
  5
266E
330
243B
100
AcDbEntity
  8
Bemaßung
 62
     0
100
AcDbTrace
 10
438.535831160182
 20
57.5619187108899
 30
0.0
 11
438.535831160182
 21
56.72858537755658
 31
0.0
 12
436.0358311601821
 22
57.14525204422324
 32
0.0
 13
436.0358311601821
 23
57.14525204422324
 33
0.0
  0
MTEXT
  5
266F
330
243B
100
AcDbEntity
  8
Bemaßung
 62
     0
100
AcDbMText
 10
538.5355861601821
 20
59.02025204422324
 30
0.0
 40
2.5
 41
0.0
 71
     5
 72
     1
  1
205
 73
     1
 44
1.0
  0
POINT
  5
2670
330
243B
100
AcDbEntity
  8
Defpoints
 62
     0
100
AcDbPoint
 10
641.035341160182
 20
127.5987355747588
 30
0.0
  0
POINT
  5
2671
330
243B
100
AcDbEntity
  8
Defpoints
 62
     0
100
AcDbPoint
 10
436.0358311601821
 20
65.28324557475878
 30
0.0
  0
POINT
  5
2672
330
243B
100
AcDbEntity
  8
Defpoints
 62
     0
100
AcDbPoint
 10
436.0358311601821
 20
57.14525204422324
 30
0.0
  0
ENDBLK
  5
2446
330
243B
100
AcDbEntity
  8
0
100
AcDbBlockEnd
  0
BLOCK
  5
2467
330
245D
100
AcDbEntity
  8
0
100
AcDbBlockBegin
  2
*D25
 70
     1
 10
0.0
 20
0.0
 30
0.0
  3
*D25
  1

  0
LINE
  5
2474
330
245D
100
AcDbEntity
  8
Bemaßung
 62
     0
370
    -2
100
AcDbLine
 10
172.9070631232492
 20
243.9054150246697
 30
0.0
 11
172.9070631232492
 21
285.1802205545623
 31
0.0
  0
LINE
  5
2475
330
245D
100
AcDbEntity
  8
Bemaßung
 62
     0
370
    -2
100
AcDbLine
 10
302.9070627192102
 20
243.9054109254978
 30
0.0
 11
302.9070627192102
 21
285.1802205545623
 31
0.0
  0
LINE
  5
2476
330
245D
100
AcDbEntity
  8
Bemaßung
 62
     0
370
    -2
100
AcDbLine
 10
175.4070631232492
 20
283.9302205545623
 30
0.0
 11
300.4070627192102
 21
283.9302205545623
 31
0.0
  0
SOLID
  5
2477
330
245D
100
AcDbEntity
  8
Bemaßung
 62
     0
100
AcDbTrace
 10
175.4070631232492
 20
284.3468872212289
 30
0.0
 11
175.4070631232492
 21
283.5135538878956
 31
0.0
 12
172.9070631232492
 22
283.9302205545623
 32
0.0
 13
172.9070631232492
 23
283.9302205545623
 33
0.0
  0
SOLID
  5
2478
330
245D
100
AcDbEntity
  8
Bemaßung
 62
     0
100
AcDbTrace
 10
300.4070627192102
 20
284.3468872212289
 30
0.0
 11
300.4070627192102
 21
283.5135538878956
 31
0.0
 12
302.9070627192102
 22
283.9302205545623
 32
0.0
 13
302.9070627192102
 23
283.9302205545623
 33
0.0
  0
MTEXT
  5
2479
330
245D
100
AcDbEntity
  8
Bemaßung
 62
     0
100
AcDbMText
 10
237.9070629212297
 20
285.8052205545623
 30
0.0
 40
2.5
 41
0.0
 71
     5
 72
     1
  1
130
 73
     1
 44
1.0
  0
POINT
  5
247A
330
245D
100
AcDbEntity
  8
Defpoints
 62
     0
100
AcDbPoint
 10
172.9070631232492
 20
243.2804150246697
 30
0.0
  0
POINT
  5
247B
330
245D
100
AcDbEntity
  8
Defpoints
 62
     0
100
AcDbPoint
 10
302.9070627192102
 20
243.2804109254979
 30
0.0
  0
POINT
  5
247C
330
245D
100
AcDbEntity
  8
Defpoints
 62
     0
100
AcDbPoint
 10
302.9070627192102
 20
283.9302205545623
 30
0.0
  0
ENDBLK
  5
2468
330
245D
100
AcDbEntity
  8
0
100
AcDbBlockEnd
  0
BLOCK
  5
2488
330
247E
100
AcDbEntity
  8
0
100
AcDbBlockBegin
  2
*D26
 70
     1
 10
0.0
 20
0.0
 30
0.0
  3
*D26
  1

  0
LINE
  5
2495
330
247E
100
AcDbEntity
  8
Bemaßung
 62
     0
370
    -2
100
AcDbLine
 10
186.4760552988275
 20
257.4744079254979
 30
0.0
 11
147.610643539077
 21
257.4744079254979
 31
0.0
  0
LINE
  5
2496
330
247E
100
AcDbEntity
  8
Bemaßung
 62
     0
370
    -2
100
AcDbLine
 10
186.4760327192103
 20
127.4744109254979
 30
0.0
 11
147.610643539077
 21
127.474410925498
 31
0.0
  0
LINE
  5
2497
330
247E
100
AcDbEntity
  8
Bemaßung
 62
     0
370
    -2
100
AcDbLine
 10
148.860643539077
 20
254.974407925498
 30
0.0
 11
148.860643539077
 21
129.974410925498
 31
0.0
  0
SOLID
  5
2498
330
247E
100
AcDbEntity
  8
Bemaßung
 62
     0
100
AcDbTrace
 10
148.4439768724104
 20
254.974407925498
 30
0.0
 11
149.2773102057437
 21
254.974407925498
 31
0.0
 12
148.860643539077
 22
257.4744079254979
 32
0.0
 13
148.860643539077
 23
257.4744079254979
 33
0.0
  0
SOLID
  5
2499
330
247E
100
AcDbEntity
  8
Bemaßung
 62
     0
100
AcDbTrace
 10
148.4439768724103
 20
129.974410925498
 30
0.0
 11
149.2773102057437
 21
129.974410925498
 31
0.0
 12
148.860643539077
 22
127.474410925498
 32
0.0
 13
148.860643539077
 23
127.474410925498
 33
0.0
  0
MTEXT
  5
249A
330
247E
100
AcDbEntity
  8
Bemaßung
 62
     0
100
AcDbMText
 10
146.985643539077
 20
192.474409425498
 30
0.0
 40
2.5
 41
0.0
 71
     5
 72
     1
  1
130
 11
0.0000000000000001
 21
1.0
 31
0.0
 73
     1
 44
1.0
  0
POINT
  5
249B
330
247E
100
AcDbEntity
  8
Defpoints
 62
     0
100
AcDbPoint
 10
187.1010552988275
 20
257.4744079254979
 30
0.0
  0
POINT
  5
249C
330
247E
100
AcDbEntity
  8
Defpoints
 62
     0
100
AcDbPoint
 10
187.1010327192102
 20
127.4744109254979
 30
0.0
  0
POINT
  5
249D
330
247E
100
AcDbEntity
  8
Defpoints
 62
     0
100
AcDbPoint
 10
148.860643539077
 20
127.474410925498
 30
0.0
  0
ENDBLK
  5
2489
330
247E
100
AcDbEntity
  8
0
100
AcDbBlockEnd
  0
BLOCK
  5
24AA
330
249F
100
AcDbEntity
  8
0
100
AcDbBlockBegin
  2
*D27
 70
     1
 10
0.0
 20
0.0
 30
0.0
  3
*D27
  1

  0
LINE
  5
24B8
330
249F
100
AcDbEntity
  8
Bemaßung
 62
     0
370
    -2
100
AcDbLine
 10
181.2837908772681
 20
249.0976775600387
 30
0.0
 11
180.4925420145399
 21
249.8889260514371
 31
0.0
  0
ARC
  5
24B9
330
249F
100
AcDbEntity
  8
Bemaßung
 62
     0
370
    -2
100
AcDbCircle
 10
237.9070627192102
 20
192.4744322911629
 30
0.0
 40
79.94637480513266
100
AcDbArc
 50
91.79176711919366
 51
133.2082463251452
  0
SOLID
  5
24BA
330
249F
100
AcDbEntity
  8
Bemaßung
 62
     0
100
AcDbTrace
 10
235.4008535395863
 20
272.7983341272217
 30
0.0
 11
235.4138831068332
 21
271.9651026618882
 31
0.0
 12
237.9070627192102
 22
272.4208070962955
 32
0.0
 13
237.9070627192102
 23
272.4208070962955
 33
0.0
  0
SOLID
  5
24BB
330
249F
100
AcDbEntity
  8
Bemaßung
 62
     0
100
AcDbTrace
 10
183.4616012667782
 20
250.4457557864792
 30
0.0
 11
182.8816308022865
 21
251.0441525651819
 31
0.0
 12
181.3764256984245
 22
249.0050427823554
 32
0.0
 13
181.3764256984245
 23
249.0050427823554
 33
0.0
  0
MTEXT
  5
24BC
330
249F
100
AcDbEntity
  8
Bemaßung
 62
     0
100
AcDbMText
 10
206.5953692990685
 20
268.0675221219473
 30
0.0
 40
2.5
 41
0.0
 71
     5
 72
     1
  1
45°
 11
0.9238794876133331
 21
0.3826835407583202
 31
0.0
 73
     1
 44
1.0
  0
POINT
  5
24BD
330
249F
100
AcDbEntity
  8
Defpoints
 62
     0
100
AcDbPoint
 10
217.2154122927212
 20
269.6966988152084
 30
0.0
  0
POINT
  5
24BE
330
249F
100
AcDbEntity
  8
Defpoints
 62
     0
100
AcDbPoint
 10
192.3799927192103
 20
238.0014809254979
 30
0.0
  0
POINT
  5
24BF
330
249F
100
AcDbEntity
  8
Defpoints
 62
     0
100
AcDbPoint
 10
237.9070627192102
 20
65.1589209254979
 30
0.0
  0
POINT
  5
24C0
330
249F
100
AcDbEntity
  8
Defpoints
 62
     0
100
AcDbPoint
 10
237.9070627192103
 20
273.1088459254979
 30
0.0
  0
POINT
  5
24C1
330
249F
100
AcDbEntity
  8
Defpoints
 62
     0
100
AcDbPoint
 10
181.7257327192104
 20
248.6557359254979
 30
0.0
  0
ENDBLK
  5
24AB
330
249F
100
AcDbEntity
  8
0
100
AcDbBlockEnd
  0
BLOCK
  5
24D9
330
24D3
100
AcDbEntity
  8
0
100
AcDbBlockBegin
  2
*D29
 70
     1
 10
0.0
 20
0.0
 30
0.0
  3
*D29
  1

  0
LINE
  5
24E2
330
24D3
100
AcDbEntity
  8
Bemaßung
 62
     0
370
    -2
100
AcDbLine
 10
210.9867421805446
 20
160.7316296837331
 30
0.0
 11
289.6507866213279
 21
253.4874180366165
 31
0.0
  0
MTEXT
  5
24E3
330
24D3
100
AcDbEntity
  8
Bemaßung
 62
     0
100
AcDbMText
 10
212.6559832892651
 20
165.5987981177821
 30
0.0
 40
2.5
 41
0.0
 71
     5
 72
     1
  1
\U+2205165
 11
0.6467965487764711
 21
0.7626625888889831
 31
0.0
 73
     1
 44
1.0
  0
SOLID
  5
24E4
330
24D3
100
AcDbEntity
  8
Bemaßung
 62
     0
100
AcDbTrace
 10
289.3330105426242
 20
253.7569165986067
 30
0.0
 11
289.9685627000316
 21
253.2179194746264
 31
0.0
 12
291.2677779932691
 22
255.394074508839
 32
0.0
 13
291.2677779932691
 23
255.394074508839
 33
0.0
  0
POINT
  5
24E5
330
24D3
100
AcDbEntity
  8
Defpoints
 62
     0
100
AcDbPoint
 10
291.2677779932691
 20
255.394074508839
 30
0.0
  0
POINT
  5
24E6
330
24D3
100
AcDbEntity
  8
Defpoints
 62
     0
100
AcDbPoint
 10
184.5463474451513
 20
129.5547473421568
 30
0.0
  0
ENDBLK
  5
24DA
330
24D3
100
AcDbEntity
  8
0
100
AcDbBlockEnd
  0
BLOCK
  5
24EE
330
24E8
100
AcDbEntity
  8
0
100
AcDbBlockBegin
  2
*D30
 70
     1
 10
0.0
 20
0.0
 30
0.0
  3
*D30
  1

  0
LINE
  5
24FC
330
24E8
100
AcDbEntity
  8
Bemaßung
 62
     0
370
    -2
100
AcDbLine
 10
267.2580283672874
 20
167.1667197324383
 30
0.0
 11
184.7786898694707
 21
238.1278446512455
 31
0.0
  0
MTEXT
  5
24FD
330
24E8
100
AcDbEntity
  8
Bemaßung
 62
     0
100
AcDbMText
 10
264.8485466053461
 20
171.7131570280927
 30
0.0
 40
2.5
 41
0.0
 71
     5
 72
     1
  1
\U+2205145
 11
0.7580538978534232
 21
-0.6521919103678241
 31
0.0
 73
     1
 44
1.0
  0
SOLID
  5
24FE
330
24E8
100
AcDbEntity
  8
Bemaßung
 62
     0
100
AcDbTrace
 10
185.0504364987907
 20
238.4437004420178
 30
0.0
 11
184.5069432401508
 21
237.8119888604732
 31
0.0
 12
182.8835551248372
 22
239.7583244271651
 32
0.0
 13
182.8835551248372
 23
239.7583244271651
 33
0.0
  0
POINT
  5
24FF
330
24E8
100
AcDbEntity
  8
Defpoints
 62
     0
100
AcDbPoint
 10
182.8835551248372
 20
239.7583244271651
 30
0.0
  0
POINT
  5
2500
330
24E8
100
AcDbEntity
  8
Defpoints
 62
     0
100
AcDbPoint
 10
292.8013703135835
 20
145.1904974238307
 30
0.0
  0
ENDBLK
  5
24EF
330
24E8
100
AcDbEntity
  8
0
100
AcDbBlockEnd
  0
BLOCK
  5
250C
330
2502
100
AcDbEntity
  8
0
100
AcDbBlockBegin
  2
*D31
 70
     1
 10
0.0
 20
0.0
 30
0.0
  3
*D31
  1

  0
LINE
  5
2522
330
2502
100
AcDbEntity
  8
Bemaßung
 62
     0
370
    -2
100
AcDbLine
 10
256.5320627192102
 20
72.47440092549794
 30
0.0
 11
329.4428885244241
 21
72.47440092549793
 31
0.0
  0
LINE
  5
2523
330
2502
100
AcDbEntity
  8
Bemaßung
 62
     0
370
    -2
100
AcDbLine
 10
315.7394627192102
 20
192.4744109254979
 30
0.0
 11
329.4428885244242
 21
192.4744109254979
 31
0.0
  0
LINE
  5
2524
330
2502
100
AcDbEntity
  8
Bemaßung
 62
     0
370
    -2
100
AcDbLine
 10
328.1928885244241
 20
74.97440092549793
 30
0.0
 11
328.1928885244242
 21
189.9744109254978
 31
0.0
  0
SOLID
  5
2525
330
2502
100
AcDbEntity
  8
Bemaßung
 62
     0
100
AcDbTrace
 10
327.7762218577574
 20
74.97440092549793
 30
0.0
 11
328.6095551910908
 21
74.97440092549793
 31
0.0
 12
328.1928885244241
 22
72.47440092549793
 32
0.0
 13
328.1928885244241
 23
72.47440092549793
 33
0.0
  0
SOLID
  5
2526
330
2502
100
AcDbEntity
  8
Bemaßung
 62
     0
100
AcDbTrace
 10
327.7762218577575
 20
189.9744109254978
 30
0.0
 11
328.6095551910909
 21
189.9744109254978
 31
0.0
 12
328.1928885244242
 22
192.4744109254979
 32
0.0
 13
328.1928885244242
 23
192.4744109254979
 33
0.0
  0
MTEXT
  5
2527
330
2502
100
AcDbEntity
  8
Bemaßung
 62
     0
100
AcDbMText
 10
326.3178885244241
 20
132.4744059254979
 30
0.0
 40
2.5
 41
0.0
 71
     5
 72
     1
  1
120
 11
0.0000000000000001
 21
1.0
 31
0.0
 73
     1
 44
1.0
  0
POINT
  5
2528
330
2502
100
AcDbEntity
  8
Defpoints
 62
     0
100
AcDbPoint
 10
255.9070627192102
 20
72.47440092549794
 30
0.0
  0
POINT
  5
2529
330
2502
100
AcDbEntity
  8
Defpoints
 62
     0
100
AcDbPoint
 10
315.1144627192103
 20
192.4744109254979
 30
0.0
  0
POINT
  5
252A
330
2502
100
AcDbEntity
  8
Defpoints
 62
     0
100
AcDbPoint
 10
328.1928885244242
 20
192.4744109254979
 30
0.0
  0
ENDBLK
  5
250D
330
2502
100
AcDbEntity
  8
0
100
AcDbBlockEnd
  0
ENDSEC
  0
SECTION
  2
ENTITIES
  0
LINE
  5
201D
330
1F
100
AcDbEntity
  8
0
100
AcDbLine
 10
71.88656638020069
 20
257.4744061806117
 30
0.0
 11
-150.6134196197993
 21
257.4744061806117
 31
0.0
  0
LINE
  5
201E
330
1F
100
AcDbEntity
  8
0
100
AcDbLine
 10
71.88656638020069
 20
127.4744091806117
 30
0.0
 11
-146.6134196197993
 21
127.4744091806117
 31
0.0
  0
LINE
  5
2020
330
1F
100
AcDbEntity
  8
Innenkanten
100
AcDbLine
 10
67.38657038020068
 20
211.4744091806115
 30
0.0
 11
-146.6134196197993
 21
211.4744091806115
 31
0.0
  0
LINE
  5
2021
330
1F
100
AcDbEntity
  8
Innenkanten
100
AcDbLine
 10
67.38657038020068
 20
173.4744091806116
 30
0.0
 11
-146.6134196197993
 21
173.4744091806116
 31
0.0
  0
LINE
  5
2022
330
1F
100
AcDbEntity
  8
Innenkanten
100
AcDbLine
 10
67.38657038020068
 20
170.4744091806116
 30
0.0
 11
-146.6134196197993
 21
170.4744091806116
 31
0.0
  0
LINE
  5
2023
330
1F
100
AcDbEntity
  8
Innenkanten
100
AcDbLine
 10
67.38657038020068
 20
167.4744091806116
 30
0.0
 11
-146.6134196197993
 21
167.4744091806116
 31
0.0
  0
LINE
  5
2024
330
1F
100
AcDbEntity
  8
Innenkanten
100
AcDbLine
 10
67.38657038020068
 20
164.4744091806116
 30
0.0
 11
-146.6134196197993
 21
164.4744091806116
 31
0.0
  0
LINE
  5
2025
330
1F
100
AcDbEntity
  8
0
100
AcDbLine
 10
67.38657038020068
 20
234.9744091806115
 30
0.0
 11
-146.6134196197993
 21
234.9744091806115
 31
0.0
  0
LINE
  5
2026
330
1F
100
AcDbEntity
  8
Innenkanten
100
AcDbLine
 10
67.38657038020068
 20
214.4744091806115
 30
0.0
 11
-146.6134196197993
 21
214.4744091806115
 31
0.0
  0
LINE
  5
2027
330
1F
100
AcDbEntity
  8
Innenkanten
100
AcDbLine
 10
67.38657038020068
 20
217.4744091806116
 30
0.0
 11
-146.6134196197993
 21
217.4744091806116
 31
0.0
  0
LINE
  5
2028
330
1F
100
AcDbEntity
  8
Innenkanten
100
AcDbLine
 10
67.38657038020068
 20
220.4744091806115
 30
0.0
 11
-146.6134196197993
 21
220.4744091806115
 31
0.0
  0
LINE
  5
2029
330
1F
100
AcDbEntity
  8
0
100
AcDbLine
 10
72.38656638020069
 20
149.9744091806116
 30
0.0
 11
-146.6134196197993
 21
149.9744091806116
 31
0.0
  0
LINE
  5
202A
330
1F
100
AcDbEntity
  8
Mittellinie
100
AcDbLine
 10
124.3699180958565
 20
192.4744091806116
 30
0.0
 11
-229.4330601589936
 21
192.4744091806116
 31
0.0
  0
CIRCLE
  5
202B
330
1F
100
AcDbEntity
  8
Innenkanten
100
AcDbCircle
 10
-288.8406392807896
 20
243.7397509254978
 30
0.0
 40
4.75
  0
CIRCLE
  5
202C
330
1F
100
AcDbEntity
  8
0
100
AcDbCircle
 10
-391.3711272807897
 20
243.7397509254978
 30
0.0
 40
4.75
  0
ARC
  5
202D
330
1F
100
AcDbEntity
  8
Mittellinie
100
AcDbCircle
 10
-340.1058832807896
 20
192.4745109254979
 30
0.0
 40
72.5
100
AcDbArc
 50
129.1232800000012
 51
141.0775400000007
  0
ARC
  5
202E
330
1F
100
AcDbEntity
  8
Mittellinie
100
AcDbCircle
 10
-340.1058832807896
 20
192.4745109254979
 30
0.0
 40
72.5
100
AcDbArc
 50
38.80838000000152
 51
51.29371699999816
  0
ARC
  5
202F
330
1F
100
AcDbEntity
  8
Innenkanten
100
AcDbCircle
 10
-394.6058772807896
 20
246.9745149254979
 30
0.0
 40
12.0
100
AcDbArc
 50
270.0
 51
0.0
  0
ARC
  5
2030
330
1F
100
AcDbEntity
  8
Innenkanten
100
AcDbCircle
 10
-285.6058832807896
 20
246.9745149254979
 30
0.0
 40
12.0
100
AcDbArc
 50
180.0000100000009
 51
270.0
  0
LINE
  5
2031
330
1F
100
AcDbEntity
  8
0
100
AcDbLine
 10
-275.1058822807896
 20
141.6685109254979
 30
0.0
 11
-275.1058822807896
 21
243.2805109254978
 31
0.0
  0
LINE
  5
2032
330
1F
100
AcDbEntity
  8
0
100
AcDbLine
 10
-405.1058772807897
 20
141.6685109254979
 30
0.0
 11
-405.1058772807897
 21
243.2805109254978
 31
0.0
  0
LINE
  5
2033
330
1F
100
AcDbEntity
  8
Mittellinie
100
AcDbLine
 10
-385.9922872807896
 20
238.3609109254979
 30
0.0
 11
-396.5270972807897
 21
248.8957179254979
 31
0.0
  0
LINE
  5
2034
330
1F
100
AcDbEntity
  8
Mittellinie
100
AcDbLine
 10
-294.9408462807896
 20
237.6395509254979
 30
0.0
 11
-283.1954082807896
 21
249.3849839254979
 31
0.0
  0
LINE
  5
2035
330
1F
100
AcDbEntity
  8
Mittellinie
100
AcDbLine
 10
-340.1058832807896
 20
67.01432092549788
 30
0.0
 11
-340.1058832807896
 21
273.2379729254979
 31
0.0
  0
LINE
  5
2036
330
1F
100
AcDbEntity
  8
0
100
AcDbLine
 10
67.38657038020068
 20
127.4744091806117
 30
0.0
 11
67.38657038020068
 21
257.4744061806117
 31
0.0
  0
LINE
  5
2037
330
1F
100
AcDbEntity
  8
0
100
AcDbLine
 10
71.88656638020069
 20
127.4744091806117
 30
0.0
 11
71.88656638020069
 21
257.4744061806117
 31
0.0
  0
LINE
  5
2038
330
1F
100
AcDbEntity
  8
0
100
AcDbLine
 10
71.88656638020069
 20
127.4744091806117
 30
0.0
 11
71.88656638020069
 21
257.4744061806117
 31
0.0
  0
LINE
  5
2039
330
1F
100
AcDbEntity
  8
0
100
AcDbLine
 10
71.88656638020069
 20
127.4744091806117
 30
0.0
 11
71.88656638020069
 21
257.4744061806117
 31
0.0
  0
LINE
  5
203A
330
1F
100
AcDbEntity
  8
0
100
AcDbLine
 10
71.88656638020069
 20
127.4744091806117
 30
0.0
 11
71.88656638020069
 21
257.4744061806117
 31
0.0
  0
ARC
  5
203B
330
1F
100
AcDbEntity
  8
0
100
AcDbCircle
 10
-340.1058832807896
 20
192.4745109254979
 30
0.0
 40
38.5
100
AcDbArc
 50
299.5713200000003
 51
240.4287000000003
  0
ARC
  5
203C
330
1F
100
AcDbEntity
  8
0
100
AcDbCircle
 10
-340.1058832807896
 20
192.4745109254979
 30
0.0
 40
40.0
100
AcDbArc
 50
300.8304900000021
 51
239.1695099999978
  0
ARC
  5
203D
330
1F
100
AcDbEntity
  8
Innenkanten
100
AcDbCircle
 10
-304.8104922807896
 20
222.0908609254978
 30
0.0
 40
4.5
100
AcDbArc
 50
135.0
 51
314.9999900000011
  0
CIRCLE
  5
203E
330
1F
100
AcDbEntity
  8
Innenkanten
100
AcDbCircle
 10
-306.6107542807896
 20
134.4567509254979
 30
0.0
 40
4.8125
  0
CIRCLE
  5
203F
330
1F
100
AcDbEntity
  8
Innenkanten
100
AcDbCircle
 10
-306.6107542807896
 20
134.4567509254979
 30
0.0
 40
4.0625
  0
ARC
  5
2040
330
1F
100
AcDbEntity
  8
Mittellinie
100
AcDbCircle
 10
-340.1058832807896
 20
192.4745109254979
 30
0.0
 40
67.0
100
AcDbArc
 50
294.9360300000005
 51
305.1619299999994
  0
ARC
  5
2041
330
1F
100
AcDbEntity
  8
Mittellinie
100
AcDbCircle
 10
-340.1058832807896
 20
192.5722909254979
 30
0.0
 40
46.0
100
AcDbArc
 50
35.51608900000153
 51
44.04132599999946
  0
CIRCLE
  5
2042
330
1F
100
AcDbEntity
  8
Innenkanten
100
AcDbCircle
 10
-304.8236332807896
 20
222.0878609254979
 30
0.0
 40
3.85
  0
CIRCLE
  5
2043
330
1F
100
AcDbEntity
  8
Innenkanten
100
AcDbCircle
 10
-304.8236332807896
 20
222.0878609254979
 30
0.0
 40
3.25
  0
LINE
  5
2044
330
1F
100
AcDbEntity
  8
0
100
AcDbLine
 10
-312.5928602807896
 20
234.9650609254979
 30
0.0
 11
-297.6058832807897
 21
219.9780809254979
 31
0.0
  0
LINE
  5
2045
330
1F
100
AcDbEntity
  8
0
100
AcDbLine
 10
-312.6117612807896
 20
149.9650709254979
 30
0.0
 11
-297.6058832807897
 21
164.9709409254979
 31
0.0
  0
LINE
  5
2046
330
1F
100
AcDbEntity
  8
Innenkanten
100
AcDbLine
 10
-307.9924682807896
 20
225.2728409254979
 30
0.0
 11
-305.4465542807896
 21
227.8187609254979
 31
0.0
  0
LINE
  5
2047
330
1F
100
AcDbEntity
  8
Innenkanten
100
AcDbLine
 10
-307.3075512807897
 20
160.3611009254979
 30
0.0
 11
-304.7616372807896
 21
157.8151809254978
 31
0.0
  0
LINE
  5
2048
330
1F
100
AcDbEntity
  8
0
100
AcDbLine
 10
-325.3058842807896
 20
127.4745109254979
 30
0.0
 11
-289.2998772807896
 21
127.4745109254979
 31
0.0
  0
LINE
  5
2049
330
1F
100
AcDbEntity
  8
Innenkanten
100
AcDbLine
 10
-307.6960972807896
 20
132.5759109254979
 30
0.0
 11
-305.5310312807897
 21
132.5759109254979
 31
0.0
  0
LINE
  5
204A
330
1F
100
AcDbEntity
  8
Innenkanten
100
AcDbLine
 10
-305.5310312807897
 20
136.3259109254979
 30
0.0
 11
-307.6960972807896
 21
136.3259109254979
 31
0.0
  0
LINE
  5
204B
330
1F
100
AcDbEntity
  8
Mittellinie
100
AcDbLine
 10
-304.4093462807897
 20
130.6463009254979
 30
0.0
 11
-309.3814872807896
 21
139.2583009254979
 31
0.0
  0
LINE
  5
204C
330
1F
100
AcDbEntity
  8
Mittellinie
100
AcDbLine
 10
-308.5757892807897
 20
218.9314009254979
 30
0.0
 11
-302.4399172807896
 21
224.0800109254979
 31
0.0
  0
ARC
  5
204D
330
1F
100
AcDbEntity
  8
0
100
AcDbCircle
 10
-340.1058832807896
 20
192.4745109254979
 30
0.0
 40
82.5
100
AcDbArc
 50
218.012280000001
 51
231.9877199999989
  0
LINE
  5
204E
330
1F
100
AcDbEntity
  8
0
100
AcDbLine
 10
-321.0558842807896
 20
130.6650709254979
 30
0.0
 11
-321.0558842807896
 21
134.4650709254979
 31
0.0
  0
LINE
  5
204F
330
1F
100
AcDbEntity
  8
0
100
AcDbLine
 10
-359.1558782807896
 20
130.6650709254979
 30
0.0
 11
-359.1558782807896
 21
134.4650709254979
 31
0.0
  0
LINE
  5
2050
330
1F
100
AcDbEntity
  8
Innenkanten
100
AcDbLine
 10
-382.6058872807896
 20
129.4745109254979
 30
0.0
 11
-382.6058872807896
 21
137.9745109254979
 31
0.0
  0
LINE
  5
2051
330
1F
100
AcDbEntity
  8
0
100
AcDbLine
 10
-390.9118872807896
 20
127.4745109254979
 30
0.0
 11
-354.9058782807896
 21
127.4745109254979
 31
0.0
  0
ARC
  5
2052
330
1F
100
AcDbEntity
  8
Innenkanten
100
AcDbCircle
 10
-380.6058872807896
 20
129.4745109254979
 30
0.0
 40
2.0
100
AcDbArc
 50
180.0000100000009
 51
270.0
  0
LINE
  5
2053
330
1F
100
AcDbEntity
  8
0
100
AcDbLine
 10
-319.6058832807896
 20
100.6650709254979
 30
0.0
 11
-319.6058832807896
 21
104.4650709254979
 31
0.0
  0
LINE
  5
2054
330
1F
100
AcDbEntity
  8
0
100
AcDbLine
 10
-360.6058832807896
 20
100.6650709254979
 30
0.0
 11
-360.6058832807896
 21
104.4650709254979
 31
0.0
  0
LINE
  5
2055
330
1F
100
AcDbEntity
  8
0
100
AcDbLine
 10
-360.6058832807896
 20
100.6650709254979
 30
0.0
 11
-319.6058832807896
 21
100.6650709254979
 31
0.0
  0
LINE
  5
2056
330
1F
100
AcDbEntity
  8
Innenkanten
100
AcDbLine
 10
-357.5058842807896
 20
82.66505092549795
 30
0.0
 11
-322.7058812807896
 21
82.66505092549795
 31
0.0
  0
LINE
  5
2057
330
1F
100
AcDbEntity
  8
0
100
AcDbLine
 10
-356.5058842807896
 20
81.66505092549796
 30
0.0
 11
-323.7058812807897
 21
81.66505092549796
 31
0.0
  0
LINE
  5
2058
330
1F
100
AcDbEntity
  8
Innenkanten
100
AcDbLine
 10
-357.5058842807896
 20
97.6650709254979
 30
0.0
 11
-322.7058812807896
 21
97.6650709254979
 31
0.0
  0
LINE
  5
2059
330
1F
100
AcDbEntity
  8
Innenkanten
100
AcDbLine
 10
-360.6058832807896
 20
103.4650709254979
 30
0.0
 11
-319.6058832807896
 21
103.4650709254979
 31
0.0
  0
LINE
  5
205A
330
1F
100
AcDbEntity
  8
Innenkanten
100
AcDbLine
 10
-356.5058842807896
 20
81.66505092549796
 30
0.0
 11
-356.5058842807896
 21
97.6650709254979
 31
0.0
  0
LINE
  5
205B
330
1F
100
AcDbEntity
  8
0
100
AcDbLine
 10
-357.5058842807896
 20
82.66505092549795
 30
0.0
 11
-357.5058842807896
 21
100.6650709254979
 31
0.0
  0
LINE
  5
205C
330
1F
100
AcDbEntity
  8
0
100
AcDbLine
 10
-356.5058842807896
 20
81.66505092549796
 30
0.0
 11
-357.5058842807896
 21
82.66505092549795
 31
0.0
  0
LINE
  5
205D
330
1F
100
AcDbEntity
  8
0
100
AcDbLine
 10
-360.6058832807896
 20
103.4650709254979
 30
0.0
 11
-354.9058782807896
 21
103.4650709254979
 31
0.0
  0
LINE
  5
205E
330
1F
100
AcDbEntity
  8
0
100
AcDbLine
 10
-357.5058842807896
 20
97.6650709254979
 30
0.0
 11
-354.9058782807896
 21
97.6650709254979
 31
0.0
  0
LINE
  5
205F
330
1F
100
AcDbEntity
  8
Innenkanten
100
AcDbLine
 10
-323.7058812807897
 20
81.66505092549796
 30
0.0
 11
-323.7058812807897
 21
97.6650709254979
 31
0.0
  0
LINE
  5
2060
330
1F
100
AcDbEntity
  8
0
100
AcDbLine
 10
-322.7058812807896
 20
82.66505092549795
 30
0.0
 11
-322.7058812807896
 21
100.6650709254979
 31
0.0
  0
LINE
  5
2061
330
1F
100
AcDbEntity
  8
0
100
AcDbLine
 10
-323.7058812807897
 20
81.66505092549796
 30
0.0
 11
-322.7058812807896
 21
82.66505092549795
 31
0.0
  0
LINE
  5
2062
330
1F
100
AcDbEntity
  8
0
100
AcDbLine
 10
-325.3058842807896
 20
103.4650709254979
 30
0.0
 11
-319.6058832807896
 21
103.4650709254979
 31
0.0
  0
LINE
  5
2063
330
1F
100
AcDbEntity
  8
0
100
AcDbLine
 10
-325.3058842807896
 20
97.6650709254979
 30
0.0
 11
-322.7058812807896
 21
97.6650709254979
 31
0.0
  0
LINE
  5
2064
330
1F
100
AcDbEntity
  8
0
100
AcDbLine
 10
-359.1058832807896
 20
130.6650709254979
 30
0.0
 11
-321.1058832807896
 21
130.6650709254979
 31
0.0
  0
LINE
  5
2065
330
1F
100
AcDbEntity
  8
Innenkanten
100
AcDbLine
 10
-353.9058782807896
 20
112.3650609254979
 30
0.0
 11
-325.3058842807896
 21
112.3650609254979
 31
0.0
  0
LINE
  5
2066
330
1F
100
AcDbEntity
  8
0
100
AcDbLine
 10
-353.9058782807896
 20
111.3650609254979
 30
0.0
 11
-326.3058842807896
 21
111.3650609254979
 31
0.0
  0
LINE
  5
2067
330
1F
100
AcDbEntity
  8
0
100
AcDbLine
 10
-354.9058782807896
 20
127.6650709254979
 30
0.0
 11
-325.3058842807896
 21
127.6650709254979
 31
0.0
  0
LINE
  5
2068
330
1F
100
AcDbEntity
  8
Innenkanten
100
AcDbLine
 10
-360.6058832807896
 20
104.4650709254979
 30
0.0
 11
-319.6058832807896
 21
104.4650709254979
 31
0.0
  0
LINE
  5
2069
330
1F
100
AcDbEntity
  8
Innenkanten
100
AcDbLine
 10
-353.9058782807896
 20
111.3650609254979
 30
0.0
 11
-353.9058782807896
 21
127.6650709254979
 31
0.0
  0
LINE
  5
206A
330
1F
100
AcDbEntity
  8
0
100
AcDbLine
 10
-354.9058782807896
 20
112.3650609254979
 30
0.0
 11
-354.9058782807896
 21
130.6650709254979
 31
0.0
  0
LINE
  5
206B
330
1F
100
AcDbEntity
  8
0
100
AcDbLine
 10
-360.6058832807896
 20
104.4650709254979
 30
0.0
 11
-360.6058832807896
 21
127.4650709254979
 31
0.0
  0
LINE
  5
206C
330
1F
100
AcDbEntity
  8
0
100
AcDbLine
 10
-360.6058832807896
 20
104.4650709254979
 30
0.0
 11
-354.9058782807896
 21
104.4650709254979
 31
0.0
  0
LINE
  5
206D
330
1F
100
AcDbEntity
  8
0
100
AcDbLine
 10
-354.9058782807896
 20
112.3650609254979
 30
0.0
 11
-353.9058782807896
 21
112.3650609254979
 31
0.0
  0
LINE
  5
206E
330
1F
100
AcDbEntity
  8
0
100
AcDbLine
 10
-354.9058782807896
 20
112.3650609254979
 30
0.0
 11
-353.9058782807896
 21
111.3650609254979
 31
0.0
  0
LINE
  5
206F
330
1F
100
AcDbEntity
  8
Innenkanten
100
AcDbLine
 10
-326.3058842807896
 20
111.3650609254979
 30
0.0
 11
-326.3058842807896
 21
127.6650709254979
 31
0.0
  0
LINE
  5
2070
330
1F
100
AcDbEntity
  8
0
100
AcDbLine
 10
-325.3058842807896
 20
112.3650609254979
 30
0.0
 11
-325.3058842807896
 21
130.6650709254979
 31
0.0
  0
LINE
  5
2071
330
1F
100
AcDbEntity
  8
0
100
AcDbLine
 10
-319.6058832807896
 20
104.4650709254979
 30
0.0
 11
-319.6058832807896
 21
127.4650709254979
 31
0.0
  0
LINE
  5
2072
330
1F
100
AcDbEntity
  8
0
100
AcDbLine
 10
-325.3058842807896
 20
104.4650709254979
 30
0.0
 11
-319.6058832807896
 21
104.4650709254979
 31
0.0
  0
LINE
  5
2073
330
1F
100
AcDbEntity
  8
0
100
AcDbLine
 10
-326.3058842807896
 20
111.3650609254979
 30
0.0
 11
-325.3058842807896
 21
112.3650609254979
 31
0.0
  0
ARC
  5
2074
330
1F
100
AcDbEntity
  8
Innenkanten
100
AcDbCircle
 10
94.89412271921031
 20
192.4745109254979
 30
0.0
 40
500.0
100
AcDbArc
 50
175.3352499999995
 51
184.6647500000004
  0
LINE
  5
2075
330
1F
100
AcDbEntity
  8
0
100
AcDbLine
 10
-382.6058872807896
 20
164.9709409254979
 30
0.0
 11
-382.6058872807896
 21
219.9780809254979
 31
0.0
  0
LINE
  5
2076
330
1F
100
AcDbEntity
  8
0
100
AcDbLine
 10
-405.1058772807897
 20
180.4744109254979
 30
0.0
 11
-405.1058772807897
 21
204.4744109254978
 31
0.0
  0
LINE
  5
2077
330
1F
100
AcDbEntity
  8
0
100
AcDbLine
 10
-367.5999972807896
 20
149.9650709254979
 30
0.0
 11
-360.6058832807896
 21
149.9650709254979
 31
0.0
  0
ARC
  5
2078
330
1F
100
AcDbEntity
  8
Innenkanten
100
AcDbCircle
 10
-375.4012772807896
 20
162.8581709254979
 30
0.0
 40
4.5
100
AcDbArc
 50
315.0
 51
135.0
  0
CIRCLE
  5
2079
330
1F
100
AcDbEntity
  8
Innenkanten
100
AcDbCircle
 10
-398.1344572807897
 20
158.9804609254979
 30
0.0
 40
4.8125
  0
CIRCLE
  5
207A
330
1F
100
AcDbEntity
  8
Innenkanten
100
AcDbCircle
 10
-398.1344572807897
 20
158.9804609254979
 30
0.0
 40
4.0625
  0
ARC
  5
207B
330
1F
100
AcDbEntity
  8
Mittellinie
100
AcDbCircle
 10
-340.1058832807896
 20
192.4745109254979
 30
0.0
 40
67.0
100
AcDbArc
 50
204.9360300000006
 51
215.1619299999995
  0
CIRCLE
  5
207C
330
1F
100
AcDbEntity
  8
Innenkanten
100
AcDbCircle
 10
-375.3966172807897
 20
162.8527209254979
 30
0.0
 40
3.85
  0
CIRCLE
  5
207D
330
1F
100
AcDbEntity
  8
Innenkanten
100
AcDbCircle
 10
-375.3966172807897
 20
162.8527209254979
 30
0.0
 40
3.25
  0
LINE
  5
207E
330
1F
100
AcDbEntity
  8
0
100
AcDbLine
 10
-382.6058872807896
 20
164.9709409254979
 30
0.0
 11
-374.7652072807896
 21
157.1302609254979
 31
0.0
  0
LINE
  5
207F
330
1F
100
AcDbEntity
  8
Innenkanten
100
AcDbLine
 10
-400.0111772807897
 20
160.0609709254979
 30
0.0
 11
-400.0111772807897
 21
157.8959009254979
 31
0.0
  0
LINE
  5
2080
330
1F
100
AcDbEntity
  8
Innenkanten
100
AcDbLine
 10
-396.2611772807897
 20
157.8959009254979
 30
0.0
 11
-396.2611772807897
 21
160.0609709254979
 31
0.0
  0
LINE
  5
2081
330
1F
100
AcDbEntity
  8
Mittellinie
100
AcDbLine
 10
-401.9340872807896
 20
156.7779809254979
 30
0.0
 11
-393.3220972807897
 21
161.7501209254979
 31
0.0
  0
CIRCLE
  5
2082
330
1F
100
AcDbEntity
  8
Innenkanten
100
AcDbCircle
 10
-391.3711272807897
 20
141.2092709254978
 30
0.0
 40
4.75
  0
ARC
  5
2083
330
1F
100
AcDbEntity
  8
Mittellinie
100
AcDbCircle
 10
-340.1058832807896
 20
192.4745109254979
 30
0.0
 40
72.5
100
AcDbArc
 50
218.5610000000014
 51
231.8900099999982
  0
ARC
  5
2084
330
1F
100
AcDbEntity
  8
Innenkanten
100
AcDbCircle
 10
-394.6058772807896
 20
137.9745109254979
 30
0.0
 40
12.0
100
AcDbArc
 50
0.0
 51
90.00000299999769
  0
LINE
  5
2085
330
1F
100
AcDbEntity
  8
Mittellinie
100
AcDbLine
 10
-397.1388172807896
 20
135.4415709254979
 30
0.0
 11
-384.7727972807896
 21
147.8076009254979
 31
0.0
  0
ARC
  5
2086
330
1F
100
AcDbEntity
  8
Innenkanten
100
AcDbCircle
 10
-401.4563072807896
 20
151.9745109254979
 30
0.0
 40
2.0
100
AcDbArc
 50
184.6647500000004
 51
270.0
  0
LINE
  5
2087
330
1F
100
AcDbEntity
  8
Innenkanten
100
AcDbLine
 10
-401.4563072807896
 20
149.9745109254979
 30
0.0
 11
-394.6058772807896
 21
149.9745109254979
 31
0.0
  0
LINE
  5
2088
330
1F
100
AcDbEntity
  8
Innenkanten
100
AcDbLine
 10
-398.1361772807897
 20
156.8133809254978
 30
0.0
 11
-396.2611772807897
 21
157.8959009254979
 31
0.0
  0
LINE
  5
2089
330
1F
100
AcDbEntity
  8
Innenkanten
100
AcDbLine
 10
-400.0111772807897
 20
157.8959009254979
 30
0.0
 11
-398.1361772807897
 21
156.8133809254978
 31
0.0
  0
LINE
  5
208A
330
1F
100
AcDbEntity
  8
0
100
AcDbLine
 10
-374.7652072807896
 20
157.1302609254979
 30
0.0
 11
-367.5999972807896
 21
149.9650709254979
 31
0.0
  0
LINE
  5
208B
330
1F
100
AcDbEntity
  8
Innenkanten
100
AcDbLine
 10
-372.2192972807897
 20
159.6761709254979
 30
0.0
 11
-374.7652072807896
 21
157.1302609254979
 31
0.0
  0
LINE
  5
208C
330
1F
100
AcDbEntity
  8
Innenkanten
100
AcDbLine
 10
-398.1361772807897
 20
161.1435009254979
 30
0.0
 11
-400.0111772807897
 21
160.0609709254979
 31
0.0
  0
LINE
  5
208D
330
1F
100
AcDbEntity
  8
Innenkanten
100
AcDbLine
 10
-396.2611772807897
 20
160.0609709254979
 30
0.0
 11
-398.1361772807897
 21
161.1435009254979
 31
0.0
  0
ARC
  5
208E
330
1F
100
AcDbEntity
  8
Mittellinie
100
AcDbCircle
 10
-340.2036612807896
 20
192.4745109254979
 30
0.0
 40
46.0
100
AcDbArc
 50
215.4623900000014
 51
224.0540599999974
  0
LINE
  5
208F
330
1F
100
AcDbEntity
  8
Innenkanten
100
AcDbLine
 10
-373.6908672807896
 20
163.1534809254978
 30
0.0
 11
-374.8042072807897
 21
164.4803109254979
 31
0.0
  0
LINE
  5
2090
330
1F
100
AcDbEntity
  8
Mittellinie
100
AcDbLine
 10
-372.8567272807897
 20
164.9838409254979
 30
0.0
 11
-377.7625872807896
 21
160.8673409254979
 31
0.0
  0
LINE
  5
2091
330
1F
100
AcDbEntity
  8
Innenkanten
100
AcDbLine
 10
-375.9889972807896
 20
161.2251209254979
 30
0.0
 11
-374.2832672807896
 21
161.5258909254979
 31
0.0
  0
LINE
  5
2092
330
1F
100
AcDbEntity
  8
Innenkanten
100
AcDbLine
 10
-378.5832572807896
 20
166.0401409254979
 30
0.0
 11
-381.1291672807896
 21
163.4942309254979
 31
0.0
  0
LINE
  5
2093
330
1F
100
AcDbEntity
  8
Innenkanten
100
AcDbLine
 10
-377.1023472807896
 20
162.5519509254979
 30
0.0
 11
-375.9889972807896
 21
161.2251209254979
 31
0.0
  0
LINE
  5
2094
330
1F
100
AcDbEntity
  8
Innenkanten
100
AcDbLine
 10
-376.5099472807896
 20
164.1795509254978
 30
0.0
 11
-377.1023472807896
 21
162.5519509254979
 31
0.0
  0
LINE
  5
2095
330
1F
100
AcDbEntity
  8
Innenkanten
100
AcDbLine
 10
-374.8042072807897
 20
164.4803109254979
 30
0.0
 11
-376.5099472807896
 21
164.1795509254978
 31
0.0
  0
LINE
  5
2096
330
1F
100
AcDbEntity
  8
Innenkanten
100
AcDbLine
 10
-374.2832672807896
 20
161.5258909254979
 30
0.0
 11
-373.6908672807896
 21
163.1534809254978
 31
0.0
  0
ARC
  5
2097
330
1F
100
AcDbEntity
  8
Innenkanten
100
AcDbCircle
 10
-310.4895312807896
 20
157.1791209254979
 30
0.0
 40
4.5
100
AcDbArc
 50
45.00000099999919
 51
225.0
  0
CIRCLE
  5
2098
330
1F
100
AcDbEntity
  8
Innenkanten
100
AcDbCircle
 10
-310.5904872807896
 20
157.2900809254979
 30
0.0
 40
3.85
  0
CIRCLE
  5
2099
330
1F
100
AcDbEntity
  8
Innenkanten
100
AcDbCircle
 10
-310.5904872807896
 20
157.2900809254979
 30
0.0
 40
3.25
  0
LINE
  5
209A
330
1F
100
AcDbEntity
  8
0
100
AcDbLine
 10
-360.6058832807896
 20
134.4650709254979
 30
0.0
 11
-319.6058832807896
 21
134.4650709254979
 31
0.0
  0
LINE
  5
209B
330
1F
100
AcDbEntity
  8
Innenkanten
100
AcDbLine
 10
-359.1058832807896
 20
133.4650709254979
 30
0.0
 11
-321.1058832807896
 21
133.4650709254979
 31
0.0
  0
CIRCLE
  5
209C
330
1F
100
AcDbEntity
  8
Innenkanten
100
AcDbCircle
 10
-354.8058802807897
 20
146.9650709254979
 30
0.0
 40
2.0
  0
LINE
  5
209D
330
1F
100
AcDbEntity
  8
0
100
AcDbLine
 10
-359.1058832807896
 20
134.4650709254979
 30
0.0
 11
-359.1058832807896
 21
149.9650709254979
 31
0.0
  0
LINE
  5
209E
330
1F
100
AcDbEntity
  8
0
100
AcDbLine
 10
-360.6058832807896
 20
134.4650709254979
 30
0.0
 11
-360.6058832807896
 21
149.9650709254979
 31
0.0
  0
LINE
  5
209F
330
1F
100
AcDbEntity
  8
0
100
AcDbLine
 10
-359.1058832807896
 20
134.4650709254979
 30
0.0
 11
-359.1058832807896
 21
149.9650709254979
 31
0.0
  0
LINE
  5
20A0
330
1F
100
AcDbEntity
  8
Mittellinie
100
AcDbLine
 10
-354.8058802807897
 20
144.6810709254979
 30
0.0
 11
-354.8058802807897
 21
149.8730709254979
 31
0.0
  0
LINE
  5
20A1
330
1F
100
AcDbEntity
  8
0
100
AcDbLine
 10
-359.1058832807896
 20
149.9650709254979
 30
0.0
 11
-359.1058832807896
 21
158.9894409254978
 31
0.0
  0
LINE
  5
20A2
330
1F
100
AcDbEntity
  8
0
100
AcDbLine
 10
-360.6058832807896
 20
149.9650709254979
 30
0.0
 11
-360.6058832807896
 21
158.1270309254979
 31
0.0
  0
LINE
  5
20A3
330
1F
100
AcDbEntity
  8
Mittellinie
100
AcDbLine
 10
-357.3367262807896
 20
146.9650709254979
 30
0.0
 11
-352.6241932807897
 21
146.9650709254979
 31
0.0
  0
LINE
  5
20A4
330
1F
100
AcDbEntity
  8
0
100
AcDbLine
 10
-360.6058832807896
 20
146.9650709254979
 30
0.0
 11
-360.4447962807896
 21
146.9650709254979
 31
0.0
  0
CIRCLE
  5
20A5
330
1F
100
AcDbEntity
  8
Innenkanten
100
AcDbCircle
 10
-325.4058822807897
 20
146.9650709254979
 30
0.0
 40
2.0
  0
LINE
  5
20A6
330
1F
100
AcDbEntity
  8
0
100
AcDbLine
 10
-321.1058832807896
 20
134.4650709254979
 30
0.0
 11
-321.1058832807896
 21
149.9650709254979
 31
0.0
  0
LINE
  5
20A7
330
1F
100
AcDbEntity
  8
0
100
AcDbLine
 10
-321.1058832807896
 20
134.4650709254979
 30
0.0
 11
-321.1058832807896
 21
149.9650709254979
 31
0.0
  0
LINE
  5
20A8
330
1F
100
AcDbEntity
  8
0
100
AcDbLine
 10
-319.6058832807896
 20
134.4650709254979
 30
0.0
 11
-319.6058832807896
 21
149.9650709254979
 31
0.0
  0
LINE
  5
20A9
330
1F
100
AcDbEntity
  8
Mittellinie
100
AcDbLine
 10
-325.4058822807897
 20
144.6810709254979
 30
0.0
 11
-325.4058822807897
 21
149.6812909254979
 31
0.0
  0
LINE
  5
20AA
330
1F
100
AcDbEntity
  8
Innenkanten
100
AcDbLine
 10
-308.7786282807896
 20
134.4509109254979
 30
0.0
 11
-307.6960972807896
 21
132.5759109254979
 31
0.0
  0
LINE
  5
20AB
330
1F
100
AcDbEntity
  8
Innenkanten
100
AcDbLine
 10
-307.6960972807896
 20
136.3259109254979
 30
0.0
 11
-308.7786282807896
 21
134.4509109254979
 31
0.0
  0
LINE
  5
20AC
330
1F
100
AcDbEntity
  8
0
100
AcDbLine
 10
-321.1058832807896
 20
149.9650709254979
 30
0.0
 11
-321.1058832807896
 21
158.9894409254978
 31
0.0
  0
LINE
  5
20AD
330
1F
100
AcDbEntity
  8
Mittellinie
100
AcDbLine
 10
-327.9933572807896
 20
146.9650709254979
 30
0.0
 11
-323.0890332807896
 21
146.9650709254979
 31
0.0
  0
LINE
  5
20AE
330
1F
100
AcDbEntity
  8
0
100
AcDbLine
 10
-319.6058832807896
 20
149.9650709254979
 30
0.0
 11
-319.6058832807896
 21
158.1270309254979
 31
0.0
  0
LINE
  5
20AF
330
1F
100
AcDbEntity
  8
Innenkanten
100
AcDbLine
 10
-313.6715112807896
 20
153.9971409254978
 30
0.0
 11
-311.1255972807896
 21
151.4512309254979
 31
0.0
  0
LINE
  5
20B0
330
1F
100
AcDbEntity
  8
0
100
AcDbLine
 10
-319.6058832807896
 20
149.9650709254979
 30
0.0
 11
-312.6117612807896
 21
149.9650709254979
 31
0.0
  0
ARC
  5
20B1
330
1F
100
AcDbEntity
  8
Mittellinie
100
AcDbCircle
 10
-340.1058832807896
 20
192.5722909254979
 30
0.0
 40
46.0
100
AcDbArc
 50
305.6972099999995
 51
314.1035200000015
  0
LINE
  5
20B2
330
1F
100
AcDbEntity
  8
Innenkanten
100
AcDbLine
 10
-311.7044622807896
 20
158.6177509254979
 30
0.0
 11
-312.2968582807896
 21
156.9901509254979
 31
0.0
  0
LINE
  5
20B3
330
1F
100
AcDbEntity
  8
Innenkanten
100
AcDbLine
 10
-309.9987242807896
 20
158.9185109254979
 30
0.0
 11
-311.7044622807896
 21
158.6177509254979
 31
0.0
  0
LINE
  5
20B4
330
1F
100
AcDbEntity
  8
Innenkanten
100
AcDbLine
 10
-309.4777822807896
 20
155.9640909254978
 30
0.0
 11
-308.8853862807896
 21
157.5916909254979
 31
0.0
  0
LINE
  5
20B5
330
1F
100
AcDbEntity
  8
Innenkanten
100
AcDbLine
 10
-308.8853862807896
 20
157.5916909254979
 30
0.0
 11
-309.9987242807896
 21
158.9185109254979
 31
0.0
  0
LINE
  5
20B6
330
1F
100
AcDbEntity
  8
Innenkanten
100
AcDbLine
 10
-312.2968582807896
 20
156.9901509254979
 30
0.0
 11
-311.1835202807896
 21
155.6633309254979
 31
0.0
  0
LINE
  5
20B7
330
1F
100
AcDbEntity
  8
Mittellinie
100
AcDbLine
 10
-308.3318812807896
 20
154.5982809254978
 30
0.0
 11
-312.4214192807897
 21
159.4720109254978
 31
0.0
  0
LINE
  5
20B8
330
1F
100
AcDbEntity
  8
Innenkanten
100
AcDbLine
 10
-311.1835202807896
 20
155.6633309254979
 30
0.0
 11
-309.4777822807896
 21
155.9640909254978
 31
0.0
  0
LINE
  5
20B9
330
1F
100
AcDbEntity
  8
0
100
AcDbLine
 10
-367.6189072807896
 20
234.9650609254979
 30
0.0
 11
-312.5928602807896
 21
234.9650609254979
 31
0.0
  0
ARC
  5
20BA
330
1F
100
AcDbEntity
  8
Innenkanten
100
AcDbCircle
 10
-401.4563072807896
 20
232.9745109254979
 30
0.0
 40
2.0
100
AcDbArc
 50
90.00000299999769
 51
175.3352499999995
  0
LINE
  5
20BB
330
1F
100
AcDbEntity
  8
Innenkanten
100
AcDbLine
 10
-401.4563072807896
 20
234.9745109254979
 30
0.0
 11
-394.6058772807896
 21
234.9745109254979
 31
0.0
  0
ARC
  5
20BC
330
1F
100
AcDbEntity
  8
Innenkanten
100
AcDbCircle
 10
-369.7222272807897
 20
227.7699009254979
 30
0.0
 40
4.5
100
AcDbArc
 50
225.0
 51
45.00000099999919
  0
ARC
  5
20BD
330
1F
100
AcDbEntity
  8
Mittellinie
100
AcDbCircle
 10
-340.1058832807896
 20
192.5722909254979
 30
0.0
 40
46.0
100
AcDbArc
 50
125.4623900000014
 51
134.054060000002
  0
CIRCLE
  5
20BE
330
1F
100
AcDbEntity
  8
Innenkanten
100
AcDbCircle
 10
-369.7268772807896
 20
227.7660909254979
 30
0.0
 40
3.85
  0
CIRCLE
  5
20BF
330
1F
100
AcDbEntity
  8
Innenkanten
100
AcDbCircle
 10
-369.7268772807896
 20
227.7660909254979
 30
0.0
 40
3.25
  0
LINE
  5
20C0
330
1F
100
AcDbEntity
  8
0
100
AcDbLine
 10
-382.6058872807896
 20
219.9780809254979
 30
0.0
 11
-367.6189072807896
 21
234.9650609254979
 31
0.0
  0
LINE
  5
20C1
330
1F
100
AcDbEntity
  8
Innenkanten
100
AcDbLine
 10
-369.1347972807896
 20
229.3941109254979
 30
0.0
 11
-370.8405372807896
 21
229.0933409254979
 31
0.0
  0
LINE
  5
20C2
330
1F
100
AcDbEntity
  8
Innenkanten
100
AcDbLine
 10
-368.0214572807896
 20
228.0672809254979
 30
0.0
 11
-369.1347972807896
 21
229.3941109254979
 31
0.0
  0
LINE
  5
20C3
330
1F
100
AcDbEntity
  8
Mittellinie
100
AcDbLine
 10
-367.6251072807896
 20
225.2612009254979
 30
0.0
 11
-371.7984172807896
 21
230.2347509254979
 31
0.0
  0
LINE
  5
20C4
330
1F
100
AcDbEntity
  8
Innenkanten
100
AcDbLine
 10
-372.9042172807896
 20
224.5879209254979
 30
0.0
 11
-375.4501272807896
 21
227.1338409254979
 31
0.0
  0
LINE
  5
20C5
330
1F
100
AcDbEntity
  8
Innenkanten
100
AcDbLine
 10
-370.3195872807896
 20
226.1389209254979
 30
0.0
 11
-368.6138572807896
 21
226.4396909254979
 31
0.0
  0
LINE
  5
20C6
330
1F
100
AcDbEntity
  8
Innenkanten
100
AcDbLine
 10
-368.6138572807896
 20
226.4396909254979
 30
0.0
 11
-368.0214572807896
 21
228.0672809254979
 31
0.0
  0
LINE
  5
20C7
330
1F
100
AcDbEntity
  8
Innenkanten
100
AcDbLine
 10
-371.4329372807896
 20
227.4657509254979
 30
0.0
 11
-370.3195872807896
 21
226.1389209254979
 31
0.0
  0
LINE
  5
20C8
330
1F
100
AcDbEntity
  8
Innenkanten
100
AcDbLine
 10
-370.8405372807896
 20
229.0933409254979
 30
0.0
 11
-371.4329372807896
 21
227.4657509254979
 31
0.0
  0
LINE
  5
20C9
330
1F
100
AcDbEntity
  8
Innenkanten
100
AcDbLine
 10
-366.5402572807897
 20
230.9518909254979
 30
0.0
 11
-369.0861672807896
 21
233.4978009254979
 31
0.0
  0
LINE
  5
20CA
330
1F
100
AcDbEntity
  8
0
100
AcDbLine
 10
-313.2966792807897
 20
234.9839609254978
 30
0.0
 11
-313.2777812807896
 21
234.9650609254979
 31
0.0
  0
ARC
  5
20CB
330
1F
100
AcDbEntity
  8
0
100
AcDbCircle
 10
-340.1058832807896
 20
192.4745109254979
 30
0.0
 40
82.5
100
AcDbArc
 50
308.012280000001
 51
321.987719999999
  0
LINE
  5
20CC
330
1F
100
AcDbEntity
  8
Innenkanten
100
AcDbLine
 10
-297.6058832807897
 20
129.4745109254979
 30
0.0
 11
-297.6058832807897
 21
137.9745109254979
 31
0.0
  0
LINE
  5
20CD
330
1F
100
AcDbEntity
  8
0
100
AcDbLine
 10
110.9365693802006
 20
130.6743991806116
 30
0.0
 11
110.9365693802006
 21
134.4744091806117
 31
0.0
  0
LINE
  5
20CE
330
1F
100
AcDbEntity
  8
Mittellinie
100
AcDbLine
 10
91.88656638020068
 20
104.6316591806116
 30
0.0
 11
91.88656638020068
 21
137.9335991806116
 31
0.0
  0
LINE
  5
20CF
330
1F
100
AcDbEntity
  8
Mittellinie
100
AcDbLine
 10
42.38609038020064
 20
65.15891918061163
 30
0.0
 11
42.38609038020064
 21
133.4233191806116
 31
0.0
  0
LINE
  5
20D0
330
1F
100
AcDbEntity
  8
0
100
AcDbLine
 10
77.88656638020069
 20
130.4583491806116
 30
0.0
 11
77.88656638020069
 21
138.4583491806116
 31
0.0
  0
LINE
  5
20D1
330
1F
100
AcDbEntity
  8
0
100
AcDbLine
 10
72.88656638020069
 20
129.6583691806116
 30
0.0
 11
72.88656638020069
 21
139.2583591806116
 31
0.0
  0
LINE
  5
20D2
330
1F
100
AcDbEntity
  8
Innenkanten
100
AcDbLine
 10
106.6865693802006
 20
127.6743991806116
 30
0.0
 11
77.08657138020067
 21
127.6743991806116
 31
0.0
  0
LINE
  5
20D3
330
1F
100
AcDbEntity
  8
0
100
AcDbLine
 10
110.9365693802006
 20
130.6743991806116
 30
0.0
 11
77.88656638020069
 21
130.6743991806116
 31
0.0
  0
LINE
  5
20D4
330
1F
100
AcDbEntity
  8
Innenkanten
100
AcDbLine
 10
106.6865693802006
 20
112.3744191806116
 30
0.0
 11
77.08657138020067
 21
112.3744191806116
 31
0.0
  0
LINE
  5
20D5
330
1F
100
AcDbEntity
  8
0
100
AcDbLine
 10
105.6865693802006
 20
111.3744191806116
 30
0.0
 11
78.08657138020066
 21
111.3744191806116
 31
0.0
  0
ARC
  5
20D6
330
1F
100
AcDbEntity
  8
Innenkanten
100
AcDbCircle
 10
-299.6058832807896
 20
129.4745109254979
 30
0.0
 40
2.0
100
AcDbArc
 50
270.0
 51
0.0
  0
LINE
  5
20D7
330
1F
100
AcDbEntity
  8
Innenkanten
100
AcDbLine
 10
105.6865693802006
 20
111.3744191806116
 30
0.0
 11
105.6865693802006
 21
127.6743991806116
 31
0.0
  0
LINE
  5
20D8
330
1F
100
AcDbEntity
  8
0
100
AcDbLine
 10
106.6865693802006
 20
112.3744191806116
 30
0.0
 11
106.6865693802006
 21
130.6743991806116
 31
0.0
  0
LINE
  5
20D9
330
1F
100
AcDbEntity
  8
0
100
AcDbLine
 10
106.6865693802006
 20
112.3744191806116
 30
0.0
 11
105.6865693802006
 21
111.3744191806116
 31
0.0
  0
LINE
  5
20DA
330
1F
100
AcDbEntity
  8
Innenkanten
100
AcDbLine
 10
24.37703038020066
 20
89.59439918061162
 30
0.0
 11
24.37703038020066
 21
73.59439918061167
 31
0.0
  0
LINE
  5
20DB
330
1F
100
AcDbEntity
  8
Innenkanten
100
AcDbLine
 10
60.37703038020066
 20
89.59439918061162
 30
0.0
 11
60.37703038020066
 21
73.59439918061167
 31
0.0
  0
LINE
  5
20DC
330
1F
100
AcDbEntity
  8
0
100
AcDbLine
 10
23.37703038020066
 20
94.2244091806117
 30
0.0
 11
23.37703038020066
 21
75.59439918061167
 31
0.0
  0
LINE
  5
20DD
330
1F
100
AcDbEntity
  8
0
100
AcDbLine
 10
61.37703038020067
 20
94.2244091806117
 30
0.0
 11
61.37703038020067
 21
75.59439918061167
 31
0.0
  0
LINE
  5
20DE
330
1F
100
AcDbEntity
  8
Innenkanten
100
AcDbLine
 10
23.37703038020066
 20
75.59439918061167
 30
0.0
 11
61.37703038020067
 21
75.59439918061167
 31
0.0
  0
LINE
  5
20DF
330
1F
100
AcDbEntity
  8
0
100
AcDbLine
 10
24.37703038020066
 20
73.59439918061167
 30
0.0
 11
60.37703038020066
 21
73.59439918061167
 31
0.0
  0
LINE
  5
20E0
330
1F
100
AcDbEntity
  8
0
100
AcDbLine
 10
61.37703038020067
 20
75.59439918061167
 30
0.0
 11
60.37703038020066
 21
73.59439918061167
 31
0.0
  0
LINE
  5
20E1
330
1F
100
AcDbEntity
  8
0
100
AcDbLine
 10
23.37703038020066
 20
75.59439918061167
 30
0.0
 11
24.37703038020066
 21
73.59439918061167
 31
0.0
  0
LINE
  5
20E2
330
1F
100
AcDbEntity
  8
Innenkanten
100
AcDbLine
 10
66.87703038020067
 20
126.4744091806117
 30
0.0
 11
6.877030380200665
 21
126.4744091806117
 31
0.0
  0
LINE
  5
20E3
330
1F
100
AcDbEntity
  8
0
100
AcDbLine
 10
66.87703038020067
 20
97.47440918061171
 30
0.0
 11
16.87703038020066
 21
97.47440918061171
 31
0.0
  0
LINE
  5
20E4
330
1F
100
AcDbEntity
  8
Innenkanten
100
AcDbLine
 10
23.37703038020066
 20
89.59439918061162
 30
0.0
 11
61.37703038020067
 21
89.59439918061162
 31
0.0
  0
LINE
  5
20E5
330
1F
100
AcDbEntity
  8
Innenkanten
100
AcDbLine
 10
20.17703038020062
 20
96.9744091806117
 30
0.0
 11
64.57703038020065
 21
96.9744091806117
 31
0.0
  0
LINE
  5
20E6
330
1F
100
AcDbEntity
  8
0
100
AcDbLine
 10
20.17703038020062
 20
94.2244091806117
 30
0.0
 11
64.57703038020065
 21
94.2244091806117
 31
0.0
  0
LINE
  5
20E7
330
1F
100
AcDbEntity
  8
0
100
AcDbLine
 10
66.87703038020067
 20
97.47440918061171
 30
0.0
 11
66.87703038020067
 21
127.4744091806117
 31
0.0
  0
LINE
  5
20E8
330
1F
100
AcDbEntity
  8
0
100
AcDbLine
 10
64.57703038020065
 20
97.47440918061171
 30
0.0
 11
64.57703038020065
 21
94.2244091806117
 31
0.0
  0
LINE
  5
20E9
330
1F
100
AcDbEntity
  8
0
100
AcDbLine
 10
72.88656638020069
 20
129.6583691806116
 30
0.0
 11
71.88656638020069
 21
129.6583691806116
 31
0.0
  0
LINE
  5
20EA
330
1F
100
AcDbEntity
  8
Innenkanten
100
AcDbLine
 10
78.08657138020066
 20
111.3744191806116
 30
0.0
 11
78.08657138020066
 21
127.6743991806116
 31
0.0
  0
LINE
  5
20EB
330
1F
100
AcDbEntity
  8
0
100
AcDbLine
 10
77.08657138020067
 20
112.3744191806116
 30
0.0
 11
77.08657138020067
 21
130.4583491806116
 31
0.0
  0
LINE
  5
20EC
330
1F
100
AcDbEntity
  8
0
100
AcDbLine
 10
78.08657138020066
 20
111.3744191806116
 30
0.0
 11
77.08657138020067
 21
112.3744191806116
 31
0.0
  0
LINE
  5
20ED
330
1F
100
AcDbEntity
  8
0
100
AcDbLine
 10
77.88656638020069
 20
130.4583491806116
 30
0.0
 11
72.88656638020069
 21
130.4583491806116
 31
0.0
  0
ARC
  5
20EE
330
1F
100
AcDbEntity
  8
0
100
AcDbCircle
 10
66.71478038020064
 20
130.8839791806116
 30
0.0
 40
60.0
100
AcDbArc
 50
184.21463
 51
213.8365900000005
  0
LINE
  5
20EF
330
1F
100
AcDbEntity
  8
0
100
AcDbLine
 10
20.17703038020062
 20
97.47440918061171
 30
0.0
 11
20.17703038020062
 21
94.2244091806117
 31
0.0
  0
LINE
  5
20F0
330
1F
100
AcDbEntity
  8
0
100
AcDbLine
 10
6.877030380200665
 20
126.4744091806117
 30
0.0
 11
6.877030380200665
 21
127.4744091806117
 31
0.0
  0
LINE
  5
20F1
330
1F
100
AcDbEntity
  8
0
100
AcDbLine
 10
111.3865703802006
 20
134.4744091806117
 30
0.0
 11
77.88656638020069
 21
134.4744091806117
 31
0.0
  0
LINE
  5
20F2
330
1F
100
AcDbEntity
  8
Innenkanten
100
AcDbLine
 10
110.9365693802006
 20
133.4744091806117
 30
0.0
 11
77.88656638020069
 21
133.4744091806117
 31
0.0
  0
LINE
  5
20F4
330
1F
100
AcDbEntity
  8
0
100
AcDbLine
 10
109.2424593802006
 20
231.6586991806117
 30
0.0
 11
84.88656638020069
 21
232.5092191806116
 31
0.0
  0
LINE
  5
20F5
330
1F
100
AcDbEntity
  8
Innenkanten
100
AcDbLine
 10
109.8865703802006
 20
158.1270291806116
 30
0.0
 11
84.88656638020069
 21
158.1270291806116
 31
0.0
  0
ARC
  5
20F6
330
1F
100
AcDbEntity
  8
Innenkanten
100
AcDbCircle
 10
-775.1058772807896
 20
192.4745109254979
 30
0.0
 40
500.0
100
AcDbArc
 50
355.3352499999995
 51
4.664748000000736
  0
LINE
  5
20F7
330
1F
100
AcDbEntity
  8
0
100
AcDbLine
 10
-297.6058832807897
 20
164.9709409254979
 30
0.0
 11
-297.6058832807897
 21
219.9780809254979
 31
0.0
  0
LINE
  5
20F8
330
1F
100
AcDbEntity
  8
0
100
AcDbLine
 10
111.3865703802006
 20
134.4744091806117
 30
0.0
 11
111.3865703802006
 21
222.4744091806115
 31
0.0
  0
LINE
  5
20F9
330
1F
100
AcDbEntity
  8
0
100
AcDbLine
 10
109.8865703802006
 20
134.4744091806117
 30
0.0
 11
109.8865703802006
 21
222.4744091806115
 31
0.0
  0
LINE
  5
20FA
330
1F
100
AcDbEntity
  8
Innenkanten
100
AcDbLine
 10
109.8865703802006
 20
134.4744091806117
 30
0.0
 11
109.8865703802006
 21
231.3934291806116
 31
0.0
  0
LINE
  5
20FB
330
1F
100
AcDbEntity
  8
Innenkanten
100
AcDbLine
 10
-285.6058832807896
 20
149.9745109254979
 30
0.0
 11
-278.7554512807896
 21
149.9745109254979
 31
0.0
  0
CIRCLE
  5
20FC
330
1F
100
AcDbEntity
  8
Innenkanten
100
AcDbCircle
 10
-288.8406392807896
 20
141.2092709254978
 30
0.0
 40
4.75
  0
ARC
  5
20FD
330
1F
100
AcDbEntity
  8
Mittellinie
100
AcDbCircle
 10
-340.1058832807896
 20
192.4745109254979
 30
0.0
 40
72.5
100
AcDbArc
 50
309.1841799999995
 51
320.4426600000004
  0
ARC
  5
20FE
330
1F
100
AcDbEntity
  8
Innenkanten
100
AcDbCircle
 10
-285.6058832807896
 20
137.9745109254979
 30
0.0
 40
12.0
100
AcDbArc
 50
90.00000299999769
 51
180.0000100000009
  0
LINE
  5
20FF
330
1F
100
AcDbEntity
  8
Mittellinie
100
AcDbLine
 10
-283.6425442807896
 20
136.0111709254979
 30
0.0
 11
-293.9197092807896
 21
146.2883409254978
 31
0.0
  0
LINE
  5
2100
330
1F
100
AcDbEntity
  8
Innenkanten
100
AcDbLine
 10
-305.5310312807897
 20
132.5759109254979
 30
0.0
 11
-304.4485002807896
 21
134.4509109254979
 31
0.0
  0
LINE
  5
2101
330
1F
100
AcDbEntity
  8
Innenkanten
100
AcDbLine
 10
-304.4485002807896
 20
134.4509109254979
 30
0.0
 11
-305.5310312807897
 21
136.3259109254979
 31
0.0
  0
ARC
  5
2102
330
1F
100
AcDbEntity
  8
Innenkanten
100
AcDbCircle
 10
-278.7554512807896
 20
151.9745109254979
 30
0.0
 40
2.0
100
AcDbArc
 50
270.0
 51
355.3352499999995
  0
LINE
  5
2103
330
1F
100
AcDbEntity
  8
Innenkanten
100
AcDbLine
 10
111.3865703802006
 20
158.9894391806116
 30
0.0
 11
109.8865703802006
 21
158.1270291806116
 31
0.0
  0
CIRCLE
  5
2104
330
1F
100
AcDbEntity
  8
Innenkanten
100
AcDbCircle
 10
-282.0870512807896
 20
225.9804609254979
 30
0.0
 40
4.8125
  0
CIRCLE
  5
2105
330
1F
100
AcDbEntity
  8
Innenkanten
100
AcDbCircle
 10
-282.0870512807896
 20
225.9804609254979
 30
0.0
 40
4.0625
  0
ARC
  5
2106
330
1F
100
AcDbEntity
  8
Mittellinie
100
AcDbCircle
 10
-340.1058832807896
 20
192.4745109254979
 30
0.0
 40
67.0
100
AcDbArc
 50
24.93603000000061
 51
35.16192999999952
  0
LINE
  5
2107
330
1F
100
AcDbEntity
  8
Innenkanten
100
AcDbLine
 10
-285.6058832807896
 20
234.9745109254979
 30
0.0
 11
-278.7554512807896
 21
234.9745109254979
 31
0.0
  0
LINE
  5
2108
330
1F
100
AcDbEntity
  8
Mittellinie
100
AcDbLine
 10
-278.2776682807896
 20
228.1710509254979
 30
0.0
 11
-286.8896682807896
 21
223.1989109254978
 31
0.0
  0
LINE
  5
2109
330
1F
100
AcDbEntity
  8
Innenkanten
100
AcDbLine
 10
-303.7102842807896
 20
220.7610409254979
 30
0.0
 11
-303.1178882807896
 21
222.3886309254979
 31
0.0
  0
LINE
  5
210A
330
1F
100
AcDbEntity
  8
Innenkanten
100
AcDbLine
 10
-305.9369642807897
 20
223.4146909254978
 30
0.0
 11
-306.5293642807897
 21
221.7871009254979
 31
0.0
  0
LINE
  5
210B
330
1F
100
AcDbEntity
  8
Innenkanten
100
AcDbLine
 10
-301.6285082807896
 20
218.9088809254978
 30
0.0
 11
-299.0825942807897
 21
221.4547909254979
 31
0.0
  0
LINE
  5
210C
330
1F
100
AcDbEntity
  8
Innenkanten
100
AcDbLine
 10
-305.4160222807896
 20
220.4602709254978
 30
0.0
 11
-303.7102842807896
 21
220.7610409254979
 31
0.0
  0
LINE
  5
210D
330
1F
100
AcDbEntity
  8
Innenkanten
100
AcDbLine
 10
-306.5293642807897
 20
221.7871009254979
 30
0.0
 11
-305.4160222807896
 21
220.4602709254978
 31
0.0
  0
LINE
  5
210E
330
1F
100
AcDbEntity
  8
Innenkanten
100
AcDbLine
 10
-303.1178882807896
 20
222.3886309254979
 30
0.0
 11
-304.2312262807896
 21
223.7154609254979
 31
0.0
  0
LINE
  5
210F
330
1F
100
AcDbEntity
  8
Innenkanten
100
AcDbLine
 10
-304.2312262807896
 20
223.7154609254979
 30
0.0
 11
-305.9369642807897
 21
223.4146909254978
 31
0.0
  0
LINE
  5
2110
330
1F
100
AcDbEntity
  8
Innenkanten
100
AcDbLine
 10
-282.0887822807896
 20
223.8133709254979
 30
0.0
 11
-280.2137822807896
 21
224.8959109254978
 31
0.0
  0
LINE
  5
2111
330
1F
100
AcDbEntity
  8
Innenkanten
100
AcDbLine
 10
-283.9637822807896
 20
224.8959109254978
 30
0.0
 11
-282.0887822807896
 21
223.8133709254979
 31
0.0
  0
LINE
  5
2112
330
1F
100
AcDbEntity
  8
Innenkanten
100
AcDbLine
 10
-283.9637822807896
 20
227.0609709254979
 30
0.0
 11
-283.9637822807896
 21
224.8959109254978
 31
0.0
  0
LINE
  5
2113
330
1F
100
AcDbEntity
  8
Innenkanten
100
AcDbLine
 10
-282.0887822807896
 20
228.1435009254979
 30
0.0
 11
-283.9637822807896
 21
227.0609709254979
 31
0.0
  0
LINE
  5
2114
330
1F
100
AcDbEntity
  8
Innenkanten
100
AcDbLine
 10
-280.2137822807896
 20
224.8959109254978
 30
0.0
 11
-280.2137822807896
 21
227.0609709254979
 31
0.0
  0
LINE
  5
2115
330
1F
100
AcDbEntity
  8
Innenkanten
100
AcDbLine
 10
-280.2137822807896
 20
227.0609709254979
 30
0.0
 11
-282.0887822807896
 21
228.1435009254979
 31
0.0
  0
ARC
  5
2116
330
1F
100
AcDbEntity
  8
Innenkanten
100
AcDbCircle
 10
-278.7554512807896
 20
232.9745109254979
 30
0.0
 40
2.0
100
AcDbArc
 50
4.664748000000736
 51
90.00000299999769
  0
ARC
  5
2117
330
1F
100
AcDbEntity
  8
0
100
AcDbCircle
 10
81.38656638020069
 20
222.4744091806115
 30
0.0
 40
30.0
100
AcDbArc
 50
359.999989999999
 51
16.39380000000075
  0
POINT
  5
2118
330
1F
100
AcDbEntity
  8
0
100
AcDbPoint
 10
111.3865743802006
 20
222.4744091806115
 30
0.0
  0
ARC
  5
2119
330
1F
100
AcDbEntity
  8
0
100
AcDbCircle
 10
109.2075583802006
 20
230.6593091806116
 30
0.0
 40
1.0
100
AcDbArc
 50
16.39380000000075
 51
88.00000199999947
  0
LINE
  5
211A
330
1F
100
AcDbEntity
  8
Innenkanten
100
AcDbLine
 10
78.88656638020069
 20
149.9744091806116
 30
0.0
 11
78.88656638020069
 21
234.9744091806115
 31
0.0
  0
LINE
  5
211B
330
1F
100
AcDbEntity
  8
0
100
AcDbLine
 10
84.88656638020069
 20
149.9744091806116
 30
0.0
 11
84.88656638020069
 21
234.9744091806115
 31
0.0
  0
LINE
  5
211C
330
1F
100
AcDbEntity
  8
0
100
AcDbLine
 10
78.88656638020069
 20
149.9744091806116
 30
0.0
 11
71.88656638020069
 21
149.9744091806116
 31
0.0
  0
LINE
  5
211D
330
1F
100
AcDbEntity
  8
0
100
AcDbLine
 10
72.88656638020069
 20
139.2583591806116
 30
0.0
 11
71.88656638020069
 21
139.2583591806116
 31
0.0
  0
LINE
  5
211E
330
1F
100
AcDbEntity
  8
Mittellinie
100
AcDbLine
 10
77.88656638020069
 20
134.4583491806116
 30
0.0
 11
70.82414338020067
 21
134.4583491806116
 31
0.0
  0
LINE
  5
211F
330
1F
100
AcDbEntity
  8
0
100
AcDbLine
 10
77.88656638020069
 20
138.4583491806116
 30
0.0
 11
72.88656638020069
 21
138.4583491806116
 31
0.0
  0
LINE
  5
2120
330
1F
100
AcDbEntity
  8
0
100
AcDbLine
 10
84.88656638020069
 20
149.9744091806116
 30
0.0
 11
78.88656638020069
 21
149.9744091806116
 31
0.0
  0
LINE
  5
2121
330
1F
100
AcDbEntity
  8
Innenkanten
100
AcDbLine
 10
84.88656638020069
 20
151.4512291806116
 30
0.0
 11
78.88656638020069
 21
151.4512291806116
 31
0.0
  0
LINE
  5
2122
330
1F
100
AcDbEntity
  8
0
100
AcDbLine
 10
84.88656638020069
 20
157.8151791806116
 30
0.0
 11
78.88656638020069
 21
157.8151791806116
 31
0.0
  0
LINE
  5
2123
330
1F
100
AcDbEntity
  8
0
100
AcDbLine
 10
79.88656638020069
 20
153.4493391806116
 30
0.0
 11
78.88656638020069
 21
153.4493391806116
 31
0.0
  0
LINE
  5
2124
330
1F
100
AcDbEntity
  8
Mittellinie
100
AcDbLine
 10
84.88656638020069
 20
157.2993291806116
 30
0.0
 11
76.39445538020066
 21
157.2993291806116
 31
0.0
  0
LINE
  5
2125
330
1F
100
AcDbEntity
  8
0
100
AcDbLine
 10
83.88656638020069
 20
154.0493291806116
 30
0.0
 11
83.88656638020069
 21
157.8151791806116
 31
0.0
  0
LINE
  5
2126
330
1F
100
AcDbEntity
  8
0
100
AcDbLine
 10
79.88656638020069
 20
153.4493391806116
 30
0.0
 11
79.88656638020069
 21
157.8151791806116
 31
0.0
  0
LINE
  5
2127
330
1F
100
AcDbEntity
  8
0
100
AcDbLine
 10
83.88656638020069
 20
154.0493291806116
 30
0.0
 11
79.88656638020069
 21
154.0493291806116
 31
0.0
  0
LINE
  5
2128
330
1F
100
AcDbEntity
  8
0
100
AcDbLine
 10
72.38656638020069
 20
139.2583591806116
 30
0.0
 11
72.38656638020069
 21
149.9744091806116
 31
0.0
  0
LINE
  5
2129
330
1F
100
AcDbEntity
  8
Innenkanten
100
AcDbLine
 10
84.88656638020069
 20
164.9709391806116
 30
0.0
 11
71.88656638020069
 21
164.9709391806116
 31
0.0
  0
LINE
  5
212A
330
1F
100
AcDbEntity
  8
0
100
AcDbLine
 10
84.88656638020069
 20
234.9744091806115
 30
0.0
 11
71.88656638020069
 21
234.9744091806115
 31
0.0
  0
LINE
  5
212B
330
1F
100
AcDbEntity
  8
0
100
AcDbLine
 10
84.88656638020069
 20
219.9780791806116
 30
0.0
 11
71.88656638020069
 21
219.9780791806116
 31
0.0
  0
LINE
  5
212C
330
1F
100
AcDbEntity
  8
0
100
AcDbLine
 10
72.88656638020069
 20
221.1369391806116
 30
0.0
 11
71.88656638020069
 21
221.1369391806116
 31
0.0
  0
LINE
  5
212D
330
1F
100
AcDbEntity
  8
0
100
AcDbLine
 10
72.88656638020069
 20
230.7369391806116
 30
0.0
 11
71.88656638020069
 21
230.7369391806116
 31
0.0
  0
LINE
  5
212E
330
1F
100
AcDbEntity
  8
Mittellinie
100
AcDbLine
 10
78.88656638020069
 20
225.9369491806117
 30
0.0
 11
69.69582438020063
 21
225.9369491806117
 31
0.0
  0
LINE
  5
212F
330
1F
100
AcDbEntity
  8
0
100
AcDbLine
 10
77.88656638020069
 20
221.9369491806117
 30
0.0
 11
77.88656638020069
 21
229.9369491806117
 31
0.0
  0
LINE
  5
2130
330
1F
100
AcDbEntity
  8
0
100
AcDbLine
 10
72.88656638020069
 20
221.1369391806116
 30
0.0
 11
72.88656638020069
 21
230.7369391806116
 31
0.0
  0
LINE
  5
2131
330
1F
100
AcDbEntity
  8
0
100
AcDbLine
 10
83.88656638020069
 20
221.4547891806116
 30
0.0
 11
83.88656638020069
 21
225.3368891806116
 31
0.0
  0
LINE
  5
2132
330
1F
100
AcDbEntity
  8
0
100
AcDbLine
 10
79.88656638020069
 20
221.4547891806116
 30
0.0
 11
79.88656638020069
 21
225.9368891806116
 31
0.0
  0
LINE
  5
2133
330
1F
100
AcDbEntity
  8
0
100
AcDbLine
 10
84.88656638020069
 20
221.4547891806116
 30
0.0
 11
78.88656638020069
 21
221.4547891806116
 31
0.0
  0
LINE
  5
2134
330
1F
100
AcDbEntity
  8
Mittellinie
100
AcDbLine
 10
84.88656638020069
 20
222.0868891806115
 30
0.0
 11
76.39445538020066
 21
222.0868891806115
 31
0.0
  0
LINE
  5
2135
330
1F
100
AcDbEntity
  8
0
100
AcDbLine
 10
77.88656638020069
 20
221.9369491806117
 30
0.0
 11
72.88656638020069
 21
221.9369491806117
 31
0.0
  0
LINE
  5
2136
330
1F
100
AcDbEntity
  8
Innenkanten
100
AcDbLine
 10
84.88656638020069
 20
227.8187591806116
 30
0.0
 11
78.88656638020069
 21
227.8187591806116
 31
0.0
  0
LINE
  5
2137
330
1F
100
AcDbEntity
  8
0
100
AcDbLine
 10
79.88656638020069
 20
225.9368891806116
 30
0.0
 11
78.88656638020069
 21
225.9368891806116
 31
0.0
  0
LINE
  5
2138
330
1F
100
AcDbEntity
  8
0
100
AcDbLine
 10
83.88656638020069
 20
225.3368891806116
 30
0.0
 11
79.88656638020069
 21
225.3368891806116
 31
0.0
  0
LINE
  5
2139
330
1F
100
AcDbEntity
  8
0
100
AcDbLine
 10
84.88656638020069
 20
232.4744091806115
 30
0.0
 11
84.88656638020069
 21
234.9744091806115
 31
0.0
  0
LINE
  5
213A
330
1F
100
AcDbEntity
  8
0
100
AcDbLine
 10
77.88656638020069
 20
229.9369491806117
 30
0.0
 11
72.88656638020069
 21
229.9369491806117
 31
0.0
  0
LINE
  5
213B
330
1F
100
AcDbEntity
  8
0
100
AcDbLine
 10
-390.9118872807896
 20
257.4745149254979
 30
0.0
 11
-289.2998772807896
 21
257.4745149254979
 31
0.0
  0
ARC
  5
213C
330
1F
100
AcDbEntity
  8
0
100
AcDbCircle
 10
-340.1058832807896
 20
192.4745109254979
 30
0.0
 40
82.5
100
AcDbArc
 50
128.012280000001
 51
141.9877199999989
  0
ARC
  5
213D
330
1F
100
AcDbEntity
  8
Innenkanten
100
AcDbCircle
 10
-380.6058872807896
 20
255.4745149254979
 30
0.0
 40
2.0
100
AcDbArc
 50
90.00000299999769
 51
180.0000100000009
  0
CIRCLE
  5
213E
330
1F
100
AcDbEntity
  8
Innenkanten
100
AcDbCircle
 10
-373.6107472807896
 20
250.5041629254979
 30
0.0
 40
4.8125
  0
CIRCLE
  5
213F
330
1F
100
AcDbEntity
  8
Innenkanten
100
AcDbCircle
 10
-373.6107472807896
 20
250.5041629254979
 30
0.0
 40
4.0625
  0
ARC
  5
2140
330
1F
100
AcDbEntity
  8
Mittellinie
100
AcDbCircle
 10
-340.1058832807896
 20
192.4745109254979
 30
0.0
 40
67.0
100
AcDbArc
 50
114.9360300000006
 51
125.1619299999995
  0
LINE
  5
2141
330
1F
100
AcDbEntity
  8
Innenkanten
100
AcDbLine
 10
-374.6960972807896
 20
248.623318925498
 30
0.0
 11
-372.5310272807896
 21
248.623318925498
 31
0.0
  0
LINE
  5
2142
330
1F
100
AcDbEntity
  8
Innenkanten
100
AcDbLine
 10
-372.5310272807896
 20
252.3733189254979
 30
0.0
 11
-374.6960972807896
 21
252.3733189254979
 31
0.0
  0
LINE
  5
2143
330
1F
100
AcDbEntity
  8
Mittellinie
100
AcDbLine
 10
-375.8024172807897
 20
254.3027239254978
 30
0.0
 11
-370.8302772807896
 21
245.690723925498
 31
0.0
  0
LINE
  5
2144
330
1F
100
AcDbEntity
  8
Innenkanten
100
AcDbLine
 10
-382.6058872807896
 20
246.9745149254979
 30
0.0
 11
-382.6058872807896
 21
255.4745149254979
 31
0.0
  0
LINE
  5
2145
330
1F
100
AcDbEntity
  8
Innenkanten
100
AcDbLine
 10
-375.7786272807896
 20
250.4983189254979
 30
0.0
 11
-374.6960972807896
 21
248.623318925498
 31
0.0
  0
LINE
  5
2146
330
1F
100
AcDbEntity
  8
Innenkanten
100
AcDbLine
 10
-374.6960972807896
 20
252.3733189254979
 30
0.0
 11
-375.7786272807896
 21
250.4983189254979
 31
0.0
  0
LINE
  5
2147
330
1F
100
AcDbEntity
  8
Innenkanten
100
AcDbLine
 10
-372.5310272807896
 20
248.623318925498
 30
0.0
 11
-371.4485072807896
 21
250.4983189254979
 31
0.0
  0
LINE
  5
2148
330
1F
100
AcDbEntity
  8
Innenkanten
100
AcDbLine
 10
-371.4485072807896
 20
250.4983189254979
 30
0.0
 11
-372.5310272807896
 21
252.3733189254979
 31
0.0
  0
ARC
  5
2149
330
1F
100
AcDbEntity
  8
0
100
AcDbCircle
 10
-340.1058832807896
 20
192.4745109254979
 30
0.0
 40
82.5
100
AcDbArc
 50
38.0122809999986
 51
51.98771799999924
  0
ARC
  5
214A
330
1F
100
AcDbEntity
  8
Innenkanten
100
AcDbCircle
 10
-299.6058832807896
 20
255.4745149254979
 30
0.0
 40
2.0
100
AcDbArc
 50
0.0
 51
90.00000299999769
  0
LINE
  5
214B
330
1F
100
AcDbEntity
  8
Innenkanten
100
AcDbLine
 10
-297.6058832807897
 20
246.9745149254979
 30
0.0
 11
-297.6058832807897
 21
255.4745149254979
 31
0.0
  0
LINE
  5
214C
330
1F
100
AcDbEntity
  8
0
100
AcDbLine
 10
72.88656638020069
 20
245.7057601806117
 30
0.0
 11
71.88656638020069
 21
245.7057601806117
 31
0.0
  0
LINE
  5
214D
330
1F
100
AcDbEntity
  8
0
100
AcDbLine
 10
72.88656638020069
 20
255.3057661806116
 30
0.0
 11
71.88656638020069
 21
255.3057661806116
 31
0.0
  0
LINE
  5
214E
330
1F
100
AcDbEntity
  8
Mittellinie
100
AcDbLine
 10
78.88656638020069
 20
250.5057631806116
 30
0.0
 11
69.69582438020063
 21
250.5057631806116
 31
0.0
  0
LINE
  5
214F
330
1F
100
AcDbEntity
  8
0
100
AcDbLine
 10
77.88656638020069
 20
246.5057631806116
 30
0.0
 11
77.88656638020069
 21
254.5057631806116
 31
0.0
  0
LINE
  5
2150
330
1F
100
AcDbEntity
  8
0
100
AcDbLine
 10
72.88656638020069
 20
245.7057601806117
 30
0.0
 11
72.88656638020069
 21
255.3057661806116
 31
0.0
  0
LINE
  5
2151
330
1F
100
AcDbEntity
  8
0
100
AcDbLine
 10
77.88656638020069
 20
246.5057631806116
 30
0.0
 11
72.88656638020069
 21
246.5057631806116
 31
0.0
  0
LINE
  5
2152
330
1F
100
AcDbEntity
  8
0
100
AcDbLine
 10
77.88656638020069
 20
254.5057631806116
 30
0.0
 11
72.88656638020069
 21
254.5057631806116
 31
0.0
  0
CIRCLE
  5
2153
330
1F
100
AcDbEntity
  8
Innenkanten
100
AcDbCircle
 10
237.9070627192102
 20
192.4744109254979
 30
0.0
 40
55.0
  0
CIRCLE
  5
2154
330
1F
100
AcDbEntity
  8
Innenkanten
100
AcDbCircle
 10
289.1408927192102
 20
243.7710509254979
 30
0.0
 40
4.75
  0
CIRCLE
  5
2155
330
1F
100
AcDbEntity
  8
Innenkanten
100
AcDbCircle
 10
186.6418027192103
 20
243.7396509254979
 30
0.0
 40
4.75
  0
ARC
  5
2156
330
1F
100
AcDbEntity
  8
Mittellinie
100
AcDbCircle
 10
237.8424627192103
 20
192.4744109254979
 30
0.0
 40
72.5
100
AcDbArc
 50
38.04547199999885
 51
51.99120199999812
  0
ARC
  5
2157
102
{ACAD_REACTORS
330
24F6
102
}
330
1F
100
AcDbEntity
  8
Mittellinie
100
AcDbCircle
 10
237.8424627192103
 20
192.4744109254979
 30
0.0
 40
72.5
100
AcDbArc
 50
127.8996999999993
 51
141.9978800000003
  0
LINE
  5
2158
330
1F
100
AcDbEntity
  8
0
100
AcDbLine
 10
-165.6134196197993
 20
137.4744091806116
 30
0.0
 11
-165.6134196197993
 21
247.4744061806116
 31
0.0
  0
LINE
  5
2159
330
1F
100
AcDbEntity
  8
0
100
AcDbLine
 10
-162.6134196197993
 20
127.4744091806117
 30
0.0
 11
-162.6134196197993
 21
257.4744061806117
 31
0.0
  0
LINE
  5
215A
330
1F
100
AcDbEntity
  8
Innenkanten
100
AcDbLine
 10
-150.6134196197993
 20
127.4744091806117
 30
0.0
 11
-150.6134196197993
 21
257.4744061806117
 31
0.0
  0
LINE
  5
215B
330
1F
100
AcDbEntity
  8
Innenkanten
100
AcDbLine
 10
-146.6134196197993
 20
127.4744091806117
 30
0.0
 11
-146.6134196197993
 21
257.4744061806117
 31
0.0
  0
LINE
  5
215C
102
{ACAD_REACTORS
330
2473
102
}
330
1F
100
AcDbEntity
  8
0
100
AcDbLine
 10
302.9070627192102
 20
141.6684109254979
 30
0.0
 11
302.9070627192102
 21
243.2804109254979
 31
0.0
  0
LINE
  5
215D
330
1F
100
AcDbEntity
  8
0
100
AcDbLine
 10
172.9070627192102
 20
141.6684109254979
 30
0.0
 11
172.9070627192102
 21
243.2804109254979
 31
0.0
  0
LINE
  5
215E
102
{ACAD_REACTORS
330
24B7
102
}
330
1F
100
AcDbEntity
  8
Mittellinie
100
AcDbLine
 10
192.3799927192102
 20
238.0014809254979
 30
0.0
 11
181.7257327192104
 21
248.6557359254979
 31
0.0
  0
LINE
  5
2160
330
1F
100
AcDbEntity
  8
Mittellinie
100
AcDbLine
 10
282.8746527192103
 20
237.5066009254979
 30
0.0
 11
294.8041627192104
 21
249.4361159254979
 31
0.0
  0
LINE
  5
2161
102
{ACAD_REACTORS
330
24B7
102
}
330
1F
100
AcDbEntity
  8
Mittellinie
100
AcDbLine
 10
237.9070627192102
 20
65.1589209254979
 30
0.0
 11
237.9070627192102
 21
273.1088459254979
 31
0.0
  0
ARC
  5
2162
330
1F
100
AcDbEntity
  8
0
100
AcDbCircle
 10
237.9070627192102
 20
192.4744109254979
 30
0.0
 40
82.5
100
AcDbArc
 50
218.012280000001
 51
231.9877199999989
  0
CIRCLE
  5
2163
330
1F
100
AcDbEntity
  8
Innenkanten
100
AcDbCircle
 10
186.6104027192102
 20
141.2405809254979
 30
0.0
 40
4.75
  0
ARC
  5
2164
330
1F
100
AcDbEntity
  8
Mittellinie
100
AcDbCircle
 10
237.8424627192103
 20
192.4744109254979
 30
0.0
 40
72.5
100
AcDbArc
 50
217.9545199999981
 51
225.0
  0
LINE
  5
2165
330
1F
100
AcDbEntity
  8
Mittellinie
100
AcDbLine
 10
180.9702027192102
 20
135.6021409254979
 30
0.0
 11
192.0881827192103
 21
146.7201209254978
 31
0.0
  0
LINE
  5
2166
102
{ACAD_REACTORS
330
2518
102
}
330
1F
100
AcDbEntity
  8
Mittellinie
100
AcDbLine
 10
162.9565027192103
 20
192.4744109254979
 30
0.0
 11
315.1144627192103
 21
192.4744109254979
 31
0.0
  0
LINE
  5
2167
330
1F
100
AcDbEntity
  8
0
100
AcDbLine
 10
-146.6134196197993
 20
127.4744091806117
 30
0.0
 11
-162.6134196197993
 21
127.4744091806117
 31
0.0
  0
LINE
  5
2168
330
1F
100
AcDbEntity
  8
0
100
AcDbLine
 10
-167.6134196197993
 20
178.4744091806116
 30
0.0
 11
-225.6353896197993
 21
178.4744091806116
 31
0.0
  0
LINE
  5
2169
330
1F
100
AcDbEntity
  8
0
100
AcDbLine
 10
-167.6134196197993
 20
206.4744091806115
 30
0.0
 11
-225.6353896197993
 21
206.4744091806115
 31
0.0
  0
LINE
  5
216A
330
1F
100
AcDbEntity
  8
0
100
AcDbLine
 10
-167.6134196197993
 20
177.4744091806116
 30
0.0
 11
-167.6134196197993
 21
207.4744091806115
 31
0.0
  0
LINE
  5
216B
330
1F
100
AcDbEntity
  8
0
100
AcDbLine
 10
-146.6134196197993
 20
149.9744091806116
 30
0.0
 11
-150.6134196197993
 21
149.9744091806116
 31
0.0
  0
LINE
  5
216C
330
1F
100
AcDbEntity
  8
Innenkanten
100
AcDbLine
 10
-150.6134196197993
 20
141.6684091806116
 30
0.0
 11
-162.6134196197993
 21
141.6684091806116
 31
0.0
  0
LINE
  5
216D
330
1F
100
AcDbEntity
  8
0
100
AcDbLine
 10
-162.6134196197993
 20
137.4744091806116
 30
0.0
 11
-165.6134196197993
 21
137.4744091806116
 31
0.0
  0
LINE
  5
216E
330
1F
100
AcDbEntity
  8
0
100
AcDbLine
 10
-165.6134196197993
 20
177.4744091806116
 30
0.0
 11
-167.6134196197993
 21
177.4744091806116
 31
0.0
  0
LINE
  5
216F
330
1F
100
AcDbEntity
  8
0
100
AcDbLine
 10
-165.6134196197993
 20
207.4744091806115
 30
0.0
 11
-167.6134196197993
 21
207.4744091806115
 31
0.0
  0
LINE
  5
2170
330
1F
100
AcDbEntity
  8
0
100
AcDbLine
 10
-146.6134196197993
 20
234.9744091806115
 30
0.0
 11
-150.6134196197993
 21
234.9744091806115
 31
0.0
  0
LINE
  5
2171
330
1F
100
AcDbEntity
  8
0
100
AcDbLine
 10
-225.6134196197993
 20
178.4744091806116
 30
0.0
 11
-225.6134196197993
 21
206.4744091806115
 31
0.0
  0
CIRCLE
  5
2172
330
1F
100
AcDbEntity
  8
Innenkanten
100
AcDbCircle
 10
179.8833527192103
 20
225.9744109254978
 30
0.0
 40
2.5
  0
LINE
  5
2173
330
1F
100
AcDbEntity
  8
Mittellinie
100
AcDbLine
 10
182.4821627192102
 20
224.4739709254979
 30
0.0
 11
177.2042727192103
 21
227.5211809254979
 31
0.0
  0
ARC
  5
2174
330
1F
100
AcDbEntity
  8
Mittellinie
100
AcDbCircle
 10
237.9070627192102
 20
192.4744109254979
 30
0.0
 40
67.0
100
AcDbArc
 50
147.7164499999979
 51
152.4041600000008
  0
CIRCLE
  5
2175
330
1F
100
AcDbEntity
  8
Innenkanten
100
AcDbCircle
 10
179.8833527192103
 20
225.9744109254978
 30
0.0
 40
1.5
  0
ARC
  5
2176
330
1F
100
AcDbEntity
  8
0
100
AcDbCircle
 10
237.9070627192102
 20
192.4744109254979
 30
0.0
 40
82.5
100
AcDbArc
 50
308.012280000001
 51
321.987719999999
  0
LINE
  5
2177
330
1F
100
AcDbEntity
  8
Mittellinie
100
AcDbLine
 10
205.9074927192103
 20
137.0495409254979
 30
0.0
 11
202.8602827192103
 21
131.7716309254979
 31
0.0
  0
LINE
  5
2178
330
1F
100
AcDbEntity
  8
Innenkanten
100
AcDbLine
 10
219.9070627192103
 20
89.59440092549789
 30
0.0
 11
219.9070627192103
 21
72.47440092549794
 31
0.0
  0
LINE
  5
2179
330
1F
100
AcDbEntity
  8
0
100
AcDbLine
 10
218.9070627192102
 20
94.22441092549798
 30
0.0
 11
218.9070627192103
 21
74.47440092549794
 31
0.0
  0
LINE
  5
217A
330
1F
100
AcDbEntity
  8
Innenkanten
100
AcDbLine
 10
255.9070627192102
 20
89.59440092549789
 30
0.0
 11
255.9070627192102
 21
72.47440092549794
 31
0.0
  0
LINE
  5
217B
330
1F
100
AcDbEntity
  8
0
100
AcDbLine
 10
256.9070627192102
 20
94.22441092549798
 30
0.0
 11
256.9070627192102
 21
74.47440092549794
 31
0.0
  0
LINE
  5
217C
330
1F
100
AcDbEntity
  8
Innenkanten
100
AcDbLine
 10
256.9070627192102
 20
74.47440092549794
 30
0.0
 11
218.9070627192102
 21
74.47440092549794
 31
0.0
  0
LINE
  5
217D
330
1F
100
AcDbEntity
  8
0
100
AcDbLine
 10
255.9070627192102
 20
72.47440092549794
 30
0.0
 11
219.9070627192103
 21
72.47440092549794
 31
0.0
  0
LINE
  5
217E
330
1F
100
AcDbEntity
  8
0
100
AcDbLine
 10
218.9070627192102
 20
74.47440092549794
 30
0.0
 11
219.9070627192103
 21
72.47440092549794
 31
0.0
  0
LINE
  5
217F
330
1F
100
AcDbEntity
  8
0
100
AcDbLine
 10
256.9070627192102
 20
74.47440092549794
 30
0.0
 11
255.9070627192102
 21
72.47440092549794
 31
0.0
  0
LINE
  5
2180
102
{ACAD_REACTORS
330
2494
102
}
330
1F
100
AcDbEntity
  8
0
100
AcDbLine
 10
187.1010327192102
 20
127.4744109254979
 30
0.0
 11
288.7130627192103
 21
127.4744109254979
 31
0.0
  0
LINE
  5
2181
330
1F
100
AcDbEntity
  8
Innenkanten
100
AcDbLine
 10
214.9070627192102
 20
126.4744109254979
 30
0.0
 11
260.9070627192102
 21
126.4744109254979
 31
0.0
  0
LINE
  5
2182
330
1F
100
AcDbEntity
  8
0
100
AcDbLine
 10
214.9070627192102
 20
97.47441092549799
 30
0.0
 11
260.9070627192102
 21
97.47441092549799
 31
0.0
  0
LINE
  5
2183
330
1F
100
AcDbEntity
  8
Innenkanten
100
AcDbLine
 10
256.9070627192102
 20
89.59440092549789
 30
0.0
 11
218.9070627192102
 21
89.59440092549789
 31
0.0
  0
LINE
  5
2184
330
1F
100
AcDbEntity
  8
Innenkanten
100
AcDbLine
 10
260.1070427192103
 20
96.97441092549798
 30
0.0
 11
215.7070527192103
 21
96.97441092549798
 31
0.0
  0
LINE
  5
2185
330
1F
100
AcDbEntity
  8
0
100
AcDbLine
 10
260.1070427192103
 20
94.22441092549798
 30
0.0
 11
215.7070527192103
 21
94.22441092549798
 31
0.0
  0
LINE
  5
2186
330
1F
100
AcDbEntity
  8
0
100
AcDbLine
 10
214.9070627192102
 20
101.6744009254979
 30
0.0
 11
214.9070627192102
 21
127.4744109254979
 31
0.0
  0
LINE
  5
2187
330
1F
100
AcDbEntity
  8
0
100
AcDbLine
 10
214.9070627192102
 20
97.47441092549799
 30
0.0
 11
214.9070627192102
 21
127.4744109254979
 31
0.0
  0
LINE
  5
2188
330
1F
100
AcDbEntity
  8
0
100
AcDbLine
 10
215.7070527192103
 20
97.47441092549799
 30
0.0
 11
215.7070527192103
 21
94.22441092549798
 31
0.0
  0
LINE
  5
2189
330
1F
100
AcDbEntity
  8
0
100
AcDbLine
 10
260.9070627192102
 20
101.6744009254979
 30
0.0
 11
260.9070627192102
 21
127.4744109254979
 31
0.0
  0
LINE
  5
218A
330
1F
100
AcDbEntity
  8
0
100
AcDbLine
 10
260.9070627192102
 20
97.47441092549799
 30
0.0
 11
260.9070627192102
 21
127.4744109254979
 31
0.0
  0
LINE
  5
218B
330
1F
100
AcDbEntity
  8
0
100
AcDbLine
 10
260.1070427192103
 20
97.47441092549799
 30
0.0
 11
260.1070427192103
 21
94.22441092549798
 31
0.0
  0
CIRCLE
  5
218C
330
1F
100
AcDbEntity
  8
Innenkanten
100
AcDbCircle
 10
289.1722927192102
 20
141.2091609254979
 30
0.0
 40
4.75
  0
ARC
  5
218D
330
1F
100
AcDbEntity
  8
Mittellinie
100
AcDbCircle
 10
237.8424627192103
 20
192.4744109254979
 30
0.0
 40
72.5
100
AcDbArc
 50
308.1002999999981
 51
322.0021200000005
  0
LINE
  5
218E
330
1F
100
AcDbEntity
  8
Mittellinie
100
AcDbLine
 10
295.0428627192102
 20
135.4642309254979
 30
0.0
 11
283.4611427192104
 21
147.0459609254979
 31
0.0
  0
LINE
  5
218F
330
1F
100
AcDbEntity
  8
Mittellinie
100
AcDbLine
 10
293.3319327192103
 20
160.4748509254979
 30
0.0
 11
298.6098227192103
 21
157.4276509254979
 31
0.0
  0
CIRCLE
  5
2190
330
1F
100
AcDbEntity
  8
Innenkanten
100
AcDbCircle
 10
237.9070627192102
 20
192.4744109254979
 30
0.0
 40
44.0
  0
CIRCLE
  5
2191
330
1F
100
AcDbEntity
  8
Innenkanten
100
AcDbCircle
 10
237.9070627192102
 20
192.4744109254979
 30
0.0
 40
15.0
  0
CIRCLE
  5
2192
330
1F
100
AcDbEntity
  8
Innenkanten
100
AcDbCircle
 10
237.9070627192102
 20
192.4744109254979
 30
0.0
 40
22.5
  0
CIRCLE
  5
2193
330
1F
100
AcDbEntity
  8
Innenkanten
100
AcDbCircle
 10
237.9070627192102
 20
192.4744109254979
 30
0.0
 40
14.0
  0
CIRCLE
  5
2194
330
1F
100
AcDbEntity
  8
Innenkanten
100
AcDbCircle
 10
237.9021827192103
 20
157.4803609254979
 30
0.0
 40
4.8125
  0
CIRCLE
  5
2195
330
1F
100
AcDbEntity
  8
Innenkanten
100
AcDbCircle
 10
237.9021827192103
 20
157.4803609254979
 30
0.0
 40
4.0625
  0
ARC
  5
2196
330
1F
100
AcDbEntity
  8
Mittellinie
100
AcDbCircle
 10
237.9070627192102
 20
192.4744109254979
 30
0.0
 40
35.0
100
AcDbArc
 50
261.2277699999984
 51
278.7016400000001
  0
LINE
  5
2197
330
1F
100
AcDbEntity
  8
Innenkanten
100
AcDbLine
 10
237.9004427192104
 20
155.3132709254979
 30
0.0
 11
239.7754427192103
 21
156.3958109254979
 31
0.0
  0
LINE
  5
2198
330
1F
100
AcDbEntity
  8
Innenkanten
100
AcDbLine
 10
239.7754427192103
 20
158.5608609254979
 30
0.0
 11
237.9004427192104
 21
159.6434009254979
 31
0.0
  0
ARC
  5
2199
330
1F
100
AcDbEntity
  8
Mittellinie
100
AcDbCircle
 10
237.8424627192103
 20
192.4744109254979
 30
0.0
 40
72.5
100
AcDbArc
 50
225.0
 51
232.0088000000001
  0
ARC
  5
219A
330
1F
100
AcDbEntity
  8
Mittellinie
100
AcDbCircle
 10
237.9070627192102
 20
192.4744109254979
 30
0.0
 40
67.0
100
AcDbArc
 50
237.7164500000023
 51
242.4041699999976
  0
CIRCLE
  5
219B
330
1F
100
AcDbEntity
  8
Innenkanten
100
AcDbCircle
 10
204.4070627192102
 20
134.4507109254979
 30
0.0
 40
2.5
  0
CIRCLE
  5
219C
330
1F
100
AcDbEntity
  8
Innenkanten
100
AcDbCircle
 10
204.4070627192102
 20
134.4507109254979
 30
0.0
 40
1.5
  0
LINE
  5
219D
330
1F
100
AcDbEntity
  8
Innenkanten
100
AcDbLine
 10
237.9004427192104
 20
159.6434009254979
 30
0.0
 11
236.0254427192103
 21
158.5608609254979
 31
0.0
  0
LINE
  5
219E
330
1F
100
AcDbEntity
  8
Innenkanten
100
AcDbLine
 10
236.0254427192103
 20
156.3958109254979
 30
0.0
 11
237.9004427192104
 21
155.3132709254979
 31
0.0
  0
LINE
  5
219F
330
1F
100
AcDbEntity
  8
Innenkanten
100
AcDbLine
 10
236.0254427192103
 20
158.5608609254979
 30
0.0
 11
236.0254427192103
 21
156.3958109254979
 31
0.0
  0
LINE
  5
21A0
330
1F
100
AcDbEntity
  8
Innenkanten
100
AcDbLine
 10
239.7754427192103
 20
156.3958109254979
 30
0.0
 11
239.7754427192103
 21
158.5608609254979
 31
0.0
  0
CIRCLE
  5
21A1
330
1F
100
AcDbEntity
  8
Innenkanten
100
AcDbCircle
 10
207.5913027192103
 20
209.9803609254979
 30
0.0
 40
4.8125
  0
CIRCLE
  5
21A2
330
1F
100
AcDbEntity
  8
Innenkanten
100
AcDbCircle
 10
207.5913027192103
 20
209.9803609254979
 30
0.0
 40
4.0625
  0
ARC
  5
21A3
330
1F
100
AcDbEntity
  8
Mittellinie
100
AcDbCircle
 10
237.9070627192102
 20
192.4744109254979
 30
0.0
 40
35.0
100
AcDbArc
 50
141.0031100000007
 51
158.8821100000013
  0
LINE
  5
21A4
330
1F
100
AcDbEntity
  8
Innenkanten
100
AcDbLine
 10
207.5895627192104
 20
207.8132709254979
 30
0.0
 11
209.4645627192103
 21
208.8958109254979
 31
0.0
  0
LINE
  5
21A5
330
1F
100
AcDbEntity
  8
Innenkanten
100
AcDbLine
 10
205.7145627192103
 20
208.8958109254979
 30
0.0
 11
207.5895627192104
 21
207.8132709254979
 31
0.0
  0
LINE
  5
21A6
330
1F
100
AcDbEntity
  8
Mittellinie
100
AcDbLine
 10
211.7462027192103
 20
207.5783809254979
 30
0.0
 11
203.2000927192103
 21
212.5124909254978
 31
0.0
  0
LINE
  5
21A7
330
1F
100
AcDbEntity
  8
Innenkanten
100
AcDbLine
 10
207.5895627192104
 20
212.1434009254979
 30
0.0
 11
205.7145627192103
 21
211.0608609254978
 31
0.0
  0
LINE
  5
21A8
330
1F
100
AcDbEntity
  8
Innenkanten
100
AcDbLine
 10
205.7145627192103
 20
211.0608609254978
 30
0.0
 11
205.7145627192103
 21
208.8958109254979
 31
0.0
  0
LINE
  5
21A9
330
1F
100
AcDbEntity
  8
Innenkanten
100
AcDbLine
 10
209.4645627192103
 20
208.8958109254979
 30
0.0
 11
209.4645627192103
 21
211.0608609254978
 31
0.0
  0
LINE
  5
21AA
330
1F
100
AcDbEntity
  8
Innenkanten
100
AcDbLine
 10
209.4645627192103
 20
211.0608609254978
 30
0.0
 11
207.5895627192104
 21
212.1434009254979
 31
0.0
  0
CIRCLE
  5
21AB
330
1F
100
AcDbEntity
  8
Innenkanten
100
AcDbCircle
 10
268.2130627192103
 20
209.9803609254979
 30
0.0
 40
4.8125
  0
CIRCLE
  5
21AC
330
1F
100
AcDbEntity
  8
Innenkanten
100
AcDbCircle
 10
268.2130627192103
 20
209.9803609254979
 30
0.0
 40
4.0625
  0
LINE
  5
21AD
330
1F
100
AcDbEntity
  8
Mittellinie
100
AcDbLine
 10
263.8454527192103
 20
207.4499509254979
 30
0.0
 11
272.8666627192104
 21
212.658350925498
 31
0.0
  0
LINE
  5
21AE
330
1F
100
AcDbEntity
  8
Mittellinie
100
AcDbLine
 10
270.7423927192103
 20
205.6019109254979
 30
0.0
 11
265.5339827192104
 21
214.6231309254978
 31
0.0
  0
LINE
  5
21AF
330
1F
100
AcDbEntity
  8
Innenkanten
100
AcDbLine
 10
268.2113227192102
 20
207.8132709254979
 30
0.0
 11
270.0863227192102
 21
208.8958109254979
 31
0.0
  0
LINE
  5
21B0
330
1F
100
AcDbEntity
  8
Innenkanten
100
AcDbLine
 10
266.3363227192102
 20
208.8958109254979
 30
0.0
 11
268.2113227192102
 21
207.8132709254979
 31
0.0
  0
LINE
  5
21B1
330
1F
100
AcDbEntity
  8
Innenkanten
100
AcDbLine
 10
268.2113227192102
 20
212.1434009254979
 30
0.0
 11
266.3363227192102
 21
211.0608609254978
 31
0.0
  0
LINE
  5
21B2
330
1F
100
AcDbEntity
  8
Innenkanten
100
AcDbLine
 10
266.3363227192102
 20
211.0608609254978
 30
0.0
 11
266.3363227192102
 21
208.8958109254979
 31
0.0
  0
LINE
  5
21B3
330
1F
100
AcDbEntity
  8
Innenkanten
100
AcDbLine
 10
270.0863227192102
 20
208.8958109254979
 30
0.0
 11
270.0863227192102
 21
211.0608609254978
 31
0.0
  0
LINE
  5
21B4
330
1F
100
AcDbEntity
  8
Innenkanten
100
AcDbLine
 10
270.0863227192102
 20
211.0608609254978
 30
0.0
 11
268.2113227192102
 21
212.1434009254979
 31
0.0
  0
ARC
  5
21B5
330
1F
100
AcDbEntity
  8
Mittellinie
100
AcDbCircle
 10
237.9070627192102
 20
192.4744109254979
 30
0.0
 40
67.0
100
AcDbArc
 50
327.7164399999993
 51
332.4041600000008
  0
CIRCLE
  5
21B6
330
1F
100
AcDbEntity
  8
Innenkanten
100
AcDbCircle
 10
295.9307427192102
 20
158.9744109254979
 30
0.0
 40
2.5
  0
CIRCLE
  5
21B7
330
1F
100
AcDbEntity
  8
Innenkanten
100
AcDbCircle
 10
295.9307427192102
 20
158.9744109254979
 30
0.0
 40
1.5
  0
ARC
  5
21B8
102
{ACAD_REACTORS
330
2473
330
2494
102
}
330
1F
100
AcDbEntity
  8
0
100
AcDbCircle
 10
237.9070627192102
 20
192.4744109254979
 30
0.0
 40
82.5
100
AcDbArc
 50
128.012280000001
 51
141.9877199999989
  0
LINE
  5
21B9
330
1F
100
AcDbEntity
  8
Innenkanten
100
AcDbLine
 10
-150.6134196197993
 20
243.2804091806116
 30
0.0
 11
-162.6134196197993
 21
243.2804091806116
 31
0.0
  0
LINE
  5
21BA
330
1F
100
AcDbEntity
  8
0
100
AcDbLine
 10
-162.6134196197993
 20
247.4744061806116
 30
0.0
 11
-165.6134196197993
 21
247.4744061806116
 31
0.0
  0
LINE
  5
21BB
330
1F
100
AcDbEntity
  8
0
100
AcDbLine
 10
-150.6134196197993
 20
257.4744061806117
 30
0.0
 11
-162.6134196197993
 21
257.4744061806117
 31
0.0
  0
POINT
  5
21BC
330
1F
100
AcDbEntity
  8
0
100
AcDbPoint
 10
-162.6134196197993
 20
257.4744061806117
 30
0.0
  0
ARC
  5
21BD
102
{ACAD_REACTORS
330
24E1
102
}
330
1F
100
AcDbEntity
  8
0
100
AcDbCircle
 10
237.9070627192102
 20
192.4744109254979
 30
0.0
 40
82.5
100
AcDbArc
 50
38.0122809999986
 51
51.98771799999924
  0
LINE
  5
21BF
102
{ACAD_REACTORS
330
2494
102
}
330
1F
100
AcDbEntity
  8
0
100
AcDbLine
 10
187.1010327192102
 20
257.4744079254979
 30
0.0
 11
288.7130627192103
 21
257.4744079254979
 31
0.0
  0
ARC
  5
21C0
330
1F
100
AcDbEntity
  8
Mittellinie
100
AcDbCircle
 10
237.9070627192102
 20
192.4744109254979
 30
0.0
 40
67.0
100
AcDbArc
 50
57.71644399999736
 51
62.40416000000088
  0
CIRCLE
  5
21C1
330
1F
100
AcDbEntity
  8
Innenkanten
100
AcDbCircle
 10
271.4070627192102
 20
250.4981129254979
 30
0.0
 40
2.5
  0
CIRCLE
  5
21C2
330
1F
100
AcDbEntity
  8
Innenkanten
100
AcDbCircle
 10
271.4070627192102
 20
250.4981129254979
 30
0.0
 40
1.5
  0
LINE
  5
21C3
330
1F
100
AcDbEntity
  8
Mittellinie
100
AcDbLine
 10
269.9066027192102
 20
247.8992809254979
 30
0.0
 11
272.9538127192102
 21
253.1771819254979
 31
0.0
  0
LINE
  5
21C6
330
1F
100
AcDbEntity
  8
Mittellinie
100
AcDbLine
 10
-264.0721399049116
 20
192.4744109254979
 30
0.0
 11
-418.1038542741871
 21
192.4744109254979
 31
0.0
  0
LINE
  5
2248
330
1F
100
AcDbEntity
  8
Innenkanten
100
AcDbLine
 10
368.5353511601821
 20
134.5987355747588
 30
0.0
 11
368.5353511601821
 21
231.5177555747587
 31
0.0
  0
LINE
  5
2249
330
1F
100
AcDbEntity
  8
Innenkanten
100
AcDbLine
 10
625.035341160182
 20
127.5987355747588
 30
0.0
 11
625.035341160182
 21
257.5987325747588
 31
0.0
  0
LINE
  5
224A
102
{ACAD_REACTORS
330
22E1
102
}
330
1F
100
AcDbEntity
  8
Innenkanten
100
AcDbLine
 10
629.035341160182
 20
127.5987355747588
 30
0.0
 11
629.035341160182
 21
257.5987325747588
 31
0.0
  0
LINE
  5
224B
102
{ACAD_REACTORS
330
22E1
330
2306
330
236F
330
23A2
330
2451
102
}
330
1F
100
AcDbEntity
  8
0
100
AcDbLine
 10
641.035341160182
 20
127.5987355747588
 30
0.0
 11
641.035341160182
 21
257.5987325747588
 31
0.0
  0
LINE
  5
224C
102
{ACAD_REACTORS
330
2306
330
2418
102
}
330
1F
100
AcDbEntity
  8
0
100
AcDbLine
 10
644.035341160182
 20
137.5987355747587
 30
0.0
 11
644.035341160182
 21
247.5987325747588
 31
0.0
  0
LINE
  5
224D
330
1F
100
AcDbEntity
  8
0
100
AcDbLine
 10
406.035355160182
 20
139.3826855747587
 30
0.0
 11
406.035355160182
 21
150.0987355747587
 31
0.0
  0
LINE
  5
224E
330
1F
100
AcDbEntity
  8
Innenkanten
100
AcDbLine
 10
368.5353511601821
 20
134.5987355747588
 30
0.0
 11
368.5353511601821
 21
222.5987355747587
 31
0.0
  0
LINE
  5
224F
330
1F
100
AcDbEntity
  8
0
100
AcDbLine
 10
367.035351160182
 20
134.5987355747588
 30
0.0
 11
367.035351160182
 21
222.5987355747587
 31
0.0
  0
LINE
  5
2250
102
{ACAD_REACTORS
330
23CC
102
}
330
1F
100
AcDbEntity
  8
0
100
AcDbLine
 10
406.5353551601821
 20
127.5987355747588
 30
0.0
 11
406.5353551601821
 21
257.5987325747588
 31
0.0
  0
LINE
  5
2251
330
1F
100
AcDbEntity
  8
0
100
AcDbLine
 10
406.5353551601821
 20
127.5987355747588
 30
0.0
 11
406.5353551601821
 21
257.5987325747588
 31
0.0
  0
LINE
  5
2252
330
1F
100
AcDbEntity
  8
0
100
AcDbLine
 10
406.5353551601821
 20
127.5987355747588
 30
0.0
 11
406.5353551601821
 21
257.5987325747588
 31
0.0
  0
LINE
  5
2253
330
1F
100
AcDbEntity
  8
0
100
AcDbLine
 10
406.5353551601821
 20
127.5987355747588
 30
0.0
 11
406.5353551601821
 21
257.5987325747588
 31
0.0
  0
LINE
  5
2254
330
1F
100
AcDbEntity
  8
0
100
AcDbLine
 10
411.035351160182
 20
127.5987355747588
 30
0.0
 11
411.035351160182
 21
257.5987325747588
 31
0.0
  0
LINE
  5
2255
330
1F
100
AcDbEntity
  8
0
100
AcDbLine
 10
406.5353551601821
 20
127.5987355747588
 30
0.0
 11
625.035341160182
 21
127.5987355747588
 31
0.0
  0
LINE
  5
2256
330
1F
100
AcDbEntity
  8
Innenkanten
100
AcDbLine
 10
367.4853521601821
 20
133.5987355747588
 30
0.0
 11
400.535355160182
 21
133.5987355747588
 31
0.0
  0
LINE
  5
2257
330
1F
100
AcDbEntity
  8
Innenkanten
100
AcDbLine
 10
371.7353521601821
 20
112.4987455747588
 30
0.0
 11
401.335350160182
 21
112.4987455747588
 31
0.0
  0
LINE
  5
2258
330
1F
100
AcDbEntity
  8
Innenkanten
100
AcDbLine
 10
371.7353521601821
 20
127.7987255747587
 30
0.0
 11
401.335350160182
 21
127.7987255747587
 31
0.0
  0
LINE
  5
2259
330
1F
100
AcDbEntity
  8
0
100
AcDbLine
 10
367.035351160182
 20
134.5987355747588
 30
0.0
 11
400.535355160182
 21
134.5987355747588
 31
0.0
  0
LINE
  5
225A
330
1F
100
AcDbEntity
  8
0
100
AcDbLine
 10
372.7353521601821
 20
111.4987455747588
 30
0.0
 11
400.3353501601821
 21
111.4987455747588
 31
0.0
  0
LINE
  5
225B
330
1F
100
AcDbEntity
  8
0
100
AcDbLine
 10
367.4853521601821
 20
130.7987255747588
 30
0.0
 11
400.535355160182
 21
130.7987255747588
 31
0.0
  0
LINE
  5
225C
330
1F
100
AcDbEntity
  8
Innenkanten
100
AcDbLine
 10
372.7353521601821
 20
111.4987455747588
 30
0.0
 11
372.7353521601821
 21
127.7987255747587
 31
0.0
  0
LINE
  5
225D
330
1F
100
AcDbEntity
  8
0
100
AcDbLine
 10
371.7353521601821
 20
112.4987455747588
 30
0.0
 11
371.7353521601821
 21
130.7987255747588
 31
0.0
  0
LINE
  5
225E
330
1F
100
AcDbEntity
  8
0
100
AcDbLine
 10
371.7353521601821
 20
112.4987455747588
 30
0.0
 11
372.7353521601821
 21
111.4987455747588
 31
0.0
  0
LINE
  5
225F
330
1F
100
AcDbEntity
  8
0
100
AcDbLine
 10
367.4853521601821
 20
130.7987255747588
 30
0.0
 11
367.4853521601821
 21
134.5987355747588
 31
0.0
  0
LINE
  5
2260
330
1F
100
AcDbEntity
  8
Innenkanten
100
AcDbLine
 10
400.3353501601821
 20
111.4987455747588
 30
0.0
 11
400.3353501601821
 21
127.7987255747587
 31
0.0
  0
LINE
  5
2261
330
1F
100
AcDbEntity
  8
Mittellinie
100
AcDbLine
 10
386.535355160182
 20
104.7559855747588
 30
0.0
 11
386.535355160182
 21
138.0579255747587
 31
0.0
  0
LINE
  5
2262
330
1F
100
AcDbEntity
  8
0
100
AcDbLine
 10
401.335350160182
 20
112.4987455747588
 30
0.0
 11
401.335350160182
 21
130.5826755747588
 31
0.0
  0
LINE
  5
2263
330
1F
100
AcDbEntity
  8
0
100
AcDbLine
 10
400.3353501601821
 20
111.4987455747588
 30
0.0
 11
401.335350160182
 21
112.4987455747588
 31
0.0
  0
LINE
  5
2264
330
1F
100
AcDbEntity
  8
Mittellinie
100
AcDbLine
 10
400.535355160182
 20
134.5826755747588
 30
0.0
 11
407.597778160182
 21
134.5826755747588
 31
0.0
  0
LINE
  5
2265
330
1F
100
AcDbEntity
  8
0
100
AcDbLine
 10
400.535355160182
 20
138.5826755747588
 30
0.0
 11
405.535355160182
 21
138.5826755747588
 31
0.0
  0
LINE
  5
2266
330
1F
100
AcDbEntity
  8
0
100
AcDbLine
 10
400.535355160182
 20
130.5826755747588
 30
0.0
 11
405.535355160182
 21
130.5826755747588
 31
0.0
  0
LINE
  5
2267
330
1F
100
AcDbEntity
  8
0
100
AcDbLine
 10
400.535355160182
 20
130.5826755747588
 30
0.0
 11
400.535355160182
 21
138.5826755747588
 31
0.0
  0
LINE
  5
2268
330
1F
100
AcDbEntity
  8
0
100
AcDbLine
 10
405.535355160182
 20
139.3826855747587
 30
0.0
 11
406.5353551601821
 21
139.3826855747587
 31
0.0
  0
LINE
  5
2269
330
1F
100
AcDbEntity
  8
0
100
AcDbLine
 10
405.535355160182
 20
129.7826955747588
 30
0.0
 11
406.5353551601821
 21
129.7826955747588
 31
0.0
  0
LINE
  5
226A
330
1F
100
AcDbEntity
  8
0
100
AcDbLine
 10
405.535355160182
 20
129.7826955747588
 30
0.0
 11
405.535355160182
 21
139.3826855747587
 31
0.0
  0
LINE
  5
226B
330
1F
100
AcDbEntity
  8
Innenkanten
100
AcDbLine
 10
418.044891160182
 20
89.71872557475876
 30
0.0
 11
418.044891160182
 21
73.71872557475882
 31
0.0
  0
LINE
  5
226C
330
1F
100
AcDbEntity
  8
Innenkanten
100
AcDbLine
 10
454.0448911601821
 20
89.71872557475876
 30
0.0
 11
454.0448911601821
 21
73.71872557475882
 31
0.0
  0
LINE
  5
226D
102
{ACAD_REACTORS
330
2451
102
}
330
1F
100
AcDbEntity
  8
Mittellinie
100
AcDbLine
 10
436.0358311601821
 20
65.28324557475878
 30
0.0
 11
436.0358311601821
 21
133.5476455747587
 31
0.0
  0
LINE
  5
226E
330
1F
100
AcDbEntity
  8
0
100
AcDbLine
 10
417.0448911601821
 20
94.34873557475885
 30
0.0
 11
417.0448911601821
 21
75.71872557475882
 31
0.0
  0
LINE
  5
226F
330
1F
100
AcDbEntity
  8
0
100
AcDbLine
 10
455.044891160182
 20
94.34873557475885
 30
0.0
 11
455.044891160182
 21
75.71872557475882
 31
0.0
  0
LINE
  5
2270
330
1F
100
AcDbEntity
  8
Innenkanten
100
AcDbLine
 10
455.044891160182
 20
75.71872557475882
 30
0.0
 11
417.0448911601821
 21
75.71872557475882
 31
0.0
  0
LINE
  5
2271
330
1F
100
AcDbEntity
  8
0
100
AcDbLine
 10
454.0448911601821
 20
73.71872557475882
 30
0.0
 11
418.044891160182
 21
73.71872557475882
 31
0.0
  0
LINE
  5
2272
330
1F
100
AcDbEntity
  8
0
100
AcDbLine
 10
417.0448911601821
 20
75.71872557475882
 30
0.0
 11
418.044891160182
 21
73.71872557475882
 31
0.0
  0
LINE
  5
2273
330
1F
100
AcDbEntity
  8
0
100
AcDbLine
 10
455.044891160182
 20
75.71872557475882
 30
0.0
 11
454.0448911601821
 21
73.71872557475882
 31
0.0
  0
LINE
  5
2274
330
1F
100
AcDbEntity
  8
Innenkanten
100
AcDbLine
 10
411.5448911601821
 20
126.5987355747588
 30
0.0
 11
471.5448911601821
 21
126.5987355747588
 31
0.0
  0
LINE
  5
2275
330
1F
100
AcDbEntity
  8
Innenkanten
100
AcDbLine
 10
458.2448911601821
 20
97.09873557475885
 30
0.0
 11
413.8448911601821
 21
97.09873557475885
 31
0.0
  0
LINE
  5
2276
330
1F
100
AcDbEntity
  8
Innenkanten
100
AcDbLine
 10
455.044891160182
 20
89.71872557475876
 30
0.0
 11
417.0448911601821
 21
89.71872557475876
 31
0.0
  0
LINE
  5
2277
330
1F
100
AcDbEntity
  8
0
100
AcDbLine
 10
458.2448911601821
 20
94.34873557475885
 30
0.0
 11
413.8448911601821
 21
94.34873557475885
 31
0.0
  0
LINE
  5
2278
330
1F
100
AcDbEntity
  8
0
100
AcDbLine
 10
411.5448911601821
 20
97.59873557475884
 30
0.0
 11
461.5448911601821
 21
97.59873557475884
 31
0.0
  0
LINE
  5
2279
330
1F
100
AcDbEntity
  8
0
100
AcDbLine
 10
411.5448911601821
 20
97.59873557475884
 30
0.0
 11
411.5448911601821
 21
127.5987355747588
 31
0.0
  0
LINE
  5
227A
330
1F
100
AcDbEntity
  8
0
100
AcDbLine
 10
413.8448911601821
 20
97.59873557475884
 30
0.0
 11
413.8448911601821
 21
94.34873557475885
 31
0.0
  0
ARC
  5
227B
330
1F
100
AcDbEntity
  8
0
100
AcDbCircle
 10
411.7071411601821
 20
131.0083055747587
 30
0.0
 40
60.0
100
AcDbArc
 50
326.16341
 51
355.7853699999999
  0
LINE
  5
227C
330
1F
100
AcDbEntity
  8
0
100
AcDbLine
 10
458.2448911601821
 20
97.59873557475884
 30
0.0
 11
458.2448911601821
 21
94.34873557475885
 31
0.0
  0
LINE
  5
227D
330
1F
100
AcDbEntity
  8
0
100
AcDbLine
 10
471.5448911601821
 20
126.5987355747588
 30
0.0
 11
471.5448911601821
 21
127.5987355747588
 31
0.0
  0
LINE
  5
227E
330
1F
100
AcDbEntity
  8
Innenkanten
100
AcDbLine
 10
629.035341160182
 20
141.7927355747588
 30
0.0
 11
641.035341160182
 21
141.7927355747588
 31
0.0
  0
LINE
  5
227F
330
1F
100
AcDbEntity
  8
0
100
AcDbLine
 10
625.035341160182
 20
127.5987355747588
 30
0.0
 11
641.035341160182
 21
127.5987355747588
 31
0.0
  0
LINE
  5
2280
330
1F
100
AcDbEntity
  8
0
100
AcDbLine
 10
641.035341160182
 20
137.5987355747587
 30
0.0
 11
644.035341160182
 21
137.5987355747587
 31
0.0
  0
LINE
  5
2281
330
1F
100
AcDbEntity
  8
Mittellinie
100
AcDbLine
 10
354.0520034445262
 20
192.5987355747587
 30
0.0
 11
712.5770735608876
 21
192.5987355747587
 31
0.0
  0
LINE
  5
2282
330
1F
100
AcDbEntity
  8
0
100
AcDbLine
 10
406.035355160182
 20
150.0987355747587
 30
0.0
 11
625.035341160182
 21
150.0987355747587
 31
0.0
  0
LINE
  5
2283
330
1F
100
AcDbEntity
  8
0
100
AcDbLine
 10
406.5353551601821
 20
257.5987325747588
 30
0.0
 11
629.035341160182
 21
257.5987325747588
 31
0.0
  0
LINE
  5
2284
330
1F
100
AcDbEntity
  8
0
100
AcDbLine
 10
405.535355160182
 20
245.8300865747588
 30
0.0
 11
405.535355160182
 21
255.4300925747587
 31
0.0
  0
LINE
  5
2285
330
1F
100
AcDbEntity
  8
0
100
AcDbLine
 10
400.535355160182
 20
246.6300895747588
 30
0.0
 11
400.535355160182
 21
254.6300895747588
 31
0.0
  0
LINE
  5
2286
330
1F
100
AcDbEntity
  8
Innenkanten
100
AcDbLine
 10
399.535355160182
 20
150.0987355747587
 30
0.0
 11
399.535355160182
 21
235.0987355747587
 31
0.0
  0
LINE
  5
2287
330
1F
100
AcDbEntity
  8
0
100
AcDbLine
 10
393.535355160182
 20
150.0987355747587
 30
0.0
 11
393.535355160182
 21
235.0987355747587
 31
0.0
  0
LINE
  5
2288
330
1F
100
AcDbEntity
  8
Innenkanten
100
AcDbLine
 10
368.5353511601821
 20
158.2513555747588
 30
0.0
 11
393.535355160182
 21
158.2513555747588
 31
0.0
  0
LINE
  5
2289
330
1F
100
AcDbEntity
  8
Innenkanten
100
AcDbLine
 10
367.035351160182
 20
159.1137655747587
 30
0.0
 11
368.5353511601821
 21
158.2513555747588
 31
0.0
  0
LINE
  5
228A
330
1F
100
AcDbEntity
  8
0
100
AcDbLine
 10
398.535355160182
 20
153.5736655747588
 30
0.0
 11
398.535355160182
 21
157.9395055747587
 31
0.0
  0
LINE
  5
228B
330
1F
100
AcDbEntity
  8
0
100
AcDbLine
 10
394.535355160182
 20
154.1736555747587
 30
0.0
 11
394.535355160182
 21
157.9395055747587
 31
0.0
  0
LINE
  5
228C
330
1F
100
AcDbEntity
  8
0
100
AcDbLine
 10
399.535355160182
 20
150.0987355747587
 30
0.0
 11
406.5353551601821
 21
150.0987355747587
 31
0.0
  0
LINE
  5
228D
330
1F
100
AcDbEntity
  8
Innenkanten
100
AcDbLine
 10
393.535355160182
 20
151.5755555747588
 30
0.0
 11
399.535355160182
 21
151.5755555747588
 31
0.0
  0
LINE
  5
228E
330
1F
100
AcDbEntity
  8
0
100
AcDbLine
 10
394.535355160182
 20
154.1736555747587
 30
0.0
 11
398.535355160182
 21
154.1736555747587
 31
0.0
  0
LINE
  5
228F
330
1F
100
AcDbEntity
  8
0
100
AcDbLine
 10
398.535355160182
 20
153.5736655747588
 30
0.0
 11
399.535355160182
 21
153.5736655747588
 31
0.0
  0
LINE
  5
2290
330
1F
100
AcDbEntity
  8
0
100
AcDbLine
 10
393.535355160182
 20
150.0987355747587
 30
0.0
 11
399.535355160182
 21
150.0987355747587
 31
0.0
  0
LINE
  5
2291
330
1F
100
AcDbEntity
  8
Innenkanten
100
AcDbLine
 10
393.535355160182
 20
165.0952655747587
 30
0.0
 11
406.5353551601821
 21
165.0952655747587
 31
0.0
  0
LINE
  5
2292
330
1F
100
AcDbEntity
  8
Mittellinie
100
AcDbLine
 10
393.535355160182
 20
157.4236555747587
 30
0.0
 11
402.0274661601821
 21
157.4236555747587
 31
0.0
  0
LINE
  5
2293
330
1F
100
AcDbEntity
  8
0
100
AcDbLine
 10
393.535355160182
 20
157.9395055747587
 30
0.0
 11
399.535355160182
 21
157.9395055747587
 31
0.0
  0
LINE
  5
2294
330
1F
100
AcDbEntity
  8
0
100
AcDbLine
 10
369.1794621601821
 20
231.7830255747588
 30
0.0
 11
393.535355160182
 21
232.6335455747588
 31
0.0
  0
ARC
  5
2295
330
1F
100
AcDbEntity
  8
0
100
AcDbCircle
 10
397.035355160182
 20
222.5987355747587
 30
0.0
 40
30.0
100
AcDbArc
 50
163.6061999999992
 51
180.0000100000009
  0
POINT
  5
2296
330
1F
100
AcDbEntity
  8
0
100
AcDbPoint
 10
367.0353471601821
 20
222.5987355747587
 30
0.0
  0
ARC
  5
2297
330
1F
100
AcDbEntity
  8
0
100
AcDbCircle
 10
369.2143631601821
 20
230.7836355747588
 30
0.0
 40
1.0
100
AcDbArc
 50
91.99999800000055
 51
163.6061999999992
  0
LINE
  5
2298
330
1F
100
AcDbEntity
  8
0
100
AcDbLine
 10
398.535355160182
 20
221.5791155747588
 30
0.0
 11
398.535355160182
 21
226.0612155747587
 31
0.0
  0
LINE
  5
2299
330
1F
100
AcDbEntity
  8
0
100
AcDbLine
 10
394.535355160182
 20
221.5791155747588
 30
0.0
 11
394.535355160182
 21
225.4612155747587
 31
0.0
  0
LINE
  5
229A
330
1F
100
AcDbEntity
  8
0
100
AcDbLine
 10
405.535355160182
 20
221.2612655747587
 30
0.0
 11
405.535355160182
 21
230.8612655747588
 31
0.0
  0
LINE
  5
229B
330
1F
100
AcDbEntity
  8
0
100
AcDbLine
 10
400.535355160182
 20
222.0612755747588
 30
0.0
 11
400.535355160182
 21
230.0612755747588
 31
0.0
  0
LINE
  5
229C
330
1F
100
AcDbEntity
  8
Mittellinie
100
AcDbLine
 10
393.535355160182
 20
222.2112155747587
 30
0.0
 11
402.0274661601821
 21
222.2112155747587
 31
0.0
  0
LINE
  5
229D
330
1F
100
AcDbEntity
  8
0
100
AcDbLine
 10
400.535355160182
 20
222.0612755747588
 30
0.0
 11
405.535355160182
 21
222.0612755747588
 31
0.0
  0
LINE
  5
229E
330
1F
100
AcDbEntity
  8
0
100
AcDbLine
 10
393.535355160182
 20
220.1024055747587
 30
0.0
 11
406.5353551601821
 21
220.1024055747587
 31
0.0
  0
LINE
  5
229F
330
1F
100
AcDbEntity
  8
0
100
AcDbLine
 10
393.535355160182
 20
221.5791155747588
 30
0.0
 11
399.535355160182
 21
221.5791155747588
 31
0.0
  0
LINE
  5
22A0
330
1F
100
AcDbEntity
  8
0
100
AcDbLine
 10
405.535355160182
 20
221.2612655747587
 30
0.0
 11
406.5353551601821
 21
221.2612655747587
 31
0.0
  0
LINE
  5
22A1
330
1F
100
AcDbEntity
  8
Mittellinie
100
AcDbLine
 10
399.535355160182
 20
226.0612755747588
 30
0.0
 11
408.726097160182
 21
226.0612755747588
 31
0.0
  0
LINE
  5
22A2
330
1F
100
AcDbEntity
  8
0
100
AcDbLine
 10
400.535355160182
 20
230.0612755747588
 30
0.0
 11
405.535355160182
 21
230.0612755747588
 31
0.0
  0
LINE
  5
22A3
330
1F
100
AcDbEntity
  8
0
100
AcDbLine
 10
393.535355160182
 20
235.0987355747587
 30
0.0
 11
406.5353551601821
 21
235.0987355747587
 31
0.0
  0
LINE
  5
22A4
330
1F
100
AcDbEntity
  8
Innenkanten
100
AcDbLine
 10
393.535355160182
 20
227.9430855747587
 30
0.0
 11
399.535355160182
 21
227.9430855747587
 31
0.0
  0
LINE
  5
22A5
330
1F
100
AcDbEntity
  8
0
100
AcDbLine
 10
393.535355160182
 20
232.5987355747587
 30
0.0
 11
393.535355160182
 21
235.0987355747587
 31
0.0
  0
LINE
  5
22A6
330
1F
100
AcDbEntity
  8
0
100
AcDbLine
 10
394.535355160182
 20
225.4612155747587
 30
0.0
 11
398.535355160182
 21
225.4612155747587
 31
0.0
  0
LINE
  5
22A7
330
1F
100
AcDbEntity
  8
0
100
AcDbLine
 10
398.535355160182
 20
226.0612155747587
 30
0.0
 11
399.535355160182
 21
226.0612155747587
 31
0.0
  0
LINE
  5
22A8
330
1F
100
AcDbEntity
  8
0
100
AcDbLine
 10
405.535355160182
 20
230.8612655747588
 30
0.0
 11
406.5353551601821
 21
230.8612655747588
 31
0.0
  0
LINE
  5
22A9
330
1F
100
AcDbEntity
  8
0
100
AcDbLine
 10
400.535355160182
 20
246.6300895747588
 30
0.0
 11
405.535355160182
 21
246.6300895747588
 31
0.0
  0
LINE
  5
22AA
330
1F
100
AcDbEntity
  8
0
100
AcDbLine
 10
405.535355160182
 20
245.8300865747588
 30
0.0
 11
406.5353551601821
 21
245.8300865747588
 31
0.0
  0
LINE
  5
22AB
330
1F
100
AcDbEntity
  8
Mittellinie
100
AcDbLine
 10
399.535355160182
 20
250.6300895747588
 30
0.0
 11
408.726097160182
 21
250.6300895747588
 31
0.0
  0
LINE
  5
22AC
330
1F
100
AcDbEntity
  8
0
100
AcDbLine
 10
400.535355160182
 20
254.6300895747588
 30
0.0
 11
405.535355160182
 21
254.6300895747588
 31
0.0
  0
LINE
  5
22AD
330
1F
100
AcDbEntity
  8
0
100
AcDbLine
 10
405.535355160182
 20
255.4300925747587
 30
0.0
 11
406.5353551601821
 21
255.4300925747587
 31
0.0
  0
LINE
  5
22AE
330
1F
100
AcDbEntity
  8
Innenkanten
100
AcDbLine
 10
411.035351160182
 20
220.5987355747587
 30
0.0
 11
625.035341160182
 21
220.5987355747587
 31
0.0
  0
LINE
  5
22AF
330
1F
100
AcDbEntity
  8
Innenkanten
100
AcDbLine
 10
411.035351160182
 20
217.5987355747587
 30
0.0
 11
625.035341160182
 21
217.5987355747587
 31
0.0
  0
LINE
  5
22B0
330
1F
100
AcDbEntity
  8
Innenkanten
100
AcDbLine
 10
411.035351160182
 20
214.5987355747587
 30
0.0
 11
625.035341160182
 21
214.5987355747587
 31
0.0
  0
LINE
  5
22B1
330
1F
100
AcDbEntity
  8
Innenkanten
100
AcDbLine
 10
411.035351160182
 20
164.5987355747587
 30
0.0
 11
625.035341160182
 21
164.5987355747587
 31
0.0
  0
LINE
  5
22B2
330
1F
100
AcDbEntity
  8
Innenkanten
100
AcDbLine
 10
411.035351160182
 20
167.5987355747587
 30
0.0
 11
625.035341160182
 21
167.5987355747587
 31
0.0
  0
LINE
  5
22B3
330
1F
100
AcDbEntity
  8
Innenkanten
100
AcDbLine
 10
411.035351160182
 20
170.5987355747588
 30
0.0
 11
625.035341160182
 21
170.5987355747588
 31
0.0
  0
LINE
  5
22B4
330
1F
100
AcDbEntity
  8
Innenkanten
100
AcDbLine
 10
411.035351160182
 20
173.5987355747588
 30
0.0
 11
625.035341160182
 21
173.5987355747588
 31
0.0
  0
LINE
  5
22B5
330
1F
100
AcDbEntity
  8
Innenkanten
100
AcDbLine
 10
411.035351160182
 20
211.5987355747587
 30
0.0
 11
625.035341160182
 21
211.5987355747587
 31
0.0
  0
LINE
  5
22B6
330
1F
100
AcDbEntity
  8
0
100
AcDbLine
 10
411.035351160182
 20
235.0987355747587
 30
0.0
 11
625.035341160182
 21
235.0987355747587
 31
0.0
  0
LINE
  5
22B8
102
{ACAD_REACTORS
330
23F7
102
}
330
1F
100
AcDbEntity
  8
0
100
AcDbLine
 10
646.035341160182
 20
178.5987355747588
 30
0.0
 11
704.057311160182
 21
178.5987355747588
 31
0.0
  0
LINE
  5
22B9
102
{ACAD_REACTORS
330
2329
102
}
330
1F
100
AcDbEntity
  8
0
100
AcDbLine
 10
646.035341160182
 20
177.5987355747588
 30
0.0
 11
646.035341160182
 21
207.5987355747587
 31
0.0
  0
LINE
  5
22BA
330
1F
100
AcDbEntity
  8
0
100
AcDbLine
 10
625.035341160182
 20
150.0987355747587
 30
0.0
 11
629.035341160182
 21
150.0987355747587
 31
0.0
  0
LINE
  5
22BB
330
1F
100
AcDbEntity
  8
0
100
AcDbLine
 10
644.035341160182
 20
177.5987355747588
 30
0.0
 11
646.035341160182
 21
177.5987355747588
 31
0.0
  0
LINE
  5
22BC
330
1F
100
AcDbEntity
  8
Innenkanten
100
AcDbLine
 10
629.035341160182
 20
243.4047355747587
 30
0.0
 11
641.035341160182
 21
243.4047355747587
 31
0.0
  0
LINE
  5
22BD
330
1F
100
AcDbEntity
  8
0
100
AcDbLine
 10
625.035341160182
 20
235.0987355747587
 30
0.0
 11
629.035341160182
 21
235.0987355747587
 31
0.0
  0
LINE
  5
22BE
330
1F
100
AcDbEntity
  8
0
100
AcDbLine
 10
644.035341160182
 20
207.5987355747587
 30
0.0
 11
646.035341160182
 21
207.5987355747587
 31
0.0
  0
LINE
  5
22BF
330
1F
100
AcDbEntity
  8
0
100
AcDbLine
 10
641.035341160182
 20
247.5987325747588
 30
0.0
 11
644.035341160182
 21
247.5987325747588
 31
0.0
  0
LINE
  5
22C0
330
1F
100
AcDbEntity
  8
0
100
AcDbLine
 10
704.035341160182
 20
178.5987355747588
 30
0.0
 11
704.035341160182
 21
206.5987355747587
 31
0.0
  0
LINE
  5
22C1
330
1F
100
AcDbEntity
  8
0
100
AcDbLine
 10
629.035341160182
 20
257.5987325747588
 30
0.0
 11
641.035341160182
 21
257.5987325747588
 31
0.0
  0
POINT
  5
22C2
330
1F
100
AcDbEntity
  8
0
100
AcDbPoint
 10
641.035341160182
 20
257.5987325747588
 30
0.0
  0
DIMENSION
  5
22CA
102
{ACAD_XDICTIONARY
360
22D7
102
}
102
{ACAD_REACTORS
330
22E1
102
}
330
1F
100
AcDbEntity
  8
Bemaßung
100
AcDbDimension
  2
*D15
 10
641.035341160182
 20
271.1949315606157
 30
0.0
 11
635.035341160182
 21
273.0699315606157
 31
0.0
 70
    32
 71
     5
 42
12.0
  3
ISO-25
100
AcDbAlignedDimension
 13
629.035341160182
 23
257.5987325747588
 33
0.0
 14
641.035341160182
 24
257.5987325747588
 34
0.0
100
AcDbRotatedDimension
  0
DIMENSION
  5
22EB
102
{ACAD_XDICTIONARY
360
22FA
102
}
102
{ACAD_REACTORS
330
2306
102
}
330
1F
100
AcDbEntity
  8
Bemaßung
100
AcDbDimension
  2
*D16
 10
641.035341160182
 20
271.1949315606157
 30
0.0
 11
642.535341160182
 21
273.0699315606157
 31
0.0
 70
    32
 71
     5
 42
3.0
  3
ISO-25
100
AcDbAlignedDimension
 13
644.035341160182
 23
247.5987325747588
 33
0.0
 14
641.035341160182
 24
257.5987325747588
 34
0.0
100
AcDbRotatedDimension
  0
DIMENSION
  5
2312
102
{ACAD_XDICTIONARY
360
231F
102
}
102
{ACAD_REACTORS
330
2329
102
}
330
1F
100
AcDbEntity
  8
Bemaßung
100
AcDbDimension
  2
*D17
 10
646.035341160182
 20
243.3248893929828
 30
0.0
 11
675.035341160182
 21
245.1998893929828
 31
0.0
 70
    32
 71
     5
 42
58.0
  3
ISO-25
100
AcDbAlignedDimension
 13
704.035341160182
 23
206.5987355747587
 33
0.0
 14
646.035341160182
 24
207.5987355747587
 34
0.0
100
AcDbRotatedDimension
  0
LINE
  5
2345
330
1F
100
AcDbEntity
  8
0
100
AcDbLine
 10
646.035341160182
 20
206.5987355747587
 30
0.0
 11
704.035341160182
 21
206.5987355747587
 31
0.0
  0
DIMENSION
  5
2358
102
{ACAD_XDICTIONARY
360
2365
102
}
102
{ACAD_REACTORS
330
236F
102
}
330
1F
100
AcDbEntity
  8
Bemaßung
100
AcDbDimension
  2
*D18
 10
641.035341160182
 20
283.9302205545623
 30
0.0
 11
672.535341160182
 21
285.8052205545623
 31
0.0
 70
    32
 71
     5
 42
63.0
  3
ISO-25
100
AcDbAlignedDimension
 13
704.035341160182
 23
206.5987355747587
 33
0.0
 14
641.035341160182
 24
257.5987325747588
 34
0.0
100
AcDbRotatedDimension
  0
DIMENSION
  5
238B
102
{ACAD_XDICTIONARY
360
2398
102
}
102
{ACAD_REACTORS
330
23A2
102
}
330
1F
100
AcDbEntity
  8
Bemaßung
100
AcDbDimension
  2
*D19
 10
367.035351160182
 20
283.9302205545622
 30
0.0
 11
504.035346160182
 21
285.8052205545622
 31
0.0
 70
    32
 71
     5
 42
273.9999899999999
  3
ISO-25
100
AcDbAlignedDimension
 13
641.035341160182
 23
257.5987325747588
 33
0.0
 14
367.035351160182
 24
192.5987355747587
 34
0.0
100
AcDbRotatedDimension
  0
DIMENSION
  5
23B5
102
{ACAD_XDICTIONARY
360
23C2
102
}
102
{ACAD_REACTORS
330
23CC
102
}
330
1F
100
AcDbEntity
  8
Bemaßung
100
AcDbDimension
  2
*D20
 10
406.5353551601821
 20
271.1949315606157
 30
0.0
 11
386.785353160182
 21
273.278264893949
 31
0.0
 70
    32
 71
     5
 42
39.50000399999998
  3
ISO-25
100
AcDbAlignedDimension
 13
367.035351160182
 23
192.5987355747587
 33
0.0
 14
406.5353551601821
 24
257.5987325747588
 34
0.0
100
AcDbRotatedDimension
  0
DIMENSION
  5
23E0
102
{ACAD_XDICTIONARY
360
23ED
102
}
102
{ACAD_REACTORS
330
23F7
102
}
330
1F
100
AcDbEntity
  8
Bemaßung
100
AcDbDimension
  2
*D21
 10
729.0311700770307
 20
178.5987355747587
 30
0.0
 11
727.1561700770307
 21
192.5987355747588
 31
0.0
 70
    32
 71
     5
 42
27.99999999999997
  3
ISO-25
100
AcDbAlignedDimension
 13
704.035341160182
 23
206.5987355747587
 33
0.0
 14
647.035341160182
 24
178.5987355747588
 34
0.0
 50
90.0
100
AcDbRotatedDimension
  0
DIMENSION
  5
2401
102
{ACAD_XDICTIONARY
360
240E
102
}
102
{ACAD_REACTORS
330
2418
102
}
330
1F
100
AcDbEntity
  8
Bemaßung
100
AcDbDimension
  2
*D22
 10
744.6142076439887
 20
137.5987355747587
 30
0.0
 11
742.7392076439887
 21
192.5987340747589
 31
0.0
 70
    32
 71
     5
 42
109.999997
  3
ISO-25
100
AcDbAlignedDimension
 13
644.035341160182
 23
247.5987325747588
 33
0.0
 14
644.035341160182
 24
137.5987355747587
 34
0.0
 50
90.0
100
AcDbRotatedDimension
  0
DIMENSION
  5
243A
102
{ACAD_XDICTIONARY
360
2447
102
}
102
{ACAD_REACTORS
330
2451
102
}
330
1F
100
AcDbEntity
  8
Bemaßung
100
AcDbDimension
  2
*D24
 10
436.0358311601821
 20
57.14525204422324
 30
0.0
 11
538.5355861601821
 21
59.02025204422324
 31
0.0
 70
    32
 71
     5
 42
204.9995099999999
  3
ISO-25
100
AcDbAlignedDimension
 13
641.035341160182
 23
127.5987355747588
 33
0.0
 14
436.0358311601821
 24
65.28324557475878
 34
0.0
100
AcDbRotatedDimension
  0
DIMENSION
  5
245C
102
{ACAD_XDICTIONARY
360
2469
102
}
102
{ACAD_REACTORS
330
2473
102
}
330
1F
100
AcDbEntity
  8
Bemaßung
100
AcDbDimension
  2
*D25
 10
302.9070627192102
 20
283.9302205545623
 30
0.0
 11
237.9070629212297
 21
285.8052205545623
 31
0.0
 70
    32
 71
     5
 42
129.999999595961
  3
ISO-25
100
AcDbAlignedDimension
 13
172.9070631232492
 23
243.2804150246697
 33
0.0
 14
302.9070627192102
 24
243.2804109254979
 34
0.0
100
AcDbRotatedDimension
  0
DIMENSION
  5
247D
102
{ACAD_XDICTIONARY
360
248A
102
}
102
{ACAD_REACTORS
330
2494
102
}
330
1F
100
AcDbEntity
  8
Bemaßung
100
AcDbDimension
  2
*D26
 10
148.860643539077
 20
127.474410925498
 30
0.0
 11
146.985643539077
 21
192.474409425498
 31
0.0
 70
    32
 71
     5
 42
129.999997
  3
ISO-25
100
AcDbAlignedDimension
 13
187.1010552988275
 23
257.4744079254979
 33
0.0
 14
187.1010327192102
 24
127.4744109254979
 34
0.0
 50
90.0
100
AcDbRotatedDimension
  0
DIMENSION
  5
249E
102
{ACAD_XDICTIONARY
360
24AC
102
}
102
{ACAD_REACTORS
330
24B7
102
}
330
1F
100
AcDbEntity
  8
Bemaßung
100
AcDbDimension
  2
*D27
 10
181.7257327192104
 20
248.6557359254979
 30
0.0
 11
206.5953692990684
 21
268.0675221219473
 31
0.0
 70
    34
 71
     5
 42
0.7853983980454269
  3
ISO-25
100
AcDb2LineAngularDimension
 13
237.9070627192102
 23
65.1589209254979
 33
0.0
 14
237.9070627192102
 24
273.1088459254979
 34
0.0
 15
192.3799927192102
 25
238.0014809254979
 35
0.0
 16
217.2154122927212
 26
269.6966988152084
 36
0.0
  0
DIMENSION
  5
24D2
102
{ACAD_XDICTIONARY
360
24DB
102
}
102
{ACAD_REACTORS
330
24E1
102
}
330
1F
100
AcDbEntity
  8
Bemaßung
100
AcDbDimension
  2
*D29
 10
184.5463474451513
 20
129.5547473421568
 30
0.0
 11
214.0859756434319
 21
164.3860545888262
 31
0.0
 70
   163
 71
     5
 42
165.0
  3
ISO-25
100
AcDbDiametricDimension
 15
291.2677779932691
 25
255.394074508839
 35
0.0
 40
0.0
1001
ACAD
1000
DSTYLE
1002
{
1070
   279
1070
     1
1070
   288
1070
     1
1002
}
  0
DIMENSION
  5
24E7
102
{ACAD_XDICTIONARY
360
24F0
102
}
102
{ACAD_REACTORS
330
24F6
102
}
330
1F
100
AcDbEntity
  8
Bemaßung
100
AcDbDimension
  2
*D30
 10
292.8013703135835
 20
145.1904974238307
 30
0.0
 11
263.6256867734064
 21
170.2918059696175
 31
0.0
 70
   163
 71
     5
 42
144.9999999999999
  3
ISO-25
100
AcDbDiametricDimension
 15
182.8835551248372
 25
239.7583244271651
 35
0.0
 40
0.0
1001
ACAD
1000
DSTYLE
1002
{
1070
   279
1070
     1
1070
   288
1070
     1
1002
}
  0
DIMENSION
  5
2501
102
{ACAD_XDICTIONARY
360
250E
102
}
102
{ACAD_REACTORS
330
2518
102
}
330
1F
100
AcDbEntity
  8
Bemaßung
100
AcDbDimension
  2
*D31
 10
328.1928885244242
 20
192.4744109254979
 30
0.0
 11
326.3178885244241
 21
132.4744059254979
 31
0.0
 70
    32
 71
     5
 42
120.0000099999999
  3
ISO-25
100
AcDbAlignedDimension
 13
255.9070627192102
 23
72.47440092549794
 33
0.0
 14
315.1144627192103
 24
192.4744109254979
 34
0.0
 50
90.0
100
AcDbRotatedDimension
  0
LINE
  5
258A
330
1F
100
AcDbEntity
  8
Innenkanten
100
AcDbLine
 10
172.9524724258588
 20
-233.0904564800187
 30
0.0
 11
302.9524694258588
 21
-233.0904564800187
 31
0.0
  0
LINE
  5
258B
330
1F
100
AcDbEntity
  8
Innenkanten
100
AcDbLine
 10
172.9524724258588
 20
-237.0904564800187
 30
0.0
 11
302.9524694258588
 21
-237.0904564800187
 31
0.0
  0
LINE
  5
258C
330
1F
100
AcDbEntity
  8
0
100
AcDbLine
 10
172.9524724258588
 20
-249.0904564800187
 30
0.0
 11
302.9524694258588
 21
-249.0904564800187
 31
0.0
  0
LINE
  5
258D
330
1F
100
AcDbEntity
  8
0
100
AcDbLine
 10
182.9524724258588
 20
-252.0904564800187
 30
0.0
 11
292.9524694258588
 21
-252.0904564800187
 31
0.0
  0
LINE
  5
258F
330
1F
100
AcDbEntity
  8
0
100
AcDbLine
 10
172.9524724258588
 20
-14.59047048001875
 30
0.0
 11
302.9524694258589
 21
-14.59047048001878
 31
0.0
  0
LINE
  5
2590
330
1F
100
AcDbEntity
  8
0
100
AcDbLine
 10
172.9524724258588
 20
-14.59047048001875
 30
0.0
 11
302.9524694258589
 21
-14.59047048001878
 31
0.0
  0
LINE
  5
2591
330
1F
100
AcDbEntity
  8
0
100
AcDbLine
 10
172.9524724258588
 20
-14.59047048001875
 30
0.0
 11
302.9524694258589
 21
-14.59047048001878
 31
0.0
  0
LINE
  5
2592
330
1F
100
AcDbEntity
  8
0
100
AcDbLine
 10
172.9524724258588
 20
-14.59047048001875
 30
0.0
 11
302.9524694258589
 21
-14.59047048001878
 31
0.0
  0
LINE
  5
2593
330
1F
100
AcDbEntity
  8
0
100
AcDbLine
 10
172.9524724258588
 20
-19.09046648001876
 30
0.0
 11
302.9524694258589
 21
-19.09046648001879
 31
0.0
  0
LINE
  5
2595
330
1F
100
AcDbEntity
  8
0
100
AcDbLine
 10
172.9524724258588
 20
-14.59047048001875
 30
0.0
 11
172.9524724258588
 21
-233.0904564800187
 31
0.0
  0
LINE
  5
2599
330
1F
100
AcDbEntity
  8
Mittellinie
100
AcDbLine
 10
179.9364124258588
 20
-8.590470480018751
 30
0.0
 11
179.9364124258588
 21
-15.65289348001877
 31
0.0
  0
LINE
  5
259A
330
1F
100
AcDbEntity
  8
0
100
AcDbLine
 10
183.9364124258588
 20
-8.590470480018751
 30
0.0
 11
183.9364124258588
 21
-13.59047048001875
 31
0.0
  0
LINE
  5
259B
330
1F
100
AcDbEntity
  8
0
100
AcDbLine
 10
175.9364124258588
 20
-8.590470480018751
 30
0.0
 11
175.9364124258588
 21
-13.59047048001875
 31
0.0
  0
LINE
  5
259C
330
1F
100
AcDbEntity
  8
0
100
AcDbLine
 10
175.9364124258588
 20
-8.590470480018751
 30
0.0
 11
183.9364124258588
 21
-8.590470480018751
 31
0.0
  0
LINE
  5
259D
330
1F
100
AcDbEntity
  8
0
100
AcDbLine
 10
184.7364224258588
 20
-13.59047048001875
 30
0.0
 11
184.7364224258588
 21
-14.59047048001875
 31
0.0
  0
LINE
  5
259E
330
1F
100
AcDbEntity
  8
0
100
AcDbLine
 10
175.1364324258588
 20
-13.59047048001875
 30
0.0
 11
175.1364324258588
 21
-14.59047048001875
 31
0.0
  0
LINE
  5
259F
330
1F
100
AcDbEntity
  8
0
100
AcDbLine
 10
175.1364324258588
 20
-13.59047048001875
 30
0.0
 11
184.7364224258588
 21
-13.59047048001875
 31
0.0
  0
LINE
  5
25A1
330
1F
100
AcDbEntity
  8
Innenkanten
100
AcDbLine
 10
187.1464724258587
 20
-237.0904564800187
 30
0.0
 11
187.1464724258587
 21
-249.0904564800187
 31
0.0
  0
LINE
  5
25A2
330
1F
100
AcDbEntity
  8
0
100
AcDbLine
 10
172.9524724258588
 20
-233.0904564800187
 30
0.0
 11
172.9524724258588
 21
-249.0904564800187
 31
0.0
  0
LINE
  5
25A3
330
1F
100
AcDbEntity
  8
0
100
AcDbLine
 10
182.9524724258588
 20
-249.0904564800187
 30
0.0
 11
182.9524724258588
 21
-252.0904564800187
 31
0.0
  0
LINE
  5
25A5
330
1F
100
AcDbEntity
  8
0
100
AcDbLine
 10
302.9524694258589
 20
-14.59047048001878
 30
0.0
 11
302.9524694258588
 21
-237.0904564800187
 31
0.0
  0
LINE
  5
25A6
330
1F
100
AcDbEntity
  8
Innenkanten
100
AcDbLine
 10
265.9524724258587
 20
-19.09046648001879
 30
0.0
 11
265.9524724258587
 21
-233.0904564800187
 31
0.0
  0
LINE
  5
25A7
330
1F
100
AcDbEntity
  8
Innenkanten
100
AcDbLine
 10
262.9524724258587
 20
-19.09046648001879
 30
0.0
 11
262.9524724258587
 21
-233.0904564800187
 31
0.0
  0
LINE
  5
25A8
330
1F
100
AcDbEntity
  8
Innenkanten
100
AcDbLine
 10
259.9524724258587
 20
-19.09046648001879
 30
0.0
 11
259.9524724258587
 21
-233.0904564800187
 31
0.0
  0
LINE
  5
25A9
330
1F
100
AcDbEntity
  8
Innenkanten
100
AcDbLine
 10
209.9524724258588
 20
-19.09046648001879
 30
0.0
 11
209.9524724258587
 21
-233.0904564800187
 31
0.0
  0
LINE
  5
25AA
330
1F
100
AcDbEntity
  8
Innenkanten
100
AcDbLine
 10
212.9524724258588
 20
-19.09046648001879
 30
0.0
 11
212.9524724258587
 21
-233.0904564800187
 31
0.0
  0
LINE
  5
25AB
330
1F
100
AcDbEntity
  8
Innenkanten
100
AcDbLine
 10
215.9524724258588
 20
-19.09046648001879
 30
0.0
 11
215.9524724258587
 21
-233.0904564800187
 31
0.0
  0
LINE
  5
25AC
330
1F
100
AcDbEntity
  8
Innenkanten
100
AcDbLine
 10
218.9524724258588
 20
-19.09046648001879
 30
0.0
 11
218.9524724258587
 21
-233.0904564800187
 31
0.0
  0
LINE
  5
25AD
330
1F
100
AcDbEntity
  8
Innenkanten
100
AcDbLine
 10
256.9524724258588
 20
-19.09046648001879
 30
0.0
 11
256.9524724258587
 21
-233.0904564800187
 31
0.0
  0
LINE
  5
25AE
330
1F
100
AcDbEntity
  8
0
100
AcDbLine
 10
280.4524724258588
 20
-19.09046648001879
 30
0.0
 11
280.4524724258587
 21
-233.0904564800187
 31
0.0
  0
LINE
  5
25AF
330
1F
100
AcDbEntity
  8
0
100
AcDbLine
 10
291.1838234258589
 20
-13.59047048001878
 30
0.0
 11
300.7838294258588
 21
-13.59047048001878
 31
0.0
  0
LINE
  5
25B0
330
1F
100
AcDbEntity
  8
0
100
AcDbLine
 10
291.9838264258588
 20
-8.59047048001878
 30
0.0
 11
299.9838264258588
 21
-8.59047048001878
 31
0.0
  0
LINE
  5
25B5
330
1F
100
AcDbEntity
  8
0
100
AcDbLine
 10
267.4150124258588
 20
-8.59047048001878
 30
0.0
 11
275.4150124258588
 21
-8.59047048001878
 31
0.0
  0
LINE
  5
25B7
330
1F
100
AcDbEntity
  8
0
100
AcDbLine
 10
266.6150024258588
 20
-13.59047048001878
 30
0.0
 11
276.2150024258588
 21
-13.59047048001878
 31
0.0
  0
LINE
  5
25B8
330
1F
100
AcDbEntity
  8
0
100
AcDbLine
 10
267.4150124258588
 20
-8.59047048001878
 30
0.0
 11
267.4150124258588
 21
-13.59047048001878
 31
0.0
  0
LINE
  5
25B9
330
1F
100
AcDbEntity
  8
0
100
AcDbLine
 10
266.6150024258588
 20
-13.59047048001878
 30
0.0
 11
266.6150024258588
 21
-14.59047048001878
 31
0.0
  0
LINE
  5
25BA
330
1F
100
AcDbEntity
  8
Mittellinie
100
AcDbLine
 10
271.4150124258588
 20
-7.59047048001878
 30
0.0
 11
271.4150124258588
 21
-16.78121248001883
 31
0.0
  0
LINE
  5
25BB
330
1F
100
AcDbEntity
  8
0
100
AcDbLine
 10
275.4150124258588
 20
-8.59047048001878
 30
0.0
 11
275.4150124258588
 21
-13.59047048001878
 31
0.0
  0
LINE
  5
25BC
330
1F
100
AcDbEntity
  8
0
100
AcDbLine
 10
291.9838264258588
 20
-8.59047048001878
 30
0.0
 11
291.9838264258588
 21
-13.59047048001878
 31
0.0
  0
LINE
  5
25BE
330
1F
100
AcDbEntity
  8
0
100
AcDbLine
 10
276.2150024258588
 20
-13.59047048001878
 30
0.0
 11
276.2150024258588
 21
-14.59047048001878
 31
0.0
  0
LINE
  5
25BF
330
1F
100
AcDbEntity
  8
0
100
AcDbLine
 10
291.1838234258589
 20
-13.59047048001878
 30
0.0
 11
291.1838234258589
 21
-14.59047048001878
 31
0.0
  0
LINE
  5
25C0
330
1F
100
AcDbEntity
  8
Mittellinie
100
AcDbLine
 10
295.9838264258588
 20
-7.59047048001878
 30
0.0
 11
295.9838264258588
 21
-16.78121248001883
 31
0.0
  0
LINE
  5
25C1
330
1F
100
AcDbEntity
  8
0
100
AcDbLine
 10
299.9838264258588
 20
-8.59047048001878
 30
0.0
 11
299.9838264258588
 21
-13.59047048001878
 31
0.0
  0
LINE
  5
25C2
330
1F
100
AcDbEntity
  8
0
100
AcDbLine
 10
300.7838294258588
 20
-13.59047048001878
 30
0.0
 11
300.7838294258588
 21
-14.59047048001878
 31
0.0
  0
LINE
  5
25C6
330
1F
100
AcDbEntity
  8
0
100
AcDbLine
 10
251.9524724258587
 20
-254.0904564800187
 30
0.0
 11
251.9524724258587
 21
-312.0904564800187
 31
0.0
  0
LINE
  5
25C7
330
1F
100
AcDbEntity
  8
0
100
AcDbLine
 10
223.9524724258588
 20
-254.0904564800187
 30
0.0
 11
223.9524724258588
 21
-312.1124264800187
 31
0.0
  0
LINE
  5
25C8
330
1F
100
AcDbEntity
  8
0
100
AcDbLine
 10
222.9524724258587
 20
-254.0904564800187
 30
0.0
 11
252.9524724258587
 21
-254.0904564800187
 31
0.0
  0
LINE
  5
25C9
330
1F
100
AcDbEntity
  8
0
100
AcDbLine
 10
195.4524724258588
 20
-233.0904564800187
 30
0.0
 11
195.4524724258588
 21
-237.0904564800187
 31
0.0
  0
LINE
  5
25CA
330
1F
100
AcDbEntity
  8
0
100
AcDbLine
 10
222.9524724258587
 20
-252.0904564800187
 30
0.0
 11
222.9524724258587
 21
-254.0904564800187
 31
0.0
  0
LINE
  5
25CB
330
1F
100
AcDbEntity
  8
Innenkanten
100
AcDbLine
 10
288.7584724258587
 20
-237.0904564800187
 30
0.0
 11
288.7584724258587
 21
-249.0904564800187
 31
0.0
  0
LINE
  5
25CC
330
1F
100
AcDbEntity
  8
0
100
AcDbLine
 10
280.4524724258587
 20
-233.0904564800187
 30
0.0
 11
280.4524724258587
 21
-237.0904564800187
 31
0.0
  0
LINE
  5
25CD
330
1F
100
AcDbEntity
  8
0
100
AcDbLine
 10
252.9524724258587
 20
-252.0904564800187
 30
0.0
 11
252.9524724258587
 21
-254.0904564800187
 31
0.0
  0
LINE
  5
25CE
330
1F
100
AcDbEntity
  8
0
100
AcDbLine
 10
292.9524694258588
 20
-249.0904564800187
 30
0.0
 11
292.9524694258588
 21
-252.0904564800187
 31
0.0
  0
LINE
  5
25CF
330
1F
100
AcDbEntity
  8
0
100
AcDbLine
 10
223.9524724258588
 20
-312.0904564800187
 30
0.0
 11
251.9524724258587
 21
-312.0904564800187
 31
0.0
  0
LINE
  5
25D0
330
1F
100
AcDbEntity
  8
0
100
AcDbLine
 10
302.9524694258588
 20
-237.0904564800187
 30
0.0
 11
302.9524694258588
 21
-249.0904564800187
 31
0.0
  0
POINT
  5
25D1
330
1F
100
AcDbEntity
  8
0
100
AcDbPoint
 10
302.9524694258588
 20
-249.0904564800187
 30
0.0
  0
LINE
  5
2602
330
1F
100
AcDbEntity
  8
Innenkanten
100
AcDbLine
 10
195.4524724258589
 20
-7.59047048001878
 30
0.0
 11
280.4524724258588
 21
-7.59047048001878
 31
0.0
  0
LINE
  5
2603
330
1F
100
AcDbEntity
  8
0
100
AcDbLine
 10
195.4524724258589
 20
-1.59047048001878
 30
0.0
 11
280.4524724258588
 21
-1.59047048001878
 31
0.0
  0
LINE
  5
2604
330
1F
100
AcDbEntity
  8
0
100
AcDbLine
 10
195.4524724258589
 20
-7.59047048001878
 30
0.0
 11
195.4524724258589
 21
-14.59047048001878
 31
0.0
  0
LINE
  5
2605
330
1F
100
AcDbEntity
  8
Innenkanten
100
AcDbLine
 10
210.4490024258589
 20
-1.59047048001878
 30
0.0
 11
210.4490024258589
 21
-14.59047048001878
 31
0.0
  0
LINE
  5
2606
330
1F
100
AcDbEntity
  8
Mittellinie
100
AcDbLine
 10
202.7773924258588
 20
-1.59047048001878
 30
0.0
 11
202.7773924258588
 21
-10.0825814800188
 31
0.0
  0
LINE
  5
2607
330
1F
100
AcDbEntity
  8
0
100
AcDbLine
 10
198.9274024258588
 20
-6.59047048001878
 30
0.0
 11
203.2932424258588
 21
-6.59047048001878
 31
0.0
  0
LINE
  5
2608
330
1F
100
AcDbEntity
  8
0
100
AcDbLine
 10
199.5273924258588
 20
-2.59047048001878
 30
0.0
 11
203.2932424258588
 21
-2.59047048001878
 31
0.0
  0
LINE
  5
2609
330
1F
100
AcDbEntity
  8
Innenkanten
100
AcDbLine
 10
196.9292924258588
 20
-1.59047048001878
 30
0.0
 11
196.9292924258588
 21
-7.59047048001878
 31
0.0
  0
LINE
  5
260A
330
1F
100
AcDbEntity
  8
0
100
AcDbLine
 10
199.5273924258588
 20
-2.59047048001878
 30
0.0
 11
199.5273924258588
 21
-6.59047048001878
 31
0.0
  0
LINE
  5
260B
330
1F
100
AcDbEntity
  8
0
100
AcDbLine
 10
198.9274024258588
 20
-6.59047048001878
 30
0.0
 11
198.9274024258588
 21
-7.59047048001878
 31
0.0
  0
LINE
  5
260C
330
1F
100
AcDbEntity
  8
0
100
AcDbLine
 10
195.4524724258589
 20
-1.59047048001878
 30
0.0
 11
195.4524724258589
 21
-7.59047048001878
 31
0.0
  0
LINE
  5
260D
330
1F
100
AcDbEntity
  8
0
100
AcDbLine
 10
203.2932424258588
 20
-1.59047048001878
 30
0.0
 11
203.2932424258588
 21
-7.59047048001878
 31
0.0
  0
LINE
  5
260F
330
1F
100
AcDbEntity
  8
0
100
AcDbLine
 10
266.9328524258588
 20
-6.59047048001878
 30
0.0
 11
271.4149524258588
 21
-6.59047048001878
 31
0.0
  0
LINE
  5
2610
330
1F
100
AcDbEntity
  8
0
100
AcDbLine
 10
266.9328524258588
 20
-2.59047048001878
 30
0.0
 11
270.8149524258587
 21
-2.59047048001878
 31
0.0
  0
LINE
  5
2612
330
1F
100
AcDbEntity
  8
Mittellinie
100
AcDbLine
 10
267.5649524258588
 20
-1.59047048001878
 30
0.0
 11
267.5649524258588
 21
-10.0825814800188
 31
0.0
  0
LINE
  5
2614
330
1F
100
AcDbEntity
  8
0
100
AcDbLine
 10
265.4561424258588
 20
-1.59047048001878
 30
0.0
 11
265.4561424258588
 21
-14.59047048001878
 31
0.0
  0
LINE
  5
2615
330
1F
100
AcDbEntity
  8
0
100
AcDbLine
 10
266.9328524258588
 20
-1.59047048001878
 30
0.0
 11
266.9328524258588
 21
-7.59047048001878
 31
0.0
  0
LINE
  5
2619
330
1F
100
AcDbEntity
  8
0
100
AcDbLine
 10
280.4524724258588
 20
-1.59047048001878
 30
0.0
 11
280.4524724258588
 21
-14.59047048001878
 31
0.0
  0
LINE
  5
261A
330
1F
100
AcDbEntity
  8
Innenkanten
100
AcDbLine
 10
273.2968224258588
 20
-1.59047048001878
 30
0.0
 11
273.2968224258588
 21
-7.59047048001878
 31
0.0
  0
LINE
  5
261B
330
1F
100
AcDbEntity
  8
0
100
AcDbLine
 10
277.9524724258588
 20
-1.59047048001878
 30
0.0
 11
280.4524724258588
 21
-1.59047048001878
 31
0.0
  0
LINE
  5
261C
330
1F
100
AcDbEntity
  8
0
100
AcDbLine
 10
270.8149524258587
 20
-2.59047048001878
 30
0.0
 11
270.8149524258587
 21
-6.59047048001878
 31
0.0
  0
LINE
  5
261D
330
1F
100
AcDbEntity
  8
0
100
AcDbLine
 10
271.4149524258588
 20
-6.59047048001878
 30
0.0
 11
271.4149524258588
 21
-7.59047048001878
 31
0.0
  0
LINE
  5
2624
330
1F
100
AcDbEntity
  8
0
100
AcDbLine
 10
197.9524724258588
 20
-1.59047048001878
 30
0.0
 11
197.9524724258588
 21
24.90952951998122
 31
0.0
  0
LINE
  5
2625
330
1F
100
AcDbEntity
  8
0
100
AcDbLine
 10
277.9524724258588
 20
-1.59047048001878
 30
0.0
 11
277.9524724258588
 21
24.90952951998122
 31
0.0
  0
LINE
  5
2626
330
1F
100
AcDbEntity
  8
0
100
AcDbLine
 10
197.9524724258588
 20
24.90952951998122
 30
0.0
 11
277.9524724258588
 21
24.90952951998122
 31
0.0
  0
LINE
  5
2627
330
1F
100
AcDbEntity
  8
Mittellinie
100
AcDbLine
 10
237.9070627192102
 20
37.03289942670062
 30
0.0
 11
237.9070627192102
 21
-317.9997190780561
 31
0.0
  0
LINE
  5
267D
330
1F
100
AcDbEntity
  8
0
100
AcDbLine
 10
195.4524724258588
 20
-233.0904564800187
 30
0.0
 11
195.4524724258588
 21
-19.09046648001876
 31
0.0
  0
VIEWPORT
  5
FF1
330
FEA
100
AcDbEntity
 67
     1
  8
0
100
AcDbViewport
 10
144.7270812988281
 20
101.2295806407928
 30
0.0
 40
377.5505027244501
 41
222.1599421176024
 68
     1
 69
     1
 12
144.7270812988281
 22
101.2295806407928
 13
0.0
 23
0.0
 14
10.0
 24
10.0
 15
10.0
 25
10.0
 16
0.0
 26
0.0
 36
1.0
 17
0.0
 27
0.0
 37
0.0
 42
50.0
 43
0.0
 44
0.0
 45
222.1599421176024
 50
0.0
 51
0.0
 72
   100
 90
    32800
  1

281
     0
 71
     1
 74
     0
110
0.0
120
0.0
130
0.0
111
1.0
121
0.0
131
0.0
112
0.0
122
1.0
132
0.0
 79
     0
146
0.0
  0
VIEWPORT
  5
FF3
330
FEA
100
AcDbEntity
 67
     1
  8
0
100
AcDbViewport
 10
144.7270812988279
 20
101.5933663914631
 30
0.0
 40
296.2546461044554
 41
209.0554971327303
 68
     2
 69
     2
 12
203.1282534378307
 22
126.0400189425975
 13
0.0
 23
0.0
 14
10.0
 24
10.0
 15
10.0
 25
10.0
 16
0.0
 26
0.0
 36
1.0
 17
0.0
 27
0.0
 37
0.0
 42
50.0
 43
0.0
 44
0.0
 45
382.825506506762
 50
0.0
 51
0.0
 72
   100
 90
    32864
  1

281
     0
 71
     1
 74
     0
110
-53.08748352590964
120
3.820899076262548
130
0.0
111
1.0
121
0.0
131
0.0
112
0.0
122
1.0
132
0.0
 79
     0
146
0.0
  0
ENDSEC
  0
SECTION
  2
OBJECTS
  0
DICTIONARY
  5
C
330
0
100
AcDbDictionary
281
     1
  3
ACAD_GROUP
350
D
  3
ACAD_LAYOUT
350
1A
  3
ACAD_MLINESTYLE
350
17
  3
ACAD_PLOTSETTINGS
350
19
  3
ACAD_PLOTSTYLENAME
350
E
  3
AcadDim
350
118B
  3
AcDbVariableDictionary
350
50
  3
DWGPROPS
350
A6A
  0
DICTIONARY
  5
22D7
330
22CA
100
AcDbDictionary
280
     1
281
     1
  3
ACAD_DIMASSOC
360
22E1
  0
DICTIONARY
  5
22FA
330
22EB
100
AcDbDictionary
280
     1
281
     1
  3
ACAD_DIMASSOC
360
2306
  0
DICTIONARY
  5
231F
330
2312
100
AcDbDictionary
280
     1
281
     1
  3
ACAD_DIMASSOC
360
2329
  0
DICTIONARY
  5
2365
330
2358
100
AcDbDictionary
280
     1
281
     1
  3
ACAD_DIMASSOC
360
236F
  0
DICTIONARY
  5
2398
330
238B
100
AcDbDictionary
280
     1
281
     1
  3
ACAD_DIMASSOC
360
23A2
  0
DICTIONARY
  5
23C2
330
23B5
100
AcDbDictionary
280
     1
281
     1
  3
ACAD_DIMASSOC
360
23CC
  0
DICTIONARY
  5
23ED
330
23E0
100
AcDbDictionary
280
     1
281
     1
  3
ACAD_DIMASSOC
360
23F7
  0
DICTIONARY
  5
240E
330
2401
100
AcDbDictionary
280
     1
281
     1
  3
ACAD_DIMASSOC
360
2418
  0
DICTIONARY
  5
2447
330
243A
100
AcDbDictionary
280
     1
281
     1
  3
ACAD_DIMASSOC
360
2451
  0
DICTIONARY
  5
2469
330
245C
100
AcDbDictionary
280
     1
281
     1
  3
ACAD_DIMASSOC
360
2473
  0
DICTIONARY
  5
248A
330
247D
100
AcDbDictionary
280
     1
281
     1
  3
ACAD_DIMASSOC
360
2494
  0
DICTIONARY
  5
24AC
330
249E
100
AcDbDictionary
280
     1
281
     1
  3
ACAD_DIMASSOC
360
24B7
  0
DICTIONARY
  5
24DB
330
24D2
100
AcDbDictionary
280
     1
281
     1
  3
ACAD_DIMASSOC
360
24E1
  0
DICTIONARY
  5
24F0
330
24E7
100
AcDbDictionary
280
     1
281
     1
  3
ACAD_DIMASSOC
360
24F6
  0
DICTIONARY
  5
250E
330
2501
100
AcDbDictionary
280
     1
281
     1
  3
ACAD_DIMASSOC
360
2518
  0
DICTIONARY
  5
D
102
{ACAD_REACTORS
330
C
102
}
330
C
100
AcDbDictionary
281
     1
  3
*A1
350
2A6
  3
*A10
350
1D4A
  3
*A11
350
94E
  3
*A12
350
85A
  3
*A13
350
3BE
  3
*A14
350
331
  3
*A15
350
369
  3
*A16
350
A72
  3
*A17
350
10FD
  3
*A18
350
413
  3
*A19
350
21C4
  3
*A2
350
8F6
  3
*A20
350
869
  3
*A21
350
8E4
  3
*A22
350
885
  3
*A23
350
886
  3
*A24
350
8D4
  3
*A25
350
8E3
  3
*A26
350
8ED
  3
*A3
350
905
  3
*A4
350
93F
  3
*A5
350
90F
  3
*A6
350
91E
  3
*A7
350
92D
  3
*A8
350
936
  3
*A9
350
1578
  0
DICTIONARY
  5
1A
102
{ACAD_REACTORS
330
C
102
}
330
C
100
AcDbDictionary
281
     1
  3
Layout1
350
FEB
  3
Model
350
22
  0
DICTIONARY
  5
17
102
{ACAD_REACTORS
330
C
102
}
330
C
100
AcDbDictionary
281
     1
  3
Standard
350
18
  0
DICTIONARY
  5
19
102
{ACAD_REACTORS
330
C
102
}
330
C
100
AcDbDictionary
281
     1
  0
ACDBDICTIONARYWDFLT
  5
E
102
{ACAD_REACTORS
330
C
102
}
330
C
100
AcDbDictionary
281
     1
  3
Normal
350
F
100
AcDbDictionaryWithDefault
340
F
  0
XRECORD
  5
118B
102
{ACAD_REACTORS
330
C
102
}
330
C
100
AcDbXrecord
280
     1
 90
   990106
  3

 60
     0
 61
     0
 62
     1
 63
     3
 64
     0
 65
     0
 66
     0
 67
     3
 68
     1
 69
     0
 70
     0
 71
     0
 72
     0
 40
2.0
170
     0
340
0
  0
DICTIONARY
  5
50
102
{ACAD_REACTORS
330
C
102
}
330
C
100
AcDbDictionary
281
     1
  3
DIMASSOC
350
52
  3
HIDETEXT
350
51
  0
XRECORD
  5
A6A
102
{ACAD_REACTORS
330
C
102
}
330
C
100
AcDbXrecord
280
     1
  1
DWGPROPS COOKIE
  2

  3

  4

  6

  7

  8

  9

300
=
301
=
302
=
303
=
304
=
305
=
306
=
307
=
308
=
309
=
 40
0.587026388888889
 41
2452181.498615972
 42
2452184.61255463
  1

 90
        0
  0
DIMASSOC
  5
22E1
102
{ACAD_REACTORS
330
22D7
102
}
330
22D7
100
AcDbDimAssoc
330
22CA
 90
        3
 70
     0
 71
     0
  1
AcDbOsnapPointRef
 72
     1
331
224A
 73
     2
 91
        0
 40
1.0
 10
629.035341160182
 20
257.5987325747588
 30
0.0
 75
     0
  1
AcDbOsnapPointRef
 72
     1
331
224B
 73
     2
 91
        0
 40
1.0
 10
641.035341160182
 20
257.5987325747588
 30
0.0
 75
     0
  0
DIMASSOC
  5
2306
102
{ACAD_REACTORS
330
22FA
102
}
330
22FA
100
AcDbDimAssoc
330
22EB
 90
        3
 70
     0
 71
     0
  1
AcDbOsnapPointRef
 72
     1
331
224C
 73
     2
 91
        0
 40
1.0
 10
644.035341160182
 20
247.5987325747588
 30
0.0
 75
     0
  1
AcDbOsnapPointRef
 72
     1
331
224B
 73
     2
 91
        0
 40
1.0
 10
641.035341160182
 20
257.5987325747588
 30
0.0
 75
     0
  0
DIMASSOC
  5
2329
102
{ACAD_REACTORS
330
231F
102
}
330
231F
100
AcDbDimAssoc
330
2312
 90
        2
 70
     0
 71
     0
  1
AcDbOsnapPointRef
 72
     1
331
22B9
 73
     2
 91
        0
 40
1.0
 10
646.035341160182
 20
207.5987355747587
 30
0.0
 75
     0
  0
DIMASSOC
  5
236F
102
{ACAD_REACTORS
330
2365
102
}
330
2365
100
AcDbDimAssoc
330
2358
 90
        2
 70
     0
 71
     0
  1
AcDbOsnapPointRef
 72
     1
331
224B
 73
     2
 91
        0
 40
1.0
 10
641.035341160182
 20
257.5987325747588
 30
0.0
 75
     0
  0
DIMASSOC
  5
23A2
102
{ACAD_REACTORS
330
2398
102
}
330
2398
100
AcDbDimAssoc
330
238B
 90
        1
 70
     0
 71
     0
  1
AcDbOsnapPointRef
 72
     1
331
224B
 73
     2
 91
        0
 40
1.0
 10
641.035341160182
 20
257.5987325747588
 30
0.0
 75
     0
  0
DIMASSOC
  5
23CC
102
{ACAD_REACTORS
330
23C2
102
}
330
23C2
100
AcDbDimAssoc
330
23B5
 90
        2
 70
     0
 71
     0
  1
AcDbOsnapPointRef
 72
     1
331
2250
 73
     2
 91
        0
 40
1.0
 10
406.5353551601821
 20
257.5987325747588
 30
0.0
 75
     0
  0
DIMASSOC
  5
23F7
102
{ACAD_REACTORS
330
23ED
102
}
330
23ED
100
AcDbDimAssoc
330
23E0
 90
        2
 70
     0
 71
     0
  1
AcDbOsnapPointRef
 72
     8
331
22B8
 73
     2
 91
        0
 40
0.9996213503264364
 10
647.035341160182
 20
178.5987355747588
 30
0.0
 75
     1
  1
AcDbOsnapPointRef
 72
     0
 40
0.0
 10
647.035341160182
 20
206.5987355747587
 30
0.0
 75
     0
  0
DIMASSOC
  5
2418
102
{ACAD_REACTORS
330
240E
102
}
330
240E
100
AcDbDimAssoc
330
2401
 90
        3
 70
     0
 71
     0
  1
AcDbOsnapPointRef
 72
     1
331
224C
 73
     2
 91
        0
 40
1.0
 10
644.035341160182
 20
247.5987325747588
 30
0.0
 75
     0
  1
AcDbOsnapPointRef
 72
    13
331
224C
 73
     2
 91
        0
 40
0.0
 10
644.035341160182
 20
137.5987355747587
 30
0.0
 75
     0
  0
DIMASSOC
  5
2451
102
{ACAD_REACTORS
330
2447
102
}
330
2447
100
AcDbDimAssoc
330
243A
 90
        3
 70
     0
 71
     0
  1
AcDbOsnapPointRef
 72
    13
331
224B
 73
     2
 91
        0
 40
0.0
 10
641.035341160182
 20
127.5987355747588
 30
0.0
 75
     0
  1
AcDbOsnapPointRef
 72
    13
331
226D
 73
     2
 91
        0
 40
0.0
 10
436.0358311601821
 20
65.28324557475878
 30
0.0
 75
     0
  0
DIMASSOC
  5
2473
102
{ACAD_REACTORS
330
2469
102
}
330
2469
100
AcDbDimAssoc
330
245C
 90
        3
 70
     0
 71
     0
  1
AcDbOsnapPointRef
 72
     1
331
21B8
 73
     2
 91
        0
 40
2.478153211399785
 10
172.9070631232492
 20
243.2804150246697
 30
0.0
 75
     0
  1
AcDbOsnapPointRef
 72
     1
331
215C
 73
     2
 91
        0
 40
1.0
 10
302.9070627192102
 20
243.2804109254979
 30
0.0
 75
     0
  0
DIMASSOC
  5
2494
102
{ACAD_REACTORS
330
248A
102
}
330
248A
100
AcDbDimAssoc
330
247D
 90
        3
 70
     0
 71
     0
  1
AcDbOsnapPointRef
 72
    11
331
21BF
 73
     2
 91
        0
 40
0.0000002222140159
 10
187.1010552988275
 20
257.4744079254979
 30
0.0
332
21B8
 74
     2
 92
        0
 75
     0
  1
AcDbOsnapPointRef
 72
    13
331
2180
 73
     2
 91
        0
 40
0.0
 10
187.1010327192102
 20
127.4744109254979
 30
0.0
 75
     0
  0
DIMASSOC
  5
24B7
102
{ACAD_REACTORS
330
24AC
102
}
330
24AC
100
AcDbDimAssoc
330
249E
 90
       15
 70
     0
 71
     0
  1
AcDbOsnapPointRef
 72
    13
331
2161
 73
     2
 91
        0
 40
0.0
 10
237.9070627192102
 20
65.1589209254979
 30
0.0
 75
     0
  1
AcDbOsnapPointRef
 72
     1
331
2161
 73
     2
 91
        0
 40
0.9999999999999998
 10
237.9070627192102
 20
273.1088459254979
 30
0.0
 75
     0
  1
AcDbOsnapPointRef
 72
    13
331
215E
 73
     2
 91
        0
 40
0.0
 10
192.3799927192102
 20
238.0014809254979
 30
0.0
 75
     0
  1
AcDbOsnapPointRef
 72
     1
331
215E
 73
     2
 91
        0
 40
1.0
 10
181.7257327192104
 20
248.6557359254979
 30
0.0
 75
     0
  0
DIMASSOC
  5
24E1
102
{ACAD_REACTORS
330
24DB
102
}
330
24DB
100
AcDbDimAssoc
330
24D2
 90
        2
 70
     0
 71
     0
  1
AcDbOsnapPointRef
 72
     3
331
21BD
 73
     2
 91
        0
 40
0.0
 10
0.0
 20
0.0
 30
0.0
 75
     0
  0
DIMASSOC
  5
24F6
102
{ACAD_REACTORS
330
24F0
102
}
330
24F0
100
AcDbDimAssoc
330
24E7
 90
        2
 70
     0
 71
     0
  1
AcDbOsnapPointRef
 72
     3
331
2157
 73
     2
 91
        0
 40
0.0
 10
237.8424627192103
 20
192.4744109254979
 30
0.0
 75
     0
  0
DIMASSOC
  5
2518
102
{ACAD_REACTORS
330
250E
102
}
330
250E
100
AcDbDimAssoc
330
2501
 90
        2
 70
     0
 71
     0
  1
AcDbOsnapPointRef
 72
     1
331
2166
 73
     2
 91
        0
 40
1.0
 10
315.1144627192103
 20
192.4744109254979
 30
0.0
 75
     0
  0
GROUP
  5
2A6
102
{ACAD_REACTORS
330
D
102
}
330
D
100
AcDbGroup
300

 70
     1
 71
     1
  0
GROUP
  5
1D4A
102
{ACAD_REACTORS
330
D
102
}
330
D
100
AcDbGroup
300

 70
     1
 71
     1
  0
GROUP
  5
94E
102
{ACAD_REACTORS
330
D
102
}
330
D
100
AcDbGroup
300

 70
     1
 71
     1
  0
GROUP
  5
85A
102
{ACAD_REACTORS
330
D
102
}
330
D
100
AcDbGroup
300

 70
     1
 71
     1
  0
GROUP
  5
3BE
102
{ACAD_REACTORS
330
D
102
}
330
D
100
AcDbGroup
300

 70
     1
 71
     1
  0
GROUP
  5
331
102
{ACAD_REACTORS
330
D
102
}
330
D
100
AcDbGroup
300

 70
     1
 71
     1
  0
GROUP
  5
369
102
{ACAD_REACTORS
330
D
102
}
330
D
100
AcDbGroup
300

 70
     1
 71
     1
  0
GROUP
  5
A72
102
{ACAD_REACTORS
330
D
102
}
330
D
100
AcDbGroup
300

 70
     1
 71
     1
  0
GROUP
  5
10FD
102
{ACAD_REACTORS
330
D
102
}
330
D
100
AcDbGroup
300

 70
     1
 71
     1
  0
GROUP
  5
413
102
{ACAD_REACTORS
330
D
102
}
330
D
100
AcDbGroup
300

 70
     1
 71
     1
  0
GROUP
  5
21C4
102
{ACAD_REACTORS
330
D
102
}
330
D
100
AcDbGroup
300

 70
     1
 71
     1
  0
GROUP
  5
8F6
102
{ACAD_REACTORS
330
D
102
}
330
D
100
AcDbGroup
300

 70
     1
 71
     1
  0
GROUP
  5
869
102
{ACAD_REACTORS
330
D
102
}
330
D
100
AcDbGroup
300

 70
     1
 71
     1
  0
GROUP
  5
8E4
102
{ACAD_REACTORS
330
D
102
}
330
D
100
AcDbGroup
300

 70
     1
 71
     1
  0
GROUP
  5
885
102
{ACAD_REACTORS
330
D
102
}
330
D
100
AcDbGroup
300

 70
     1
 71
     1
  0
GROUP
  5
886
102
{ACAD_REACTORS
330
D
102
}
330
D
100
AcDbGroup
300

 70
     1
 71
     1
  0
GROUP
  5
8D4
102
{ACAD_REACTORS
330
D
102
}
330
D
100
AcDbGroup
300

 70
     1
 71
     1
  0
GROUP
  5
8E3
102
{ACAD_REACTORS
330
D
102
}
330
D
100
AcDbGroup
300

 70
     1
 71
     1
  0
GROUP
  5
8ED
102
{ACAD_REACTORS
330
D
102
}
330
D
100
AcDbGroup
300

 70
     1
 71
     1
  0
GROUP
  5
905
102
{ACAD_REACTORS
330
D
102
}
330
D
100
AcDbGroup
300

 70
     1
 71
     1
  0
GROUP
  5
93F
102
{ACAD_REACTORS
330
D
102
}
330
D
100
AcDbGroup
300

 70
     1
 71
     1
  0
GROUP
  5
90F
102
{ACAD_REACTORS
330
D
102
}
330
D
100
AcDbGroup
300

 70
     1
 71
     1
  0
GROUP
  5
91E
102
{ACAD_REACTORS
330
D
102
}
330
D
100
AcDbGroup
300

 70
     1
 71
     1
  0
GROUP
  5
92D
102
{ACAD_REACTORS
330
D
102
}
330
D
100
AcDbGroup
300

 70
     1
 71
     1
  0
GROUP
  5
936
102
{ACAD_REACTORS
330
D
102
}
330
D
100
AcDbGroup
300

 70
     1
 71
     1
  0
GROUP
  5
1578
102
{ACAD_REACTORS
330
D
102
}
330
D
100
AcDbGroup
300

 70
     1
 71
     1
  0
LAYOUT
  5
FEB
102
{ACAD_REACTORS
330
1A
102
}
330
1A
100
AcDbPlotSettings
  1

  2
EPSON Stylus COLOR 1520
  4
A4
  6

 40
3.757083177566528
 41
14.7637300491333
 42
3.757080078125
 43
3.757080078125
 44
209.9733276367187
 45
296.9683227539062
 46
0.0
 47
0.0
 48
0.0
 49
0.0
140
0.0
141
0.0
142
1.0
143
1.0
 70
   688
 72
     1
 73
     1
 74
     5
  7

 75
    16
147
1.0
148
0.0
149
0.0
100
AcDbLayout
  1
Layout1
 70
     1
 71
     1
 10
-3.757080078125
 20
-3.757083177566528
 11
293.2112426757812
 21
206.2162444591522
 12
0.0
 22
0.0
 32
0.0
 14
-3.400241753399768
 24
-2.934382174902054
 34
0.0
 15
292.8544043510557
 25
206.1211149578283
 35
0.0
146
0.0
 13
0.0
 23
0.0
 33
0.0
 16
1.0
 26
0.0
 36
0.0
 17
0.0
 27
1.0
 37
0.0
 76
     0
330
FEA
331
FF1
  0
LAYOUT
  5
22
102
{ACAD_REACTORS
330
1A
102
}
330
1A
100
AcDbPlotSettings
  1

  2
EPSON Stylus COLOR 1520
  4
A4
  6

 40
3.757083177566528
 41
14.7637300491333
 42
3.757080078125
 43
3.757080078125
 44
209.9733276367187
 45
296.9683227539062
 46
0.0
 47
0.0
 48
0.0
 49
0.0
140
0.0
141
0.0
142
1.0
143
1.0
 70
 11952
 72
     1
 73
     1
 74
     0
  7

 75
     0
147
1.0
148
-89.73529411764705
149
0.0
100
AcDbLayout
  1
Model
 70
     1
 71
     0
 10
0.0
 20
0.0
 11
12.0
 21
9.0
 12
0.0
 22
0.0
 32
0.0
 14
0.0
 24
0.0
 34
0.0
 15
0.0
 25
0.0
 35
0.0
146
0.0
 13
0.0
 23
0.0
 33
0.0
 16
1.0
 26
0.0
 36
0.0
 17
0.0
 27
1.0
 37
0.0
 76
     0
330
1F
  0
MLINESTYLE
  5
18
102
{ACAD_REACTORS
330
17
102
}
330
17
100
AcDbMlineStyle
  2
STANDARD
 70
     0
  3

 62
   256
 51
90.0
 52
90.0
 71
     2
 49
0.5
 62
   256
  6
BYLAYER
 49
-0.5
 62
   256
  6
BYLAYER
  0
ACDBPLACEHOLDER
  5
F
102
{ACAD_REACTORS
330
E
102
}
330
E
  0
DICTIONARYVAR
  5
52
102
{ACAD_REACTORS
330
50
102
}
330
50
100
DictionaryVariables
280
     0
  1
2
  0
DICTIONARYVAR
  5
51
102
{ACAD_REACTORS
330
50
102
}
330
50
100
DictionaryVariables
280
     0
  1
1
  0
ENDSEC
  0
EOF
