  0
SECTION
  2
HEADER
  9
$ACADVER
  1
AC1015
  9
$ACADMAINTVER
 70
    13
  9
$DWGCODEPAGE
  3
ANSI_1252
  9
$INSBASE
 10
0.0
 20
0.0
 30
0.0
  9
$EXTMIN
 10
-95.59892200764847
 20
-97.56004994664705
 30
0.0
  9
$EXTMAX
 10
515.1876519933312
 20
245.7676921387377
 30
0.0
  9
$LIMMIN
 10
0.0
 20
0.0
  9
$LIMMAX
 10
420.0
 20
297.0
  9
$ORTHOMODE
 70
     1
  9
$REGENMODE
 70
     1
  9
$FILLMODE
 70
     1
  9
$QTEXTMODE
 70
     0
  9
$MIRRTEXT
 70
     1
  9
$LTSCALE
 40
1.0
  9
$ATTMODE
 70
     1
  9
$TEXTSIZE
 40
26.5350450929028
  9
$TRACEWID
 40
1.0
  9
$TEXTSTYLE
  7
Standard
  9
$CLAYER
  8
0
  9
$CELTYPE
  6
ByLayer
  9
$CECOLOR
 62
   256
  9
$CELTSCALE
 40
1.0
  9
$DISPSILH
 70
     0
  9
$DIMSCALE
 40
1.0
  9
$DIMASZ
 40
2.5
  9
$DIMEXO
 40
0.625
  9
$DIMDLI
 40
3.75
  9
$DIMRND
 40
0.0
  9
$DIMDLE
 40
0.0
  9
$DIMEXE
 40
1.25
  9
$DIMTP
 40
0.0
  9
$DIMTM
 40
0.0
  9
$DIMTXT
 40
2.5
  9
$DIMCEN
 40
2.5
  9
$DIMTSZ
 40
0.0
  9
$DIMTOL
 70
     0
  9
$DIMLIM
 70
     0
  9
$DIMTIH
 70
     0
  9
$DIMTOH
 70
     0
  9
$DIMSE1
 70
     0
  9
$DIMSE2
 70
     0
  9
$DIMTAD
 70
     1
  9
$DIMZIN
 70
     8
  9
$DIMBLK
  1

  9
$DIMASO
 70
     1
  9
$DIMSHO
 70
     1
  9
$DIMPOST
  1

  9
$DIMAPOST
  1

  9
$DIMALT
 70
     0
  9
$DIMALTD
 70
     3
  9
$DIMALTF
 40
0.03937007874016
  9
$DIMLFAC
 40
1.0
  9
$DIMTOFL
 70
     1
  9
$DIMTVP
 40
0.0
  9
$DIMTIX
 70
     0
  9
$DIMSOXD
 70
     0
  9
$DIMSAH
 70
     0
  9
$DIMBLK1
  1

  9
$DIMBLK2
  1

  9
$DIMSTYLE
  2
ISO-25
  9
$DIMCLRD
 70
     0
  9
$DIMCLRE
 70
     0
  9
$DIMCLRT
 70
     0
  9
$DIMTFAC
 40
1.0
  9
$DIMGAP
 40
0.625
  9
$DIMJUST
 70
     0
  9
$DIMSD1
 70
     0
  9
$DIMSD2
 70
     0
  9
$DIMTOLJ
 70
     0
  9
$DIMTZIN
 70
     8
  9
$DIMALTZ
 70
     0
  9
$DIMALTTZ
 70
     0
  9
$DIMUPT
 70
     0
  9
$DIMDEC
 70
     2
  9
$DIMTDEC
 70
     2
  9
$DIMALTU
 70
     2
  9
$DIMALTTD
 70
     3
  9
$DIMTXSTY
  7
Standard
  9
$DIMAUNIT
 70
     0
  9
$DIMADEC
 70
     0
  9
$DIMALTRND
 40
0.0
  9
$DIMAZIN
 70
     0
  9
$DIMDSEP
 70
    44
  9
$DIMATFIT
 70
     3
  9
$DIMFRAC
 70
     0
  9
$DIMLDRBLK
  1

  9
$DIMLUNIT
 70
     2
  9
$DIMLWD
 70
    -2
  9
$DIMLWE
 70
    -2
  9
$DIMTMOVE
 70
     0
  9
$LUNITS
 70
     2
  9
$LUPREC
 70
     4
  9
$SKETCHINC
 40
1.0
  9
$FILLETRAD
 40
3.0
  9
$AUNITS
 70
     0
  9
$AUPREC
 70
     0
  9
$MENU
  1
.
  9
$ELEVATION
 40
0.0
  9
$PELEVATION
 40
0.0
  9
$THICKNESS
 40
0.0
  9
$LIMCHECK
 70
     0
  9
$CHAMFERA
 40
10.0
  9
$CHAMFERB
 40
10.0
  9
$CHAMFERC
 40
20.0
  9
$CHAMFERD
 40
0.0
  9
$SKPOLY
 70
     0
  9
$TDCREATE
 40
2452181.456949305
  9
$TDUCREATE
 40
2452181.415282638
  9
$TDUPDATE
 40
2452321.496752662
  9
$TDUUPDATE
 40
2452321.455085995
  9
$TDINDWG
 40
1.0222396991
  9
$TDUSRTIMER
 40
1.0222302083
  9
$USRTIMER
 70
     1
  9
$ANGBASE
 50
0.0
  9
$ANGDIR
 70
     0
  9
$PDMODE
 70
     0
  9
$PDSIZE
 40
0.0
  9
$PLINEWID
 40
0.0
  9
$SPLFRAME
 70
     0
  9
$SPLINETYPE
 70
     6
  9
$SPLINESEGS
 70
     8
  9
$HANDSEED
  5
2C6C
  9
$SURFTAB1
 70
     6
  9
$SURFTAB2
 70
     6
  9
$SURFTYPE
 70
     6
  9
$SURFU
 70
     6
  9
$SURFV
 70
     6
  9
$UCSBASE
  2

  9
$UCSNAME
  2

  9
$UCSORG
 10
-53.08748352590964
 20
3.820899076262548
 30
0.0
  9
$UCSXDIR
 10
1.0
 20
0.0
 30
0.0
  9
$UCSYDIR
 10
0.0
 20
1.0
 30
0.0
  9
$UCSORTHOREF
  2

  9
$UCSORTHOVIEW
 70
     0
  9
$UCSORGTOP
 10
0.0
 20
0.0
 30
0.0
  9
$UCSORGBOTTOM
 10
0.0
 20
0.0
 30
0.0
  9
$UCSORGLEFT
 10
0.0
 20
0.0
 30
0.0
  9
$UCSORGRIGHT
 10
0.0
 20
0.0
 30
0.0
  9
$UCSORGFRONT
 10
0.0
 20
0.0
 30
0.0
  9
$UCSORGBACK
 10
0.0
 20
0.0
 30
0.0
  9
$PUCSBASE
  2

  9
$PUCSNAME
  2

  9
$PUCSORG
 10
0.0
 20
0.0
 30
0.0
  9
$PUCSXDIR
 10
1.0
 20
0.0
 30
0.0
  9
$PUCSYDIR
 10
0.0
 20
1.0
 30
0.0
  9
$PUCSORTHOREF
  2

  9
$PUCSORTHOVIEW
 70
     0
  9
$PUCSORGTOP
 10
0.0
 20
0.0
 30
0.0
  9
$PUCSORGBOTTOM
 10
0.0
 20
0.0
 30
0.0
  9
$PUCSORGLEFT
 10
0.0
 20
0.0
 30
0.0
  9
$PUCSORGRIGHT
 10
0.0
 20
0.0
 30
0.0
  9
$PUCSORGFRONT
 10
0.0
 20
0.0
 30
0.0
  9
$PUCSORGBACK
 10
0.0
 20
0.0
 30
0.0
  9
$USERI1
 70
     0
  9
$USERI2
 70
     0
  9
$USERI3
 70
     0
  9
$USERI4
 70
     0
  9
$USERI5
 70
     0
  9
$USERR1
 40
0.0
  9
$USERR2
 40
0.0
  9
$USERR3
 40
0.0
  9
$USERR4
 40
0.0
  9
$USERR5
 40
0.0
  9
$WORLDVIEW
 70
     1
  9
$SHADEDGE
 70
     3
  9
$SHADEDIF
 70
    70
  9
$TILEMODE
 70
     1
  9
$MAXACTVP
 70
    64
  9
$PINSBASE
 10
0.0
 20
0.0
 30
0.0
  9
$PLIMCHECK
 70
     0
  9
$PEXTMIN
 10
-3.400241753399768
 20
-2.934382174902054
 30
0.0
  9
$PEXTMAX
 10
292.8544043510557
 20
206.1211149578283
 30
0.0
  9
$PLIMMIN
 10
-3.757080078125
 20
-3.757083177566528
  9
$PLIMMAX
 10
293.2112426757812
 20
206.2162444591522
  9
$UNITMODE
 70
     0
  9
$VISRETAIN
 70
     1
  9
$PLINEGEN
 70
     0
  9
$PSLTSCALE
 70
     1
  9
$TREEDEPTH
 70
  3020
  9
$CMLSTYLE
  2
Standard
  9
$CMLJUST
 70
     0
  9
$CMLSCALE
 40
20.0
  9
$PROXYGRAPHICS
 70
     1
  9
$MEASUREMENT
 70
     1
  9
$CELWEIGHT
370
    -1
  9
$ENDCAPS
280
     0
  9
$JOINSTYLE
280
     0
  9
$LWDISPLAY
290
     0
  9
$INSUNITS
 70
     4
  9
$HYPERLINKBASE
  1

  9
$STYLESHEET
  1

  9
$XEDIT
290
     1
  9
$CEPSNTYPE
380
     0
  9
$PSTYLEMODE
290
     1
  9
$FINGERPRINTGUID
  2
{F84AA5D3-2765-4D6B-8594-ABD9F52FB735}
  9
$VERSIONGUID
  2
{30821617-B58A-46DC-81B1-7B74B251BA56}
  9
$EXTNAMES
290
     1
  9
$PSVPSCALE
 40
0.0
  9
$OLESTARTUP
290
     0
  0
ENDSEC
  0
SECTION
  2
CLASSES
  0
CLASS
  1
ACDBDICTIONARYWDFLT
  2
AcDbDictionaryWithDefault
  3
AutoCAD 2000
 90
        0
280
     0
281
     0
  0
CLASS
  1
ACDBPLACEHOLDER
  2
AcDbPlaceHolder
  3
AutoCAD 2000
 90
        0
280
     0
281
     0
  0
CLASS
  1
LAYOUT
  2
AcDbLayout
  3
AutoCAD 2000
 90
        0
280
     0
281
     0
  0
CLASS
  1
DICTIONARYVAR
  2
AcDbDictionaryVar
  3
AutoCAD 2000
 90
        0
280
     0
281
     0
  0
CLASS
  1
DIMASSOC
  2
AcDbDimAssoc
  3
"AcDbDimAssoc|Product Desc:     AcDim ARX App For Dimension|Company:          Autodesk, Inc.|WEB Address:      www.autodesk.com"
 90
        0
280
     0
281
     0
  0
ENDSEC
  0
SECTION
  2
TABLES
  0
TABLE
  2
VPORT
  5
8
330
0
100
AcDbSymbolTable
 70
     2
  0
VPORT
  5
2C6B
330
8
100
AcDbSymbolTableRecord
100
AcDbViewportTableRecord
  2
*Active
 70
     0
 10
0.0
 20
0.0
 11
1.0
 21
1.0
 12
237.3613770082247
 22
99.7150930906076
 13
0.0
 23
0.0
 14
10.0
 24
10.0
 15
10.0
 25
10.0
 16
0.0
 26
0.0
 36
1.0
 17
0.0
 27
0.0
 37
0.0
 40
397.1543322499123
 41
1.699453551912568
 42
50.0
 43
0.0
 44
0.0
 50
0.0
 51
0.0
 71
     0
 72
   100
 73
     1
 74
     3
 75
     1
 76
     0
 77
     0
 78
     0
281
     0
 65
     1
110
-53.08748352590964
120
3.820899076262548
130
0.0
111
1.0
121
0.0
131
0.0
112
0.0
122
1.0
132
0.0
 79
     0
146
0.0
  0
ENDTAB
  0
TABLE
  2
LTYPE
  5
5
330
0
100
AcDbSymbolTable
 70
     4
  0
LTYPE
  5
14
330
5
100
AcDbSymbolTableRecord
100
AcDbLinetypeTableRecord
  2
ByBlock
 70
     0
  3

 72
    65
 73
     0
 40
0.0
  0
LTYPE
  5
15
330
5
100
AcDbSymbolTableRecord
100
AcDbLinetypeTableRecord
  2
ByLayer
 70
     0
  3

 72
    65
 73
     0
 40
0.0
  0
LTYPE
  5
16
330
5
100
AcDbSymbolTableRecord
100
AcDbLinetypeTableRecord
  2
Continuous
 70
     0
  3
Solid line
 72
    65
 73
     0
 40
0.0
  0
LTYPE
  5
2D
330
5
100
AcDbSymbolTableRecord
100
AcDbLinetypeTableRecord
  2
MITTE
 70
     0
  3
Mitte ____ _ ____ _ ____ _ ____ _ ____ _ ____
 72
    65
 73
     4
 40
50.8
 49
31.75
 74
     0
 49
-6.349999999999999
 74
     0
 49
6.349999999999999
 74
     0
 49
-6.349999999999999
 74
     0
  0
LTYPE
  5
39
330
5
100
AcDbSymbolTableRecord
100
AcDbLinetypeTableRecord
  2
VERDECKT
 70
     0
  3
Verdeckt __ __ __ __ __ __ __ __ __ __ __ __ __
 72
    65
 73
     2
 40
9.524999999999998
 49
6.349999999999999
 74
     0
 49
-3.174999999999999
 74
     0
  0
LTYPE
  5
AE7
330
5
100
AcDbSymbolTableRecord
100
AcDbLinetypeTableRecord
  2
CENTER
 70
     0
  3
____ _ ____ _ ____ _ ____ _ ____ _ ____ _ ____
 72
    65
 73
     4
 40
17.5
 49
13.0
 74
     0
 49
-1.5
 74
     0
 49
1.5
 74
     0
 49
-1.5
 74
     0
  0
ENDTAB
  0
TABLE
  2
LAYER
  5
2
330
0
100
AcDbSymbolTable
 70
     6
  0
LAYER
  5
10
330
2
100
AcDbSymbolTableRecord
100
AcDbLayerTableRecord
  2
0
 70
     0
 62
     7
  6
Continuous
370
    35
390
F
  0
LAYER
  5
2E
330
2
100
AcDbSymbolTableRecord
100
AcDbLayerTableRecord
  2
Mittellinie
 70
     0
 62
     3
  6
MITTE
370
    18
390
F
  0
LAYER
  5
3A
330
2
100
AcDbSymbolTableRecord
100
AcDbLayerTableRecord
  2
Unsichtbar
 70
     0
 62
     5
  6
Continuous
370
    18
390
F
  0
LAYER
  5
87
330
2
100
AcDbSymbolTableRecord
100
AcDbLayerTableRecord
  2
Innenkanten
 70
     0
 62
     1
  6
Continuous
370
    25
390
F
  0
LAYER
  5
46F
330
2
100
AcDbSymbolTableRecord
100
AcDbLayerTableRecord
  2
Defpoints
 70
     0
 62
     6
  6
Continuous
290
     0
370
    15
390
F
  0
LAYER
  5
9F1
330
2
100
AcDbSymbolTableRecord
100
AcDbLayerTableRecord
  2
Bemaßung
 70
     0
 62
     6
  6
Continuous
370
    15
390
F
  0
ENDTAB
  0
TABLE
  2
STYLE
  5
3
330
0
100
AcDbSymbolTable
 70
     2
  0
STYLE
  5
11
330
3
100
AcDbSymbolTableRecord
100
AcDbTextStyleTableRecord
  2
Standard
 70
     0
 40
0.0
 41
1.0
 50
0.0
 71
     0
 42
26.5350450929028
  3
txt
  4

  0
STYLE
  5
2C
330
3
100
AcDbSymbolTableRecord
100
AcDbTextStyleTableRecord
  2

 70
     1
 40
0.0
 41
1.0
 50
0.0
 71
     0
 42
2.5
  3
ltypeshp.shx
  4

  0
ENDTAB
  0
TABLE
  2
VIEW
  5
6
330
0
100
AcDbSymbolTable
 70
     1
  0
VIEW
  5
81C
330
6
100
AcDbSymbolTableRecord
100
AcDbViewTableRecord
  2
tom
 70
     0
 40
127.2859585283894
 10
166.2856675397948
 20
206.2562233711272
 41
204.2020725054376
 11
0.0
 21
0.0
 31
1.0
 12
0.0
 22
0.0
 32
0.0
 42
50.0
 43
0.0
 44
0.0
 50
0.0
 71
     0
281
     0
 72
     1
110
-53.08748352590964
120
3.820899076262548
130
0.0
111
1.0
121
0.0
131
0.0
112
0.0
122
1.0
132
0.0
 79
     0
146
0.0
  0
ENDTAB
  0
TABLE
  2
UCS
  5
7
330
0
100
AcDbSymbolTable
 70
     0
  0
ENDTAB
  0
TABLE
  2
APPID
  5
9
330
0
100
AcDbSymbolTable
 70
     1
  0
APPID
  5
12
330
9
100
AcDbSymbolTableRecord
100
AcDbRegAppTableRecord
  2
ACAD
 70
     0
  0
ENDTAB
  0
TABLE
  2
DIMSTYLE
  5
A
330
0
100
AcDbSymbolTable
 70
     2
100
AcDbDimStyleTable
 71
     1
340
27
  0
DIMSTYLE
105
27
102
{ACAD_REACTORS
330
2660
330
26D2
330
2702
330
2724
330
27A7
330
27CE
330
2803
330
2824
330
2845
330
2870
330
2891
330
28B2
330
28D6
330
28F0
330
2911
330
2935
330
29A3
330
29C4
330
2BD8
102
}
330
A
100
AcDbSymbolTableRecord
100
AcDbDimStyleTableRecord
  2
ISO-25
 70
     0
 41
2.5
 42
0.625
 43
3.75
 44
1.25
 73
     0
 74
     0
 77
     1
 78
     8
140
2.5
141
2.5
143
0.03937007874016
147
0.625
171
     3
172
     1
271
     2
272
     2
274
     3
278
    44
283
     0
284
     8
340
11
  0
DIMSTYLE
105
AE8
330
A
100
AcDbSymbolTableRecord
100
AcDbDimStyleTableRecord
  2
STANDARD
 70
     0
 41
2.5
 73
     0
 77
     1
140
2.5
141
-0.09
147
0.2
176
     6
178
     6
271
     0
272
     0
279
     1
289
     2
340
11
371
    15
  0
ENDTAB
  0
TABLE
  2
BLOCK_RECORD
  5
1
330
0
100
AcDbSymbolTable
 70
    19
  0
BLOCK_RECORD
  5
1F
330
1
100
AcDbSymbolTableRecord
100
AcDbBlockTableRecord
  2
*Model_Space
340
22
  0
BLOCK_RECORD
  5
FEA
330
1
100
AcDbSymbolTableRecord
100
AcDbBlockTableRecord
  2
*Paper_Space
340
FEB
  0
BLOCK_RECORD
  5
2661
330
1
100
AcDbSymbolTableRecord
100
AcDbBlockTableRecord
  2
*D0
340
0
  0
BLOCK_RECORD
  5
26D3
330
1
100
AcDbSymbolTableRecord
100
AcDbBlockTableRecord
  2
*D1
340
0
  0
BLOCK_RECORD
  5
2703
330
1
100
AcDbSymbolTableRecord
100
AcDbBlockTableRecord
  2
*D2
340
0
  0
BLOCK_RECORD
  5
2725
330
1
100
AcDbSymbolTableRecord
100
AcDbBlockTableRecord
  2
*D3
340
0
  0
BLOCK_RECORD
  5
27A8
330
1
100
AcDbSymbolTableRecord
100
AcDbBlockTableRecord
  2
*D4
340
0
  0
BLOCK_RECORD
  5
27CF
330
1
100
AcDbSymbolTableRecord
100
AcDbBlockTableRecord
  2
*D5
340
0
  0
BLOCK_RECORD
  5
2804
330
1
100
AcDbSymbolTableRecord
100
AcDbBlockTableRecord
  2
*D6
340
0
  0
BLOCK_RECORD
  5
2825
330
1
100
AcDbSymbolTableRecord
100
AcDbBlockTableRecord
  2
*D7
340
0
  0
BLOCK_RECORD
  5
2846
330
1
100
AcDbSymbolTableRecord
100
AcDbBlockTableRecord
  2
*D8
340
0
  0
BLOCK_RECORD
  5
2871
330
1
100
AcDbSymbolTableRecord
100
AcDbBlockTableRecord
  2
*D9
340
0
  0
BLOCK_RECORD
  5
2892
330
1
100
AcDbSymbolTableRecord
100
AcDbBlockTableRecord
  2
*D10
340
0
  0
BLOCK_RECORD
  5
28B3
330
1
100
AcDbSymbolTableRecord
100
AcDbBlockTableRecord
  2
*D11
340
0
  0
BLOCK_RECORD
  5
28D7
330
1
100
AcDbSymbolTableRecord
100
AcDbBlockTableRecord
  2
*D12
340
0
  0
BLOCK_RECORD
  5
28F1
330
1
100
AcDbSymbolTableRecord
100
AcDbBlockTableRecord
  2
*D13
340
0
  0
BLOCK_RECORD
  5
2912
330
1
100
AcDbSymbolTableRecord
100
AcDbBlockTableRecord
  2
*D14
340
0
  0
BLOCK_RECORD
  5
2936
330
1
100
AcDbSymbolTableRecord
100
AcDbBlockTableRecord
  2
*D15
340
0
  0
BLOCK_RECORD
  5
29A4
330
1
100
AcDbSymbolTableRecord
100
AcDbBlockTableRecord
  2
*D16
340
0
  0
BLOCK_RECORD
  5
29C5
330
1
100
AcDbSymbolTableRecord
100
AcDbBlockTableRecord
  2
*D17
340
0
  0
BLOCK_RECORD
  5
2BD9
330
1
100
AcDbSymbolTableRecord
100
AcDbBlockTableRecord
  2
*D18
340
0
  0
ENDTAB
  0
ENDSEC
  0
SECTION
  2
BLOCKS
  0
BLOCK
  5
20
330
1F
100
AcDbEntity
  8
0
100
AcDbBlockBegin
  2
*Model_Space
 70
     0
 10
0.0
 20
0.0
 30
0.0
  3
*Model_Space
  1

  0
ENDBLK
  5
21
330
1F
100
AcDbEntity
  8
0
100
AcDbBlockEnd
  0
BLOCK
  5
FEC
330
FEA
100
AcDbEntity
 67
     1
  8
0
100
AcDbBlockBegin
  2
*Paper_Space
 70
     0
 10
0.0
 20
0.0
 30
0.0
  3
*Paper_Space
  1

  0
ENDBLK
  5
FED
330
FEA
100
AcDbEntity
 67
     1
  8
0
100
AcDbBlockEnd
  0
BLOCK
  5
266B
330
2661
100
AcDbEntity
  8
0
100
AcDbBlockBegin
  2
*D0
 70
     1
 10
0.0
 20
0.0
 30
0.0
  3
*D0
  1

  0
LINE
  5
2778
330
2661
100
AcDbEntity
  8
Bemaßung
 62
     0
370
    -2
100
AcDbLine
 10
369.6226359620314
 20
224.1030855423536
 30
0.0
 11
369.6226359620314
 21
236.2647167723129
 31
0.0
  0
LINE
  5
2779
330
2661
100
AcDbEntity
  8
Bemaßung
 62
     0
370
    -2
100
AcDbLine
 10
328.6226259620356
 20
193.1030855423536
 30
0.0
 11
328.6226259620356
 21
236.2647167723129
 31
0.0
  0
LINE
  5
277A
330
2661
100
AcDbEntity
  8
Bemaßung
 62
     0
370
    -2
100
AcDbLine
 10
367.1226359620314
 20
235.0147167723128
 30
0.0
 11
331.1226259620356
 21
235.0147167723128
 31
0.0
  0
SOLID
  5
277B
330
2661
100
AcDbEntity
  8
Bemaßung
 62
     0
100
AcDbTrace
 10
367.1226359620314
 20
235.4313834389795
 30
0.0
 11
367.1226359620314
 21
234.5980501056462
 31
0.0
 12
369.6226359620314
 22
235.0147167723128
 32
0.0
 13
369.6226359620314
 23
235.0147167723128
 33
0.0
  0
SOLID
  5
277C
330
2661
100
AcDbEntity
  8
Bemaßung
 62
     0
100
AcDbTrace
 10
331.1226259620356
 20
235.4313834389795
 30
0.0
 11
331.1226259620356
 21
234.5980501056462
 31
0.0
 12
328.6226259620356
 22
235.0147167723128
 32
0.0
 13
328.6226259620356
 23
235.0147167723128
 33
0.0
  0
MTEXT
  5
277D
330
2661
100
AcDbEntity
  8
Bemaßung
 62
     0
100
AcDbMText
 10
349.1226259620335
 20
236.8897167723129
 30
0.0
 40
2.5
 41
0.0
 71
     5
 72
     1
  1
41
 73
     1
 44
1.0
  0
POINT
  5
277E
330
2661
100
AcDbEntity
  8
Defpoints
 62
     0
100
AcDbPoint
 10
369.6226359620314
 20
223.4780855423536
 30
0.0
  0
POINT
  5
277F
330
2661
100
AcDbEntity
  8
Defpoints
 62
     0
100
AcDbPoint
 10
328.6226259620356
 20
192.4780855423536
 30
0.0
  0
POINT
  5
2780
330
2661
100
AcDbEntity
  8
Defpoints
 62
     0
100
AcDbPoint
 10
328.6226259620356
 20
235.0147167723128
 30
0.0
  0
ENDBLK
  5
266C
330
2661
100
AcDbEntity
  8
0
100
AcDbBlockEnd
  0
BLOCK
  5
26DF
330
26D3
100
AcDbEntity
  8
0
100
AcDbBlockBegin
  2
*D1
 70
     1
 10
0.0
 20
0.0
 30
0.0
  3
*D1
  1

  0
LINE
  5
276D
330
26D3
100
AcDbEntity
  8
Bemaßung
 62
     0
370
    -2
100
AcDbLine
 10
369.6226359620314
 20
224.1030855423536
 30
0.0
 11
369.6226359620314
 21
230.1108712183053
 31
0.0
  0
LINE
  5
276E
330
26D3
100
AcDbEntity
  8
Bemaßung
 62
     0
370
    -2
100
AcDbLine
 10
366.9226359620314
 20
223.8030754550872
 30
0.0
 11
366.9226359620314
 21
230.1108712183053
 31
0.0
  0
LINE
  5
276F
330
26D3
100
AcDbEntity
  8
Bemaßung
 62
     0
370
    -2
100
AcDbLine
 10
372.1226359620314
 20
228.8608712183052
 30
0.0
 11
374.6226359620314
 21
228.8608712183052
 31
0.0
  0
LINE
  5
2770
330
26D3
100
AcDbEntity
  8
Bemaßung
 62
     0
370
    -2
100
AcDbLine
 10
364.4226359620314
 20
228.8608712183052
 30
0.0
 11
355.2559692953647
 21
228.8608712183052
 31
0.0
  0
LINE
  5
2771
330
26D3
100
AcDbEntity
  8
Bemaßung
 62
     0
370
    -2
100
AcDbLine
 10
369.6226359620314
 20
228.8608712183052
 30
0.0
 11
366.9226359620314
 21
228.8608712183052
 31
0.0
  0
SOLID
  5
2772
330
26D3
100
AcDbEntity
  8
Bemaßung
 62
     0
100
AcDbTrace
 10
372.1226359620314
 20
229.2775378849719
 30
0.0
 11
372.1226359620314
 21
228.4442045516386
 31
0.0
 12
369.6226359620314
 22
228.8608712183052
 32
0.0
 13
369.6226359620314
 23
228.8608712183052
 33
0.0
  0
SOLID
  5
2773
330
26D3
100
AcDbEntity
  8
Bemaßung
 62
     0
100
AcDbTrace
 10
364.4226359620314
 20
229.2775378849719
 30
0.0
 11
364.4226359620314
 21
228.4442045516386
 31
0.0
 12
366.9226359620314
 22
228.8608712183052
 32
0.0
 13
366.9226359620314
 23
228.8608712183052
 33
0.0
  0
MTEXT
  5
2774
330
26D3
100
AcDbEntity
  8
Bemaßung
 62
     0
100
AcDbMText
 10
358.5893026286981
 20
230.9442045516386
 30
0.0
 40
2.5
 41
0.0
 71
     5
 72
     1
  1
2,7
 73
     1
 44
1.0
  0
POINT
  5
2775
330
26D3
100
AcDbEntity
  8
Defpoints
 62
     0
100
AcDbPoint
 10
369.6226359620314
 20
223.4780855423536
 30
0.0
  0
POINT
  5
2776
330
26D3
100
AcDbEntity
  8
Defpoints
 62
     0
100
AcDbPoint
 10
366.9226359620314
 20
223.1780754550872
 30
0.0
  0
POINT
  5
2777
330
26D3
100
AcDbEntity
  8
Defpoints
 62
     0
100
AcDbPoint
 10
366.9226359620314
 20
228.8608712183052
 30
0.0
  0
ENDBLK
  5
26E0
330
26D3
100
AcDbEntity
  8
0
100
AcDbBlockEnd
  0
BLOCK
  5
270D
330
2703
100
AcDbEntity
  8
0
100
AcDbBlockBegin
  2
*D2
 70
     1
 10
0.0
 20
0.0
 30
0.0
  3
*D2
  1

  0
LINE
  5
2BAD
330
2703
100
AcDbEntity
  8
Bemaßung
 62
     0
370
    -2
100
AcDbLine
 10
328.6226259620356
 20
193.1030855423536
 30
0.0
 11
328.6226259620356
 21
243.476025472071
 31
0.0
  0
LINE
  5
2BAE
330
2703
100
AcDbEntity
  8
Bemaßung
 62
     0
370
    -2
100
AcDbLine
 10
460.1226159620314
 20
223.1030855423536
 30
0.0
 11
460.1226159620314
 21
243.476025472071
 31
0.0
  0
LINE
  5
2BAF
330
2703
100
AcDbEntity
  8
Bemaßung
 62
     0
370
    -2
100
AcDbLine
 10
331.1226259620356
 20
242.2260254720709
 30
0.0
 11
457.6226159620314
 21
242.2260254720709
 31
0.0
  0
SOLID
  5
2BB0
330
2703
100
AcDbEntity
  8
Bemaßung
 62
     0
100
AcDbTrace
 10
331.1226259620356
 20
242.6426921387376
 30
0.0
 11
331.1226259620356
 21
241.8093588054043
 31
0.0
 12
328.6226259620356
 22
242.2260254720709
 32
0.0
 13
328.6226259620356
 23
242.2260254720709
 33
0.0
  0
SOLID
  5
2BB1
330
2703
100
AcDbEntity
  8
Bemaßung
 62
     0
100
AcDbTrace
 10
457.6226159620314
 20
242.6426921387376
 30
0.0
 11
457.6226159620314
 21
241.8093588054043
 31
0.0
 12
460.1226159620314
 22
242.2260254720709
 32
0.0
 13
460.1226159620314
 23
242.2260254720709
 33
0.0
  0
MTEXT
  5
2BB2
330
2703
100
AcDbEntity
  8
Bemaßung
 62
     0
100
AcDbMText
 10
394.3726209620335
 20
244.3093588054043
 30
0.0
 40
2.5
 41
0.0
 71
     5
 72
     1
  1
131,5
 73
     1
 44
1.0
  0
POINT
  5
2BB3
330
2703
100
AcDbEntity
  8
Defpoints
 62
     0
100
AcDbPoint
 10
328.6226259620356
 20
192.4780855423536
 30
0.0
  0
POINT
  5
2BB4
330
2703
100
AcDbEntity
  8
Defpoints
 62
     0
100
AcDbPoint
 10
460.1226159620314
 20
222.4780855423536
 30
0.0
  0
POINT
  5
2BB5
330
2703
100
AcDbEntity
  8
Defpoints
 62
     0
100
AcDbPoint
 10
460.1226159620314
 20
242.2260254720709
 30
0.0
  0
ENDBLK
  5
270E
330
2703
100
AcDbEntity
  8
0
100
AcDbBlockEnd
  0
BLOCK
  5
272F
330
2725
100
AcDbEntity
  8
0
100
AcDbBlockBegin
  2
*D3
 70
     1
 10
0.0
 20
0.0
 30
0.0
  3
*D3
  1

  0
LINE
  5
2BB6
330
2725
100
AcDbEntity
  8
Bemaßung
 62
     0
370
    -2
100
AcDbLine
 10
460.1226159620314
 20
223.1030855423536
 30
0.0
 11
460.1226159620314
 21
230.1108712183051
 31
0.0
  0
LINE
  5
2BB7
330
2725
100
AcDbEntity
  8
Bemaßung
 62
     0
370
    -2
100
AcDbLine
 10
453.1226159620315
 20
223.1030855423536
 30
0.0
 11
453.1226159620315
 21
230.1108712183051
 31
0.0
  0
LINE
  5
2BB8
330
2725
100
AcDbEntity
  8
Bemaßung
 62
     0
370
    -2
100
AcDbLine
 10
457.6226159620314
 20
228.8608712183052
 30
0.0
 11
455.6226159620314
 21
228.8608712183052
 31
0.0
  0
SOLID
  5
2BB9
330
2725
100
AcDbEntity
  8
Bemaßung
 62
     0
100
AcDbTrace
 10
457.6226159620314
 20
229.2775378849718
 30
0.0
 11
457.6226159620314
 21
228.4442045516385
 31
0.0
 12
460.1226159620314
 22
228.8608712183052
 32
0.0
 13
460.1226159620314
 23
228.8608712183052
 33
0.0
  0
SOLID
  5
2BBA
330
2725
100
AcDbEntity
  8
Bemaßung
 62
     0
100
AcDbTrace
 10
455.6226159620314
 20
229.2775378849718
 30
0.0
 11
455.6226159620314
 21
228.4442045516385
 31
0.0
 12
453.1226159620315
 22
228.8608712183052
 32
0.0
 13
453.1226159620315
 23
228.8608712183052
 33
0.0
  0
MTEXT
  5
2BBB
330
2725
100
AcDbEntity
  8
Bemaßung
 62
     0
100
AcDbMText
 10
456.6226159620314
 20
230.7358712183051
 30
0.0
 40
2.5
 41
0.0
 71
     5
 72
     1
  1
7
 73
     1
 44
1.0
  0
POINT
  5
2BBC
330
2725
100
AcDbEntity
  8
Defpoints
 62
     0
100
AcDbPoint
 10
460.1226159620314
 20
222.4780855423536
 30
0.0
  0
POINT
  5
2BBD
330
2725
100
AcDbEntity
  8
Defpoints
 62
     0
100
AcDbPoint
 10
453.1226159620315
 20
222.4780855423536
 30
0.0
  0
POINT
  5
2BBE
330
2725
100
AcDbEntity
  8
Defpoints
 62
     0
100
AcDbPoint
 10
453.1226159620315
 20
228.8608712183052
 30
0.0
  0
ENDBLK
  5
2730
330
2725
100
AcDbEntity
  8
0
100
AcDbBlockEnd
  0
BLOCK
  5
27B4
330
27A8
100
AcDbEntity
  8
0
100
AcDbBlockBegin
  2
*D4
 70
     1
 10
0.0
 20
0.0
 30
0.0
  3
*D4
  1

  0
LINE
  5
2B7E
330
27A8
100
AcDbEntity
  8
Bemaßung
 62
     0
370
    -2
100
AcDbLine
 10
463.1226159620315
 20
218.1030855423536
 30
0.0
 11
463.1226159620315
 21
230.1108712183053
 31
0.0
  0
LINE
  5
2B7F
330
27A8
100
AcDbEntity
  8
Bemaßung
 62
     0
370
    -2
100
AcDbLine
 10
460.1226159620314
 20
218.1030855423536
 30
0.0
 11
460.1226159620314
 21
230.1108712183053
 31
0.0
  0
LINE
  5
2B80
330
27A8
100
AcDbEntity
  8
Bemaßung
 62
     0
370
    -2
100
AcDbLine
 10
465.6226159620315
 20
228.8608712183052
 30
0.0
 11
468.1226159620314
 21
228.8608712183052
 31
0.0
  0
LINE
  5
2B81
330
27A8
100
AcDbEntity
  8
Bemaßung
 62
     0
370
    -2
100
AcDbLine
 10
457.6226159620315
 20
228.8608712183052
 30
0.0
 11
455.1226159620314
 21
228.8608712183052
 31
0.0
  0
LINE
  5
2B82
330
27A8
100
AcDbEntity
  8
Bemaßung
 62
     0
370
    -2
100
AcDbLine
 10
463.1226159620315
 20
228.8608712183052
 30
0.0
 11
460.1226159620314
 21
228.8608712183052
 31
0.0
  0
SOLID
  5
2B83
330
27A8
100
AcDbEntity
  8
Bemaßung
 62
     0
100
AcDbTrace
 10
465.6226159620315
 20
229.2775378849719
 30
0.0
 11
465.6226159620315
 21
228.4442045516386
 31
0.0
 12
463.1226159620315
 22
228.8608712183052
 32
0.0
 13
463.1226159620315
 23
228.8608712183052
 33
0.0
  0
SOLID
  5
2B84
330
27A8
100
AcDbEntity
  8
Bemaßung
 62
     0
100
AcDbTrace
 10
457.6226159620315
 20
229.2775378849719
 30
0.0
 11
457.6226159620315
 21
228.4442045516386
 31
0.0
 12
460.1226159620314
 22
228.8608712183052
 32
0.0
 13
460.1226159620314
 23
228.8608712183052
 33
0.0
  0
MTEXT
  5
2B85
330
27A8
100
AcDbEntity
  8
Bemaßung
 62
     0
100
AcDbMText
 10
461.6226159620315
 20
230.7358712183053
 30
0.0
 40
2.5
 41
0.0
 71
     5
 72
     1
  1
3
 73
     1
 44
1.0
  0
POINT
  5
2B86
330
27A8
100
AcDbEntity
  8
Defpoints
 62
     0
100
AcDbPoint
 10
463.1226159620315
 20
217.4780855423536
 30
0.0
  0
POINT
  5
2B87
330
27A8
100
AcDbEntity
  8
Defpoints
 62
     0
100
AcDbPoint
 10
460.1226159620314
 20
217.4780855423536
 30
0.0
  0
POINT
  5
2B88
330
27A8
100
AcDbEntity
  8
Defpoints
 62
     0
100
AcDbPoint
 10
460.1226159620314
 20
228.8608712183052
 30
0.0
  0
ENDBLK
  5
27B5
330
27A8
100
AcDbEntity
  8
0
100
AcDbBlockEnd
  0
BLOCK
  5
27D9
330
27CF
100
AcDbEntity
  8
0
100
AcDbBlockBegin
  2
*D5
 70
     1
 10
0.0
 20
0.0
 30
0.0
  3
*D5
  1

  0
LINE
  5
2B75
330
27CF
100
AcDbEntity
  8
Bemaßung
 62
     0
370
    -2
100
AcDbLine
 10
460.1226159620314
 20
218.1030855423536
 30
0.0
 11
460.1226159620314
 21
243.476025472071
 31
0.0
  0
LINE
  5
2B76
330
27CF
100
AcDbEntity
  8
Bemaßung
 62
     0
370
    -2
100
AcDbLine
 10
490.1226159620314
 20
200.1030855423536
 30
0.0
 11
490.1226159620314
 21
243.476025472071
 31
0.0
  0
LINE
  5
2B77
330
27CF
100
AcDbEntity
  8
Bemaßung
 62
     0
370
    -2
100
AcDbLine
 10
462.6226159620315
 20
242.2260254720709
 30
0.0
 11
487.6226159620314
 21
242.2260254720709
 31
0.0
  0
SOLID
  5
2B78
330
27CF
100
AcDbEntity
  8
Bemaßung
 62
     0
100
AcDbTrace
 10
462.6226159620315
 20
242.6426921387376
 30
0.0
 11
462.6226159620315
 21
241.8093588054043
 31
0.0
 12
460.1226159620314
 22
242.2260254720709
 32
0.0
 13
460.1226159620314
 23
242.2260254720709
 33
0.0
  0
SOLID
  5
2B79
330
27CF
100
AcDbEntity
  8
Bemaßung
 62
     0
100
AcDbTrace
 10
487.6226159620314
 20
242.6426921387376
 30
0.0
 11
487.6226159620314
 21
241.8093588054043
 31
0.0
 12
490.1226159620314
 22
242.2260254720709
 32
0.0
 13
490.1226159620314
 23
242.2260254720709
 33
0.0
  0
MTEXT
  5
2B7A
330
27CF
100
AcDbEntity
  8
Bemaßung
 62
     0
100
AcDbMText
 10
475.1226159620314
 20
244.101025472071
 30
0.0
 40
2.5
 41
0.0
 71
     5
 72
     1
  1
30
 73
     1
 44
1.0
  0
POINT
  5
2B7B
330
27CF
100
AcDbEntity
  8
Defpoints
 62
     0
100
AcDbPoint
 10
460.1226159620314
 20
217.4780855423536
 30
0.0
  0
POINT
  5
2B7C
330
27CF
100
AcDbEntity
  8
Defpoints
 62
     0
100
AcDbPoint
 10
490.1226159620314
 20
199.4780855423536
 30
0.0
  0
POINT
  5
2B7D
330
27CF
100
AcDbEntity
  8
Defpoints
 62
     0
100
AcDbPoint
 10
490.1226159620314
 20
242.2260254720709
 30
0.0
  0
ENDBLK
  5
27DA
330
27CF
100
AcDbEntity
  8
0
100
AcDbBlockEnd
  0
BLOCK
  5
280E
330
2804
100
AcDbEntity
  8
0
100
AcDbBlockBegin
  2
*D6
 70
     1
 10
0.0
 20
0.0
 30
0.0
  3
*D6
  1

  0
LINE
  5
2B9B
330
2804
100
AcDbEntity
  8
Bemaßung
 62
     0
370
    -2
100
AcDbLine
 10
490.7476159620315
 20
199.4780855423536
 30
0.0
 11
504.2927125895665
 21
199.4780855423536
 31
0.0
  0
LINE
  5
2B9C
330
2804
100
AcDbEntity
  8
Bemaßung
 62
     0
370
    -2
100
AcDbLine
 10
490.7476159620315
 20
185.4780855423536
 30
0.0
 11
504.2927125895665
 21
185.4780855423536
 31
0.0
  0
LINE
  5
2B9D
330
2804
100
AcDbEntity
  8
Bemaßung
 62
     0
370
    -2
100
AcDbLine
 10
503.0427125895664
 20
196.9780855423536
 30
0.0
 11
503.0427125895664
 21
187.9780855423536
 31
0.0
  0
SOLID
  5
2B9E
330
2804
100
AcDbEntity
  8
Bemaßung
 62
     0
100
AcDbTrace
 10
502.6260459228998
 20
196.9780855423536
 30
0.0
 11
503.4593792562332
 21
196.9780855423536
 31
0.0
 12
503.0427125895664
 22
199.4780855423536
 32
0.0
 13
503.0427125895664
 23
199.4780855423536
 33
0.0
  0
SOLID
  5
2B9F
330
2804
100
AcDbEntity
  8
Bemaßung
 62
     0
100
AcDbTrace
 10
502.6260459228998
 20
187.9780855423536
 30
0.0
 11
503.4593792562332
 21
187.9780855423536
 31
0.0
 12
503.0427125895664
 22
185.4780855423536
 32
0.0
 13
503.0427125895664
 23
185.4780855423536
 33
0.0
  0
MTEXT
  5
2BA0
330
2804
100
AcDbEntity
  8
Bemaßung
 62
     0
100
AcDbMText
 10
501.1677125895665
 20
192.4780855423537
 30
0.0
 40
2.5
 41
0.0
 71
     5
 72
     1
  1
14
 11
0.0000000000000001
 21
1.0
 31
0.0
 73
     1
 44
1.0
  0
POINT
  5
2BA1
330
2804
100
AcDbEntity
  8
Defpoints
 62
     0
100
AcDbPoint
 10
490.1226159620314
 20
199.4780855423536
 30
0.0
  0
POINT
  5
2BA2
330
2804
100
AcDbEntity
  8
Defpoints
 62
     0
100
AcDbPoint
 10
490.1226159620314
 20
185.4780855423536
 30
0.0
  0
POINT
  5
2BA3
330
2804
100
AcDbEntity
  8
Defpoints
 62
     0
100
AcDbPoint
 10
503.0427125895664
 20
185.4780855423536
 30
0.0
  0
ENDBLK
  5
280F
330
2804
100
AcDbEntity
  8
0
100
AcDbBlockEnd
  0
BLOCK
  5
282F
330
2825
100
AcDbEntity
  8
0
100
AcDbBlockBegin
  2
*D7
 70
     1
 10
0.0
 20
0.0
 30
0.0
  3
*D7
  1

  0
LINE
  5
2B92
330
2825
100
AcDbEntity
  8
Bemaßung
 62
     0
370
    -2
100
AcDbLine
 10
463.7476159620314
 20
217.4780855423536
 30
0.0
 11
515.1876519933312
 21
217.4780855423536
 31
0.0
  0
LINE
  5
2B93
330
2825
100
AcDbEntity
  8
Bemaßung
 62
     0
370
    -2
100
AcDbLine
 10
463.7476159620314
 20
167.4780855423536
 30
0.0
 11
515.1876519933312
 21
167.4780855423536
 31
0.0
  0
LINE
  5
2B94
330
2825
100
AcDbEntity
  8
Bemaßung
 62
     0
370
    -2
100
AcDbLine
 10
513.9376519933311
 20
214.9780855423536
 30
0.0
 11
513.9376519933311
 21
169.9780855423536
 31
0.0
  0
SOLID
  5
2B95
330
2825
100
AcDbEntity
  8
Bemaßung
 62
     0
100
AcDbTrace
 10
513.5209853266645
 20
214.9780855423536
 30
0.0
 11
514.3543186599978
 21
214.9780855423536
 31
0.0
 12
513.9376519933311
 22
217.4780855423536
 32
0.0
 13
513.9376519933311
 23
217.4780855423536
 33
0.0
  0
SOLID
  5
2B96
330
2825
100
AcDbEntity
  8
Bemaßung
 62
     0
100
AcDbTrace
 10
513.5209853266645
 20
169.9780855423536
 30
0.0
 11
514.3543186599978
 21
169.9780855423536
 31
0.0
 12
513.9376519933311
 22
167.4780855423536
 32
0.0
 13
513.9376519933311
 23
167.4780855423536
 33
0.0
  0
MTEXT
  5
2B97
330
2825
100
AcDbEntity
  8
Bemaßung
 62
     0
100
AcDbMText
 10
512.0626519933312
 20
192.4780855423537
 30
0.0
 40
2.5
 41
0.0
 71
     5
 72
     1
  1
50
 11
0.0000000000000001
 21
1.0
 31
0.0
 73
     1
 44
1.0
  0
POINT
  5
2B98
330
2825
100
AcDbEntity
  8
Defpoints
 62
     0
100
AcDbPoint
 10
463.1226159620315
 20
217.4780855423536
 30
0.0
  0
POINT
  5
2B99
330
2825
100
AcDbEntity
  8
Defpoints
 62
     0
100
AcDbPoint
 10
463.1226159620315
 20
167.4780855423536
 30
0.0
  0
POINT
  5
2B9A
330
2825
100
AcDbEntity
  8
Defpoints
 62
     0
100
AcDbPoint
 10
513.9376519933311
 20
167.4780855423536
 30
0.0
  0
ENDBLK
  5
2830
330
2825
100
AcDbEntity
  8
0
100
AcDbBlockEnd
  0
BLOCK
  5
2850
330
2846
100
AcDbEntity
  8
0
100
AcDbBlockBegin
  2
*D8
 70
     1
 10
0.0
 20
0.0
 30
0.0
  3
*D8
  1

  0
LINE
  5
2BC8
330
2846
100
AcDbEntity
  8
Bemaßung
 62
     0
370
    -2
100
AcDbLine
 10
460.1226159620314
 20
161.8530855423536
 30
0.0
 11
460.1226159620314
 21
130.6900626243897
 31
0.0
  0
LINE
  5
2BC9
330
2846
100
AcDbEntity
  8
Bemaßung
 62
     0
370
    -2
100
AcDbLine
 10
411.0226059620314
 20
138.8432855423536
 30
0.0
 11
411.0226059620314
 21
130.6900626243897
 31
0.0
  0
LINE
  5
2BCA
330
2846
100
AcDbEntity
  8
Bemaßung
 62
     0
370
    -2
100
AcDbLine
 10
457.6226159620314
 20
131.9400626243897
 30
0.0
 11
413.5226059620314
 21
131.9400626243897
 31
0.0
  0
SOLID
  5
2BCB
330
2846
100
AcDbEntity
  8
Bemaßung
 62
     0
100
AcDbTrace
 10
457.6226159620314
 20
132.3567292910563
 30
0.0
 11
457.6226159620314
 21
131.523395957723
 31
0.0
 12
460.1226159620314
 22
131.9400626243897
 32
0.0
 13
460.1226159620314
 23
131.9400626243897
 33
0.0
  0
SOLID
  5
2BCC
330
2846
100
AcDbEntity
  8
Bemaßung
 62
     0
100
AcDbTrace
 10
413.5226059620314
 20
132.3567292910563
 30
0.0
 11
413.5226059620314
 21
131.523395957723
 31
0.0
 12
411.0226059620314
 22
131.9400626243897
 32
0.0
 13
411.0226059620314
 23
131.9400626243897
 33
0.0
  0
MTEXT
  5
2BCD
330
2846
100
AcDbEntity
  8
Bemaßung
 62
     0
100
AcDbMText
 10
435.5726109620314
 20
134.023395957723
 30
0.0
 40
2.5
 41
0.0
 71
     5
 72
     1
  1
49,1
 73
     1
 44
1.0
  0
POINT
  5
2BCE
330
2846
100
AcDbEntity
  8
Defpoints
 62
     0
100
AcDbPoint
 10
460.1226159620314
 20
162.4780855423536
 30
0.0
  0
POINT
  5
2BCF
330
2846
100
AcDbEntity
  8
Defpoints
 62
     0
100
AcDbPoint
 10
411.0226059620314
 20
139.4682855423536
 30
0.0
  0
POINT
  5
2BD0
330
2846
100
AcDbEntity
  8
Defpoints
 62
     0
100
AcDbPoint
 10
411.0226059620314
 20
131.9400626243897
 30
0.0
  0
ENDBLK
  5
2851
330
2846
100
AcDbEntity
  8
0
100
AcDbBlockEnd
  0
BLOCK
  5
287B
330
2871
100
AcDbEntity
  8
0
100
AcDbBlockBegin
  2
*D9
 70
     1
 10
0.0
 20
0.0
 30
0.0
  3
*D9
  1

  0
LINE
  5
2888
330
2871
100
AcDbEntity
  8
Bemaßung
 62
     0
370
    -2
100
AcDbLine
 10
208.1589229923521
 20
220.6002164093077
 30
0.0
 11
208.1589229923521
 21
243.476025472071
 31
0.0
  0
LINE
  5
2889
330
2871
100
AcDbEntity
  8
Bemaßung
 62
     0
370
    -2
100
AcDbLine
 10
268.1589229923515
 20
220.6002146639784
 30
0.0
 11
268.1589229923515
 21
243.476025472071
 31
0.0
  0
LINE
  5
288A
330
2871
100
AcDbEntity
  8
Bemaßung
 62
     0
370
    -2
100
AcDbLine
 10
210.6589229923521
 20
242.2260254720709
 30
0.0
 11
265.6589229923515
 21
242.2260254720709
 31
0.0
  0
SOLID
  5
288B
330
2871
100
AcDbEntity
  8
Bemaßung
 62
     0
100
AcDbTrace
 10
210.6589229923521
 20
242.6426921387376
 30
0.0
 11
210.6589229923521
 21
241.8093588054043
 31
0.0
 12
208.1589229923521
 22
242.2260254720709
 32
0.0
 13
208.1589229923521
 23
242.2260254720709
 33
0.0
  0
SOLID
  5
288C
330
2871
100
AcDbEntity
  8
Bemaßung
 62
     0
100
AcDbTrace
 10
265.6589229923515
 20
242.6426921387376
 30
0.0
 11
265.6589229923515
 21
241.8093588054043
 31
0.0
 12
268.1589229923515
 22
242.2260254720709
 32
0.0
 13
268.1589229923515
 23
242.2260254720709
 33
0.0
  0
MTEXT
  5
288D
330
2871
100
AcDbEntity
  8
Bemaßung
 62
     0
100
AcDbMText
 10
238.1589229923518
 20
244.101025472071
 30
0.0
 40
2.5
 41
0.0
 71
     5
 72
     1
  1
60
 73
     1
 44
1.0
  0
POINT
  5
288E
330
2871
100
AcDbEntity
  8
Defpoints
 62
     0
100
AcDbPoint
 10
208.1589229923521
 20
219.9752164093077
 30
0.0
  0
POINT
  5
288F
330
2871
100
AcDbEntity
  8
Defpoints
 62
     0
100
AcDbPoint
 10
268.1589229923515
 20
219.9752146639784
 30
0.0
  0
POINT
  5
2890
330
2871
100
AcDbEntity
  8
Defpoints
 62
     0
100
AcDbPoint
 10
268.1589229923515
 20
242.2260254720709
 30
0.0
  0
ENDBLK
  5
287C
330
2871
100
AcDbEntity
  8
0
100
AcDbBlockEnd
  0
BLOCK
  5
289C
330
2892
100
AcDbEntity
  8
0
100
AcDbBlockBegin
  2
*D10
 70
     1
 10
0.0
 20
0.0
 30
0.0
  3
*D10
  1

  0
LINE
  5
28A9
330
2892
100
AcDbEntity
  8
Bemaßung
 62
     0
370
    -2
100
AcDbLine
 10
210.0339229923515
 20
222.4752146639784
 30
0.0
 11
191.3568277996353
 21
222.4752146639784
 31
0.0
  0
LINE
  5
28AA
330
2892
100
AcDbEntity
  8
Bemaßung
 62
     0
370
    -2
100
AcDbLine
 10
210.0339243013483
 20
162.4752146639787
 30
0.0
 11
191.3568277996353
 21
162.4752146639787
 31
0.0
  0
LINE
  5
28AB
330
2892
100
AcDbEntity
  8
Bemaßung
 62
     0
370
    -2
100
AcDbLine
 10
192.6068277996353
 20
219.9752146639784
 30
0.0
 11
192.6068277996353
 21
164.9752146639787
 31
0.0
  0
SOLID
  5
28AC
330
2892
100
AcDbEntity
  8
Bemaßung
 62
     0
100
AcDbTrace
 10
192.1901611329687
 20
219.9752146639784
 30
0.0
 11
193.023494466302
 21
219.9752146639784
 31
0.0
 12
192.6068277996353
 22
222.4752146639784
 32
0.0
 13
192.6068277996353
 23
222.4752146639784
 33
0.0
  0
SOLID
  5
28AD
330
2892
100
AcDbEntity
  8
Bemaßung
 62
     0
100
AcDbTrace
 10
192.1901611329686
 20
164.9752146639787
 30
0.0
 11
193.0234944663019
 21
164.9752146639787
 31
0.0
 12
192.6068277996353
 22
162.4752146639787
 32
0.0
 13
192.6068277996353
 23
162.4752146639787
 33
0.0
  0
MTEXT
  5
28AE
330
2892
100
AcDbEntity
  8
Bemaßung
 62
     0
100
AcDbMText
 10
190.7318277996352
 20
192.4752146639786
 30
0.0
 40
2.5
 41
0.0
 71
     5
 72
     1
  1
60
 11
0.0000000000000001
 21
1.0
 31
0.0
 73
     1
 44
1.0
  0
POINT
  5
28AF
330
2892
100
AcDbEntity
  8
Defpoints
 62
     0
100
AcDbPoint
 10
210.6589229923514
 20
222.4752146639784
 30
0.0
  0
POINT
  5
28B0
330
2892
100
AcDbEntity
  8
Defpoints
 62
     0
100
AcDbPoint
 10
210.6589243013484
 20
162.4752146639787
 30
0.0
  0
POINT
  5
28B1
330
2892
100
AcDbEntity
  8
Defpoints
 62
     0
100
AcDbPoint
 10
192.6068277996353
 20
162.4752146639787
 30
0.0
  0
ENDBLK
  5
289D
330
2892
100
AcDbEntity
  8
0
100
AcDbBlockEnd
  0
BLOCK
  5
28BE
330
28B3
100
AcDbEntity
  8
0
100
AcDbBlockBegin
  2
*D11
 70
     1
 10
0.0
 20
0.0
 30
0.0
  3
*D11
  1

  0
LINE
  5
28CC
330
28B3
100
AcDbEntity
  8
Bemaßung
 62
     0
370
    -2
100
AcDbLine
 10
238.1589229923515
 20
227.4661913997478
 30
0.0
 11
238.1589229923515
 21
233.2221647896109
 31
0.0
  0
ARC
  5
28CD
330
28B3
100
AcDbEntity
  8
Bemaßung
 62
     0
370
    -2
100
AcDbCircle
 10
238.1589229923515
 20
192.4752784401529
 30
0.0
 40
39.49688634945799
100
AcDbArc
 50
93.62720670528339
 51
131.372853246918
  0
SOLID
  5
28CE
330
28B3
100
AcDbEntity
  8
Bemaßung
 62
     0
100
AcDbTrace
 10
235.6469886125085
 20
232.3095025765161
 30
0.0
 11
235.6733619994497
 21
231.4765866810586
 31
0.0
 12
238.1589229923515
 22
231.972164789611
 32
0.0
 13
238.1589229923515
 23
231.972164789611
 33
0.0
  0
SOLID
  5
28CF
330
28B3
100
AcDbEntity
  8
Bemaßung
 62
     0
100
AcDbTrace
 10
212.3383597974638
 20
221.8108979879039
 30
0.0
 11
211.768047484597
 21
222.4185066697353
 31
0.0
 12
210.2303775955361
 22
220.4037653902192
 32
0.0
 13
210.2303775955361
 23
220.4037653902192
 33
0.0
  0
MTEXT
  5
28D0
330
28B3
100
AcDbEntity
  8
Bemaßung
 62
     0
100
AcDbMText
 10
222.3265675233411
 20
230.6979091766076
 30
0.0
 40
2.5
 41
0.0
 71
     5
 72
     1
  1
45°
 11
0.923879332298209
 21
0.3826839157218597
 31
0.0
 73
     1
 44
1.0
  0
POINT
  5
28D1
330
28B3
100
AcDbEntity
  8
Defpoints
 62
     0
100
AcDbPoint
 10
227.9363632762386
 20
230.6263374575971
 30
0.0
  0
POINT
  5
28D2
330
28B3
100
AcDbEntity
  8
Defpoints
 62
     0
100
AcDbPoint
 10
207.6837329923515
 20
222.9504046639784
 30
0.0
  0
POINT
  5
28D3
330
28B3
100
AcDbEntity
  8
Defpoints
 62
     0
100
AcDbPoint
 10
238.1589229923515
 20
226.8411913997478
 30
0.0
  0
POINT
  5
28D4
330
28B3
100
AcDbEntity
  8
Defpoints
 62
     0
100
AcDbPoint
 10
238.1589229923514
 20
136.0816146639784
 30
0.0
  0
POINT
  5
28D5
330
28B3
100
AcDbEntity
  8
Defpoints
 62
     0
100
AcDbPoint
 10
217.2406529923514
 20
213.3935046639784
 30
0.0
  0
ENDBLK
  5
28BF
330
28B3
100
AcDbEntity
  8
0
100
AcDbBlockEnd
  0
BLOCK
  5
28DD
330
28D7
100
AcDbEntity
  8
0
100
AcDbBlockBegin
  2
*D12
 70
     1
 10
0.0
 20
0.0
 30
0.0
  3
*D12
  1

  0
LINE
  5
28E6
330
28D7
100
AcDbEntity
  8
Bemaßung
 62
     0
370
    -2
100
AcDbLine
 10
255.0993693463703
 20
179.5378983700862
 30
0.0
 11
212.329686446613
 21
212.2008461992243
 31
0.0
  0
MTEXT
  5
28E7
330
28D7
100
AcDbEntity
  8
Bemaßung
 62
     0
100
AcDbMText
 10
253.2570900258185
 20
183.3040810402533
 30
0.0
 40
2.5
 41
0.0
 71
     5
 72
     1
  1
\U+220570
 11
0.794745739868874
 21
-0.6069425087768002
 31
0.0
 73
     1
 44
1.0
  0
SOLID
  5
28E8
330
28D7
100
AcDbEntity
  8
Bemaßung
 62
     0
100
AcDbTrace
 10
212.5825791586034
 20
212.531990257503
 30
0.0
 11
212.0767937346227
 21
211.8697021409456
 31
0.0
 12
210.3428220969409
 22
213.7182024711663
 32
0.0
 13
210.3428220969409
 23
213.7182024711663
 33
0.0
  0
POINT
  5
28E9
330
28D7
100
AcDbEntity
  8
Defpoints
 62
     0
100
AcDbPoint
 10
210.3428220969409
 20
213.7182024711663
 30
0.0
  0
POINT
  5
28EA
330
28D7
100
AcDbEntity
  8
Defpoints
 62
     0
100
AcDbPoint
 10
265.9750238877619
 20
171.2322268567903
 30
0.0
  0
ENDBLK
  5
28DE
330
28D7
100
AcDbEntity
  8
0
100
AcDbBlockEnd
  0
BLOCK
  5
28FB
330
28F1
100
AcDbEntity
  8
0
100
AcDbBlockBegin
  2
*D13
 70
     1
 10
0.0
 20
0.0
 30
0.0
  3
*D13
  1

  0
LINE
  5
2908
330
28F1
100
AcDbEntity
  8
Bemaßung
 62
     0
370
    -2
100
AcDbLine
 10
247.7839229923515
 20
149.6752146639784
 30
0.0
 11
284.1924757979829
 21
149.6752146639784
 31
0.0
  0
LINE
  5
2909
330
28F1
100
AcDbEntity
  8
Bemaßung
 62
     0
370
    -2
100
AcDbLine
 10
272.7823729923515
 20
192.4752146639784
 30
0.0
 11
284.1924757979829
 21
192.4752146639784
 31
0.0
  0
LINE
  5
290A
330
28F1
100
AcDbEntity
  8
Bemaßung
 62
     0
370
    -2
100
AcDbLine
 10
282.9424757979829
 20
152.1752146639784
 30
0.0
 11
282.9424757979829
 21
189.9752146639784
 31
0.0
  0
SOLID
  5
290B
330
28F1
100
AcDbEntity
  8
Bemaßung
 62
     0
100
AcDbTrace
 10
282.5258091313163
 20
152.1752146639784
 30
0.0
 11
283.3591424646496
 21
152.1752146639784
 31
0.0
 12
282.9424757979829
 22
149.6752146639784
 32
0.0
 13
282.9424757979829
 23
149.6752146639784
 33
0.0
  0
SOLID
  5
290C
330
28F1
100
AcDbEntity
  8
Bemaßung
 62
     0
100
AcDbTrace
 10
282.5258091313163
 20
189.9752146639784
 30
0.0
 11
283.3591424646496
 21
189.9752146639784
 31
0.0
 12
282.9424757979829
 22
192.4752146639784
 32
0.0
 13
282.9424757979829
 23
192.4752146639784
 33
0.0
  0
MTEXT
  5
290D
330
28F1
100
AcDbEntity
  8
Bemaßung
 62
     0
100
AcDbMText
 10
280.8591424646495
 20
171.0752146639784
 30
0.0
 40
2.5
 41
0.0
 71
     5
 72
     1
  1
42,8
 11
0.0000000000000001
 21
1.0
 31
0.0
 73
     1
 44
1.0
  0
POINT
  5
290E
330
28F1
100
AcDbEntity
  8
Defpoints
 62
     0
100
AcDbPoint
 10
247.1589229923515
 20
149.6752146639784
 30
0.0
  0
POINT
  5
290F
330
28F1
100
AcDbEntity
  8
Defpoints
 62
     0
100
AcDbPoint
 10
272.1573729923515
 20
192.4752146639784
 30
0.0
  0
POINT
  5
2910
330
28F1
100
AcDbEntity
  8
Defpoints
 62
     0
100
AcDbPoint
 10
282.9424757979829
 20
192.4752146639784
 30
0.0
  0
ENDBLK
  5
28FC
330
28F1
100
AcDbEntity
  8
0
100
AcDbBlockEnd
  0
BLOCK
  5
291C
330
2912
100
AcDbEntity
  8
0
100
AcDbBlockBegin
  2
*D14
 70
     1
 10
0.0
 20
0.0
 30
0.0
  3
*D14
  1

  0
LINE
  5
2929
330
2912
100
AcDbEntity
  8
Bemaßung
 62
     0
370
    -2
100
AcDbLine
 10
228.1589229923515
 20
150.0502148385113
 30
0.0
 11
228.1589229923515
 21
128.5471831622563
 31
0.0
  0
LINE
  5
292A
330
2912
100
AcDbEntity
  8
Bemaßung
 62
     0
370
    -2
100
AcDbLine
 10
248.1589229923514
 20
150.0502146547924
 30
0.0
 11
248.1589229923514
 21
128.5471831622563
 31
0.0
  0
LINE
  5
292B
330
2912
100
AcDbEntity
  8
Bemaßung
 62
     0
370
    -2
100
AcDbLine
 10
230.6589229923515
 20
129.7971831622563
 30
0.0
 11
245.6589229923515
 21
129.7971831622563
 31
0.0
  0
SOLID
  5
292C
330
2912
100
AcDbEntity
  8
Bemaßung
 62
     0
100
AcDbTrace
 10
230.6589229923515
 20
130.213849828923
 30
0.0
 11
230.6589229923515
 21
129.3805164955897
 31
0.0
 12
228.1589229923515
 22
129.7971831622563
 32
0.0
 13
228.1589229923515
 23
129.7971831622563
 33
0.0
  0
SOLID
  5
292D
330
2912
100
AcDbEntity
  8
Bemaßung
 62
     0
100
AcDbTrace
 10
245.6589229923515
 20
130.213849828923
 30
0.0
 11
245.6589229923515
 21
129.3805164955897
 31
0.0
 12
248.1589229923514
 22
129.7971831622563
 32
0.0
 13
248.1589229923514
 23
129.7971831622563
 33
0.0
  0
MTEXT
  5
292E
330
2912
100
AcDbEntity
  8
Bemaßung
 62
     0
100
AcDbMText
 10
238.1589229923515
 20
131.6721831622563
 30
0.0
 40
2.5
 41
0.0
 71
     5
 72
     1
  1
20
 73
     1
 44
1.0
  0
POINT
  5
292F
330
2912
100
AcDbEntity
  8
Defpoints
 62
     0
100
AcDbPoint
 10
228.1589229923515
 20
150.6752148385113
 30
0.0
  0
POINT
  5
2930
330
2912
100
AcDbEntity
  8
Defpoints
 62
     0
100
AcDbPoint
 10
248.1589229923514
 20
150.6752146547924
 30
0.0
  0
POINT
  5
2931
330
2912
100
AcDbEntity
  8
Defpoints
 62
     0
100
AcDbPoint
 10
248.1589229923514
 20
129.7971831622563
 30
0.0
  0
ENDBLK
  5
291D
330
2912
100
AcDbEntity
  8
0
100
AcDbBlockEnd
  0
BLOCK
  5
2940
330
2936
100
AcDbEntity
  8
0
100
AcDbBlockBegin
  2
*D15
 70
     1
 10
0.0
 20
0.0
 30
0.0
  3
*D15
  1

  0
LINE
  5
2C14
330
2936
100
AcDbEntity
  8
Bemaßung
 62
     0
370
    -2
100
AcDbLine
 10
-93.84645493197551
 20
193.054052230419
 30
0.0
 11
-93.84645493197551
 21
243.4298732007449
 31
0.0
  0
LINE
  5
2C15
330
2936
100
AcDbEntity
  8
Bemaßung
 62
     0
370
    -2
100
AcDbLine
 10
-31.85101587832676
 20
193.0328861642269
 30
0.0
 11
-31.85101587832676
 21
243.4298732007449
 31
0.0
  0
LINE
  5
2C16
330
2936
100
AcDbEntity
  8
Bemaßung
 62
     0
370
    -2
100
AcDbLine
 10
-91.34645493197551
 20
242.1798732007449
 30
0.0
 11
-34.35101587832676
 21
242.1798732007449
 31
0.0
  0
SOLID
  5
2C17
330
2936
100
AcDbEntity
  8
Bemaßung
 62
     0
100
AcDbTrace
 10
-91.34645493197551
 20
242.5965398674116
 30
0.0
 11
-91.34645493197551
 21
241.7632065340782
 31
0.0
 12
-93.84645493197551
 22
242.1798732007449
 32
0.0
 13
-93.84645493197551
 23
242.1798732007449
 33
0.0
  0
SOLID
  5
2C18
330
2936
100
AcDbEntity
  8
Bemaßung
 62
     0
100
AcDbTrace
 10
-34.35101587832676
 20
242.5965398674116
 30
0.0
 11
-34.35101587832676
 21
241.7632065340782
 31
0.0
 12
-31.85101587832676
 22
242.1798732007449
 32
0.0
 13
-31.85101587832676
 23
242.1798732007449
 33
0.0
  0
MTEXT
  5
2C19
330
2936
100
AcDbEntity
  8
Bemaßung
 62
     0
100
AcDbMText
 10
-62.84873540515113
 20
244.0548732007449
 30
0.0
 40
2.5
 41
0.0
 71
     5
 72
     1
  1
62
 73
     1
 44
1.0
  0
POINT
  5
2C1A
330
2936
100
AcDbEntity
  8
Defpoints
 62
     0
100
AcDbPoint
 10
-93.84645493197551
 20
192.429052230419
 30
0.0
  0
POINT
  5
2C1B
330
2936
100
AcDbEntity
  8
Defpoints
 62
     0
100
AcDbPoint
 10
-31.85101587832676
 20
192.4078861642269
 30
0.0
  0
POINT
  5
2C1C
330
2936
100
AcDbEntity
  8
Defpoints
 62
     0
100
AcDbPoint
 10
-31.85101587832676
 20
242.1798732007449
 30
0.0
  0
ENDBLK
  5
2941
330
2936
100
AcDbEntity
  8
0
100
AcDbBlockEnd
  0
BLOCK
  5
29AE
330
29A4
100
AcDbEntity
  8
0
100
AcDbBlockBegin
  2
*D16
 70
     1
 10
0.0
 20
0.0
 30
0.0
  3
*D16
  1

  0
LINE
  5
2C1D
330
29A4
100
AcDbEntity
  8
Bemaßung
 62
     0
370
    -2
100
AcDbLine
 10
-29.71929700764849
 20
192.1752146639784
 30
0.0
 11
-16.70743051096928
 21
192.1752146639784
 31
0.0
  0
LINE
  5
2C1E
330
29A4
100
AcDbEntity
  8
Bemaßung
 62
     0
370
    -2
100
AcDbLine
 10
-50.61605700764847
 20
153.7752146639784
 30
0.0
 11
-16.70743051096929
 21
153.7752146639784
 31
0.0
  0
LINE
  5
2C1F
330
29A4
100
AcDbEntity
  8
Bemaßung
 62
     0
370
    -2
100
AcDbLine
 10
-17.95743051096928
 20
189.6752146639784
 30
0.0
 11
-17.95743051096929
 21
156.2752146639784
 31
0.0
  0
SOLID
  5
2C20
330
29A4
100
AcDbEntity
  8
Bemaßung
 62
     0
100
AcDbTrace
 10
-18.37409717763595
 20
189.6752146639784
 30
0.0
 11
-17.54076384430261
 21
189.6752146639784
 31
0.0
 12
-17.95743051096928
 22
192.1752146639784
 32
0.0
 13
-17.95743051096928
 23
192.1752146639784
 33
0.0
  0
SOLID
  5
2C21
330
29A4
100
AcDbEntity
  8
Bemaßung
 62
     0
100
AcDbTrace
 10
-18.37409717763595
 20
156.2752146639784
 30
0.0
 11
-17.54076384430262
 21
156.2752146639784
 31
0.0
 12
-17.95743051096929
 22
153.7752146639784
 32
0.0
 13
-17.95743051096929
 23
153.7752146639784
 33
0.0
  0
MTEXT
  5
2C22
330
29A4
100
AcDbEntity
  8
Bemaßung
 62
     0
100
AcDbMText
 10
-20.04076384430264
 20
172.9752146639784
 30
0.0
 40
2.5
 41
0.0
 71
     5
 72
     1
  1
38,4
 11
0.0000000000000001
 21
1.0
 31
0.0
 73
     1
 44
1.0
  0
POINT
  5
2C23
330
29A4
100
AcDbEntity
  8
Defpoints
 62
     0
100
AcDbPoint
 10
-30.34429700764849
 20
192.1752146639784
 30
0.0
  0
POINT
  5
2C24
330
29A4
100
AcDbEntity
  8
Defpoints
 62
     0
100
AcDbPoint
 10
-51.24105700764847
 20
153.7752146639784
 30
0.0
  0
POINT
  5
2C25
330
29A4
100
AcDbEntity
  8
Defpoints
 62
     0
100
AcDbPoint
 10
-17.95743051096929
 20
153.7752146639784
 30
0.0
  0
ENDBLK
  5
29AF
330
29A4
100
AcDbEntity
  8
0
100
AcDbBlockEnd
  0
BLOCK
  5
29CF
330
29C5
100
AcDbEntity
  8
0
100
AcDbBlockBegin
  2
*D17
 70
     1
 10
0.0
 20
0.0
 30
0.0
  3
*D17
  1

  0
LINE
  5
2C2F
330
29C5
100
AcDbEntity
  8
Bemaßung
 62
     0
370
    -2
100
AcDbLine
 10
-75.44035747369725
 20
154.1125773702112
 30
0.0
 11
-75.44035747369725
 21
130.839811011935
 31
0.0
  0
LINE
  5
2C30
330
29C5
100
AcDbEntity
  8
Bemaßung
 62
     0
370
    -2
100
AcDbLine
 10
-50.24105700764846
 20
154.1502146639784
 30
0.0
 11
-50.24105700764846
 21
130.839811011935
 31
0.0
  0
LINE
  5
2C31
330
29C5
100
AcDbEntity
  8
Bemaßung
 62
     0
370
    -2
100
AcDbLine
 10
-72.94035747369725
 20
132.089811011935
 30
0.0
 11
-52.74105700764846
 21
132.089811011935
 31
0.0
  0
SOLID
  5
2C32
330
29C5
100
AcDbEntity
  8
Bemaßung
 62
     0
100
AcDbTrace
 10
-72.94035747369725
 20
132.5064776786017
 30
0.0
 11
-72.94035747369725
 21
131.6731443452684
 31
0.0
 12
-75.44035747369725
 22
132.089811011935
 32
0.0
 13
-75.44035747369725
 23
132.089811011935
 33
0.0
  0
SOLID
  5
2C33
330
29C5
100
AcDbEntity
  8
Bemaßung
 62
     0
100
AcDbTrace
 10
-52.74105700764846
 20
132.5064776786017
 30
0.0
 11
-52.74105700764846
 21
131.6731443452684
 31
0.0
 12
-50.24105700764846
 22
132.089811011935
 32
0.0
 13
-50.24105700764846
 23
132.089811011935
 33
0.0
  0
MTEXT
  5
2C34
330
29C5
100
AcDbEntity
  8
Bemaßung
 62
     0
100
AcDbMText
 10
-62.84070724067285
 20
134.1731443452684
 30
0.0
 40
2.5
 41
0.0
 71
     5
 72
     1
  1
25,2
 73
     1
 44
1.0
  0
POINT
  5
2C35
330
29C5
100
AcDbEntity
  8
Defpoints
 62
     0
100
AcDbPoint
 10
-75.44035747369725
 20
154.7375773702112
 30
0.0
  0
POINT
  5
2C36
330
29C5
100
AcDbEntity
  8
Defpoints
 62
     0
100
AcDbPoint
 10
-50.24105700764846
 20
154.7752146639784
 30
0.0
  0
POINT
  5
2C37
330
29C5
100
AcDbEntity
  8
Defpoints
 62
     0
100
AcDbPoint
 10
-50.24105700764846
 20
132.089811011935
 30
0.0
  0
ENDBLK
  5
29D0
330
29C5
100
AcDbEntity
  8
0
100
AcDbBlockEnd
  0
BLOCK
  5
2BE3
330
2BD9
100
AcDbEntity
  8
0
100
AcDbBlockBegin
  2
*D18
 70
     1
 10
0.0
 20
0.0
 30
0.0
  3
*D18
  1

  0
LINE
  5
2C0B
330
2BD9
100
AcDbEntity
  8
Bemaßung
 62
     0
370
    -2
100
AcDbLine
 10
396.6215807327334
 20
148.2427416885245
 30
0.0
 11
396.6215807327334
 21
145.3936721753798
 31
0.0
  0
LINE
  5
2C0C
330
2BD9
100
AcDbEntity
  8
Bemaßung
 62
     0
370
    -2
100
AcDbLine
 10
328.6226259620356
 20
191.8530855423536
 30
0.0
 11
328.6226259620356
 21
145.3936721753798
 31
0.0
  0
LINE
  5
2C0D
330
2BD9
100
AcDbEntity
  8
Bemaßung
 62
     0
370
    -2
100
AcDbLine
 10
394.1215807327334
 20
146.6436721753798
 30
0.0
 11
331.1226259620356
 21
146.6436721753798
 31
0.0
  0
SOLID
  5
2C0E
330
2BD9
100
AcDbEntity
  8
Bemaßung
 62
     0
100
AcDbTrace
 10
394.1215807327334
 20
147.0603388420465
 30
0.0
 11
394.1215807327334
 21
146.2270055087131
 31
0.0
 12
396.6215807327334
 22
146.6436721753798
 32
0.0
 13
396.6215807327334
 23
146.6436721753798
 33
0.0
  0
SOLID
  5
2C0F
330
2BD9
100
AcDbEntity
  8
Bemaßung
 62
     0
100
AcDbTrace
 10
331.1226259620356
 20
147.0603388420465
 30
0.0
 11
331.1226259620356
 21
146.2270055087131
 31
0.0
 12
328.6226259620356
 22
146.6436721753798
 32
0.0
 13
328.6226259620356
 23
146.6436721753798
 33
0.0
  0
MTEXT
  5
2C10
330
2BD9
100
AcDbEntity
  8
Bemaßung
 62
     0
100
AcDbMText
 10
362.6221033473845
 20
148.5186721753798
 30
0.0
 40
2.5
 41
0.0
 71
     5
 72
     1
  1
68
 73
     1
 44
1.0
  0
POINT
  5
2C11
330
2BD9
100
AcDbEntity
  8
Defpoints
 62
     0
100
AcDbPoint
 10
396.6215807327334
 20
148.8677416885245
 30
0.0
  0
POINT
  5
2C12
330
2BD9
100
AcDbEntity
  8
Defpoints
 62
     0
100
AcDbPoint
 10
328.6226259620356
 20
192.4780855423536
 30
0.0
  0
POINT
  5
2C13
330
2BD9
100
AcDbEntity
  8
Defpoints
 62
     0
100
AcDbPoint
 10
328.6226259620356
 20
146.6436721753798
 30
0.0
  0
ENDBLK
  5
2BE4
330
2BD9
100
AcDbEntity
  8
0
100
AcDbBlockEnd
  0
ENDSEC
  0
SECTION
  2
ENTITIES
  0
LINE
  5
22B4
330
1F
100
AcDbEntity
  8
Mittellinie
100
AcDbLine
 10
167.5335053675591
 20
192.4816971680724
 30
0.0
 11
28.12812142026848
 21
192.475998247135
 31
0.0
  0
ARC
  5
22BB
330
1F
100
AcDbEntity
  8
Innenkanten
100
AcDbCircle
 10
250.4558029923515
 20
192.4773446639784
 30
0.0
 40
335.0
100
AcDbArc
 50
184.112709999999
 51
185.0764200000007
  0
ARC
  5
22BC
330
1F
100
AcDbEntity
  8
Innenkanten
100
AcDbCircle
 10
-376.1379370076484
 20
192.4773446639784
 30
0.0
 40
335.0
100
AcDbArc
 50
354.9235600000002
 51
355.887270000001
  0
ARC
  5
22BD
330
1F
100
AcDbEntity
  8
0
100
AcDbCircle
 10
-35.34105700764849
 20
164.9752146639784
 30
0.0
 40
2.5
100
AcDbArc
 50
269.99996
 51
0.0
  0
ARC
  5
22BE
330
1F
100
AcDbEntity
  8
Mittellinie
100
AcDbCircle
 10
-62.84105900764848
 20
192.4752146639784
 30
0.0
 40
35.0
100
AcDbArc
 50
307.4120000000008
 51
324.8169999999989
  0
ARC
  5
22BF
330
1F
100
AcDbEntity
  8
Innenkanten
100
AcDbCircle
 10
-376.1379370076484
 20
192.4773446639784
 30
0.0
 40
334.0
100
AcDbArc
 50
354.6699999999995
 51
5.06194880000118
  0
ARC
  5
22C0
330
1F
100
AcDbEntity
  8
Innenkanten
100
AcDbCircle
 10
250.4558029923515
 20
192.4773446639784
 30
0.0
 40
334.0
100
AcDbArc
 50
174.9380599999993
 51
185.3300000000004
  0
ARC
  5
22C1
330
1F
100
AcDbEntity
  8
0
100
AcDbCircle
 10
-90.34106300764847
 20
164.9752146639784
 30
0.0
 40
2.5
100
AcDbArc
 50
179.9999799999979
 51
270.0000299999997
  0
ARC
  5
22C2
330
1F
100
AcDbEntity
  8
Mittellinie
100
AcDbCircle
 10
-62.84105900764848
 20
192.4752146639784
 30
0.0
 40
35.0
100
AcDbArc
 50
215.1829800000002
 51
232.5879799999988
  0
LINE
  5
22C8
330
1F
100
AcDbEntity
  8
0
100
AcDbLine
 10
-51.04105700764847
 20
164.7152146639783
 30
0.0
 11
-51.04105700764847
 21
164.0152246639784
 31
0.0
  0
LINE
  5
22C9
330
1F
100
AcDbEntity
  8
0
100
AcDbLine
 10
-74.64106200764849
 20
164.7152146639783
 30
0.0
 11
-74.64106200764849
 21
164.0152246639784
 31
0.0
  0
LINE
  5
22CA
330
1F
100
AcDbEntity
  8
Mittellinie
100
AcDbLine
 10
-43.75865700764848
 20
173.3927946639784
 30
0.0
 11
-31.80893700764846
 21
161.4430646639784
 31
0.0
  0
LINE
  5
22CB
330
1F
100
AcDbEntity
  8
Mittellinie
100
AcDbLine
 10
-81.9234570076485
 20
173.3928146639784
 30
0.0
 11
-93.87318700764849
 21
161.4430746639784
 31
0.0
  0
LINE
  5
22CC
330
1F
100
AcDbEntity
  8
Mittellinie
100
AcDbLine
 10
-62.84105900764848
 20
226.2624546639784
 30
0.0
 11
-62.84105900764848
 21
150.4174446639784
 31
0.0
  0
ARC
  5
22CD
102
{ACAD_REACTORS
330
29DB
102
}
330
1F
100
AcDbEntity
  8
0
100
AcDbCircle
 10
-74.44106600764849
 20
154.7752146639784
 30
0.0
 40
1.0
100
AcDbArc
 50
179.9999899999989
 51
270.0
  0
LINE
  5
22CE
330
1F
100
AcDbEntity
  8
0
100
AcDbLine
 10
-50.24105700764846
 20
164.0152246639784
 30
0.0
 11
-75.44106600764848
 21
164.0152246639784
 31
0.0
  0
ARC
  5
22CF
330
1F
100
AcDbEntity
  8
0
100
AcDbCircle
 10
-81.27921600764848
 20
163.2752146639784
 30
0.0
 40
2.0
100
AcDbArc
 50
192.7138599999991
 51
270.0000199999995
  0
LINE
  5
22D0
330
1F
100
AcDbEntity
  8
0
100
AcDbLine
 10
-83.11224600764848
 20
162.4752146639784
 30
0.0
 11
-90.34112000764844
 21
162.4752146639784
 31
0.0
  0
LINE
  5
22D1
330
1F
100
AcDbEntity
  8
0
100
AcDbLine
 10
-75.44106600764848
 20
164.0152246639784
 30
0.0
 11
-75.44106600764848
 21
154.7752146639784
 31
0.0
  0
LINE
  5
22D2
330
1F
100
AcDbEntity
  8
0
100
AcDbLine
 10
-81.27921600764848
 20
161.2752146639784
 30
0.0
 11
-75.44106600764848
 21
161.2752146639784
 31
0.0
  0
LINE
  5
22D3
330
1F
100
AcDbEntity
  8
0
100
AcDbLine
 10
-71.83633700764847
 20
125.4998086639784
 30
0.0
 11
-71.83036300764849
 21
121.0782086639784
 31
0.0
  0
LINE
  5
22D4
330
1F
100
AcDbEntity
  8
0
100
AcDbLine
 10
-53.83622200764847
 20
125.5011666639784
 30
0.0
 11
-53.83622200764847
 21
121.0783456639784
 31
0.0
  0
LINE
  5
22D5
330
1F
100
AcDbEntity
  8
0
100
AcDbLine
 10
-56.83634400764844
 20
107.9783396639784
 30
0.0
 11
-60.23635400764845
 21
107.9783396639784
 31
0.0
  0
LINE
  5
22D6
330
1F
100
AcDbEntity
  8
0
100
AcDbLine
 10
-69.83634400764845
 20
114.4783396639784
 30
0.0
 11
-55.83634400764845
 21
114.4783396639784
 31
0.0
  0
LINE
  5
22D7
330
1F
100
AcDbEntity
  8
0
100
AcDbLine
 10
-71.73037200764849
 20
120.9783466639784
 30
0.0
 11
-53.93633500764849
 21
120.9783466639784
 31
0.0
  0
LINE
  5
22D8
330
1F
100
AcDbEntity
  8
0
100
AcDbLine
 10
-65.43633500764849
 20
114.4783396639784
 30
0.0
 11
-65.43633500764849
 21
107.9783396639784
 31
0.0
  0
LINE
  5
22D9
330
1F
100
AcDbEntity
  8
0
100
AcDbLine
 10
-64.5363410076485
 20
107.9783396639784
 30
0.0
 11
-64.5363410076485
 21
114.4783396639784
 31
0.0
  0
LINE
  5
22DA
330
1F
100
AcDbEntity
  8
0
100
AcDbLine
 10
-61.13634800764845
 20
114.4783396639784
 30
0.0
 11
-61.13634800764845
 21
107.9783396639784
 31
0.0
  0
LINE
  5
22DB
330
1F
100
AcDbEntity
  8
0
100
AcDbLine
 10
-60.23635400764845
 20
107.9783396639784
 30
0.0
 11
-60.23635400764845
 21
114.4783396639784
 31
0.0
  0
LINE
  5
22DC
330
1F
100
AcDbEntity
  8
0
100
AcDbLine
 10
-68.83634400764845
 20
107.9783396639784
 30
0.0
 11
-68.83634400764845
 21
114.4783396639784
 31
0.0
  0
LINE
  5
22DD
330
1F
100
AcDbEntity
  8
0
100
AcDbLine
 10
-65.43633500764849
 20
107.9783396639784
 30
0.0
 11
-68.83634400764845
 21
107.9783396639784
 31
0.0
  0
LINE
  5
22DE
330
1F
100
AcDbEntity
  8
0
100
AcDbLine
 10
-61.13634800764845
 20
107.9783396639784
 30
0.0
 11
-64.5363410076485
 21
107.9783396639784
 31
0.0
  0
LINE
  5
22DF
330
1F
100
AcDbEntity
  8
0
100
AcDbLine
 10
-69.83634400764845
 20
120.9783396639784
 30
0.0
 11
-69.83634400764845
 21
114.4783396639784
 31
0.0
  0
ARC
  5
22E0
330
1F
100
AcDbEntity
  8
0
100
AcDbCircle
 10
-71.73037200764849
 20
121.0783456639784
 30
0.0
 40
0.1
100
AcDbArc
 50
180.0786699999992
 51
270.0000199999995
  0
LINE
  5
22E1
330
1F
100
AcDbEntity
  8
0
100
AcDbLine
 10
-56.83634400764844
 20
114.4783396639784
 30
0.0
 11
-56.83634400764844
 21
107.9783396639784
 31
0.0
  0
LINE
  5
22E2
330
1F
100
AcDbEntity
  8
0
100
AcDbLine
 10
-55.83634400764845
 20
114.4783396639784
 30
0.0
 11
-55.83634400764845
 21
120.9783396639784
 31
0.0
  0
ARC
  5
22E3
330
1F
100
AcDbEntity
  8
0
100
AcDbCircle
 10
-53.93633500764849
 20
121.0783456639784
 30
0.0
 40
0.1
100
AcDbArc
 50
270.0000199999995
 51
0.0
  0
ARC
  5
22E4
330
1F
100
AcDbEntity
  8
0
100
AcDbCircle
 10
-44.40290700764847
 20
163.2752146639784
 30
0.0
 40
2.0
100
AcDbArc
 50
270.0000199999995
 51
347.2837900000004
  0
LINE
  5
22E5
330
1F
100
AcDbEntity
  8
0
100
AcDbLine
 10
-42.56987700764847
 20
162.4752146639784
 30
0.0
 11
-35.34099700764846
 21
162.4752146639784
 31
0.0
  0
ARC
  5
22E6
330
1F
100
AcDbEntity
  8
0
100
AcDbCircle
 10
-61.08626800764847
 20
140.3545146639784
 30
0.0
 40
3.5
100
AcDbArc
 50
60.00151799999971
 51
120.0015199999989
  0
ARC
  5
22E7
330
1F
100
AcDbEntity
  8
0
100
AcDbCircle
 10
-64.58634400764845
 20
140.3544646639784
 30
0.0
 40
3.5
100
AcDbArc
 50
60.00000799999931
 51
119.9984500000003
  0
LINE
  5
22E8
330
1F
100
AcDbEntity
  8
0
100
AcDbLine
 10
-58.33634400764845
 20
141.5924746639784
 30
0.0
 11
-67.33634400764845
 21
141.5924746639784
 31
0.0
  0
LINE
  5
22E9
330
1F
100
AcDbEntity
  8
0
100
AcDbLine
 10
-68.33634400764845
 20
140.5924746639784
 30
0.0
 11
-68.33634400764845
 21
129.8295966639784
 31
0.0
  0
LINE
  5
22EA
330
1F
100
AcDbEntity
  8
0
100
AcDbLine
 10
-71.54345200764845
 20
126.2082896639784
 30
0.0
 11
-68.6292370076485
 21
129.1225046639784
 31
0.0
  0
ARC
  5
22EB
330
1F
100
AcDbEntity
  8
0
100
AcDbCircle
 10
-70.83634400764845
 20
125.5011666639784
 30
0.0
 40
1.0
100
AcDbArc
 50
135.0000099999999
 51
180.0773400000007
  0
ARC
  5
22EC
330
1F
100
AcDbEntity
  8
0
100
AcDbCircle
 10
-69.33634400764844
 20
129.8295966639784
 30
0.0
 40
1.0
100
AcDbArc
 50
314.9999999999994
 51
0.0
  0
ARC
  5
22ED
330
1F
100
AcDbEntity
  8
0
100
AcDbCircle
 10
-67.33634400764845
 20
140.5924746639784
 30
0.0
 40
1.0
100
AcDbArc
 50
89.99998199999998
 51
179.9999599999992
  0
ARC
  5
22EE
330
1F
100
AcDbEntity
  8
0
100
AcDbCircle
 10
-64.58634400764845
 20
146.4166446639784
 30
0.0
 40
3.5
100
AcDbArc
 50
239.9999700000004
 51
299.9999800000001
  0
LINE
  5
22EF
330
1F
100
AcDbEntity
  8
0
100
AcDbLine
 10
-66.33634400764845
 20
141.5924746639784
 30
0.0
 11
-66.33634400764845
 21
143.3855546639784
 31
0.0
  0
LINE
  5
22F0
330
1F
100
AcDbEntity
  8
0
100
AcDbLine
 10
-59.33634400764844
 20
143.3856546639784
 30
0.0
 11
-59.33634400764844
 21
141.5924746639784
 31
0.0
  0
LINE
  5
22F1
330
1F
100
AcDbEntity
  8
0
100
AcDbLine
 10
-57.33634400764845
 20
140.5924746639784
 30
0.0
 11
-57.33634400764845
 21
129.8295966639784
 31
0.0
  0
LINE
  5
22F2
330
1F
100
AcDbEntity
  8
0
100
AcDbLine
 10
-57.04346000764849
 20
129.1224966639784
 30
0.0
 11
-54.12924500764848
 21
126.2082816639784
 31
0.0
  0
ARC
  5
22F3
330
1F
100
AcDbEntity
  8
0
100
AcDbCircle
 10
-54.83634400764845
 20
125.5011666639784
 30
0.0
 40
1.0
100
AcDbArc
 50
0.0
 51
44.99984399999951
  0
ARC
  5
22F4
330
1F
100
AcDbEntity
  8
0
100
AcDbCircle
 10
-56.33634400764845
 20
129.8295966639784
 30
0.0
 40
1.0
100
AcDbArc
 50
179.9999799999979
 51
224.9999800000006
  0
ARC
  5
22F5
330
1F
100
AcDbEntity
  8
0
100
AcDbCircle
 10
-58.33634400764845
 20
140.5924746639784
 30
0.0
 40
1.0
100
AcDbArc
 50
0.0
 51
89.99998199999998
  0
LINE
  5
22F6
330
1F
100
AcDbEntity
  8
Innenkanten
100
AcDbLine
 10
-52.84105700764849
 20
150.6752146639784
 30
0.0
 11
-59.34125800764849
 21
150.6752146639784
 31
0.0
  0
LINE
  5
22F7
330
1F
100
AcDbEntity
  8
0
100
AcDbLine
 10
-53.84105900764848
 20
149.6752146639784
 30
0.0
 11
-59.34125800764849
 21
149.6752146639784
 31
0.0
  0
LINE
  5
22F8
102
{ACAD_REACTORS
330
29BA
102
}
330
1F
100
AcDbEntity
  8
0
100
AcDbLine
 10
-51.24105700764847
 20
153.7752146639784
 30
0.0
 11
-74.44106600764849
 21
153.7752146639784
 31
0.0
  0
LINE
  5
22F9
330
1F
100
AcDbEntity
  8
Innenkanten
100
AcDbLine
 10
-66.34105900764848
 20
150.6752146639784
 30
0.0
 11
-72.84105900764848
 21
150.6752146639784
 31
0.0
  0
LINE
  5
22FA
330
1F
100
AcDbEntity
  8
0
100
AcDbLine
 10
-66.34105900764848
 20
149.6752146639784
 30
0.0
 11
-71.84105900764848
 21
149.6752146639784
 31
0.0
  0
ARC
  5
22FB
330
1F
100
AcDbEntity
  8
0
100
AcDbCircle
 10
-71.84105900764848
 20
150.6752146639784
 30
0.0
 40
1.0
100
AcDbArc
 50
179.9999899999989
 51
270.0
  0
LINE
  5
22FC
330
1F
100
AcDbEntity
  8
0
100
AcDbLine
 10
-72.84105900764848
 20
153.7752146639784
 30
0.0
 11
-72.84105900764848
 21
150.6752146639784
 31
0.0
  0
LINE
  5
22FD
330
1F
100
AcDbEntity
  8
0
100
AcDbLine
 10
-59.34125800764849
 20
145.2011446639784
 30
0.0
 11
-59.34125800764849
 21
153.7752146639784
 31
0.0
  0
LINE
  5
22FE
330
1F
100
AcDbEntity
  8
0
100
AcDbLine
 10
-66.34105900764848
 20
145.2009546639784
 30
0.0
 11
-66.34105900764848
 21
153.7752146639784
 31
0.0
  0
ARC
  5
22FF
330
1F
100
AcDbEntity
  8
0
100
AcDbCircle
 10
-64.59133400764847
 20
148.2321946639784
 30
0.0
 40
3.5
100
AcDbArc
 50
240.0015499999997
 51
300.0015399999994
  0
ARC
  5
2300
330
1F
100
AcDbEntity
  8
0
100
AcDbCircle
 10
-61.09125800764849
 20
142.1700546639784
 30
0.0
 40
3.5
100
AcDbArc
 50
59.99997399999903
 51
119.9999899999995
  0
ARC
  5
2301
330
1F
100
AcDbEntity
  8
0
100
AcDbCircle
 10
-61.09125800764849
 20
148.2322346639783
 30
0.0
 40
3.5
100
AcDbArc
 50
240.0000199999998
 51
299.9984799999994
  0
CIRCLE
  5
2302
330
1F
100
AcDbEntity
  8
Innenkanten
100
AcDbCircle
 10
-70.34105900764848
 20
158.6752046639784
 30
0.0
 40
2.749999
  0
CIRCLE
  5
2303
330
1F
100
AcDbEntity
  8
Innenkanten
100
AcDbCircle
 10
-70.34105900764848
 20
158.6752046639784
 30
0.0
 40
3.0
  0
LINE
  5
2304
330
1F
100
AcDbEntity
  8
Innenkanten
100
AcDbLine
 10
-71.61384800764847
 20
159.9480046639784
 30
0.0
 11
-69.06826300764845
 21
157.4024246639784
 31
0.0
  0
LINE
  5
2305
330
1F
100
AcDbEntity
  8
Innenkanten
100
AcDbLine
 10
-69.06826300764845
 20
159.9480046639784
 30
0.0
 11
-71.61385600764845
 21
157.4024146639783
 31
0.0
  0
ARC
  5
2306
330
1F
100
AcDbEntity
  8
0
100
AcDbCircle
 10
-51.24105700764847
 20
154.7752146639784
 30
0.0
 40
1.0
100
AcDbArc
 50
270.0
 51
0.0
  0
ARC
  5
2307
330
1F
100
AcDbEntity
  8
0
100
AcDbCircle
 10
-53.84105900764848
 20
150.6752146639784
 30
0.0
 40
1.0
100
AcDbArc
 50
270.0
 51
0.0
  0
LINE
  5
2308
330
1F
100
AcDbEntity
  8
0
100
AcDbLine
 10
-52.84105700764849
 20
153.7752146639784
 30
0.0
 11
-52.84105700764849
 21
150.6752146639784
 31
0.0
  0
CIRCLE
  5
2309
330
1F
100
AcDbEntity
  8
Innenkanten
100
AcDbCircle
 10
-55.34105900764848
 20
158.6752046639784
 30
0.0
 40
2.749999
  0
CIRCLE
  5
230A
330
1F
100
AcDbEntity
  8
Innenkanten
100
AcDbCircle
 10
-55.34105900764848
 20
158.6752046639784
 30
0.0
 40
3.0
  0
LINE
  5
230B
330
1F
100
AcDbEntity
  8
Innenkanten
100
AcDbLine
 10
-56.61385600764845
 20
159.9480046639784
 30
0.0
 11
-54.06827000764849
 21
157.4024146639783
 31
0.0
  0
LINE
  5
230C
330
1F
100
AcDbEntity
  8
Innenkanten
100
AcDbLine
 10
-54.06826300764845
 20
159.9480046639784
 30
0.0
 11
-56.61385600764845
 21
157.4024146639783
 31
0.0
  0
LINE
  5
230D
102
{ACAD_REACTORS
330
29DB
102
}
330
1F
100
AcDbEntity
  8
0
100
AcDbLine
 10
-50.24105700764846
 20
164.0152246639784
 30
0.0
 11
-50.24105700764846
 21
154.7752146639784
 31
0.0
  0
LINE
  5
230E
330
1F
100
AcDbEntity
  8
0
100
AcDbLine
 10
-50.24105700764846
 20
161.2752146639784
 30
0.0
 11
-44.40290700764847
 21
161.2752146639784
 31
0.0
  0
LINE
  5
2334
330
1F
100
AcDbEntity
  8
Innenkanten
100
AcDbLine
 10
-81.27921600764848
 20
222.6752046639784
 30
0.0
 11
-44.40290700764847
 21
222.6752046639784
 31
0.0
  0
LINE
  5
2335
330
1F
100
AcDbEntity
  8
0
100
AcDbLine
 10
-81.27921600764848
 20
223.6752046639784
 30
0.0
 11
-44.40290700764847
 21
223.6752046639784
 31
0.0
  0
LINE
  5
2336
102
{ACAD_REACTORS
330
29BA
102
}
330
1F
100
AcDbEntity
  8
Mittellinie
100
AcDbLine
 10
-30.34429700764849
 20
192.1752146639784
 30
0.0
 11
-95.59892200764847
 21
192.1752146639784
 31
0.0
  0
CIRCLE
  5
2337
330
1F
100
AcDbEntity
  8
Innenkanten
100
AcDbCircle
 10
-88.84106700764846
 20
206.9751846639784
 30
0.0
 40
2.75
  0
ARC
  5
2338
102
{ACAD_REACTORS
330
294C
102
}
330
1F
100
AcDbEntity
  8
0
100
AcDbCircle
 10
107.1535450680122
 20
192.4291223926525
 30
0.0
 40
201.0
100
AcDbArc
 50
175.3238300000001
 51
184.6762099999985
  0
ARC
  5
2339
330
1F
100
AcDbEntity
  8
Innenkanten
100
AcDbCircle
 10
-88.84105900764849
 20
206.9752146639784
 30
0.0
 40
3.599999899999999
100
AcDbArc
 50
296.0000599999996
 51
0.0
  0
CIRCLE
  5
233A
330
1F
100
AcDbEntity
  8
Innenkanten
100
AcDbCircle
 10
-88.84105900764849
 20
206.9752146639784
 30
0.0
 40
3.5
  0
ARC
  5
233B
330
1F
100
AcDbEntity
  8
Innenkanten
100
AcDbCircle
 10
106.9589429923515
 20
192.4752746639784
 30
0.0
 40
200.0
100
AcDbArc
 50
175.3238300000001
 51
184.6762099999985
  0
LINE
  5
233C
330
1F
100
AcDbEntity
  8
Innenkanten
100
AcDbLine
 10
-90.11385600764844
 20
208.2480046639784
 30
0.0
 11
-87.56827000764848
 21
205.7024146639784
 31
0.0
  0
LINE
  5
233D
330
1F
100
AcDbEntity
  8
Innenkanten
100
AcDbLine
 10
-87.56827000764848
 20
208.2480046639784
 30
0.0
 11
-90.11385600764844
 21
205.7024146639784
 31
0.0
  0
CIRCLE
  5
233E
330
1F
100
AcDbEntity
  8
Innenkanten
100
AcDbCircle
 10
-88.84106700764846
 20
177.9751846639784
 30
0.0
 40
2.75
  0
CIRCLE
  5
233F
330
1F
100
AcDbEntity
  8
Innenkanten
100
AcDbCircle
 10
-88.84105900764849
 20
177.9752146639784
 30
0.0
 40
3.5
  0
LINE
  5
2340
330
1F
100
AcDbEntity
  8
Innenkanten
100
AcDbLine
 10
-92.25539300764848
 20
174.4542746639784
 30
0.0
 11
-85.86462700764844
 21
171.3372746639784
 31
0.0
  0
LINE
  5
2341
330
1F
100
AcDbEntity
  8
Innenkanten
100
AcDbLine
 10
-91.81701900764847
 20
175.3530646639784
 30
0.0
 11
-85.42625700764848
 21
172.2360746639784
 31
0.0
  0
LINE
  5
2342
330
1F
100
AcDbEntity
  8
Innenkanten
100
AcDbLine
 10
-92.85884400764848
 20
183.9401946639784
 30
0.0
 11
-87.26292700764849
 21
181.2108546639784
 31
0.0
  0
ARC
  5
2343
330
1F
100
AcDbEntity
  8
0
100
AcDbCircle
 10
-91.37864200764846
 20
176.2518646639783
 30
0.0
 40
2.0
100
AcDbArc
 50
184.6762200000009
 51
243.99991
  0
LINE
  5
2344
330
1F
100
AcDbEntity
  8
0
100
AcDbLine
 10
-92.84106300764847
 20
174.8875646639784
 30
0.0
 11
-92.84106300764847
 21
164.9752146639784
 31
0.0
  0
ARC
  5
2345
330
1F
100
AcDbEntity
  8
Innenkanten
100
AcDbCircle
 10
-91.37864200764846
 20
176.2518646639783
 30
0.0
 40
1.0
100
AcDbArc
 50
184.6762200000009
 51
243.99991
  0
LINE
  5
2346
330
1F
100
AcDbEntity
  8
Innenkanten
100
AcDbLine
 10
-85.24106100764845
 20
172.1457546639784
 30
0.0
 11
-85.24106100764845
 21
177.9751946639784
 31
0.0
  0
ARC
  5
2347
330
1F
100
AcDbEntity
  8
Innenkanten
100
AcDbCircle
 10
-87.61811300764851
 20
167.7421046639784
 30
0.0
 40
4.0
100
AcDbArc
 50
10.21691099999936
 51
63.9999240000004
  0
ARC
  5
2348
330
1F
100
AcDbEntity
  8
Innenkanten
100
AcDbCircle
 10
-87.61811300764851
 20
167.7421046639784
 30
0.0
 40
5.0
100
AcDbArc
 50
4.183913899999169
 51
63.9999240000004
  0
CIRCLE
  5
2349
330
1F
100
AcDbEntity
  8
Innenkanten
100
AcDbCircle
 10
-87.58979300764849
 20
167.7264746639784
 30
0.0
 40
2.9000001
  0
ARC
  5
234A
330
1F
100
AcDbEntity
  8
Innenkanten
100
AcDbCircle
 10
-88.84105900764849
 20
177.9752146639784
 30
0.0
 40
3.599999899999999
100
AcDbArc
 50
0.0
 51
63.99993800000013
  0
LINE
  5
234B
330
1F
100
AcDbEntity
  8
Innenkanten
100
AcDbLine
 10
-90.11384800764847
 20
179.2480046639784
 30
0.0
 11
-87.56826300764846
 21
176.7024346639784
 31
0.0
  0
LINE
  5
234C
330
1F
100
AcDbEntity
  8
Innenkanten
100
AcDbLine
 10
-87.56827000764848
 20
179.2480046639784
 30
0.0
 11
-90.11385200764847
 21
176.7024346639784
 31
0.0
  0
LINE
  5
234D
330
1F
100
AcDbEntity
  8
Innenkanten
100
AcDbLine
 10
-92.85884700764848
 20
201.0102446639784
 30
0.0
 11
-87.26291900764847
 21
203.7395746639784
 31
0.0
  0
ARC
  5
234E
330
1F
100
AcDbEntity
  8
Mittellinie
100
AcDbCircle
 10
-62.84105900764848
 20
192.4752146639784
 30
0.0
 40
35.0
100
AcDbArc
 50
127.4120200000011
 51
144.8170199999997
  0
ARC
  5
234F
330
1F
100
AcDbEntity
  8
0
100
AcDbCircle
 10
-90.34106300764847
 20
219.9752146639784
 30
0.0
 40
2.5
100
AcDbArc
 50
89.99998199999998
 51
179.9999599999992
  0
LINE
  5
2350
330
1F
100
AcDbEntity
  8
Innenkanten
100
AcDbLine
 10
-92.25538500764844
 20
210.4961646639784
 30
0.0
 11
-85.86461100764848
 21
213.6131346639783
 31
0.0
  0
LINE
  5
2351
330
1F
100
AcDbEntity
  8
0
100
AcDbLine
 10
-91.81701500764848
 20
209.5973546639784
 30
0.0
 11
-85.42624200764846
 21
212.7143346639784
 31
0.0
  0
LINE
  5
2352
330
1F
100
AcDbEntity
  8
Mittellinie
100
AcDbLine
 10
-81.9234570076485
 20
211.5576046639783
 30
0.0
 11
-93.87319400764846
 21
223.5073446639784
 31
0.0
  0
LINE
  5
2353
330
1F
100
AcDbEntity
  8
Innenkanten
100
AcDbLine
 10
-91.60866800764848
 20
209.6989646639784
 30
0.0
 11
-85.44990800764844
 21
212.7027946639784
 31
0.0
  0
LINE
  5
2354
330
1F
100
AcDbEntity
  8
0
100
AcDbLine
 10
-92.84106300764847
 20
219.9752146639784
 30
0.0
 11
-92.84106300764847
 21
210.0628846639783
 31
0.0
  0
ARC
  5
2355
330
1F
100
AcDbEntity
  8
0
100
AcDbCircle
 10
-91.37864900764851
 20
208.6985646639784
 30
0.0
 40
2.0
100
AcDbArc
 50
115.9998999999996
 51
175.3238300000001
  0
ARC
  5
2356
330
1F
100
AcDbEntity
  8
Innenkanten
100
AcDbCircle
 10
-91.37864900764851
 20
208.6985646639784
 30
0.0
 40
1.0
100
AcDbArc
 50
115.9998999999996
 51
175.3238300000001
  0
ARC
  5
2357
330
1F
100
AcDbEntity
  8
Innenkanten
100
AcDbCircle
 10
-87.64177200764846
 20
217.1967646639783
 30
0.0
 40
4.0
100
AcDbArc
 50
295.9999899999997
 51
355.8183800000012
  0
CIRCLE
  5
2358
330
1F
100
AcDbEntity
  8
Innenkanten
100
AcDbCircle
 10
-87.58979300764849
 20
217.2239446639784
 30
0.0
 40
2.9000001
  0
ARC
  5
2359
330
1F
100
AcDbEntity
  8
Innenkanten
100
AcDbCircle
 10
-87.64177200764846
 20
217.1967646639783
 30
0.0
 40
5.0
100
AcDbArc
 50
295.9999899999997
 51
355.8183800000012
  0
LINE
  5
235A
330
1F
100
AcDbEntity
  8
Innenkanten
100
AcDbLine
 10
-85.24106900764849
 20
212.8046646639784
 30
0.0
 11
-85.24107600764848
 21
206.9752246639784
 31
0.0
  0
ARC
  5
235B
330
1F
100
AcDbEntity
  8
0
100
AcDbCircle
 10
-81.27921600764848
 20
221.6752046639784
 30
0.0
 40
2.0
100
AcDbArc
 50
89.99998199999998
 51
167.3678200000006
  0
ARC
  5
235C
330
1F
100
AcDbEntity
  8
Innenkanten
100
AcDbCircle
 10
250.4558029923515
 20
192.4773446639784
 30
0.0
 40
335.0
100
AcDbArc
 50
174.9247800000001
 51
175.8183600000009
  0
LINE
  5
235D
330
1F
100
AcDbEntity
  8
0
100
AcDbLine
 10
-90.34106300764847
 20
222.4752146639784
 30
0.0
 11
-83.11224600764848
 21
222.4752146639784
 31
0.0
  0
ARC
  5
235E
330
1F
100
AcDbEntity
  8
Innenkanten
100
AcDbCircle
 10
-81.27921600764848
 20
221.6752046639784
 30
0.0
 40
1.0
100
AcDbArc
 50
89.99998199999998
 51
164.2270800000011
  0
CIRCLE
  5
235F
330
1F
100
AcDbEntity
  8
Innenkanten
100
AcDbCircle
 10
-36.84106700764846
 20
206.9751846639784
 30
0.0
 40
2.75
  0
ARC
  5
2360
102
{ACAD_REACTORS
330
294C
102
}
330
1F
100
AcDbEntity
  8
0
100
AcDbCircle
 10
-232.8510041637434
 20
192.4765102295065
 30
0.0
 40
201.0
100
AcDbArc
 50
355.3237899999982
 51
4.676177200000848
  0
CIRCLE
  5
2361
330
1F
100
AcDbEntity
  8
Innenkanten
100
AcDbCircle
 10
-36.84105700764849
 20
206.9752146639784
 30
0.0
 40
3.5
  0
ARC
  5
2362
330
1F
100
AcDbEntity
  8
Innenkanten
100
AcDbCircle
 10
-36.84105700764849
 20
206.9752146639784
 30
0.0
 40
3.599999899999999
100
AcDbArc
 50
179.9999599999992
 51
243.9998999999999
  0
ARC
  5
2363
330
1F
100
AcDbEntity
  8
Innenkanten
100
AcDbCircle
 10
-232.6410780076485
 20
192.4752746639784
 30
0.0
 40
200.0
100
AcDbArc
 50
355.3237899999982
 51
4.676177200000848
  0
LINE
  5
2364
330
1F
100
AcDbEntity
  8
Innenkanten
100
AcDbLine
 10
-35.56826700764844
 20
208.2480046639784
 30
0.0
 11
-38.11384700764847
 21
205.7024346639784
 31
0.0
  0
LINE
  5
2365
330
1F
100
AcDbEntity
  8
Innenkanten
100
AcDbLine
 10
-38.11384700764847
 20
208.2480046639784
 30
0.0
 11
-35.56826700764844
 21
205.7024346639784
 31
0.0
  0
ARC
  5
2366
330
1F
100
AcDbEntity
  8
Innenkanten
100
AcDbCircle
 10
-38.06400700764845
 20
167.7421046639784
 30
0.0
 40
4.0
100
AcDbArc
 50
116.0000399999993
 51
175.8160500000007
  0
ARC
  5
2367
330
1F
100
AcDbEntity
  8
Innenkanten
100
AcDbCircle
 10
-38.06400700764845
 20
167.7421046639784
 30
0.0
 40
5.0
100
AcDbArc
 50
116.0000399999993
 51
175.8160500000007
  0
LINE
  5
2368
330
1F
100
AcDbEntity
  8
0
100
AcDbLine
 10
-51.04105700764847
 20
164.7152146639783
 30
0.0
 11
-74.64106200764849
 21
164.7152146639783
 31
0.0
  0
ARC
  5
2369
330
1F
100
AcDbEntity
  8
0
100
AcDbCircle
 10
-34.30348700764847
 20
176.2518646639783
 30
0.0
 40
2.0
100
AcDbArc
 50
296.00009
 51
355.3237899999982
  0
CIRCLE
  5
236A
330
1F
100
AcDbEntity
  8
Innenkanten
100
AcDbCircle
 10
-36.84105700764849
 20
177.9752146639784
 30
0.0
 40
3.5
  0
LINE
  5
236B
330
1F
100
AcDbEntity
  8
Innenkanten
100
AcDbLine
 10
-33.86509700764844
 20
175.3530646639784
 30
0.0
 11
-40.2558570076485
 21
172.2360746639784
 31
0.0
  0
LINE
  5
236C
330
1F
100
AcDbEntity
  8
Innenkanten
100
AcDbLine
 10
-40.44105700764851
 20
172.1457546639784
 30
0.0
 11
-40.44105700764851
 21
177.9751946639784
 31
0.0
  0
LINE
  5
236D
330
1F
100
AcDbEntity
  8
Innenkanten
100
AcDbLine
 10
-33.42672700764848
 20
174.4542746639784
 30
0.0
 11
-39.81749700764845
 21
171.3372746639784
 31
0.0
  0
CIRCLE
  5
236E
330
1F
100
AcDbEntity
  8
Innenkanten
100
AcDbCircle
 10
-38.09232700764846
 20
167.7264746639784
 30
0.0
 40
2.9000001
  0
LINE
  5
236F
330
1F
100
AcDbEntity
  8
0
100
AcDbLine
 10
-32.84105700764849
 20
174.8875646639784
 30
0.0
 11
-32.84105700764849
 21
164.9752146639784
 31
0.0
  0
CIRCLE
  5
2370
330
1F
100
AcDbEntity
  8
Innenkanten
100
AcDbCircle
 10
-36.84106700764846
 20
177.9751846639784
 30
0.0
 40
2.75
  0
LINE
  5
2371
330
1F
100
AcDbEntity
  8
Innenkanten
100
AcDbLine
 10
-32.82328700764844
 20
183.9401746639783
 30
0.0
 11
-38.41919700764845
 21
181.2108546639784
 31
0.0
  0
ARC
  5
2372
330
1F
100
AcDbEntity
  8
Innenkanten
100
AcDbCircle
 10
-36.84105700764849
 20
177.9752146639784
 30
0.0
 40
3.599999899999999
100
AcDbArc
 50
116.0000300000006
 51
179.9999599999992
  0
LINE
  5
2373
330
1F
100
AcDbEntity
  8
Innenkanten
100
AcDbLine
 10
-35.56826700764844
 20
179.2480046639784
 30
0.0
 11
-38.11385700764844
 21
176.7024146639784
 31
0.0
  0
LINE
  5
2374
330
1F
100
AcDbEntity
  8
Innenkanten
100
AcDbLine
 10
-38.11384700764847
 20
179.2480046639784
 30
0.0
 11
-35.56826700764844
 21
176.7024146639784
 31
0.0
  0
ARC
  5
2375
330
1F
100
AcDbEntity
  8
Innenkanten
100
AcDbCircle
 10
-34.30348700764847
 20
176.2518646639783
 30
0.0
 40
1.0
100
AcDbArc
 50
296.00009
 51
355.3237899999982
  0
LINE
  5
2376
330
1F
100
AcDbEntity
  8
Innenkanten
100
AcDbLine
 10
-32.82326700764844
 20
201.0102346639783
 30
0.0
 11
-38.41919700764845
 21
203.7395546639784
 31
0.0
  0
ARC
  5
2377
330
1F
100
AcDbEntity
  8
0
100
AcDbCircle
 10
-44.40290700764847
 20
221.6752046639784
 30
0.0
 40
2.0
100
AcDbArc
 50
12.63456899999934
 51
89.99998199999998
  0
ARC
  5
2378
330
1F
100
AcDbEntity
  8
Innenkanten
100
AcDbCircle
 10
-38.04034700764844
 20
217.1967646639783
 30
0.0
 40
5.0
100
AcDbArc
 50
184.181599999999
 51
243.9999900000004
  0
LINE
  5
2379
330
1F
100
AcDbEntity
  8
0
100
AcDbLine
 10
-42.56987700764847
 20
222.4752146639784
 30
0.0
 11
-35.34105700764849
 21
222.4752146639784
 31
0.0
  0
LINE
  5
237A
330
1F
100
AcDbEntity
  8
Mittellinie
100
AcDbLine
 10
-43.75865700764848
 20
211.5576046639783
 30
0.0
 11
-31.80893700764846
 21
223.5073446639784
 31
0.0
  0
ARC
  5
237B
330
1F
100
AcDbEntity
  8
Innenkanten
100
AcDbCircle
 10
-44.40290700764847
 20
221.6752046639784
 30
0.0
 40
1.0
100
AcDbArc
 50
15.77630300000049
 51
89.99998199999998
  0
ARC
  5
237C
330
1F
100
AcDbEntity
  8
Innenkanten
100
AcDbCircle
 10
-38.04034700764844
 20
217.1967646639783
 30
0.0
 40
4.0
100
AcDbArc
 50
184.181599999999
 51
243.9999900000004
  0
ARC
  5
237D
330
1F
100
AcDbEntity
  8
Mittellinie
100
AcDbCircle
 10
-62.84105900764848
 20
192.4752146639784
 30
0.0
 40
35.0
100
AcDbArc
 50
35.18294600000094
 51
52.58794900000069
  0
CIRCLE
  5
237E
330
1F
100
AcDbEntity
  8
Innenkanten
100
AcDbCircle
 10
-38.09232700764846
 20
217.2239446639784
 30
0.0
 40
2.9000001
  0
LINE
  5
237F
330
1F
100
AcDbEntity
  8
0
100
AcDbLine
 10
-32.84105700764849
 20
219.9752146639784
 30
0.0
 11
-32.84105700764849
 21
210.0628846639783
 31
0.0
  0
LINE
  5
2380
330
1F
100
AcDbEntity
  8
Innenkanten
100
AcDbLine
 10
-33.42672700764848
 20
210.4961646639784
 30
0.0
 11
-39.81750700764848
 21
213.6131546639784
 31
0.0
  0
LINE
  5
2381
330
1F
100
AcDbEntity
  8
0
100
AcDbLine
 10
-33.86510700764847
 20
209.5973546639784
 30
0.0
 11
-40.25587700764845
 21
212.7143646639784
 31
0.0
  0
LINE
  5
2382
330
1F
100
AcDbEntity
  8
Innenkanten
100
AcDbLine
 10
-34.07344700764849
 20
209.6989846639784
 30
0.0
 11
-40.23220700764847
 21
212.7028146639784
 31
0.0
  0
LINE
  5
2383
330
1F
100
AcDbEntity
  8
Innenkanten
100
AcDbLine
 10
-40.44104700764847
 20
212.8046346639783
 30
0.0
 11
-40.44104700764847
 21
206.9751946639784
 31
0.0
  0
ARC
  5
2384
330
1F
100
AcDbEntity
  8
0
100
AcDbCircle
 10
-34.30346700764846
 20
208.6985646639784
 30
0.0
 40
2.0
100
AcDbArc
 50
4.676177200000848
 51
63.99994500000001
  0
ARC
  5
2385
330
1F
100
AcDbEntity
  8
Innenkanten
100
AcDbCircle
 10
-34.30346700764846
 20
208.6985646639784
 30
0.0
 40
1.0
100
AcDbArc
 50
4.676177200000848
 51
63.99994500000001
  0
ARC
  5
2386
330
1F
100
AcDbEntity
  8
0
100
AcDbCircle
 10
-35.34105700764849
 20
219.9752146639784
 30
0.0
 40
2.5
100
AcDbArc
 50
0.0
 51
89.99998199999998
  0
ARC
  5
2387
330
1F
100
AcDbEntity
  8
Innenkanten
100
AcDbCircle
 10
-376.1379370076484
 20
192.4773446639784
 30
0.0
 40
335.0
100
AcDbArc
 50
4.181641199999008
 51
5.075230100001
  0
ARC
  5
23B5
330
1F
100
AcDbEntity
  8
0
100
AcDbCircle
 10
265.6589229923515
 20
164.9752146639784
 30
0.0
 40
2.5
100
AcDbArc
 50
270.0000199999995
 51
0.0
  0
ARC
  5
23B6
102
{ACAD_REACTORS
330
28A8
102
}
330
1F
100
AcDbEntity
  8
0
100
AcDbCircle
 10
210.6589229923514
 20
164.9752146639784
 30
0.0
 40
2.5
100
AcDbArc
 50
179.9999799999979
 51
270.0000299999997
  0
ARC
  5
23B7
330
1F
100
AcDbEntity
  8
Mittellinie
100
AcDbCircle
 10
238.1589229923515
 20
192.4752146639784
 30
0.0
 40
35.0
100
AcDbArc
 50
304.9995000000007
 51
324.01243
  0
ARC
  5
23B8
330
1F
100
AcDbEntity
  8
Mittellinie
100
AcDbCircle
 10
238.1589229923515
 20
192.4752146639784
 30
0.0
 40
35.0
100
AcDbArc
 50
215.3289800000008
 51
234.6833999999991
  0
LINE
  5
23B9
102
{ACAD_REACTORS
330
28CB
102
}
330
1F
100
AcDbEntity
  8
Mittellinie
100
AcDbLine
 10
238.1589229923515
 20
226.8411913997478
 30
0.0
 11
238.1589229923515
 21
136.0816146639784
 31
0.0
  0
LINE
  5
23BD
330
1F
100
AcDbEntity
  8
Mittellinie
100
AcDbLine
 10
259.0704829923515
 20
171.5636646639784
 30
0.0
 11
268.1608429923515
 21
162.4733046639784
 31
0.0
  0
LINE
  5
23BE
330
1F
100
AcDbEntity
  8
Mittellinie
100
AcDbLine
 10
208.3309529923515
 20
162.6472546639783
 30
0.0
 11
217.0214429923515
 21
171.3377346639783
 31
0.0
  0
LINE
  5
23CE
330
1F
100
AcDbEntity
  8
0
100
AcDbLine
 10
210.6589229923514
 20
162.4752146639784
 30
0.0
 11
265.6589229923515
 21
162.4752146639784
 31
0.0
  0
LINE
  5
23CF
330
1F
100
AcDbEntity
  8
0
100
AcDbLine
 10
229.1579529923515
 20
125.5004956639784
 30
0.0
 11
229.1639329923515
 21
121.0788876639784
 31
0.0
  0
LINE
  5
23D0
330
1F
100
AcDbEntity
  8
0
100
AcDbLine
 10
247.1580729923515
 20
125.5018536639784
 30
0.0
 11
247.1580729923515
 21
121.0790326639784
 31
0.0
  0
LINE
  5
23D1
330
1F
100
AcDbEntity
  8
0
100
AcDbLine
 10
244.1579529923515
 20
107.9790256639784
 30
0.0
 11
240.7579529923515
 21
107.9790256639784
 31
0.0
  0
LINE
  5
23D2
330
1F
100
AcDbEntity
  8
0
100
AcDbLine
 10
231.1579529923515
 20
114.4790256639784
 30
0.0
 11
245.1579529923515
 21
114.4790256639784
 31
0.0
  0
LINE
  5
23D3
330
1F
100
AcDbEntity
  8
0
100
AcDbLine
 10
229.2639329923515
 20
120.9790336639783
 30
0.0
 11
247.0579429923515
 21
120.9790336639783
 31
0.0
  0
LINE
  5
23D4
330
1F
100
AcDbEntity
  8
0
100
AcDbLine
 10
235.5579429923515
 20
114.4790256639784
 30
0.0
 11
235.5579429923515
 21
107.9790256639784
 31
0.0
  0
LINE
  5
23D5
330
1F
100
AcDbEntity
  8
0
100
AcDbLine
 10
236.4579629923515
 20
107.9790256639784
 30
0.0
 11
236.4579629923515
 21
114.4790256639784
 31
0.0
  0
LINE
  5
23D6
330
1F
100
AcDbEntity
  8
0
100
AcDbLine
 10
239.8579329923515
 20
114.4790256639784
 30
0.0
 11
239.8579329923515
 21
107.9790256639784
 31
0.0
  0
LINE
  5
23D7
330
1F
100
AcDbEntity
  8
0
100
AcDbLine
 10
240.7579529923515
 20
107.9790256639784
 30
0.0
 11
240.7579529923515
 21
114.4790256639784
 31
0.0
  0
LINE
  5
23D8
330
1F
100
AcDbEntity
  8
0
100
AcDbLine
 10
232.1579529923515
 20
107.9790256639784
 30
0.0
 11
232.1579529923515
 21
114.4790256639784
 31
0.0
  0
LINE
  5
23D9
330
1F
100
AcDbEntity
  8
0
100
AcDbLine
 10
235.5579429923515
 20
107.9790256639784
 30
0.0
 11
232.1579529923515
 21
107.9790256639784
 31
0.0
  0
LINE
  5
23DA
330
1F
100
AcDbEntity
  8
0
100
AcDbLine
 10
239.8579329923515
 20
107.9790256639784
 30
0.0
 11
236.4579629923515
 21
107.9790256639784
 31
0.0
  0
LINE
  5
23DB
330
1F
100
AcDbEntity
  8
0
100
AcDbLine
 10
231.1579529923515
 20
120.9790256639784
 30
0.0
 11
231.1579529923515
 21
114.4790256639784
 31
0.0
  0
ARC
  5
23DC
330
1F
100
AcDbEntity
  8
0
100
AcDbCircle
 10
229.2639329923515
 20
121.0790326639784
 30
0.0
 40
0.1
100
AcDbArc
 50
180.0786699999992
 51
270.0000199999995
  0
LINE
  5
23DD
330
1F
100
AcDbEntity
  8
0
100
AcDbLine
 10
244.1579529923515
 20
114.4790256639784
 30
0.0
 11
244.1579529923515
 21
107.9790256639784
 31
0.0
  0
LINE
  5
23DE
330
1F
100
AcDbEntity
  8
0
100
AcDbLine
 10
245.1579529923515
 20
114.4790256639784
 30
0.0
 11
245.1579529923515
 21
120.9790256639784
 31
0.0
  0
ARC
  5
23DF
330
1F
100
AcDbEntity
  8
0
100
AcDbCircle
 10
247.0579429923515
 20
121.0790326639784
 30
0.0
 40
0.1
100
AcDbArc
 50
270.0000199999995
 51
0.0
  0
ARC
  5
23E0
330
1F
100
AcDbEntity
  8
0
100
AcDbCircle
 10
226.5589229923515
 20
155.9275446639784
 30
0.0
 40
1.0
100
AcDbArc
 50
179.9999899999989
 51
266.33435
  0
LINE
  5
23E1
330
1F
100
AcDbEntity
  8
0
100
AcDbLine
 10
225.5589229923515
 20
155.9274346639783
 30
0.0
 11
225.5589229923515
 21
162.4752146639784
 31
0.0
  0
ARC
  5
23E2
330
1F
100
AcDbEntity
  8
0
100
AcDbCircle
 10
239.9078829923515
 20
140.9496846639784
 30
0.0
 40
3.0
100
AcDbArc
 50
54.31321299999987
 51
125.683899999999
  0
ARC
  5
23E3
330
1F
100
AcDbEntity
  8
0
100
AcDbCircle
 10
236.4080429923515
 20
140.3552946639783
 30
0.0
 40
3.5
100
AcDbArc
 50
60.00146299999945
 51
120.0014599999992
  0
ARC
  5
23E4
330
1F
100
AcDbEntity
  8
0
100
AcDbCircle
 10
242.6579529923515
 20
140.5931646639784
 30
0.0
 40
1.0
100
AcDbArc
 50
0.0
 51
89.99998199999998
  0
LINE
  5
23E5
330
1F
100
AcDbEntity
  8
0
100
AcDbLine
 10
232.6579529923515
 20
140.5931646639784
 30
0.0
 11
232.6579529923515
 21
129.8302836639784
 31
0.0
  0
LINE
  5
23E6
330
1F
100
AcDbEntity
  8
0
100
AcDbLine
 10
229.4508229923515
 20
126.2089606639784
 30
0.0
 11
232.3650429923515
 21
129.1231836639784
 31
0.0
  0
ARC
  5
23E7
330
1F
100
AcDbEntity
  8
0
100
AcDbCircle
 10
230.1579529923515
 20
125.5018536639784
 30
0.0
 40
1.0
100
AcDbArc
 50
135.0000099999999
 51
180.0773400000007
  0
ARC
  5
23E8
330
1F
100
AcDbEntity
  8
0
100
AcDbCircle
 10
231.6579529923515
 20
129.8302836639784
 30
0.0
 40
1.0
100
AcDbArc
 50
314.9999999999994
 51
0.0
  0
LINE
  5
23E9
330
1F
100
AcDbEntity
  8
0
100
AcDbLine
 10
242.6579529923515
 20
141.5931646639784
 30
0.0
 11
233.6579529923515
 21
141.5931646639784
 31
0.0
  0
ARC
  5
23EA
330
1F
100
AcDbEntity
  8
0
100
AcDbCircle
 10
233.6579529923515
 20
140.5931646639784
 30
0.0
 40
1.0
100
AcDbArc
 50
89.99998199999998
 51
179.9999599999992
  0
ARC
  5
23EB
330
1F
100
AcDbEntity
  8
0
100
AcDbCircle
 10
236.4078829923515
 20
146.4174746639784
 30
0.0
 40
3.5
100
AcDbArc
 50
240.0014399999991
 51
300.0014300000005
  0
LINE
  5
23EC
330
1F
100
AcDbEntity
  8
0
100
AcDbLine
 10
234.6579529923515
 20
141.5931646639784
 30
0.0
 11
234.6579529923515
 21
143.3863346639784
 31
0.0
  0
LINE
  5
23ED
330
1F
100
AcDbEntity
  8
0
100
AcDbLine
 10
241.6579529923515
 20
143.3863346639784
 30
0.0
 11
241.6579529923515
 21
141.5931646639784
 31
0.0
  0
LINE
  5
23EE
330
1F
100
AcDbEntity
  8
0
100
AcDbLine
 10
243.6579529923515
 20
140.5931646639784
 30
0.0
 11
243.6579529923515
 21
129.8302836639784
 31
0.0
  0
LINE
  5
23EF
330
1F
100
AcDbEntity
  8
0
100
AcDbLine
 10
243.9508229923515
 20
129.1231606639784
 30
0.0
 11
246.8650429923515
 21
126.2089456639784
 31
0.0
  0
ARC
  5
23F0
330
1F
100
AcDbEntity
  8
0
100
AcDbCircle
 10
246.1579529923515
 20
125.5018536639784
 30
0.0
 40
1.0
100
AcDbArc
 50
0.0
 51
44.99984399999951
  0
ARC
  5
23F1
330
1F
100
AcDbEntity
  8
0
100
AcDbCircle
 10
244.6579529923515
 20
129.8302836639784
 30
0.0
 40
1.0
100
AcDbArc
 50
179.9999799999979
 51
224.9999800000006
  0
LINE
  5
23F2
330
1F
100
AcDbEntity
  8
Innenkanten
100
AcDbLine
 10
248.1589229923514
 20
150.6752146639784
 30
0.0
 11
228.1589229923515
 21
150.6752146639784
 31
0.0
  0
LINE
  5
23F3
330
1F
100
AcDbEntity
  8
0
100
AcDbLine
 10
248.1589229923514
 20
159.6752046639784
 30
0.0
 11
228.1589229923515
 21
159.6752046639784
 31
0.0
  0
LINE
  5
23F4
102
{ACAD_REACTORS
330
2907
102
}
330
1F
100
AcDbEntity
  8
0
100
AcDbLine
 10
247.1589229923515
 20
149.6752146639784
 30
0.0
 11
229.1589229923514
 21
149.6752146639784
 31
0.0
  0
LINE
  5
23F5
330
1F
100
AcDbEntity
  8
0
100
AcDbLine
 10
228.1589229923515
 20
159.6752046639784
 30
0.0
 11
228.1589229923515
 21
150.6752146639784
 31
0.0
  0
LINE
  5
23F6
330
1F
100
AcDbEntity
  8
0
100
AcDbLine
 10
233.2989429923515
 20
149.6752146639784
 30
0.0
 11
233.2989429923515
 21
146.7416046639784
 31
0.0
  0
LINE
  5
23F7
330
1F
100
AcDbEntity
  8
0
100
AcDbLine
 10
231.0189429923515
 20
149.6752146639784
 30
0.0
 11
231.0189429923515
 21
146.7473146639783
 31
0.0
  0
ARC
  5
23F8
330
1F
100
AcDbEntity
  8
0
100
AcDbCircle
 10
232.7339329923515
 20
147.7432446639784
 30
0.0
 40
1.149999999999999
100
AcDbArc
 50
240.0000199999998
 51
299.4263499999998
  0
ARC
  5
23F9
330
1F
100
AcDbEntity
  8
0
100
AcDbCircle
 10
232.7339329923515
 20
145.7513846639784
 30
0.0
 40
1.149999999999999
100
AcDbArc
 50
60.57370999999946
 51
120.0000199999996
  0
ARC
  5
23FA
330
1F
100
AcDbEntity
  8
0
100
AcDbCircle
 10
231.5839129923515
 20
147.7432446639784
 30
0.0
 40
1.149999999999999
100
AcDbArc
 50
240.5736500000001
 51
300.0000299999995
  0
ARC
  5
23FB
102
{ACAD_REACTORS
330
2928
102
}
330
1F
100
AcDbEntity
  8
0
100
AcDbCircle
 10
229.1589229923514
 20
150.6752146639784
 30
0.0
 40
1.0
100
AcDbArc
 50
179.9999899999989
 51
270.0
  0
LINE
  5
23FC
330
1F
100
AcDbEntity
  8
0
100
AcDbLine
 10
241.6544429923515
 20
145.4182746639784
 30
0.0
 11
241.6544429923515
 21
149.6752146639784
 31
0.0
  0
LINE
  5
23FD
330
1F
100
AcDbEntity
  8
0
100
AcDbLine
 10
234.6544429923515
 20
145.4182546639784
 30
0.0
 11
234.6544429923515
 21
149.6752146639784
 31
0.0
  0
LINE
  5
23FE
330
1F
100
AcDbEntity
  8
0
100
AcDbLine
 10
239.0189429923515
 20
149.6752046639784
 30
0.0
 11
239.0189429923515
 21
146.7473046639784
 31
0.0
  0
LINE
  5
23FF
330
1F
100
AcDbEntity
  8
0
100
AcDbLine
 10
241.2989429923515
 20
149.6752146639784
 30
0.0
 11
241.2989429923515
 21
146.7415946639784
 31
0.0
  0
LINE
  5
2400
330
1F
100
AcDbEntity
  8
0
100
AcDbLine
 10
237.2989429923515
 20
149.6752146639784
 30
0.0
 11
237.2989429923515
 21
146.7416046639784
 31
0.0
  0
LINE
  5
2401
330
1F
100
AcDbEntity
  8
0
100
AcDbLine
 10
235.0189429923515
 20
149.6752146639784
 30
0.0
 11
235.0189429923515
 21
146.7473146639783
 31
0.0
  0
ARC
  5
2402
330
1F
100
AcDbEntity
  8
0
100
AcDbCircle
 10
239.9044129923515
 20
142.3872046639784
 30
0.0
 40
3.5
100
AcDbArc
 50
60.00154499999965
 51
120.0014399999997
  0
ARC
  5
2403
330
1F
100
AcDbEntity
  8
0
100
AcDbCircle
 10
239.9042529923515
 20
148.4493846639784
 30
0.0
 40
3.5
100
AcDbArc
 50
240.0014999999995
 51
300.0014899999989
  0
ARC
  5
2404
330
1F
100
AcDbEntity
  8
0
100
AcDbCircle
 10
236.4043829923515
 20
147.8549946639784
 30
0.0
 40
3.0
100
AcDbArc
 50
234.3132399999999
 51
305.6839299999989
  0
ARC
  5
2405
330
1F
100
AcDbEntity
  8
0
100
AcDbCircle
 10
235.5839129923515
 20
147.7432446639784
 30
0.0
 40
1.149999999999999
100
AcDbArc
 50
240.5736500000001
 51
300.0000299999995
  0
ARC
  5
2406
330
1F
100
AcDbEntity
  8
0
100
AcDbCircle
 10
236.7339329923515
 20
147.7432446639784
 30
0.0
 40
1.149999999999999
100
AcDbArc
 50
240.0000199999998
 51
299.4263499999998
  0
ARC
  5
2407
330
1F
100
AcDbEntity
  8
0
100
AcDbCircle
 10
236.7339329923515
 20
145.7513846639784
 30
0.0
 40
1.149999999999999
100
AcDbArc
 50
60.57370999999946
 51
120.0000199999996
  0
ARC
  5
2408
330
1F
100
AcDbEntity
  8
0
100
AcDbCircle
 10
240.7339329923515
 20
145.7513846639784
 30
0.0
 40
1.149999999999999
100
AcDbArc
 50
60.57370999999946
 51
120.0000199999996
  0
ARC
  5
2409
330
1F
100
AcDbEntity
  8
0
100
AcDbCircle
 10
240.7339329923515
 20
147.7432446639784
 30
0.0
 40
1.149999999999999
100
AcDbArc
 50
240.0000199999998
 51
299.4263499999998
  0
ARC
  5
240A
330
1F
100
AcDbEntity
  8
0
100
AcDbCircle
 10
239.5839129923515
 20
147.7432446639784
 30
0.0
 40
1.149999999999999
100
AcDbArc
 50
240.5736500000001
 51
300.0000299999995
  0
ARC
  5
240B
330
1F
100
AcDbEntity
  8
0
100
AcDbCircle
 10
238.1589529923514
 20
299.4594646639784
 30
0.0
 40
145.0
100
AcDbArc
 50
265.3805199999996
 51
266.0454099999999
  0
LINE
  5
240C
330
1F
100
AcDbEntity
  8
0
100
AcDbLine
 10
229.1589229923514
 20
162.4752146639784
 30
0.0
 11
229.1589229923514
 21
159.6752046639784
 31
0.0
  0
LINE
  5
240D
330
1F
100
AcDbEntity
  8
0
100
AcDbLine
 10
248.1589229923514
 20
159.6752046639784
 30
0.0
 11
248.1589229923514
 21
150.6752146639784
 31
0.0
  0
LINE
  5
240E
330
1F
100
AcDbEntity
  8
0
100
AcDbLine
 10
245.2989429923515
 20
149.6752146639784
 30
0.0
 11
245.2989429923515
 21
146.7416046639784
 31
0.0
  0
LINE
  5
240F
330
1F
100
AcDbEntity
  8
0
100
AcDbLine
 10
243.0189429923515
 20
149.6752046639784
 30
0.0
 11
243.0189429923515
 21
146.7473046639784
 31
0.0
  0
ARC
  5
2410
330
1F
100
AcDbEntity
  8
0
100
AcDbCircle
 10
243.5839129923515
 20
147.7432446639784
 30
0.0
 40
1.149999999999999
100
AcDbArc
 50
240.5736500000001
 51
300.0000299999995
  0
ARC
  5
2411
330
1F
100
AcDbEntity
  8
0
100
AcDbCircle
 10
244.7339329923515
 20
147.7432446639784
 30
0.0
 40
1.149999999999999
100
AcDbArc
 50
240.0000199999998
 51
299.4263499999998
  0
ARC
  5
2412
330
1F
100
AcDbEntity
  8
0
100
AcDbCircle
 10
244.7339329923515
 20
145.7513846639784
 30
0.0
 40
1.149999999999999
100
AcDbArc
 50
60.57370999999946
 51
120.0000199999996
  0
ARC
  5
2413
102
{ACAD_REACTORS
330
2928
102
}
330
1F
100
AcDbEntity
  8
0
100
AcDbCircle
 10
247.1589229923515
 20
150.6752146639784
 30
0.0
 40
1.0
100
AcDbArc
 50
270.0
 51
0.0
  0
ARC
  5
2414
330
1F
100
AcDbEntity
  8
0
100
AcDbCircle
 10
249.7589329923515
 20
155.9275446639784
 30
0.0
 40
1.0
100
AcDbArc
 50
273.6656599999999
 51
0.0
  0
LINE
  5
2415
330
1F
100
AcDbEntity
  8
0
100
AcDbLine
 10
250.7589329923515
 20
155.9275446639784
 30
0.0
 11
250.7589329923515
 21
162.4752146639784
 31
0.0
  0
ARC
  5
2416
330
1F
100
AcDbEntity
  8
0
100
AcDbCircle
 10
238.1589529923514
 20
299.4594646639784
 30
0.0
 40
145.0
100
AcDbArc
 50
273.9545599999999
 51
274.6194200000001
  0
LINE
  5
2417
330
1F
100
AcDbEntity
  8
0
100
AcDbLine
 10
247.1589229923515
 20
162.4752146639784
 30
0.0
 11
247.1589229923515
 21
159.6752046639784
 31
0.0
  0
CIRCLE
  5
241F
330
1F
100
AcDbEntity
  8
Innenkanten
100
AcDbCircle
 10
238.1589229923515
 20
192.4752146639784
 30
0.0
 40
25.0
  0
ARC
  5
2420
330
1F
100
AcDbEntity
  8
Mittellinie
100
AcDbCircle
 10
238.1589229923515
 20
192.4752146639784
 30
0.0
 40
35.0
100
AcDbArc
 50
34.2329969999995
 51
55.38644100000016
  0
LINE
  5
2421
102
{ACAD_REACTORS
330
2907
102
}
330
1F
100
AcDbEntity
  8
Mittellinie
100
AcDbLine
 10
272.1573729923515
 20
192.4752146639784
 30
0.0
 11
202.9088329923515
 21
192.4752146639784
 31
0.0
  0
LINE
  5
2422
102
{ACAD_REACTORS
330
28A8
102
}
330
1F
100
AcDbEntity
  8
0
100
AcDbLine
 10
210.6589229923514
 20
222.4752146639784
 30
0.0
 11
265.6589229923515
 21
222.4752146639784
 31
0.0
  0
LINE
  5
2423
330
1F
100
AcDbEntity
  8
Mittellinie
100
AcDbLine
 10
258.8512729923515
 20
213.1675446639784
 30
0.0
 11
268.6081129923514
 21
222.9244146639783
 31
0.0
  0
LINE
  5
2424
330
1F
100
AcDbEntity
  8
0
100
AcDbLine
 10
208.1589229923515
 20
219.9752146639784
 30
0.0
 11
208.1589229923515
 21
164.9752146639784
 31
0.0
  0
CIRCLE
  5
2425
330
1F
100
AcDbEntity
  8
Innenkanten
100
AcDbCircle
 10
213.4101729923515
 20
167.7264746639784
 30
0.0
 40
2.9000001
  0
CIRCLE
  5
2426
330
1F
100
AcDbEntity
  8
Innenkanten
100
AcDbCircle
 10
238.1589229923515
 20
192.4752146639784
 30
0.0
 40
7.0
  0
ARC
  5
2427
102
{ACAD_REACTORS
330
2887
102
}
330
1F
100
AcDbEntity
  8
0
100
AcDbCircle
 10
210.6589229923514
 20
219.9752146639784
 30
0.0
 40
2.5
100
AcDbArc
 50
89.99998199999998
 51
179.9999599999992
  0
ARC
  5
2428
102
{ACAD_REACTORS
330
28E5
102
}
330
1F
100
AcDbEntity
  8
Mittellinie
100
AcDbCircle
 10
238.1589229923515
 20
192.4752146639784
 30
0.0
 40
35.0
100
AcDbArc
 50
124.9995200000005
 51
144.1674399999989
  0
LINE
  5
2429
102
{ACAD_REACTORS
330
28CB
102
}
330
1F
100
AcDbEntity
  8
Mittellinie
100
AcDbLine
 10
207.6837329923515
 20
222.9504046639784
 30
0.0
 11
217.2406529923514
 21
213.3935046639784
 31
0.0
  0
CIRCLE
  5
242A
102
{ACAD_REACTORS
330
28EE
102
}
330
1F
100
AcDbEntity
  8
Innenkanten
100
AcDbCircle
 10
213.4101729923515
 20
217.2239446639784
 30
0.0
 40
2.9000001
  0
LINE
  5
242B
102
{ACAD_REACTORS
330
2887
102
}
330
1F
100
AcDbEntity
  8
0
100
AcDbLine
 10
268.1589229923515
 20
219.9752146639784
 30
0.0
 11
268.1589229923515
 21
164.9752146639784
 31
0.0
  0
CIRCLE
  5
242C
330
1F
100
AcDbEntity
  8
Innenkanten
100
AcDbCircle
 10
262.9076729923515
 20
167.7264746639784
 30
0.0
 40
2.9000001
  0
CIRCLE
  5
242D
330
1F
100
AcDbEntity
  8
Innenkanten
100
AcDbCircle
 10
262.9076729923515
 20
217.2239446639784
 30
0.0
 40
2.9000001
  0
ARC
  5
242E
330
1F
100
AcDbEntity
  8
0
100
AcDbCircle
 10
265.6589229923515
 20
219.9752146639784
 30
0.0
 40
2.5
100
AcDbArc
 50
0.0
 51
89.99998199999998
  0
LINE
  5
24AF
330
1F
100
AcDbEntity
  8
0
100
AcDbLine
 10
336.6261359620314
 20
114.4859485423536
 30
0.0
 11
336.6261359620314
 21
107.9859485423536
 31
0.0
  0
LINE
  5
24B0
330
1F
100
AcDbEntity
  8
0
100
AcDbLine
 10
333.2261459620315
 20
107.9859485423536
 30
0.0
 11
333.2261459620315
 21
114.4859485423536
 31
0.0
  0
LINE
  5
24B1
330
1F
100
AcDbEntity
  8
0
100
AcDbLine
 10
341.8261259620314
 20
107.9859485423536
 30
0.0
 11
341.8261259620314
 21
114.4859485423536
 31
0.0
  0
LINE
  5
24B2
330
1F
100
AcDbEntity
  8
0
100
AcDbLine
 10
337.5261359620314
 20
107.9859485423536
 30
0.0
 11
337.5261359620314
 21
114.4859485423536
 31
0.0
  0
LINE
  5
24B3
330
1F
100
AcDbEntity
  8
0
100
AcDbLine
 10
340.9261259620315
 20
107.9859485423536
 30
0.0
 11
340.9261259620315
 21
114.4859485423536
 31
0.0
  0
LINE
  5
24B4
330
1F
100
AcDbEntity
  8
0
100
AcDbLine
 10
345.2261159620314
 20
107.9859485423536
 30
0.0
 11
345.2261159620314
 21
114.4859485423536
 31
0.0
  0
LINE
  5
24B5
330
1F
100
AcDbEntity
  8
0
100
AcDbLine
 10
340.9261259620315
 20
107.9859485423536
 30
0.0
 11
337.5261359620314
 21
107.9859485423536
 31
0.0
  0
LINE
  5
24B6
330
1F
100
AcDbEntity
  8
0
100
AcDbLine
 10
336.6261359620314
 20
107.9859485423536
 30
0.0
 11
333.2261459620315
 21
107.9859485423536
 31
0.0
  0
LINE
  5
24B7
330
1F
100
AcDbEntity
  8
0
100
AcDbLine
 10
345.2261459620315
 20
107.9859485423536
 30
0.0
 11
341.8261259620314
 21
107.9859485423536
 31
0.0
  0
LINE
  5
24B8
330
1F
100
AcDbEntity
  8
0
100
AcDbLine
 10
366.9226359620314
 20
222.6780755423536
 30
0.0
 11
331.7765959620314
 21
222.6780755423536
 31
0.0
  0
LINE
  5
24B9
102
{ACAD_REACTORS
330
2677
102
}
330
1F
100
AcDbEntity
  8
Mittellinie
100
AcDbLine
 10
494.5623596430878
 20
192.4780855423536
 30
0.0
 11
321.5840259620315
 21
192.4780855423536
 31
0.0
  0
LINE
  5
24BA
330
1F
100
AcDbEntity
  8
Innenkanten
100
AcDbLine
 10
453.1226159620315
 20
215.4780855423536
 30
0.0
 11
332.3517759620315
 21
215.4780855423536
 31
0.0
  0
LINE
  5
24BB
330
1F
100
AcDbEntity
  8
Innenkanten
100
AcDbLine
 10
451.1226159620314
 20
169.4780855423536
 30
0.0
 11
332.3517759620315
 21
169.4780855423536
 31
0.0
  0
LINE
  5
24BC
330
1F
100
AcDbEntity
  8
Innenkanten
100
AcDbLine
 10
453.1226159620315
 20
175.4780855423536
 30
0.0
 11
332.6226259620315
 21
175.4780855423536
 31
0.0
  0
LINE
  5
24BD
330
1F
100
AcDbEntity
  8
Innenkanten
100
AcDbLine
 10
453.1226159620315
 20
209.4780855423536
 30
0.0
 11
332.6226259620315
 21
209.4780855423536
 31
0.0
  0
LINE
  5
24BE
330
1F
100
AcDbEntity
  8
0
100
AcDbLine
 10
369.6226259620315
 20
161.2780855423536
 30
0.0
 11
351.4528159620315
 21
161.2780855423536
 31
0.0
  0
ARC
  5
24BF
330
1F
100
AcDbEntity
  8
0
100
AcDbCircle
 10
528.6227359620315
 20
192.4781255423536
 30
0.0
 40
200.0001099999999
100
AcDbArc
 50
184.9381800000013
 51
188.4509699999997
  0
LINE
  5
24C0
330
1F
100
AcDbEntity
  8
0
100
AcDbLine
 10
348.2261459620315
 20
120.9859485423536
 30
0.0
 11
348.2261459620315
 21
141.6000855423536
 31
0.0
  0
LINE
  5
24C1
330
1F
100
AcDbEntity
  8
0
100
AcDbLine
 10
330.2261459620315
 20
141.6000855423536
 30
0.0
 11
330.2261459620315
 21
120.9859485423536
 31
0.0
  0
LINE
  5
24C2
330
1F
100
AcDbEntity
  8
0
100
AcDbLine
 10
346.2261459620315
 20
114.4859485423536
 30
0.0
 11
332.2261459620315
 21
114.4859485423536
 31
0.0
  0
LINE
  5
24C3
330
1F
100
AcDbEntity
  8
0
100
AcDbLine
 10
330.2261459620315
 20
120.9859485423536
 30
0.0
 11
348.2261459620315
 21
120.9859485423536
 31
0.0
  0
LINE
  5
24C4
330
1F
100
AcDbEntity
  8
Innenkanten
100
AcDbLine
 10
348.2261459620315
 20
125.8279125423536
 30
0.0
 11
330.2261459620315
 21
125.8279125423536
 31
0.0
  0
LINE
  5
24C5
330
1F
100
AcDbEntity
  8
Innenkanten
100
AcDbLine
 10
348.2261459620315
 20
129.4279805423536
 30
0.0
 11
330.2261459620315
 21
129.4279805423536
 31
0.0
  0
LINE
  5
24C6
330
1F
100
AcDbEntity
  8
0
100
AcDbLine
 10
332.2261459620315
 20
114.4859485423536
 30
0.0
 11
332.2261459620315
 21
120.9859485423536
 31
0.0
  0
LINE
  5
24C7
330
1F
100
AcDbEntity
  8
0
100
AcDbLine
 10
346.2261459620315
 20
120.9859485423536
 30
0.0
 11
346.2261459620315
 21
114.4859485423536
 31
0.0
  0
ARC
  5
24C8
330
1F
100
AcDbEntity
  8
0
100
AcDbCircle
 10
337.4762259620315
 20
140.3622155423536
 30
0.0
 40
3.5
100
AcDbArc
 50
60.00146299999915
 51
120.0014599999982
  0
ARC
  5
24C9
330
1F
100
AcDbEntity
  8
0
100
AcDbCircle
 10
337.4760659620315
 20
146.4243955423536
 30
0.0
 40
3.5
100
AcDbArc
 50
240.0014399999988
 51
300.0014300000009
  0
ARC
  5
24CA
330
1F
100
AcDbEntity
  8
0
100
AcDbCircle
 10
337.4725759620314
 20
147.8619155423536
 30
0.0
 40
3.0
100
AcDbArc
 50
234.3132400000007
 51
305.6839299999994
  0
LINE
  5
24CB
330
1F
100
AcDbEntity
  8
0
100
AcDbLine
 10
333.2226159620314
 20
153.7780855423536
 30
0.0
 11
345.9222059620315
 21
153.7780855423536
 31
0.0
  0
LINE
  5
24CC
330
1F
100
AcDbEntity
  8
0
100
AcDbLine
 10
330.7942259620315
 20
163.0854755423536
 30
0.0
 11
351.4528159620315
 21
161.2780855423536
 31
0.0
  0
LINE
  5
24CD
330
1F
100
AcDbEntity
  8
0
100
AcDbLine
 10
348.2261459620315
 20
141.6000855423536
 30
0.0
 11
330.2261459620315
 21
141.6000855423536
 31
0.0
  0
LINE
  5
24CE
330
1F
100
AcDbEntity
  8
0
100
AcDbLine
 10
335.7226159620314
 20
145.4251755423536
 30
0.0
 11
335.7226159620314
 21
153.7780855423536
 31
0.0
  0
LINE
  5
24CF
330
1F
100
AcDbEntity
  8
0
100
AcDbLine
 10
335.7261459620315
 20
143.3932555423536
 30
0.0
 11
335.7261459620315
 21
141.6000855423536
 31
0.0
  0
LINE
  5
24D0
330
1F
100
AcDbEntity
  8
0
100
AcDbLine
 10
337.2226159620314
 20
162.5230655423536
 30
0.0
 11
337.2226159620314
 21
153.7780855423536
 31
0.0
  0
LINE
  5
24D1
330
1F
100
AcDbEntity
  8
0
100
AcDbLine
 10
332.4226359620314
 20
162.9430155423536
 30
0.0
 11
332.4226359620314
 21
154.5780855423536
 31
0.0
  0
ARC
  5
24D2
330
1F
100
AcDbEntity
  8
0
100
AcDbCircle
 10
333.2226159620314
 20
154.5780855423536
 30
0.0
 40
0.8000000099999999
100
AcDbArc
 50
179.9999899999989
 51
270.0
  0
LINE
  5
24D3
330
1F
100
AcDbEntity
  8
0
100
AcDbLine
 10
342.7226159620314
 20
145.4251955423536
 30
0.0
 11
342.7226159620314
 21
153.7780855423536
 31
0.0
  0
ARC
  5
24D4
330
1F
100
AcDbEntity
  8
0
100
AcDbCircle
 10
340.9724359620314
 20
148.4563055423536
 30
0.0
 40
3.5
100
AcDbArc
 50
240.0014999999981
 51
300.0014899999996
  0
ARC
  5
24D5
330
1F
100
AcDbEntity
  8
0
100
AcDbCircle
 10
340.9760859620314
 20
140.9566055423536
 30
0.0
 40
3.0
100
AcDbArc
 50
54.31321299999921
 51
125.6838999999988
  0
LINE
  5
24D6
330
1F
100
AcDbEntity
  8
0
100
AcDbLine
 10
342.7261459620315
 20
141.6000855423536
 30
0.0
 11
342.7261459620315
 21
143.3932555423536
 31
0.0
  0
ARC
  5
24D7
330
1F
100
AcDbEntity
  8
0
100
AcDbCircle
 10
340.9725859620314
 20
142.3941255423536
 30
0.0
 40
3.5
100
AcDbArc
 50
60.00145000000002
 51
120.001439999999
  0
LINE
  5
24D8
330
1F
100
AcDbEntity
  8
0
100
AcDbLine
 10
347.8015959620314
 20
155.0940455423536
 30
0.0
 11
349.5734359620314
 21
159.9621255423536
 31
0.0
  0
ARC
  5
24D9
330
1F
100
AcDbEntity
  8
0
100
AcDbCircle
 10
345.9222059620315
 20
155.7780855423536
 30
0.0
 40
2.0
100
AcDbArc
 50
270.0
 51
340.0000000000004
  0
ARC
  5
24DA
330
1F
100
AcDbEntity
  8
0
100
AcDbCircle
 10
351.4528159620315
 20
159.2780855423536
 30
0.0
 40
2.0
100
AcDbArc
 50
90.00000300000095
 51
160.0000000000004
  0
ARC
  5
24DB
330
1F
100
AcDbEntity
  8
Innenkanten
100
AcDbCircle
 10
528.6227359620315
 20
192.4781255423536
 30
0.0
 40
198.50011
100
AcDbArc
 50
176.6064799999995
 51
183.3935200000004
  0
ARC
  5
24DC
102
{ACAD_REACTORS
330
2677
102
}
330
1F
100
AcDbEntity
  8
0
100
AcDbCircle
 10
528.6227359620315
 20
192.4781255423536
 30
0.0
 40
200.0001099999999
100
AcDbArc
 50
176.5653099999981
 51
183.4346900000019
  0
LINE
  5
24DD
330
1F
100
AcDbEntity
  8
Innenkanten
100
AcDbLine
 10
332.6226259620315
 20
183.7980555423536
 30
0.0
 11
332.6226259620315
 21
172.3080855423536
 31
0.0
  0
LINE
  5
24DE
330
1F
100
AcDbEntity
  8
Mittellinie
100
AcDbLine
 10
327.6708659620314
 20
177.9780855423536
 30
0.0
 11
334.3973059620314
 21
177.9780855423536
 31
0.0
  0
ARC
  5
24DF
330
1F
100
AcDbEntity
  8
Innenkanten
100
AcDbCircle
 10
331.6226259620315
 20
175.4780855423536
 30
0.0
 40
1.0
100
AcDbArc
 50
179.9999799999979
 51
270.0000299999997
  0
ARC
  5
24E0
330
1F
100
AcDbEntity
  8
Innenkanten
100
AcDbCircle
 10
528.6227359620315
 20
192.4781255423536
 30
0.0
 40
198.50011
100
AcDbArc
 50
185.117349999998
 51
186.3955900000005
  0
ARC
  5
24E1
330
1F
100
AcDbEntity
  8
Innenkanten
100
AcDbCircle
 10
332.4226359620314
 20
172.3080855423536
 30
0.0
 40
0.2
100
AcDbArc
 50
263.2349800000016
 51
0.0
  0
LINE
  5
24E2
330
1F
100
AcDbEntity
  8
Innenkanten
100
AcDbLine
 10
332.6226259620315
 20
174.4780855423536
 30
0.0
 11
331.6226259620315
 21
174.4780855423536
 31
0.0
  0
ARC
  5
24E3
330
1F
100
AcDbEntity
  8
Innenkanten
100
AcDbCircle
 10
332.3517759620315
 20
170.4780855423536
 30
0.0
 40
1.0
100
AcDbArc
 50
186.3954
 51
270.0000199999987
  0
ARC
  5
24E4
330
1F
100
AcDbEntity
  8
Innenkanten
100
AcDbCircle
 10
332.2812759620314
 20
171.1164355423536
 30
0.0
 40
1.0
100
AcDbArc
 50
83.23500100000005
 51
186.2088499999996
  0
ARC
  5
24E5
330
1F
100
AcDbEntity
  8
Innenkanten
100
AcDbCircle
 10
329.6226259620315
 20
179.7280855423536
 30
0.0
 40
1.0
100
AcDbArc
 50
89.9999820000008
 51
179.9999599999992
  0
LINE
  5
24E6
330
1F
100
AcDbEntity
  8
Innenkanten
100
AcDbLine
 10
329.6226259620315
 20
180.7280855423536
 30
0.0
 11
330.6543859620314
 21
180.7280855423536
 31
0.0
  0
ARC
  5
24E7
330
1F
100
AcDbEntity
  8
Innenkanten
100
AcDbCircle
 10
331.6226259620315
 20
180.4780855423536
 30
0.0
 40
1.0
100
AcDbArc
 50
89.9999820000008
 51
179.9999599999992
  0
LINE
  5
24E8
330
1F
100
AcDbEntity
  8
Innenkanten
100
AcDbLine
 10
330.6543859620314
 20
175.2280855423536
 30
0.0
 11
329.6226259620315
 21
175.2280855423536
 31
0.0
  0
ARC
  5
24E9
330
1F
100
AcDbEntity
  8
Innenkanten
100
AcDbCircle
 10
329.6226259620315
 20
176.2280855423536
 30
0.0
 40
1.0
100
AcDbArc
 50
179.9999799999979
 51
270.0000299999997
  0
LINE
  5
24EA
330
1F
100
AcDbEntity
  8
Innenkanten
100
AcDbLine
 10
330.6226259620315
 20
180.4780855423536
 30
0.0
 11
330.6226259620315
 21
175.4780855423536
 31
0.0
  0
LINE
  5
24EB
330
1F
100
AcDbEntity
  8
Innenkanten
100
AcDbLine
 10
328.6226259620315
 20
176.2280855423536
 30
0.0
 11
328.6226259620315
 21
179.7280855423536
 31
0.0
  0
LINE
  5
24EC
330
1F
100
AcDbEntity
  8
Innenkanten
100
AcDbLine
 10
332.6226259620315
 20
181.4780855423536
 30
0.0
 11
331.6226259620315
 21
181.4780855423536
 31
0.0
  0
ARC
  5
24ED
330
1F
100
AcDbEntity
  8
Innenkanten
100
AcDbCircle
 10
331.2720159620314
 20
184.7980555423536
 30
0.0
 40
1.0
100
AcDbArc
 50
182.2281499999995
 51
270.0000199999987
  0
LINE
  5
24EE
330
1F
100
AcDbEntity
  8
Innenkanten
100
AcDbLine
 10
331.2720159620314
 20
183.7980555423536
 30
0.0
 11
332.6226259620315
 21
183.7980555423536
 31
0.0
  0
LINE
  5
24EF
330
1F
100
AcDbEntity
  8
Innenkanten
100
AcDbLine
 10
332.6226259620315
 20
212.8018555423536
 30
0.0
 11
332.6226259620315
 21
201.0512155423536
 31
0.0
  0
ARC
  5
24F0
330
1F
100
AcDbEntity
  8
Innenkanten
100
AcDbCircle
 10
528.6227359620315
 20
192.4781255423536
 30
0.0
 40
198.50011
100
AcDbArc
 50
173.6044199999991
 51
174.882679999998
  0
ARC
  5
24F1
330
1F
100
AcDbEntity
  8
0
100
AcDbCircle
 10
528.6227359620315
 20
192.4781255423536
 30
0.0
 40
200.0001099999999
100
AcDbArc
 50
171.5623300000005
 51
175.0618299999993
  0
ARC
  5
24F2
330
1F
100
AcDbEntity
  8
Innenkanten
100
AcDbCircle
 10
329.6226259620315
 20
205.2280855423536
 30
0.0
 40
1.0
100
AcDbArc
 50
179.9999799999979
 51
270.0000299999997
  0
ARC
  5
24F3
330
1F
100
AcDbEntity
  8
Innenkanten
100
AcDbCircle
 10
331.6226259620315
 20
204.4780855423536
 30
0.0
 40
1.0
100
AcDbArc
 50
179.9999799999979
 51
270.0000299999997
  0
LINE
  5
24F4
330
1F
100
AcDbEntity
  8
Innenkanten
100
AcDbLine
 10
331.2678759620315
 20
201.0512155423536
 30
0.0
 11
332.6226259620315
 21
201.0512155423536
 31
0.0
  0
LINE
  5
24F5
330
1F
100
AcDbEntity
  8
Innenkanten
100
AcDbLine
 10
332.6226259620315
 20
203.4780855423536
 30
0.0
 11
331.6226259620315
 21
203.4780855423536
 31
0.0
  0
ARC
  5
24F6
330
1F
100
AcDbEntity
  8
Innenkanten
100
AcDbCircle
 10
331.2678759620315
 20
200.0512155423536
 30
0.0
 40
1.0
100
AcDbArc
 50
89.9999820000008
 51
177.8024600000019
  0
LINE
  5
24F7
330
1F
100
AcDbEntity
  8
Innenkanten
100
AcDbLine
 10
330.6346959620315
 20
209.7280855423536
 30
0.0
 11
329.6226259620315
 21
209.7280855423536
 31
0.0
  0
ARC
  5
24F8
330
1F
100
AcDbEntity
  8
Innenkanten
100
AcDbCircle
 10
329.6226259620315
 20
208.7280855423536
 30
0.0
 40
1.0
100
AcDbArc
 50
89.9999820000008
 51
179.9999599999992
  0
ARC
  5
24F9
330
1F
100
AcDbEntity
  8
Innenkanten
100
AcDbCircle
 10
331.6226259620315
 20
209.4780855423536
 30
0.0
 40
1.0
100
AcDbArc
 50
89.9999820000008
 51
179.9999599999992
  0
LINE
  5
24FA
330
1F
100
AcDbEntity
  8
Innenkanten
100
AcDbLine
 10
330.6226259620315
 20
204.2280855423536
 30
0.0
 11
329.6226259620315
 21
204.2280855423536
 31
0.0
  0
LINE
  5
24FB
330
1F
100
AcDbEntity
  8
Innenkanten
100
AcDbLine
 10
328.6226259620315
 20
208.7280855423536
 30
0.0
 11
328.6226259620315
 21
205.2280855423536
 31
0.0
  0
LINE
  5
24FC
330
1F
100
AcDbEntity
  8
Innenkanten
100
AcDbLine
 10
330.6226259620315
 20
204.4780855423536
 30
0.0
 11
330.6226259620315
 21
209.4780855423536
 31
0.0
  0
LINE
  5
24FD
330
1F
100
AcDbEntity
  8
Mittellinie
100
AcDbLine
 10
328.2200759620315
 20
206.9780855423536
 30
0.0
 11
333.0955759620314
 21
206.9780855423536
 31
0.0
  0
LINE
  5
24FE
330
1F
100
AcDbEntity
  8
Innenkanten
100
AcDbLine
 10
331.6226259620315
 20
210.4780855423536
 30
0.0
 11
332.6226259620315
 21
210.4780855423536
 31
0.0
  0
LINE
  5
24FF
330
1F
100
AcDbEntity
  8
Innenkanten
100
AcDbLine
 10
332.6226259620315
 20
212.8018555423536
 30
0.0
 11
332.2771259620314
 21
212.8018555423536
 31
0.0
  0
ARC
  5
2500
330
1F
100
AcDbEntity
  8
Innenkanten
100
AcDbCircle
 10
332.3517759620315
 20
214.4780855423536
 30
0.0
 40
1.0
100
AcDbArc
 50
89.9999820000008
 51
173.6045999999999
  0
ARC
  5
2501
330
1F
100
AcDbEntity
  8
Innenkanten
100
AcDbCircle
 10
332.2812759620314
 20
213.8397355423536
 30
0.0
 40
1.0
100
AcDbArc
 50
173.79113
 51
276.76498
  0
ARC
  5
2502
330
1F
100
AcDbEntity
  8
0
100
AcDbCircle
 10
331.7765959620314
 20
221.6780755423536
 30
0.0
 40
1.0
100
AcDbArc
 50
90.00000300000095
 51
171.5623300000005
  0
LINE
  5
2503
102
{ACAD_REACTORS
330
273B
102
}
330
1F
100
AcDbEntity
  8
0
100
AcDbLine
 10
369.6226259620315
 20
222.4780855423536
 30
0.0
 11
460.1226159620314
 21
222.4780855423536
 31
0.0
  0
LINE
  5
2504
102
{ACAD_REACTORS
330
285C
102
}
330
1F
100
AcDbEntity
  8
0
100
AcDbLine
 10
369.6226259620315
 20
162.4780855423536
 30
0.0
 11
460.1226159620314
 21
162.4780855423536
 31
0.0
  0
LINE
  5
2505
330
1F
100
AcDbEntity
  8
Innenkanten
100
AcDbLine
 10
405.6226159620314
 20
222.4780855423536
 30
0.0
 11
405.6226159620314
 21
162.4780855423536
 31
0.0
  0
LINE
  5
2506
330
1F
100
AcDbEntity
  8
Innenkanten
100
AcDbLine
 10
366.9226359620314
 20
222.6780755423536
 30
0.0
 11
366.9226359620314
 21
161.2780855423536
 31
0.0
  0
LINE
  5
2507
330
1F
100
AcDbEntity
  8
0
100
AcDbLine
 10
369.6226259620315
 20
223.4780855423536
 30
0.0
 11
369.6226259620315
 21
161.2780855423536
 31
0.0
  0
LINE
  5
2508
330
1F
100
AcDbEntity
  8
0
100
AcDbLine
 10
415.9726159620314
 20
159.6780755423536
 30
0.0
 11
406.0726159620315
 21
159.6780755423536
 31
0.0
  0
LINE
  5
2509
330
1F
100
AcDbEntity
  8
Innenkanten
100
AcDbLine
 10
415.9726159620314
 20
150.6780855423536
 30
0.0
 11
406.0726159620315
 21
150.6780855423536
 31
0.0
  0
LINE
  5
250A
330
1F
100
AcDbEntity
  8
0
100
AcDbLine
 10
414.9726159620314
 20
149.6780855423536
 30
0.0
 11
407.0726159620314
 21
149.6780855423536
 31
0.0
  0
LINE
  5
250B
330
1F
100
AcDbEntity
  8
0
100
AcDbLine
 10
406.0726159620315
 20
159.6780755423536
 30
0.0
 11
406.0726159620315
 21
150.6780855423536
 31
0.0
  0
ARC
  5
250C
330
1F
100
AcDbEntity
  8
0
100
AcDbCircle
 10
407.0726159620314
 20
150.6780855423536
 30
0.0
 40
1.0
100
AcDbArc
 50
179.9999899999989
 51
270.0
  0
LINE
  5
250D
330
1F
100
AcDbEntity
  8
0
100
AcDbLine
 10
407.1226159620314
 20
162.4780855423536
 30
0.0
 11
407.1226159620314
 21
159.6780755423536
 31
0.0
  0
LINE
  5
250E
330
1F
100
AcDbEntity
  8
0
100
AcDbLine
 10
415.9726159620314
 20
159.6780755423536
 30
0.0
 11
415.9726159620314
 21
150.6780855423536
 31
0.0
  0
LINE
  5
250F
330
1F
100
AcDbEntity
  8
Mittellinie
100
AcDbLine
 10
411.0226059620314
 20
163.6879855423536
 30
0.0
 11
411.0226059620314
 21
139.4682855423536
 31
0.0
  0
LINE
  5
2510
330
1F
100
AcDbEntity
  8
0
100
AcDbLine
 10
411.8728559620315
 20
144.0408155423536
 30
0.0
 11
411.8728559620315
 21
149.6780855423536
 31
0.0
  0
LINE
  5
2511
330
1F
100
AcDbEntity
  8
0
100
AcDbLine
 10
410.1723759620314
 20
149.6780855423536
 30
0.0
 11
410.1723759620314
 21
144.0408355423536
 31
0.0
  0
ARC
  5
2512
330
1F
100
AcDbEntity
  8
0
100
AcDbCircle
 10
411.4478659620314
 20
144.7769455423536
 30
0.0
 40
0.8500000199999998
100
AcDbArc
 50
240.0009499999997
 51
299.9990300000011
  0
ARC
  5
2513
330
1F
100
AcDbEntity
  8
0
100
AcDbCircle
 10
411.4478659620314
 20
143.3046855423536
 30
0.0
 40
0.8500000199999998
100
AcDbArc
 50
60.0009850000009
 51
119.9990300000012
  0
ARC
  5
2514
330
1F
100
AcDbEntity
  8
0
100
AcDbCircle
 10
410.5979059620314
 20
144.7769455423536
 30
0.0
 40
0.8500000199999998
100
AcDbArc
 50
239.9986599999992
 51
299.9990300000011
  0
ARC
  5
2515
330
1F
100
AcDbEntity
  8
0
100
AcDbCircle
 10
414.9726159620314
 20
150.6780855423536
 30
0.0
 40
1.0
100
AcDbArc
 50
270.0
 51
0.0
  0
LINE
  5
2516
330
1F
100
AcDbEntity
  8
0
100
AcDbLine
 10
414.9226159620314
 20
162.4780855423536
 30
0.0
 11
414.9226159620314
 21
159.6780755423536
 31
0.0
  0
ARC
  5
2517
330
1F
100
AcDbEntity
  8
0
100
AcDbCircle
 10
369.4226359620314
 20
223.4780855423536
 30
0.0
 40
0.2
100
AcDbArc
 50
0.0
 51
90.00000300000095
  0
ARC
  5
2518
330
1F
100
AcDbEntity
  8
0
100
AcDbCircle
 10
367.4226359620314
 20
223.1780755423536
 30
0.0
 40
0.5
100
AcDbArc
 50
90.00000300000095
 51
180.0000100000009
  0
LINE
  5
2519
330
1F
100
AcDbEntity
  8
0
100
AcDbLine
 10
369.4226359620314
 20
223.6780755423536
 30
0.0
 11
367.4226359620314
 21
223.6780755423536
 31
0.0
  0
LINE
  5
251A
330
1F
100
AcDbEntity
  8
0
100
AcDbLine
 10
366.9226359620314
 20
223.1780755423536
 30
0.0
 11
366.9226359620314
 21
222.6780755423536
 31
0.0
  0
LINE
  5
251B
330
1F
100
AcDbEntity
  8
Innenkanten
100
AcDbLine
 10
451.1226159620314
 20
222.4780855423536
 30
0.0
 11
451.1226159620314
 21
162.4780855423536
 31
0.0
  0
LINE
  5
251C
330
1F
100
AcDbEntity
  8
Innenkanten
100
AcDbLine
 10
453.1226159620315
 20
175.4780855423536
 30
0.0
 11
453.1226159620315
 21
162.4780855423536
 31
0.0
  0
LINE
  5
251D
102
{ACAD_REACTORS
330
27C2
102
}
330
1F
100
AcDbEntity
  8
0
100
AcDbLine
 10
460.1226159620314
 20
222.4780855423536
 30
0.0
 11
460.1226159620314
 21
162.4780855423536
 31
0.0
  0
LINE
  5
251E
330
1F
100
AcDbEntity
  8
0
100
AcDbLine
 10
490.1226159620314
 20
185.4780855423536
 30
0.0
 11
490.1226159620314
 21
199.4780855423536
 31
0.0
  0
LINE
  5
251F
102
{ACAD_REACTORS
330
27C2
330
283B
102
}
330
1F
100
AcDbEntity
  8
0
100
AcDbLine
 10
463.1226159620315
 20
167.4780855423536
 30
0.0
 11
463.1226159620315
 21
217.4780855423536
 31
0.0
  0
LINE
  5
2520
102
{ACAD_REACTORS
330
281A
102
}
330
1F
100
AcDbEntity
  8
0
100
AcDbLine
 10
463.1226159620315
 20
185.4780855423536
 30
0.0
 11
490.1226159620314
 21
185.4780855423536
 31
0.0
  0
LINE
  5
2521
330
1F
100
AcDbEntity
  8
0
100
AcDbLine
 10
460.1226159620314
 20
167.4780855423536
 30
0.0
 11
463.1226159620315
 21
167.4780855423536
 31
0.0
  0
LINE
  5
2522
102
{ACAD_REACTORS
330
27E5
330
281A
102
}
330
1F
100
AcDbEntity
  8
0
100
AcDbLine
 10
490.1226159620314
 20
199.4780855423536
 30
0.0
 11
463.1226159620315
 21
199.4780855423536
 31
0.0
  0
LINE
  5
2523
102
{ACAD_REACTORS
330
273B
102
}
330
1F
100
AcDbEntity
  8
Innenkanten
100
AcDbLine
 10
453.1226159620315
 20
222.4780855423536
 30
0.0
 11
453.1226159620315
 21
209.4780855423536
 31
0.0
  0
LINE
  5
2524
330
1F
100
AcDbEntity
  8
0
100
AcDbLine
 10
463.1226159620315
 20
217.4780855423536
 30
0.0
 11
460.1226159620314
 21
217.4780855423536
 31
0.0
  0
LINE
  5
25BE
330
1F
100
AcDbEntity
  8
0
100
AcDbLine
 10
143.8914153675591
 20
107.9895601680724
 30
0.0
 11
143.8914153675591
 21
114.4895601680724
 31
0.0
  0
LINE
  5
25BF
330
1F
100
AcDbEntity
  8
0
100
AcDbLine
 10
148.1914053675591
 20
107.9895601680724
 30
0.0
 11
148.1914053675591
 21
114.4895601680724
 31
0.0
  0
LINE
  5
25C0
330
1F
100
AcDbEntity
  8
0
100
AcDbLine
 10
151.5913953675591
 20
107.9895601680724
 30
0.0
 11
151.5913953675591
 21
114.4895601680724
 31
0.0
  0
LINE
  5
25C1
330
1F
100
AcDbEntity
  8
0
100
AcDbLine
 10
147.2914053675591
 20
107.9895601680724
 30
0.0
 11
147.2914053675591
 21
114.4895601680724
 31
0.0
  0
LINE
  5
25C2
330
1F
100
AcDbEntity
  8
0
100
AcDbLine
 10
155.8913853675591
 20
107.9895601680724
 30
0.0
 11
155.8913853675591
 21
114.4895601680724
 31
0.0
  0
LINE
  5
25C3
330
1F
100
AcDbEntity
  8
0
100
AcDbLine
 10
152.4913953675591
 20
114.4895601680724
 30
0.0
 11
152.4913953675591
 21
107.9895601680724
 31
0.0
  0
LINE
  5
25C4
330
1F
100
AcDbEntity
  8
0
100
AcDbLine
 10
148.1914053675591
 20
107.9895601680724
 30
0.0
 11
151.5913953675591
 21
107.9895601680724
 31
0.0
  0
LINE
  5
25C5
330
1F
100
AcDbEntity
  8
0
100
AcDbLine
 10
152.4913953675591
 20
107.9895601680724
 30
0.0
 11
155.8913853675591
 21
107.9895601680724
 31
0.0
  0
LINE
  5
25C6
330
1F
100
AcDbEntity
  8
0
100
AcDbLine
 10
143.8913853675591
 20
107.9895601680724
 30
0.0
 11
147.2914053675591
 21
107.9895601680724
 31
0.0
  0
LINE
  5
25C7
330
1F
100
AcDbEntity
  8
Innenkanten
100
AcDbLine
 10
35.99491536755914
 20
209.4816971680724
 30
0.0
 11
156.4949053675591
 21
209.4816971680724
 31
0.0
  0
LINE
  5
25C8
330
1F
100
AcDbEntity
  8
Innenkanten
100
AcDbLine
 10
35.99491536755914
 20
175.4816971680724
 30
0.0
 11
156.4949053675591
 21
175.4816971680724
 31
0.0
  0
LINE
  5
25C9
330
1F
100
AcDbEntity
  8
Innenkanten
100
AcDbLine
 10
37.99491536755914
 20
169.4816971680724
 30
0.0
 11
156.7657553675591
 21
169.4816971680724
 31
0.0
  0
LINE
  5
25CA
330
1F
100
AcDbEntity
  8
Innenkanten
100
AcDbLine
 10
37.99491536755914
 20
215.4816971680725
 30
0.0
 11
156.7657553675591
 21
215.4816971680724
 31
0.0
  0
LINE
  5
25CB
330
1F
100
AcDbEntity
  8
Mittellinie
100
AcDbLine
 10
-6.060790296807908
 20
192.475998247135
 30
0.0
 11
167.5335053675591
 21
192.4816971680724
 31
0.0
  0
LINE
  5
25CC
330
1F
100
AcDbEntity
  8
0
100
AcDbLine
 10
119.4949053675591
 20
161.2816971680724
 30
0.0
 11
137.6647153675591
 21
161.2816971680724
 31
0.0
  0
LINE
  5
25CD
330
1F
100
AcDbEntity
  8
0
100
AcDbLine
 10
122.1948953675591
 20
222.6816871680724
 30
0.0
 11
157.3409353675591
 21
222.6816871680724
 31
0.0
  0
ARC
  5
25CE
330
1F
100
AcDbEntity
  8
0
100
AcDbCircle
 10
-39.50520463244089
 20
192.4817371680724
 30
0.0
 40
200.0001099999999
100
AcDbArc
 50
351.5490300000003
 51
355.0618199999988
  0
LINE
  5
25CF
330
1F
100
AcDbEntity
  8
0
100
AcDbLine
 10
158.8913853675591
 20
141.6036971680724
 30
0.0
 11
158.8913853675591
 21
120.9895601680724
 31
0.0
  0
LINE
  5
25D0
330
1F
100
AcDbEntity
  8
0
100
AcDbLine
 10
140.8913853675591
 20
120.9895601680724
 30
0.0
 11
140.8913853675591
 21
141.6036971680724
 31
0.0
  0
LINE
  5
25D1
330
1F
100
AcDbEntity
  8
Innenkanten
100
AcDbLine
 10
140.8913853675591
 20
129.4315921680724
 30
0.0
 11
158.8913853675591
 21
129.4315921680724
 31
0.0
  0
LINE
  5
25D2
330
1F
100
AcDbEntity
  8
Innenkanten
100
AcDbLine
 10
140.8913853675591
 20
125.8315241680724
 30
0.0
 11
158.8913853675591
 21
125.8315241680724
 31
0.0
  0
LINE
  5
25D3
330
1F
100
AcDbEntity
  8
0
100
AcDbLine
 10
142.8913853675591
 20
114.4895601680724
 30
0.0
 11
156.8913853675591
 21
114.4895601680724
 31
0.0
  0
LINE
  5
25D4
330
1F
100
AcDbEntity
  8
0
100
AcDbLine
 10
158.8913853675591
 20
120.9895601680724
 30
0.0
 11
140.8913853675591
 21
120.9895601680724
 31
0.0
  0
LINE
  5
25D5
330
1F
100
AcDbEntity
  8
0
100
AcDbLine
 10
156.8913853675591
 20
114.4895601680724
 30
0.0
 11
156.8913853675591
 21
120.9895601680724
 31
0.0
  0
LINE
  5
25D6
330
1F
100
AcDbEntity
  8
0
100
AcDbLine
 10
142.8913853675591
 20
120.9895601680724
 30
0.0
 11
142.8913853675591
 21
114.4895601680724
 31
0.0
  0
ARC
  5
25D7
330
1F
100
AcDbEntity
  8
0
100
AcDbCircle
 10
151.6449553675591
 20
147.8655271680724
 30
0.0
 40
3.0
100
AcDbArc
 50
234.3160700000018
 51
305.6867599999998
  0
ARC
  5
25D8
330
1F
100
AcDbEntity
  8
0
100
AcDbCircle
 10
151.6414653675591
 20
146.4280071680724
 30
0.0
 40
3.5
100
AcDbArc
 50
239.9985699999991
 51
299.9985600000011
  0
ARC
  5
25D9
330
1F
100
AcDbEntity
  8
0
100
AcDbCircle
 10
151.6413053675591
 20
140.3658271680724
 30
0.0
 40
3.5
100
AcDbArc
 50
59.99854000000119
 51
119.9985370000013
  0
LINE
  5
25DA
330
1F
100
AcDbEntity
  8
0
100
AcDbLine
 10
140.8913853675591
 20
141.6036971680724
 30
0.0
 11
158.8913853675591
 21
141.6036971680724
 31
0.0
  0
LINE
  5
25DB
330
1F
100
AcDbEntity
  8
0
100
AcDbLine
 10
155.8949153675591
 20
153.7816971680724
 30
0.0
 11
143.1953253675591
 21
153.7816971680724
 31
0.0
  0
LINE
  5
25DC
330
1F
100
AcDbEntity
  8
0
100
AcDbLine
 10
158.3233053675591
 20
163.0890871680724
 30
0.0
 11
137.6647153675591
 21
161.2816971680724
 31
0.0
  0
LINE
  5
25DD
330
1F
100
AcDbEntity
  8
0
100
AcDbLine
 10
153.3949153675591
 20
145.4287871680724
 30
0.0
 11
153.3949153675591
 21
153.7816971680724
 31
0.0
  0
LINE
  5
25DE
330
1F
100
AcDbEntity
  8
0
100
AcDbLine
 10
153.3913853675591
 20
143.3968671680724
 30
0.0
 11
153.3913853675591
 21
141.6036971680724
 31
0.0
  0
LINE
  5
25DF
330
1F
100
AcDbEntity
  8
0
100
AcDbLine
 10
156.6948953675591
 20
162.9466271680724
 30
0.0
 11
156.6948953675591
 21
154.5816971680724
 31
0.0
  0
LINE
  5
25E0
330
1F
100
AcDbEntity
  8
0
100
AcDbLine
 10
151.8949153675591
 20
162.5266771680724
 30
0.0
 11
151.8949153675591
 21
153.7816971680724
 31
0.0
  0
ARC
  5
25E1
330
1F
100
AcDbEntity
  8
0
100
AcDbCircle
 10
155.8949153675591
 20
154.5816971680724
 30
0.0
 40
0.8000000099999999
100
AcDbArc
 50
270.0
 51
0.0000100000010134
  0
LINE
  5
25E2
330
1F
100
AcDbEntity
  8
0
100
AcDbLine
 10
146.3949153675591
 20
145.4288071680724
 30
0.0
 11
146.3949153675591
 21
153.7816971680724
 31
0.0
  0
ARC
  5
25E3
330
1F
100
AcDbEntity
  8
0
100
AcDbCircle
 10
148.1450953675591
 20
148.4599171680724
 30
0.0
 40
3.5
100
AcDbArc
 50
239.9985100000014
 51
299.9985000000004
  0
LINE
  5
25E4
330
1F
100
AcDbEntity
  8
0
100
AcDbLine
 10
146.3913853675591
 20
141.6036971680724
 30
0.0
 11
146.3913853675591
 21
143.3968671680724
 31
0.0
  0
ARC
  5
25E5
330
1F
100
AcDbEntity
  8
0
100
AcDbCircle
 10
148.1414453675591
 20
140.9602171680724
 30
0.0
 40
3.0
100
AcDbArc
 50
54.31610000000148
 51
125.6867870000001
  0
ARC
  5
25E6
330
1F
100
AcDbEntity
  8
0
100
AcDbCircle
 10
148.1449453675591
 20
142.3977371680724
 30
0.0
 40
3.5
100
AcDbArc
 50
59.99856000000043
 51
119.9985499999999
  0
LINE
  5
25E7
330
1F
100
AcDbEntity
  8
0
100
AcDbLine
 10
141.3159353675591
 20
155.0976571680724
 30
0.0
 11
139.5440953675591
 21
159.9657371680724
 31
0.0
  0
ARC
  5
25E8
330
1F
100
AcDbEntity
  8
0
100
AcDbCircle
 10
143.1953253675591
 20
155.7816971680724
 30
0.0
 40
2.0
100
AcDbArc
 50
200.0
 51
270.0
  0
ARC
  5
25E9
330
1F
100
AcDbEntity
  8
0
100
AcDbCircle
 10
137.6647153675591
 20
159.2816971680724
 30
0.0
 40
2.0
100
AcDbArc
 50
20.00000000000003
 51
89.99999699999987
  0
ARC
  5
25EA
330
1F
100
AcDbEntity
  8
0
100
AcDbCircle
 10
-39.50520463244089
 20
192.4817371680724
 30
0.0
 40
200.0001099999999
100
AcDbArc
 50
356.5653099999981
 51
3.434690000001849
  0
ARC
  5
25EB
330
1F
100
AcDbEntity
  8
Innenkanten
100
AcDbCircle
 10
-39.50520463244089
 20
192.4817371680724
 30
0.0
 40
198.50011
100
AcDbArc
 50
356.6064799999995
 51
3.393520000000432
  0
LINE
  5
25EC
330
1F
100
AcDbEntity
  8
Innenkanten
100
AcDbLine
 10
156.4949053675591
 20
183.8016671680724
 30
0.0
 11
156.4949053675591
 21
172.3116971680724
 31
0.0
  0
LINE
  5
25ED
330
1F
100
AcDbEntity
  8
Mittellinie
100
AcDbLine
 10
161.4466653675591
 20
177.9816971680724
 30
0.0
 11
154.7202253675591
 21
177.9816971680724
 31
0.0
  0
ARC
  5
25EE
330
1F
100
AcDbEntity
  8
Innenkanten
100
AcDbCircle
 10
157.4949053675591
 20
175.4816971680724
 30
0.0
 40
1.0
100
AcDbArc
 50
269.9999700000002
 51
0.0000200000020199
  0
ARC
  5
25EF
330
1F
100
AcDbEntity
  8
Innenkanten
100
AcDbCircle
 10
-39.50520463244089
 20
192.4817371680724
 30
0.0
 40
198.50011
100
AcDbArc
 50
353.6044099999992
 51
354.882650000002
  0
LINE
  5
25F0
330
1F
100
AcDbEntity
  8
Innenkanten
100
AcDbLine
 10
156.4949053675591
 20
174.4816971680724
 30
0.0
 11
157.4949053675591
 21
174.4816971680724
 31
0.0
  0
ARC
  5
25F1
330
1F
100
AcDbEntity
  8
Innenkanten
100
AcDbCircle
 10
156.8362553675591
 20
171.1200471680724
 30
0.0
 40
1.0
100
AcDbArc
 50
353.7911500000005
 51
96.76499899999996
  0
ARC
  5
25F2
330
1F
100
AcDbEntity
  8
Innenkanten
100
AcDbCircle
 10
156.6948953675591
 20
172.3116971680724
 30
0.0
 40
0.2
100
AcDbArc
 50
180.0
 51
276.7650200000001
  0
ARC
  5
25F3
330
1F
100
AcDbEntity
  8
Innenkanten
100
AcDbCircle
 10
156.7657553675591
 20
170.4816971680724
 30
0.0
 40
1.0
100
AcDbArc
 50
269.9999800000004
 51
353.6046
  0
LINE
  5
25F4
330
1F
100
AcDbEntity
  8
Innenkanten
100
AcDbLine
 10
159.4949053675591
 20
180.7316971680724
 30
0.0
 11
158.4631453675591
 21
180.7316971680724
 31
0.0
  0
ARC
  5
25F5
330
1F
100
AcDbEntity
  8
Innenkanten
100
AcDbCircle
 10
157.4949053675591
 20
180.4816971680724
 30
0.0
 40
1.0
100
AcDbArc
 50
0.0000400000007758
 51
90.00001800000001
  0
LINE
  5
25F6
330
1F
100
AcDbEntity
  8
Innenkanten
100
AcDbLine
 10
160.4949053675591
 20
176.2316971680724
 30
0.0
 11
160.4949053675591
 21
179.7316971680724
 31
0.0
  0
ARC
  5
25F7
330
1F
100
AcDbEntity
  8
Innenkanten
100
AcDbCircle
 10
159.4949053675591
 20
176.2316971680724
 30
0.0
 40
1.0
100
AcDbArc
 50
269.9999700000002
 51
0.0000200000020199
  0
LINE
  5
25F8
330
1F
100
AcDbEntity
  8
Innenkanten
100
AcDbLine
 10
158.4631453675591
 20
175.2316971680724
 30
0.0
 11
159.4949053675591
 21
175.2316971680724
 31
0.0
  0
LINE
  5
25F9
330
1F
100
AcDbEntity
  8
Innenkanten
100
AcDbLine
 10
158.4949053675591
 20
180.4816971680724
 30
0.0
 11
158.4949053675591
 21
175.4816971680724
 31
0.0
  0
ARC
  5
25FA
330
1F
100
AcDbEntity
  8
Innenkanten
100
AcDbCircle
 10
159.4949053675591
 20
179.7316971680724
 30
0.0
 40
1.0
100
AcDbArc
 50
0.0000400000007758
 51
90.00001800000001
  0
LINE
  5
25FB
330
1F
100
AcDbEntity
  8
Innenkanten
100
AcDbLine
 10
156.4949053675591
 20
181.4816971680724
 30
0.0
 11
157.4949053675591
 21
181.4816971680724
 31
0.0
  0
ARC
  5
25FC
330
1F
100
AcDbEntity
  8
Innenkanten
100
AcDbCircle
 10
157.8455153675591
 20
184.8016671680724
 30
0.0
 40
1.0
100
AcDbArc
 50
269.9999800000004
 51
357.7718500000004
  0
LINE
  5
25FD
330
1F
100
AcDbEntity
  8
Innenkanten
100
AcDbLine
 10
157.8455153675591
 20
183.8016671680724
 30
0.0
 11
156.4949053675591
 21
183.8016671680724
 31
0.0
  0
ARC
  5
25FE
330
1F
100
AcDbEntity
  8
Innenkanten
100
AcDbCircle
 10
-39.50520463244089
 20
192.4817371680724
 30
0.0
 40
198.50011
100
AcDbArc
 50
5.117320000001865
 51
6.395580000000681
  0
LINE
  5
25FF
330
1F
100
AcDbEntity
  8
Innenkanten
100
AcDbLine
 10
156.4949053675591
 20
212.8054671680724
 30
0.0
 11
156.4949053675591
 21
201.0548271680724
 31
0.0
  0
ARC
  5
2600
330
1F
100
AcDbEntity
  8
0
100
AcDbCircle
 10
-39.50520463244089
 20
192.4817371680724
 30
0.0
 40
200.0001099999999
100
AcDbArc
 50
4.938170000000631
 51
8.437669999999657
  0
ARC
  5
2601
330
1F
100
AcDbEntity
  8
Innenkanten
100
AcDbCircle
 10
157.4949053675591
 20
204.4816971680724
 30
0.0
 40
1.0
100
AcDbArc
 50
269.9999700000002
 51
0.0000200000020199
  0
ARC
  5
2602
330
1F
100
AcDbEntity
  8
Innenkanten
100
AcDbCircle
 10
159.4949053675591
 20
205.2316971680724
 30
0.0
 40
1.0
100
AcDbArc
 50
269.9999700000002
 51
0.0000200000020199
  0
ARC
  5
2603
330
1F
100
AcDbEntity
  8
Innenkanten
100
AcDbCircle
 10
157.8496553675591
 20
200.0548271680724
 30
0.0
 40
1.0
100
AcDbArc
 50
2.197539999998005
 51
90.00001800000001
  0
LINE
  5
2604
330
1F
100
AcDbEntity
  8
Innenkanten
100
AcDbLine
 10
156.4949053675591
 20
203.4816971680724
 30
0.0
 11
157.4949053675591
 21
203.4816971680724
 31
0.0
  0
LINE
  5
2605
330
1F
100
AcDbEntity
  8
Innenkanten
100
AcDbLine
 10
157.8496553675591
 20
201.0548271680724
 30
0.0
 11
156.4949053675591
 21
201.0548271680724
 31
0.0
  0
ARC
  5
2606
330
1F
100
AcDbEntity
  8
Innenkanten
100
AcDbCircle
 10
157.4949053675591
 20
209.4816971680724
 30
0.0
 40
1.0
100
AcDbArc
 50
0.0000400000007758
 51
90.00001800000001
  0
ARC
  5
2607
330
1F
100
AcDbEntity
  8
Innenkanten
100
AcDbCircle
 10
159.4949053675591
 20
208.7316971680724
 30
0.0
 40
1.0
100
AcDbArc
 50
0.0000400000007758
 51
90.00001800000001
  0
LINE
  5
2608
330
1F
100
AcDbEntity
  8
Innenkanten
100
AcDbLine
 10
158.4828353675591
 20
209.7316971680724
 30
0.0
 11
159.4949053675591
 21
209.7316971680724
 31
0.0
  0
LINE
  5
2609
330
1F
100
AcDbEntity
  8
Innenkanten
100
AcDbLine
 10
158.4949053675591
 20
204.2316971680724
 30
0.0
 11
159.4949053675591
 21
204.2316971680724
 31
0.0
  0
LINE
  5
260A
330
1F
100
AcDbEntity
  8
Innenkanten
100
AcDbLine
 10
158.4949053675591
 20
204.4816971680724
 30
0.0
 11
158.4949053675591
 21
209.4816971680724
 31
0.0
  0
LINE
  5
260B
330
1F
100
AcDbEntity
  8
Innenkanten
100
AcDbLine
 10
160.4949053675591
 20
208.7316971680724
 30
0.0
 11
160.4949053675591
 21
205.2316971680724
 31
0.0
  0
LINE
  5
260C
330
1F
100
AcDbEntity
  8
Innenkanten
100
AcDbLine
 10
157.4949053675591
 20
210.4816971680724
 30
0.0
 11
156.4949053675591
 21
210.4816971680724
 31
0.0
  0
LINE
  5
260D
330
1F
100
AcDbEntity
  8
Mittellinie
100
AcDbLine
 10
160.8974553675591
 20
206.9816971680724
 30
0.0
 11
156.0219553675591
 21
206.9816971680724
 31
0.0
  0
LINE
  5
260E
330
1F
100
AcDbEntity
  8
Innenkanten
100
AcDbLine
 10
156.4949053675591
 20
212.8054671680724
 30
0.0
 11
156.8404053675591
 21
212.8054671680724
 31
0.0
  0
ARC
  5
260F
330
1F
100
AcDbEntity
  8
Innenkanten
100
AcDbCircle
 10
156.8362553675591
 20
213.8433471680724
 30
0.0
 40
1.0
100
AcDbArc
 50
263.2350199999998
 51
6.208870000000113
  0
ARC
  5
2610
330
1F
100
AcDbEntity
  8
Innenkanten
100
AcDbCircle
 10
156.7657553675591
 20
214.4816971680724
 30
0.0
 40
1.0
100
AcDbArc
 50
6.395399999999943
 51
90.00001800000001
  0
ARC
  5
2611
330
1F
100
AcDbEntity
  8
0
100
AcDbCircle
 10
157.3409353675591
 20
221.6816871680724
 30
0.0
 40
1.0
100
AcDbArc
 50
8.437669999999657
 51
89.99999699999987
  0
LINE
  5
2612
330
1F
100
AcDbEntity
  8
0
100
AcDbLine
 10
119.4949053675591
 20
222.4816971680724
 30
0.0
 11
28.99491536755914
 21
222.4816971680724
 31
0.0
  0
LINE
  5
2613
330
1F
100
AcDbEntity
  8
0
100
AcDbLine
 10
119.4949053675591
 20
162.4816971680724
 30
0.0
 11
28.99491536755914
 21
162.4816971680724
 31
0.0
  0
LINE
  5
2614
330
1F
100
AcDbEntity
  8
Innenkanten
100
AcDbLine
 10
83.49491536755914
 20
222.4816971680724
 30
0.0
 11
83.49491536755914
 21
162.4816971680724
 31
0.0
  0
LINE
  5
2615
330
1F
100
AcDbEntity
  8
0
100
AcDbLine
 10
119.4949053675591
 20
223.4816971680724
 30
0.0
 11
119.4949053675591
 21
161.2816971680724
 31
0.0
  0
LINE
  5
2616
330
1F
100
AcDbEntity
  8
Innenkanten
100
AcDbLine
 10
122.1948953675591
 20
222.6816871680724
 30
0.0
 11
122.1948953675591
 21
161.2816971680724
 31
0.0
  0
LINE
  5
2617
330
1F
100
AcDbEntity
  8
Innenkanten
100
AcDbLine
 10
73.14491536755915
 20
150.6816971680724
 30
0.0
 11
83.04491536755916
 21
150.6816971680724
 31
0.0
  0
LINE
  5
2618
330
1F
100
AcDbEntity
  8
0
100
AcDbLine
 10
73.14491536755915
 20
159.6816871680724
 30
0.0
 11
83.04491536755916
 21
159.6816871680724
 31
0.0
  0
LINE
  5
2619
330
1F
100
AcDbEntity
  8
0
100
AcDbLine
 10
74.14491536755915
 20
149.6816971680724
 30
0.0
 11
82.04491536755915
 21
149.6816971680724
 31
0.0
  0
LINE
  5
261A
330
1F
100
AcDbEntity
  8
0
100
AcDbLine
 10
83.04491536755916
 20
159.6816871680724
 30
0.0
 11
83.04491536755916
 21
150.6816971680724
 31
0.0
  0
ARC
  5
261B
330
1F
100
AcDbEntity
  8
0
100
AcDbCircle
 10
82.04491536755915
 20
150.6816971680724
 30
0.0
 40
1.0
100
AcDbArc
 50
270.0
 51
0.0000100000010134
  0
LINE
  5
261C
330
1F
100
AcDbEntity
  8
0
100
AcDbLine
 10
81.99491536755914
 20
162.4816971680724
 30
0.0
 11
81.99491536755914
 21
159.6816871680724
 31
0.0
  0
LINE
  5
261D
330
1F
100
AcDbEntity
  8
Mittellinie
100
AcDbLine
 10
78.09492536755917
 20
163.6915971680724
 30
0.0
 11
78.09492536755917
 21
139.4718971680724
 31
0.0
  0
LINE
  5
261E
330
1F
100
AcDbEntity
  8
0
100
AcDbLine
 10
73.14491536755915
 20
159.6816871680724
 30
0.0
 11
73.14491536755915
 21
150.6816971680724
 31
0.0
  0
LINE
  5
261F
330
1F
100
AcDbEntity
  8
0
100
AcDbLine
 10
78.94515536755915
 20
149.6816971680724
 30
0.0
 11
78.94515536755915
 21
144.0444471680724
 31
0.0
  0
LINE
  5
2620
330
1F
100
AcDbEntity
  8
0
100
AcDbLine
 10
77.24467536755915
 20
144.0444271680724
 30
0.0
 11
77.24467536755915
 21
149.6816971680724
 31
0.0
  0
ARC
  5
2621
330
1F
100
AcDbEntity
  8
0
100
AcDbCircle
 10
78.51962536755917
 20
144.7805571680724
 30
0.0
 40
0.8500000199999998
100
AcDbArc
 50
240.0009700000001
 51
300.0013400000012
  0
ARC
  5
2622
330
1F
100
AcDbEntity
  8
0
100
AcDbCircle
 10
77.66966536755916
 20
143.3082971680724
 30
0.0
 40
0.8500000199999998
100
AcDbArc
 50
60.00097000000011
 51
119.9990149999991
  0
ARC
  5
2623
330
1F
100
AcDbEntity
  8
0
100
AcDbCircle
 10
77.66966536755916
 20
144.7805571680724
 30
0.0
 40
0.8500000199999998
100
AcDbArc
 50
240.0009700000001
 51
299.9990500000012
  0
ARC
  5
2624
330
1F
100
AcDbEntity
  8
0
100
AcDbCircle
 10
74.14491536755915
 20
150.6816971680724
 30
0.0
 40
1.0
100
AcDbArc
 50
180.0
 51
270.0
  0
LINE
  5
2625
330
1F
100
AcDbEntity
  8
0
100
AcDbLine
 10
74.19491536755916
 20
162.4816971680724
 30
0.0
 11
74.19491536755916
 21
159.6816871680724
 31
0.0
  0
ARC
  5
2626
330
1F
100
AcDbEntity
  8
0
100
AcDbCircle
 10
119.6948953675591
 20
223.4816971680724
 30
0.0
 40
0.2
100
AcDbArc
 50
89.99999699999987
 51
180.0
  0
LINE
  5
2627
330
1F
100
AcDbEntity
  8
0
100
AcDbLine
 10
119.6948953675591
 20
223.6816871680724
 30
0.0
 11
121.6948953675591
 21
223.6816871680724
 31
0.0
  0
LINE
  5
2628
330
1F
100
AcDbEntity
  8
0
100
AcDbLine
 10
122.1948953675591
 20
223.1816871680724
 30
0.0
 11
122.1948953675591
 21
222.6816871680724
 31
0.0
  0
ARC
  5
2629
330
1F
100
AcDbEntity
  8
0
100
AcDbCircle
 10
121.6948953675591
 20
223.1816871680724
 30
0.0
 40
0.5
100
AcDbArc
 50
359.999989999999
 51
89.99999699999987
  0
LINE
  5
262A
330
1F
100
AcDbEntity
  8
Innenkanten
100
AcDbLine
 10
35.99491536755914
 20
175.4816971680724
 30
0.0
 11
35.99491536755914
 21
162.4816971680724
 31
0.0
  0
LINE
  5
262B
330
1F
100
AcDbEntity
  8
Innenkanten
100
AcDbLine
 10
37.99491536755914
 20
222.4816971680724
 30
0.0
 11
37.99491536755914
 21
162.4816971680724
 31
0.0
  0
LINE
  5
262C
330
1F
100
AcDbEntity
  8
0
100
AcDbLine
 10
28.99491536755914
 20
222.4816971680724
 30
0.0
 11
28.99491536755914
 21
162.4816971680724
 31
0.0
  0
LINE
  5
262D
330
1F
100
AcDbEntity
  8
0
100
AcDbLine
 10
-1.005084632440855
 20
185.4816971680724
 30
0.0
 11
-1.005084632440855
 21
199.4816971680724
 31
0.0
  0
LINE
  5
262E
330
1F
100
AcDbEntity
  8
0
100
AcDbLine
 10
25.99491536755914
 20
167.4816971680724
 30
0.0
 11
25.99491536755914
 21
217.4816971680724
 31
0.0
  0
LINE
  5
262F
330
1F
100
AcDbEntity
  8
0
100
AcDbLine
 10
25.99491536755914
 20
185.4816971680724
 30
0.0
 11
-1.005084632440855
 21
185.4816971680724
 31
0.0
  0
LINE
  5
2630
330
1F
100
AcDbEntity
  8
0
100
AcDbLine
 10
28.99491536755914
 20
167.4816971680724
 30
0.0
 11
25.99491536755914
 21
167.4816971680724
 31
0.0
  0
LINE
  5
2631
330
1F
100
AcDbEntity
  8
0
100
AcDbLine
 10
-1.005084632440855
 20
199.4816971680724
 30
0.0
 11
25.99491536755914
 21
199.4816971680724
 31
0.0
  0
LINE
  5
2632
330
1F
100
AcDbEntity
  8
Innenkanten
100
AcDbLine
 10
35.99491536755914
 20
222.4816971680724
 30
0.0
 11
35.99491536755914
 21
209.4816971680724
 31
0.0
  0
LINE
  5
2633
330
1F
100
AcDbEntity
  8
0
100
AcDbLine
 10
25.99491536755914
 20
217.4816971680724
 30
0.0
 11
28.99491536755914
 21
217.4816971680724
 31
0.0
  0
DIMENSION
  5
2660
102
{ACAD_XDICTIONARY
360
266D
102
}
102
{ACAD_REACTORS
330
2677
102
}
330
1F
100
AcDbEntity
  8
Bemaßung
100
AcDbDimension
  2
*D0
 10
328.6226259620356
 20
235.0147167723128
 30
0.0
 11
349.1226259620335
 21
235.0147167723128
 31
0.0
 70
   160
 71
     5
 42
41.00000999999582
  3
ISO-25
100
AcDbAlignedDimension
 13
369.6226359620314
 23
223.4780855423536
 33
0.0
 14
328.6226259620356
 24
192.4780855423536
 34
0.0
100
AcDbRotatedDimension
  0
DIMENSION
  5
26D2
330
1F
100
AcDbEntity
  8
Bemaßung
100
AcDbDimension
  2
*D1
 10
366.9226359620314
 20
228.8608712183052
 30
0.0
 11
358.5893026286981
 21
230.9442045516386
 31
0.0
 70
    32
 71
     5
 42
2.699999999999988
  3
ISO-25
100
AcDbAlignedDimension
 13
369.6226359620314
 23
223.4780855423536
 33
0.0
 14
366.9226359620314
 24
223.1780754550872
 34
0.0
100
AcDbRotatedDimension
  0
DIMENSION
  5
2702
330
1F
100
AcDbEntity
  8
Bemaßung
100
AcDbDimension
  2
*D2
 10
460.1226159620314
 20
242.2260254720709
 30
0.0
 11
394.3726209620335
 21
244.3093588054043
 31
0.0
 70
    32
 71
     5
 42
131.4999899999958
  3
ISO-25
100
AcDbAlignedDimension
 13
328.6226259620356
 23
192.4780855423536
 33
0.0
 14
460.1226159620314
 24
222.4780855423536
 34
0.0
100
AcDbRotatedDimension
  0
DIMENSION
  5
2724
102
{ACAD_XDICTIONARY
360
2731
102
}
102
{ACAD_REACTORS
330
273B
102
}
330
1F
100
AcDbEntity
  8
Bemaßung
100
AcDbDimension
  2
*D3
 10
453.1226159620315
 20
228.8608712183052
 30
0.0
 11
456.6226159620314
 21
230.7358712183051
 31
0.0
 70
    32
 71
     5
 42
6.999999999999943
  3
ISO-25
100
AcDbAlignedDimension
 13
460.1226159620314
 23
222.4780855423536
 33
0.0
 14
453.1226159620315
 24
222.4780855423536
 34
0.0
100
AcDbRotatedDimension
  0
DIMENSION
  5
27A7
102
{ACAD_XDICTIONARY
360
27B6
102
}
102
{ACAD_REACTORS
330
27C2
102
}
330
1F
100
AcDbEntity
  8
Bemaßung
100
AcDbDimension
  2
*D4
 10
460.1226159620314
 20
228.8608712183052
 30
0.0
 11
461.6226159620315
 21
230.7358712183053
 31
0.0
 70
    32
 71
     5
 42
3.0
  3
ISO-25
100
AcDbAlignedDimension
 13
463.1226159620315
 23
217.4780855423536
 33
0.0
 14
460.1226159620314
 24
217.4780855423536
 34
0.0
100
AcDbRotatedDimension
  0
DIMENSION
  5
27CE
102
{ACAD_XDICTIONARY
360
27DB
102
}
102
{ACAD_REACTORS
330
27E5
102
}
330
1F
100
AcDbEntity
  8
Bemaßung
100
AcDbDimension
  2
*D5
 10
490.1226159620314
 20
242.2260254720709
 30
0.0
 11
475.1226159620314
 21
244.101025472071
 31
0.0
 70
    32
 71
     5
 42
29.99999999999994
  3
ISO-25
100
AcDbAlignedDimension
 13
460.1226159620314
 23
217.4780855423536
 33
0.0
 14
490.1226159620314
 24
199.4780855423536
 34
0.0
100
AcDbRotatedDimension
1001
ACAD
1000
DSTYLE
1002
{
1070
   279
1070
     1
1002
}
  0
DIMENSION
  5
2803
102
{ACAD_XDICTIONARY
360
2810
102
}
102
{ACAD_REACTORS
330
281A
102
}
330
1F
100
AcDbEntity
  8
Bemaßung
100
AcDbDimension
  2
*D6
 10
503.0427125895664
 20
185.4780855423536
 30
0.0
 11
501.1677125895665
 21
192.4780855423537
 31
0.0
 70
    32
 71
     5
 42
14.0
  3
ISO-25
100
AcDbAlignedDimension
 13
490.1226159620314
 23
199.4780855423536
 33
0.0
 14
490.1226159620314
 24
185.4780855423536
 34
0.0
 50
90.0
100
AcDbRotatedDimension
  0
DIMENSION
  5
2824
102
{ACAD_XDICTIONARY
360
2831
102
}
102
{ACAD_REACTORS
330
283B
102
}
330
1F
100
AcDbEntity
  8
Bemaßung
100
AcDbDimension
  2
*D7
 10
513.9376519933311
 20
167.4780855423536
 30
0.0
 11
512.0626519933312
 21
192.4780855423537
 31
0.0
 70
    32
 71
     5
 42
50.0
  3
ISO-25
100
AcDbAlignedDimension
 13
463.1226159620315
 23
217.4780855423536
 33
0.0
 14
463.1226159620315
 24
167.4780855423536
 34
0.0
 50
90.0
100
AcDbRotatedDimension
  0
DIMENSION
  5
2845
102
{ACAD_XDICTIONARY
360
2852
102
}
102
{ACAD_REACTORS
330
285C
102
}
330
1F
100
AcDbEntity
  8
Bemaßung
100
AcDbDimension
  2
*D8
 10
411.0226059620314
 20
131.9400626243897
 30
0.0
 11
435.5726109620314
 21
134.023395957723
 31
0.0
 70
    32
 71
     5
 42
49.10001
  3
ISO-25
100
AcDbAlignedDimension
 13
460.1226159620314
 23
162.4780855423536
 33
0.0
 14
411.0226059620314
 24
139.4682855423536
 34
0.0
100
AcDbRotatedDimension
  0
DIMENSION
  5
2870
102
{ACAD_XDICTIONARY
360
287D
102
}
102
{ACAD_REACTORS
330
2887
102
}
330
1F
100
AcDbEntity
  8
Bemaßung
100
AcDbDimension
  2
*D9
 10
268.1589229923515
 20
242.2260254720709
 30
0.0
 11
238.1589229923518
 21
244.101025472071
 31
0.0
 70
    32
 71
     5
 42
59.99999999999937
  3
ISO-25
100
AcDbAlignedDimension
 13
208.1589229923521
 23
219.9752164093077
 33
0.0
 14
268.1589229923515
 24
219.9752146639784
 34
0.0
100
AcDbRotatedDimension
  0
DIMENSION
  5
2891
102
{ACAD_XDICTIONARY
360
289E
102
}
102
{ACAD_REACTORS
330
28A8
102
}
330
1F
100
AcDbEntity
  8
Bemaßung
100
AcDbDimension
  2
*D10
 10
192.6068277996353
 20
162.4752146639787
 30
0.0
 11
190.7318277996352
 21
192.4752146639786
 31
0.0
 70
    32
 71
     5
 42
59.99999999999966
  3
ISO-25
100
AcDbAlignedDimension
 13
210.6589229923514
 23
222.4752146639784
 33
0.0
 14
210.6589243013484
 24
162.4752146639787
 34
0.0
 50
90.0
100
AcDbRotatedDimension
  0
DIMENSION
  5
28B2
102
{ACAD_XDICTIONARY
360
28C0
102
}
102
{ACAD_REACTORS
330
28CB
102
}
330
1F
100
AcDbEntity
  8
Bemaßung
100
AcDbDimension
  2
*D11
 10
217.2406529923514
 20
213.3935046639784
 30
0.0
 11
222.3265675233411
 21
230.6979091766076
 31
0.0
 70
    34
 71
     5
 42
0.7853992097607576
  3
ISO-25
100
AcDb2LineAngularDimension
 13
238.1589229923515
 23
226.8411913997478
 33
0.0
 14
238.1589229923515
 24
136.0816146639784
 34
0.0
 15
207.6837329923515
 25
222.9504046639784
 35
0.0
 16
227.9363632762386
 26
230.6263374575971
 36
0.0
  0
DIMENSION
  5
28D6
102
{ACAD_XDICTIONARY
360
28DF
102
}
102
{ACAD_REACTORS
330
28E5
102
}
330
1F
100
AcDbEntity
  8
Bemaßung
100
AcDbDimension
  2
*D12
 10
265.9750238877619
 20
171.2322268567903
 30
0.0
 11
252.1190728218621
 21
181.8139327779991
 31
0.0
 70
   163
 71
     5
 42
69.99999999999989
  3
ISO-25
100
AcDbDiametricDimension
 15
210.3428220969409
 25
213.7182024711663
 35
0.0
 40
0.0
1001
ACAD
1000
DSTYLE
1002
{
1070
   279
1070
     1
1070
   288
1070
     1
1002
}
  0
LEADER
  5
28EB
102
{ACAD_XDICTIONARY
360
28ED
102
}
102
{ACAD_REACTORS
330
28EE
102
}
330
1F
100
AcDbEntity
  8
Bemaßung
100
AcDbLeader
  3
ISO-25
 73
     0
 40
2.916666666666666
 41
17.91666666666666
 76
     3
 10
213.4101729923515
 20
217.2239446639784
 30
0.0
 10
202.257684637555
 20
228.2121486432616
 30
0.0
 10
183.9325947659674
 20
228.2121486432616
 30
0.0
340
28EC
213
-19.23166080161877
223
-0.924916022477646
233
0.0
1001
ACAD
1000
DSTYLE
1002
{
1070
   147
1040
0.625
1070
    77
1070
     0
1002
}
  0
MTEXT
  5
28EC
102
{ACAD_REACTORS
330
28EB
102
}
330
1F
100
AcDbEntity
  8
Bemaßung
100
AcDbMText
 10
202.5392555675862
 20
229.1370646657393
 30
0.0
 40
2.5
 41
20.22612562742438
 71
     9
 72
     1
  1
4 x ø5,8
 73
     1
 44
1.0
  0
DIMENSION
  5
28F0
102
{ACAD_XDICTIONARY
360
28FD
102
}
102
{ACAD_REACTORS
330
2907
102
}
330
1F
100
AcDbEntity
  8
Bemaßung
100
AcDbDimension
  2
*D13
 10
282.9424757979829
 20
192.4752146639784
 30
0.0
 11
280.8591424646495
 21
171.0752146639784
 31
0.0
 70
    32
 71
     5
 42
42.80000000000001
  3
ISO-25
100
AcDbAlignedDimension
 13
247.1589229923515
 23
149.6752146639784
 33
0.0
 14
272.1573729923515
 24
192.4752146639784
 34
0.0
 50
90.0
100
AcDbRotatedDimension
  0
DIMENSION
  5
2911
102
{ACAD_XDICTIONARY
360
291E
102
}
102
{ACAD_REACTORS
330
2928
102
}
330
1F
100
AcDbEntity
  8
Bemaßung
100
AcDbDimension
  2
*D14
 10
248.1589229923514
 20
129.7971831622563
 30
0.0
 11
238.1589229923515
 21
131.6721831622563
 31
0.0
 70
    32
 71
     5
 42
19.99999999999994
  3
ISO-25
100
AcDbAlignedDimension
 13
228.1589229923515
 23
150.6752148385113
 33
0.0
 14
248.1589229923514
 24
150.6752146547924
 34
0.0
100
AcDbRotatedDimension
  0
DIMENSION
  5
2935
102
{ACAD_XDICTIONARY
360
2942
102
}
102
{ACAD_REACTORS
330
294C
102
}
330
1F
100
AcDbEntity
  8
Bemaßung
100
AcDbDimension
  2
*D15
 10
-31.85101587832676
 20
242.1798732007449
 30
0.0
 11
-62.84873540515113
 21
244.0548732007449
 31
0.0
 70
    32
 71
     5
 42
61.99543905364873
  3
ISO-25
100
AcDbAlignedDimension
 13
-93.84645493197551
 23
192.429052230419
 33
0.0
 14
-31.85101587832676
 24
192.4078861642269
 34
0.0
100
AcDbRotatedDimension
  0
DIMENSION
  5
29A3
102
{ACAD_XDICTIONARY
360
29B0
102
}
102
{ACAD_REACTORS
330
29BA
102
}
330
1F
100
AcDbEntity
  8
Bemaßung
100
AcDbDimension
  2
*D16
 10
-17.95743051096929
 20
153.7752146639784
 30
0.0
 11
-20.04076384430264
 21
172.9752146639784
 31
0.0
 70
    32
 71
     5
 42
38.39999999999998
  3
ISO-25
100
AcDbAlignedDimension
 13
-30.34429700764849
 23
192.1752146639784
 33
0.0
 14
-51.24105700764847
 24
153.7752146639784
 34
0.0
 50
90.0
100
AcDbRotatedDimension
  0
DIMENSION
  5
29C4
102
{ACAD_XDICTIONARY
360
29D1
102
}
102
{ACAD_REACTORS
330
29DB
102
}
330
1F
100
AcDbEntity
  8
Bemaßung
100
AcDbDimension
  2
*D17
 10
-50.24105700764846
 20
132.089811011935
 30
0.0
 11
-62.84070724067285
 21
134.1731443452684
 31
0.0
 70
    32
 71
     5
 42
25.19930046604878
  3
ISO-25
100
AcDbAlignedDimension
 13
-75.44035747369725
 23
154.7375773702112
 33
0.0
 14
-50.24105700764846
 24
154.7752146639784
 34
0.0
100
AcDbRotatedDimension
  0
LINE
  5
29F6
330
1F
100
AcDbEntity
  8
Innenkanten
100
AcDbLine
 10
207.1589229923515
 20
31.08079082227853
 30
0.0
 11
269.1589229923512
 21
31.08079082227853
 31
0.0
  0
LINE
  5
29F8
330
1F
100
AcDbEntity
  8
0
100
AcDbLine
 10
208.1589229923515
 20
28.38079082227853
 30
0.0
 11
208.1589229923515
 21
-62.11920917772147
 31
0.0
  0
LINE
  5
29F9
330
1F
100
AcDbEntity
  8
0
100
AcDbLine
 10
268.1589229923515
 20
28.38079082227853
 30
0.0
 11
268.1589229923515
 21
-62.11920917772147
 31
0.0
  0
LINE
  5
29FA
330
1F
100
AcDbEntity
  8
0
100
AcDbLine
 10
208.1589229923515
 20
28.38079082227853
 30
0.0
 11
207.1589229923515
 21
28.38079082227853
 31
0.0
  0
LINE
  5
29FB
330
1F
100
AcDbEntity
  8
0
100
AcDbLine
 10
268.1589229923515
 20
28.38079082227853
 30
0.0
 11
269.1589229923514
 21
28.38079082227853
 31
0.0
  0
LINE
  5
29FC
330
1F
100
AcDbEntity
  8
0
100
AcDbLine
 10
207.1589229923515
 20
67.38079082227852
 30
0.0
 11
217.7691729923515
 21
67.38079082227852
 31
0.0
  0
LINE
  5
29FD
330
1F
100
AcDbEntity
  8
Innenkanten
100
AcDbLine
 10
217.7691729923515
 20
-55.11920917772147
 30
0.0
 11
217.7691729923515
 21
67.38079082227852
 31
0.0
  0
LINE
  5
29FE
330
1F
100
AcDbEntity
  8
Innenkanten
100
AcDbLine
 10
258.5486729923514
 20
67.38079082227852
 30
0.0
 11
258.5486729923514
 21
-55.11920917772147
 31
0.0
  0
LINE
  5
29FF
330
1F
100
AcDbEntity
  8
0
100
AcDbLine
 10
217.7691729923515
 20
69.38079082227853
 30
0.0
 11
258.5486729923514
 21
69.38079082227853
 31
0.0
  0
LINE
  5
2A00
330
1F
100
AcDbEntity
  8
0
100
AcDbLine
 10
213.1589229923515
 20
-65.11920917772147
 30
0.0
 11
263.1589229923515
 21
-65.11920917772147
 31
0.0
  0
LINE
  5
2A01
330
1F
100
AcDbEntity
  8
0
100
AcDbLine
 10
213.1589229923515
 20
-65.11920917772147
 30
0.0
 11
213.1589229923515
 21
-62.11920917772147
 31
0.0
  0
LINE
  5
2A02
330
1F
100
AcDbEntity
  8
0
100
AcDbLine
 10
263.1589229923515
 20
-65.11920917772147
 30
0.0
 11
263.1589229923515
 21
-62.11920917772147
 31
0.0
  0
LINE
  5
2A03
330
1F
100
AcDbEntity
  8
0
100
AcDbLine
 10
231.1589229923515
 20
-92.11920917772147
 30
0.0
 11
245.1589229923515
 21
-92.11920917772147
 31
0.0
  0
LINE
  5
2A04
330
1F
100
AcDbEntity
  8
0
100
AcDbLine
 10
231.1589229923515
 20
-92.11920917772147
 30
0.0
 11
231.1589229923515
 21
-65.11920917772147
 31
0.0
  0
LINE
  5
2A05
330
1F
100
AcDbEntity
  8
0
100
AcDbLine
 10
245.1589229923515
 20
-92.11920917772147
 30
0.0
 11
245.1589229923515
 21
-65.11920917772147
 31
0.0
  0
LINE
  5
2A07
330
1F
100
AcDbEntity
  8
0
100
AcDbLine
 10
207.1589229923515
 20
67.38079082227852
 30
0.0
 11
207.1589229923515
 21
28.38079082227853
 31
0.0
  0
LINE
  5
2A08
330
1F
100
AcDbEntity
  8
0
100
AcDbLine
 10
269.1589229923514
 20
67.38079082227852
 30
0.0
 11
269.1589229923512
 21
28.38079082227853
 31
0.0
  0
LINE
  5
2A09
330
1F
100
AcDbEntity
  8
0
100
AcDbLine
 10
208.1589229923515
 20
-62.11920917772147
 30
0.0
 11
268.1589229923515
 21
-62.11920917772147
 31
0.0
  0
LINE
  5
2A0A
330
1F
100
AcDbEntity
  8
0
100
AcDbLine
 10
217.7691729923515
 20
67.38079082227852
 30
0.0
 11
217.7691729923515
 21
69.38079082227853
 31
0.0
  0
LINE
  5
2A0B
330
1F
100
AcDbEntity
  8
0
100
AcDbLine
 10
258.5486729923514
 20
69.38079082227853
 30
0.0
 11
258.5486729923514
 21
67.38079082227852
 31
0.0
  0
LINE
  5
2A0C
330
1F
100
AcDbEntity
  8
0
100
AcDbLine
 10
258.5486729923514
 20
67.38079082227852
 30
0.0
 11
269.1589229923514
 21
67.38079082227844
 31
0.0
  0
LINE
  5
2A0D
330
1F
100
AcDbEntity
  8
0
100
AcDbLine
 10
208.1589229923515
 20
28.38079082227853
 30
0.0
 11
268.1589229923515
 21
28.38079082227853
 31
0.0
  0
LINE
  5
2A17
330
1F
100
AcDbEntity
  8
Innenkanten
100
AcDbLine
 10
268.1589229923515
 20
-53.08069760562222
 30
0.0
 11
208.1589229923514
 21
-53.08069760562222
 31
0.0
  0
LINE
  5
2A18
330
1F
100
AcDbEntity
  8
Innenkanten
100
AcDbLine
 10
268.1589229923515
 20
24.41930239437778
 30
0.0
 11
208.1589229923514
 21
24.41930239437778
 31
0.0
  0
LINE
  5
2A1B
330
1F
100
AcDbEntity
  8
Innenkanten
100
AcDbLine
 10
208.1589229923514
 20
-55.11920917772147
 30
0.0
 11
217.7691729923515
 21
-55.11920917772147
 31
0.0
  0
LINE
  5
2A1D
330
1F
100
AcDbEntity
  8
Innenkanten
100
AcDbLine
 10
258.5486729923514
 20
-55.11920917772147
 30
0.0
 11
268.1589229923515
 21
-55.11920917772147
 31
0.0
  0
LINE
  5
2A1E
330
1F
100
AcDbEntity
  8
Mittellinie
100
AcDbLine
 10
238.1589229923515
 20
76.11759008922708
 30
0.0
 11
238.1589229923515
 21
-97.56004994664705
 31
0.0
  0
LINE
  5
2A37
330
1F
100
AcDbEntity
  8
0
100
AcDbLine
 10
214.4408100628553
 20
69.36147307918537
 30
0.0
 11
210.9408100628553
 21
69.36147307918537
 31
0.0
  0
LINE
  5
2A3C
330
1F
100
AcDbEntity
  8
0
100
AcDbLine
 10
209.9408100628553
 20
67.38079082227852
 30
0.0
 11
209.9408100628553
 21
68.36147307918537
 31
0.0
  0
ARC
  5
2A3D
330
1F
100
AcDbEntity
  8
0
100
AcDbCircle
 10
210.9408100628553
 20
68.36147307918537
 30
0.0
 40
1.0
100
AcDbArc
 50
89.99997999999797
 51
180.0000299999997
  0
LINE
  5
2A40
330
1F
100
AcDbEntity
  8
Mittellinie
100
AcDbLine
 10
212.6908100628553
 20
69.76402307918539
 30
0.0
 11
212.6908100628553
 21
64.8885230791854
 31
0.0
  0
ARC
  5
2A42
330
1F
100
AcDbEntity
  8
0
100
AcDbCircle
 10
214.4408100628553
 20
68.36147307918537
 30
0.0
 40
1.0
100
AcDbArc
 50
359.9999820000007
 51
89.99995999999923
  0
LINE
  5
2A43
330
1F
100
AcDbEntity
  8
0
100
AcDbLine
 10
215.4408100628553
 20
67.38079082227852
 30
0.0
 11
215.4408100628553
 21
68.36147307918537
 31
0.0
  0
ARC
  5
2A53
330
1F
100
AcDbEntity
  8
0
100
AcDbCircle
 10
262.0349152414265
 20
68.37376642912165
 30
0.0
 40
1.0
100
AcDbArc
 50
89.99997999999798
 51
180.0000299999997
  0
ARC
  5
2A54
330
1F
100
AcDbEntity
  8
0
100
AcDbCircle
 10
265.5349152414265
 20
68.37376642912165
 30
0.0
 40
1.0
100
AcDbArc
 50
359.9999820000007
 51
89.99995999999923
  0
LINE
  5
2A55
330
1F
100
AcDbEntity
  8
0
100
AcDbLine
 10
266.5349152414265
 20
67.39308417221479
 30
0.0
 11
266.5349152414265
 21
68.37376642912165
 31
0.0
  0
LINE
  5
2A56
330
1F
100
AcDbEntity
  8
0
100
AcDbLine
 10
261.0349152414265
 20
67.39308417221479
 30
0.0
 11
261.0349152414265
 21
68.37376642912165
 31
0.0
  0
LINE
  5
2A57
330
1F
100
AcDbEntity
  8
0
100
AcDbLine
 10
265.5349152414265
 20
69.37376642912164
 30
0.0
 11
262.0349152414265
 21
69.37376642912164
 31
0.0
  0
LINE
  5
2A58
330
1F
100
AcDbEntity
  8
Mittellinie
100
AcDbLine
 10
263.7849152414265
 20
69.77631642912166
 30
0.0
 11
263.7849152414265
 21
64.90081642912167
 31
0.0
  0
ARC
  5
2B18
330
1F
100
AcDbEntity
  8
0
100
AcDbCircle
 10
393.0629707327335
 20
154.9553060197949
 30
0.0
 40
0.5
100
AcDbArc
 50
187.12435
 51
270.0000199999987
  0
LINE
  5
2B19
330
1F
100
AcDbEntity
  8
Mittellinie
100
AcDbLine
 10
391.6167907327335
 20
158.4553060197949
 30
0.0
 11
404.4728407327335
 21
158.4553060197949
 31
0.0
  0
LINE
  5
2B1A
330
1F
100
AcDbEntity
  8
0
100
AcDbLine
 10
391.7310807327335
 20
161.579346019795
 30
0.0
 11
392.5668307327335
 21
154.8932860197949
 31
0.0
  0
ARC
  5
2B1B
330
1F
100
AcDbEntity
  8
0
100
AcDbCircle
 10
390.7388007327335
 20
161.4553060197949
 30
0.0
 40
1.0
100
AcDbArc
 50
7.125232899999776
 51
89.9999820000008
  0
LINE
  5
2B1C
330
1F
100
AcDbEntity
  8
0
100
AcDbLine
 10
403.6215807327335
 20
156.705306019795
 30
0.0
 11
403.6215807327335
 21
160.2053060197949
 31
0.0
  0
LINE
  5
2B1D
330
1F
100
AcDbEntity
  8
Mittellinie
100
AcDbLine
 10
396.6215807327334
 20
162.4553060197949
 30
0.0
 11
396.6215807327334
 21
154.455306019795
 31
0.0
  0
LINE
  5
2B1E
330
1F
100
AcDbEntity
  8
0
100
AcDbLine
 10
401.6215807327334
 20
154.9553060197949
 30
0.0
 11
401.6215807327334
 21
162.4553060197949
 31
0.0
  0
LINE
  5
2B1F
330
1F
100
AcDbEntity
  8
0
100
AcDbLine
 10
395.6715707327335
 20
148.867736019795
 30
0.0
 11
395.6715707327335
 21
154.455306019795
 31
0.0
  0
LINE
  5
2B20
330
1F
100
AcDbEntity
  8
0
100
AcDbLine
 10
397.5715607327335
 20
148.8677260197949
 30
0.0
 11
397.5715607327335
 21
154.455306019795
 31
0.0
  0
ARC
  5
2B21
330
1F
100
AcDbEntity
  8
0
100
AcDbCircle
 10
397.0965607327335
 20
148.0450060197949
 30
0.0
 40
0.94999999
100
AcDbArc
 50
59.99862899999996
 51
119.999329999999
  0
ARC
  5
2B22
330
1F
100
AcDbEntity
  8
0
100
AcDbCircle
 10
397.0965907327335
 20
149.690456019795
 30
0.0
 40
0.94999999
100
AcDbArc
 50
239.9985999999985
 51
299.9992999999991
  0
ARC
  5
2B23
330
1F
100
AcDbEntity
  8
0
100
AcDbCircle
 10
396.1465907327335
 20
149.690436019795
 30
0.0
 40
0.94999999
100
AcDbArc
 50
239.9973500000015
 51
300.0005599999992
  0
LINE
  5
2B24
330
1F
100
AcDbEntity
  8
0
100
AcDbLine
 10
393.0629707327335
 20
154.455306019795
 30
0.0
 11
401.1215807327334
 21
154.455306019795
 31
0.0
  0
ARC
  5
2B25
330
1F
100
AcDbEntity
  8
0
100
AcDbCircle
 10
401.1215807327334
 20
154.9553060197949
 30
0.0
 40
0.5
100
AcDbArc
 50
270.0000199999987
 51
0.0
  0
ARC
  5
2B26
330
1F
100
AcDbEntity
  8
0
100
AcDbCircle
 10
402.6215807327335
 20
156.705306019795
 30
0.0
 40
1.0
100
AcDbArc
 50
270.0000199999987
 51
0.0
  0
LINE
  5
2B27
330
1F
100
AcDbEntity
  8
0
100
AcDbLine
 10
401.6215807327334
 20
155.7053060197949
 30
0.0
 11
402.6215807327335
 21
155.7053060197949
 31
0.0
  0
ARC
  5
2B28
330
1F
100
AcDbEntity
  8
0
100
AcDbCircle
 10
402.6215807327335
 20
160.2053060197949
 30
0.0
 40
1.0
100
AcDbArc
 50
0.0
 51
89.9999820000008
  0
LINE
  5
2B29
330
1F
100
AcDbEntity
  8
0
100
AcDbLine
 10
401.6215807327334
 20
161.2053060197949
 30
0.0
 11
402.6215807327335
 21
161.2053060197949
 31
0.0
  0
DIMENSION
  5
2BD8
330
1F
100
AcDbEntity
  8
Bemaßung
100
AcDbDimension
  2
*D18
 10
328.6226259620356
 20
146.6436721753798
 30
0.0
 11
362.6221033473845
 21
148.5186721753798
 31
0.0
 70
    32
 71
     5
 42
67.99895477069788
  3
ISO-25
100
AcDbAlignedDimension
 13
396.6215807327334
 23
148.8677416885245
 33
0.0
 14
328.6226259620356
 24
192.4780855423536
 34
0.0
100
AcDbRotatedDimension
  0
LINE
  5
2C50
330
1F
100
AcDbEntity
  8
Mittellinie
100
AcDbLine
 10
92.54941184304778
 20
162.370737665826
 30
0.0
 11
92.54941184304778
 21
154.370737665826
 31
0.0
  0
LINE
  5
2C51
330
1F
100
AcDbEntity
  8
0
100
AcDbLine
 10
87.54941184304778
 20
154.870737665826
 30
0.0
 11
87.54941184304778
 21
162.370737665826
 31
0.0
  0
LINE
  5
2C52
330
1F
100
AcDbEntity
  8
0
100
AcDbLine
 10
97.43991184304775
 20
161.494777665826
 30
0.0
 11
96.60416184304779
 21
154.808717665826
 31
0.0
  0
LINE
  5
2C53
330
1F
100
AcDbEntity
  8
0
100
AcDbLine
 10
85.54941184304771
 20
156.620737665826
 30
0.0
 11
85.54941184304771
 21
160.120737665826
 31
0.0
  0
LINE
  5
2C54
330
1F
100
AcDbEntity
  8
Mittellinie
100
AcDbLine
 10
97.55420184304774
 20
158.370737665826
 30
0.0
 11
84.69815184304776
 21
158.370737665826
 31
0.0
  0
LINE
  5
2C55
330
1F
100
AcDbEntity
  8
0
100
AcDbLine
 10
96.10802184304771
 20
154.370737665826
 30
0.0
 11
88.04941184304778
 21
154.370737665826
 31
0.0
  0
ARC
  5
2C56
330
1F
100
AcDbEntity
  8
0
100
AcDbCircle
 10
96.10802184304771
 20
154.870737665826
 30
0.0
 40
0.5
100
AcDbArc
 50
269.9999800000012
 51
352.8756500000001
  0
LINE
  5
2C57
330
1F
100
AcDbEntity
  8
0
100
AcDbLine
 10
91.59943184304774
 20
148.783157665826
 30
0.0
 11
91.59943184304774
 21
154.370737665826
 31
0.0
  0
LINE
  5
2C58
330
1F
100
AcDbEntity
  8
0
100
AcDbLine
 10
93.49942184304774
 20
148.783167665826
 30
0.0
 11
93.49942184304774
 21
154.370737665826
 31
0.0
  0
ARC
  5
2C59
330
1F
100
AcDbEntity
  8
0
100
AcDbCircle
 10
92.07440184304777
 20
149.605887665826
 30
0.0
 40
0.94999999
100
AcDbArc
 50
240.0007000000008
 51
300.0014000000018
  0
ARC
  5
2C5A
330
1F
100
AcDbEntity
  8
0
100
AcDbCircle
 10
92.0744318430477
 20
147.960437665826
 30
0.0
 40
0.94999999
100
AcDbArc
 50
60.00067000000139
 51
120.001371
  0
ARC
  5
2C5B
330
1F
100
AcDbEntity
  8
0
100
AcDbCircle
 10
93.02440184304771
 20
149.605867665826
 30
0.0
 40
0.94999999
100
AcDbArc
 50
239.9994400000008
 51
300.0026499999985
  0
ARC
  5
2C5C
330
1F
100
AcDbEntity
  8
0
100
AcDbCircle
 10
86.54941184304773
 20
156.620737665826
 30
0.0
 40
1.0
100
AcDbArc
 50
180.0
 51
269.9999800000012
  0
LINE
  5
2C5D
330
1F
100
AcDbEntity
  8
0
100
AcDbLine
 10
87.54941184304778
 20
155.620737665826
 30
0.0
 11
86.54941184304773
 21
155.620737665826
 31
0.0
  0
ARC
  5
2C5E
330
1F
100
AcDbEntity
  8
0
100
AcDbCircle
 10
88.04941184304778
 20
154.870737665826
 30
0.0
 40
0.5
100
AcDbArc
 50
180.0
 51
269.9999800000012
  0
ARC
  5
2C5F
330
1F
100
AcDbEntity
  8
0
100
AcDbCircle
 10
98.43219184304775
 20
161.370737665826
 30
0.0
 40
1.0
100
AcDbArc
 50
90.00001799999919
 51
172.8747671000001
  0
ARC
  5
2C60
330
1F
100
AcDbEntity
  8
0
100
AcDbCircle
 10
86.54941184304773
 20
160.120737665826
 30
0.0
 40
1.0
100
AcDbArc
 50
90.00001799999919
 51
180.0
  0
LINE
  5
2C61
330
1F
100
AcDbEntity
  8
0
100
AcDbLine
 10
87.54941184304778
 20
161.120737665826
 30
0.0
 11
86.54941184304773
 21
161.120737665826
 31
0.0
  0
VIEWPORT
  5
FF1
330
FEA
100
AcDbEntity
 67
     1
  8
0
100
AcDbViewport
 10
144.7270812988281
 20
111.1085416523249
 30
0.0
 40
377.5505027244501
 41
241.9178641406666
 68
     1
 69
     1
 12
144.7270812988281
 22
111.1085416523249
 13
0.0
 23
0.0
 14
10.0
 24
10.0
 15
10.0
 25
10.0
 16
0.0
 26
0.0
 36
1.0
 17
0.0
 27
0.0
 37
0.0
 42
50.0
 43
0.0
 44
0.0
 45
241.9178641406666
 50
0.0
 51
0.0
 72
   100
 90
    32800
  1

281
     0
 71
     1
 74
     0
110
0.0
120
0.0
130
0.0
111
1.0
121
0.0
131
0.0
112
0.0
122
1.0
132
0.0
 79
     0
146
0.0
  0
VIEWPORT
  5
FF3
330
FEA
100
AcDbEntity
 67
     1
  8
0
100
AcDbViewport
 10
144.7270812988279
 20
101.5933663914631
 30
0.0
 40
296.2546461044554
 41
209.0554971327303
 68
     2
 69
     2
 12
203.1282534378307
 22
126.0400189425975
 13
0.0
 23
0.0
 14
10.0
 24
10.0
 15
10.0
 25
10.0
 16
0.0
 26
0.0
 36
1.0
 17
0.0
 27
0.0
 37
0.0
 42
50.0
 43
0.0
 44
0.0
 45
382.825506506762
 50
0.0
 51
0.0
 72
   100
 90
    32864
  1

281
     0
 71
     1
 74
     0
110
-53.08748352590964
120
3.820899076262548
130
0.0
111
1.0
121
0.0
131
0.0
112
0.0
122
1.0
132
0.0
 79
     0
146
0.0
  0
ENDSEC
  0
SECTION
  2
OBJECTS
  0
DICTIONARY
  5
C
330
0
100
AcDbDictionary
281
     1
  3
ACAD_GROUP
350
D
  3
ACAD_LAYOUT
350
1A
  3
ACAD_MLINESTYLE
350
17
  3
ACAD_PLOTSETTINGS
350
19
  3
ACAD_PLOTSTYLENAME
350
E
  3
AcadDim
350
118B
  3
AcDbVariableDictionary
350
50
  3
DWGPROPS
350
A6A
  0
DICTIONARY
  5
266D
330
2660
100
AcDbDictionary
280
     1
281
     1
  3
ACAD_DIMASSOC
360
2677
  0
DICTIONARY
  5
2731
330
2724
100
AcDbDictionary
280
     1
281
     1
  3
ACAD_DIMASSOC
360
273B
  0
DICTIONARY
  5
27B6
330
27A7
100
AcDbDictionary
280
     1
281
     1
  3
ACAD_DIMASSOC
360
27C2
  0
DICTIONARY
  5
27DB
330
27CE
100
AcDbDictionary
280
     1
281
     1
  3
ACAD_DIMASSOC
360
27E5
  0
DICTIONARY
  5
2810
330
2803
100
AcDbDictionary
280
     1
281
     1
  3
ACAD_DIMASSOC
360
281A
  0
DICTIONARY
  5
2831
330
2824
100
AcDbDictionary
280
     1
281
     1
  3
ACAD_DIMASSOC
360
283B
  0
DICTIONARY
  5
2852
330
2845
100
AcDbDictionary
280
     1
281
     1
  3
ACAD_DIMASSOC
360
285C
  0
DICTIONARY
  5
287D
330
2870
100
AcDbDictionary
280
     1
281
     1
  3
ACAD_DIMASSOC
360
2887
  0
DICTIONARY
  5
289E
330
2891
100
AcDbDictionary
280
     1
281
     1
  3
ACAD_DIMASSOC
360
28A8
  0
DICTIONARY
  5
28C0
330
28B2
100
AcDbDictionary
280
     1
281
     1
  3
ACAD_DIMASSOC
360
28CB
  0
DICTIONARY
  5
28DF
330
28D6
100
AcDbDictionary
280
     1
281
     1
  3
ACAD_DIMASSOC
360
28E5
  0
DICTIONARY
  5
28ED
330
28EB
100
AcDbDictionary
280
     1
281
     1
  3
ACAD_DIMASSOC
360
28EE
  0
DICTIONARY
  5
28FD
330
28F0
100
AcDbDictionary
280
     1
281
     1
  3
ACAD_DIMASSOC
360
2907
  0
DICTIONARY
  5
291E
330
2911
100
AcDbDictionary
280
     1
281
     1
  3
ACAD_DIMASSOC
360
2928
  0
DICTIONARY
  5
2942
330
2935
100
AcDbDictionary
280
     1
281
     1
  3
ACAD_DIMASSOC
360
294C
  0
DICTIONARY
  5
29B0
330
29A3
100
AcDbDictionary
280
     1
281
     1
  3
ACAD_DIMASSOC
360
29BA
  0
DICTIONARY
  5
29D1
330
29C4
100
AcDbDictionary
280
     1
281
     1
  3
ACAD_DIMASSOC
360
29DB
  0
DICTIONARY
  5
D
102
{ACAD_REACTORS
330
C
102
}
330
C
100
AcDbDictionary
281
     1
  3
*A1
350
2A6
  3
*A10
350
936
  3
*A11
350
1578
  3
*A12
350
413
  3
*A13
350
94E
  3
*A14
350
85A
  3
*A15
350
3BE
  3
*A16
350
331
  3
*A17
350
369
  3
*A18
350
A72
  3
*A19
350
10FD
  3
*A2
350
8ED
  3
*A20
350
869
  3
*A21
350
8F6
  3
*A22
350
8E4
  3
*A23
350
885
  3
*A24
350
886
  3
*A25
350
8D4
  3
*A26
350
8E3
  3
*A3
350
2134
  3
*A4
350
1A87
  3
*A5
350
905
  3
*A6
350
93F
  3
*A7
350
90F
  3
*A8
350
91E
  3
*A9
350
92D
  0
DICTIONARY
  5
1A
102
{ACAD_REACTORS
330
C
102
}
330
C
100
AcDbDictionary
281
     1
  3
Layout1
350
FEB
  3
Model
350
22
  0
DICTIONARY
  5
17
102
{ACAD_REACTORS
330
C
102
}
330
C
100
AcDbDictionary
281
     1
  3
Standard
350
18
  0
DICTIONARY
  5
19
102
{ACAD_REACTORS
330
C
102
}
330
C
100
AcDbDictionary
281
     1
  0
ACDBDICTIONARYWDFLT
  5
E
102
{ACAD_REACTORS
330
C
102
}
330
C
100
AcDbDictionary
281
     1
  3
Normal
350
F
100
AcDbDictionaryWithDefault
340
F
  0
XRECORD
  5
118B
102
{ACAD_REACTORS
330
C
102
}
330
C
100
AcDbXrecord
280
     1
 90
   990106
  3

 60
     0
 61
     0
 62
     1
 63
     3
 64
     0
 65
     0
 66
     0
 67
     3
 68
     1
 69
     0
 70
     0
 71
     0
 72
     0
 40
10.0
170
     0
340
28EC
  0
DICTIONARY
  5
50
102
{ACAD_REACTORS
330
C
102
}
330
C
100
AcDbDictionary
281
     1
  3
DIMASSOC
350
52
  3
HIDETEXT
350
51
  0
XRECORD
  5
A6A
102
{ACAD_REACTORS
330
C
102
}
330
C
100
AcDbXrecord
280
     1
  1
DWGPROPS COOKIE
  2

  3

  4

  6

  7

  8

  9

300
=
301
=
302
=
303
=
304
=
305
=
306
=
307
=
308
=
309
=
 40
0.587026388888889
 41
2452181.498615972
 42
2452184.61255463
  1

 90
        0
  0
DIMASSOC
  5
2677
102
{ACAD_REACTORS
330
266D
102
}
330
266D
100
AcDbDimAssoc
330
2660
 90
        2
 70
     0
 71
     0
  1
AcDbOsnapPointRef
 72
    11
331
24B9
 73
     2
 91
        0
 40
0.9576384542639681
 10
328.6226259620356
 20
192.4780855423536
 30
0.0
332
24DC
 74
     2
 92
        0
 75
     0
  0
DIMASSOC
  5
273B
102
{ACAD_REACTORS
330
2731
102
}
330
2731
100
AcDbDimAssoc
330
2724
 90
        3
 70
     0
 71
     0
  1
AcDbOsnapPointRef
 72
     1
331
2503
 73
     2
 91
        0
 40
1.0
 10
460.1226159620314
 20
222.4780855423536
 30
0.0
 75
     0
  1
AcDbOsnapPointRef
 72
     8
331
2523
 73
     2
 91
        0
 40
0.0000000000000022
 10
453.1226159620315
 20
222.4780855423536
 30
0.0
 75
     1
  1
AcDbOsnapPointRef
 72
     1
331
2503
 73
     2
 91
        0
 40
1.0
 10
460.1226159620314
 20
222.4780855423536
 30
0.0
 75
     0
  0
DIMASSOC
  5
27C2
102
{ACAD_REACTORS
330
27B6
102
}
330
27B6
100
AcDbDimAssoc
330
27A7
 90
        3
 70
     0
 71
     0
  1
AcDbOsnapPointRef
 72
     1
331
251F
 73
     2
 91
        0
 40
1.0
 10
463.1226159620315
 20
217.4780855423536
 30
0.0
 75
     0
  1
AcDbOsnapPointRef
 72
     8
331
251D
 73
     2
 91
        0
 40
0.0833333333333333
 10
460.1226159620314
 20
217.4780855423536
 30
0.0
 75
     1
  1
AcDbOsnapPointRef
 72
     1
331
251F
 73
     2
 91
        0
 40
1.0
 10
463.1226159620315
 20
217.4780855423536
 30
0.0
 75
     0
  0
DIMASSOC
  5
27E5
102
{ACAD_REACTORS
330
27DB
102
}
330
27DB
100
AcDbDimAssoc
330
27CE
 90
        2
 70
     0
 71
     0
  1
AcDbOsnapPointRef
 72
    13
331
2522
 73
     2
 91
        0
 40
0.0000000000000021
 10
490.1226159620314
 20
199.4780855423536
 30
0.0
 75
     0
  0
DIMASSOC
  5
281A
102
{ACAD_REACTORS
330
2810
102
}
330
2810
100
AcDbDimAssoc
330
2803
 90
        3
 70
     0
 71
     0
  1
AcDbOsnapPointRef
 72
    13
331
2522
 73
     2
 91
        0
 40
0.0000000000000021
 10
490.1226159620314
 20
199.4780855423536
 30
0.0
 75
     0
  1
AcDbOsnapPointRef
 72
     1
331
2520
 73
     2
 91
        0
 40
0.9999999999999978
 10
490.1226159620314
 20
185.4780855423536
 30
0.0
 75
     0
  0
DIMASSOC
  5
283B
102
{ACAD_REACTORS
330
2831
102
}
330
2831
100
AcDbDimAssoc
330
2824
 90
        2
 70
     0
 71
     0
  1
AcDbOsnapPointRef
 72
    13
331
251F
 73
     2
 91
        0
 40
0.0
 10
463.1226159620315
 20
167.4780855423536
 30
0.0
 75
     0
  0
DIMASSOC
  5
285C
102
{ACAD_REACTORS
330
2852
102
}
330
2852
100
AcDbDimAssoc
330
2845
 90
        1
 70
     0
 71
     0
  1
AcDbOsnapPointRef
 72
     1
331
2504
 73
     2
 91
        0
 40
1.0
 10
460.1226159620314
 20
162.4780855423536
 30
0.0
 75
     0
  0
DIMASSOC
  5
2887
102
{ACAD_REACTORS
330
287D
102
}
330
287D
100
AcDbDimAssoc
330
2870
 90
        3
 70
     0
 71
     0
  1
AcDbOsnapPointRef
 72
     1
331
2427
 73
     2
 91
        0
 40
3.141591955458078
 10
208.1589229923521
 20
219.9752164093077
 30
0.0
 75
     0
  1
AcDbOsnapPointRef
 72
    13
331
242B
 73
     2
 91
        0
 40
0.0
 10
268.1589229923515
 20
219.9752146639784
 30
0.0
 75
     0
  0
DIMASSOC
  5
28A8
102
{ACAD_REACTORS
330
289E
102
}
330
289E
100
AcDbDimAssoc
330
2891
 90
        3
 70
     0
 71
     0
  1
AcDbOsnapPointRef
 72
    13
331
2422
 73
     2
 91
        0
 40
0.0
 10
210.6589229923514
 20
222.4752146639784
 30
0.0
 75
     0
  1
AcDbOsnapPointRef
 72
     1
331
23B6
 73
     2
 91
        0
 40
4.712389503983449
 10
210.6589243013484
 20
162.4752146639787
 30
0.0
 75
     0
  0
DIMASSOC
  5
28CB
102
{ACAD_REACTORS
330
28C0
102
}
330
28C0
100
AcDbDimAssoc
330
28B2
 90
       15
 70
     0
 71
     0
  1
AcDbOsnapPointRef
 72
    13
331
23B9
 73
     2
 91
        0
 40
0.0
 10
238.1589229923515
 20
226.8411913997478
 30
0.0
 75
     0
  1
AcDbOsnapPointRef
 72
     1
331
23B9
 73
     2
 91
        0
 40
1.0
 10
238.1589229923515
 20
136.0816146639784
 30
0.0
 75
     0
  1
AcDbOsnapPointRef
 72
    13
331
2429
 73
     2
 91
        0
 40
0.0
 10
207.6837329923515
 20
222.9504046639784
 30
0.0
 75
     0
  1
AcDbOsnapPointRef
 72
     1
331
2429
 73
     2
 91
        0
 40
1.0
 10
217.2406529923514
 20
213.3935046639784
 30
0.0
 75
     0
  0
DIMASSOC
  5
28E5
102
{ACAD_REACTORS
330
28DF
102
}
330
28DF
100
AcDbDimAssoc
330
28D6
 90
        2
 70
     0
 71
     0
  1
AcDbOsnapPointRef
 72
     3
331
2428
 73
     2
 91
        0
 40
0.0
 10
0.0
 20
0.0
 30
0.0
 75
     0
  0
DIMASSOC
  5
28EE
102
{ACAD_REACTORS
330
28ED
102
}
330
28ED
100
AcDbDimAssoc
330
28EB
 90
        1
 70
     0
 71
     0
  1
AcDbOsnapPointRef
 72
     3
331
242A
 73
     2
 91
        0
 40
0.0
 10
213.4101729923515
 20
217.2239446639784
 30
0.0
 75
     0
  0
DIMASSOC
  5
2907
102
{ACAD_REACTORS
330
28FD
102
}
330
28FD
100
AcDbDimAssoc
330
28F0
 90
        3
 70
     0
 71
     0
  1
AcDbOsnapPointRef
 72
    13
331
23F4
 73
     2
 91
        0
 40
0.0
 10
247.1589229923515
 20
149.6752146639784
 30
0.0
 75
     0
  1
AcDbOsnapPointRef
 72
    13
331
2421
 73
     2
 91
        0
 40
0.0
 10
272.1573729923515
 20
192.4752146639784
 30
0.0
 75
     0
  0
DIMASSOC
  5
2928
102
{ACAD_REACTORS
330
291E
102
}
330
291E
100
AcDbDimAssoc
330
2911
 90
        3
 70
     0
 71
     0
  1
AcDbOsnapPointRef
 72
    13
331
23FB
 73
     2
 91
        0
 40
3.14159247905685
 10
228.1589229923515
 20
150.6752148385113
 30
0.0
 75
     0
  1
AcDbOsnapPointRef
 72
     8
331
2413
 73
     2
 91
        0
 40
6.283185297993632
 10
248.1589229923514
 20
150.6752146547924
 30
0.0
 75
     1
  1
AcDbOsnapPointRef
 72
    13
331
23FB
 73
     2
 91
        0
 40
3.14159247905685
 10
228.1589229923515
 20
150.6752148385113
 30
0.0
 75
     0
  0
DIMASSOC
  5
294C
102
{ACAD_REACTORS
330
2942
102
}
330
2942
100
AcDbDimAssoc
330
2935
 90
        3
 70
     0
 71
     0
  1
AcDbOsnapPointRef
 72
     2
331
2338
 73
     2
 91
        0
 40
3.14159300265563
 10
-93.84645493197551
 20
192.429052230419
 30
0.0
 75
     0
  1
AcDbOsnapPointRef
 72
     8
331
2360
 73
     2
 91
        0
 40
6.283184800958642
 10
-31.85101587832676
 20
192.4078861642269
 30
0.0
 75
     1
  1
AcDbOsnapPointRef
 72
     2
331
2338
 73
     2
 91
        0
 40
3.14159300265563
 10
-93.84645493197551
 20
192.429052230419
 30
0.0
 75
     0
  0
DIMASSOC
  5
29BA
102
{ACAD_REACTORS
330
29B0
102
}
330
29B0
100
AcDbDimAssoc
330
29A3
 90
        3
 70
     0
 71
     0
  1
AcDbOsnapPointRef
 72
    13
331
2336
 73
     2
 91
        0
 40
0.0
 10
-30.34429700764849
 20
192.1752146639784
 30
0.0
 75
     0
  1
AcDbOsnapPointRef
 72
    13
331
22F8
 73
     2
 91
        0
 40
0.0
 10
-51.24105700764847
 20
153.7752146639784
 30
0.0
 75
     0
  0
DIMASSOC
  5
29DB
102
{ACAD_REACTORS
330
29D1
102
}
330
29D1
100
AcDbDimAssoc
330
29C4
 90
        3
 70
     0
 71
     0
  1
AcDbOsnapPointRef
 72
     8
331
22CD
 73
     2
 91
        0
 40
3.183899060764713
 10
-75.44035747369725
 20
154.7375773702112
 30
0.0
 75
     1
  1
AcDbOsnapPointRef
 72
     0
 40
0.0
 10
-10.95743051096928
 20
157.1662610401091
 30
0.0
 75
     0
  1
AcDbOsnapPointRef
 72
     1
331
230D
 73
     2
 91
        0
 40
1.0
 10
-50.24105700764846
 20
154.7752146639784
 30
0.0
 75
     0
  0
GROUP
  5
2A6
102
{ACAD_REACTORS
330
D
102
}
330
D
100
AcDbGroup
300

 70
     1
 71
     1
  0
GROUP
  5
936
102
{ACAD_REACTORS
330
D
102
}
330
D
100
AcDbGroup
300

 70
     1
 71
     1
  0
GROUP
  5
1578
102
{ACAD_REACTORS
330
D
102
}
330
D
100
AcDbGroup
300

 70
     1
 71
     1
  0
GROUP
  5
413
102
{ACAD_REACTORS
330
D
102
}
330
D
100
AcDbGroup
300

 70
     1
 71
     1
  0
GROUP
  5
94E
102
{ACAD_REACTORS
330
D
102
}
330
D
100
AcDbGroup
300

 70
     1
 71
     1
  0
GROUP
  5
85A
102
{ACAD_REACTORS
330
D
102
}
330
D
100
AcDbGroup
300

 70
     1
 71
     1
  0
GROUP
  5
3BE
102
{ACAD_REACTORS
330
D
102
}
330
D
100
AcDbGroup
300

 70
     1
 71
     1
  0
GROUP
  5
331
102
{ACAD_REACTORS
330
D
102
}
330
D
100
AcDbGroup
300

 70
     1
 71
     1
  0
GROUP
  5
369
102
{ACAD_REACTORS
330
D
102
}
330
D
100
AcDbGroup
300

 70
     1
 71
     1
  0
GROUP
  5
A72
102
{ACAD_REACTORS
330
D
102
}
330
D
100
AcDbGroup
300

 70
     1
 71
     1
  0
GROUP
  5
10FD
102
{ACAD_REACTORS
330
D
102
}
330
D
100
AcDbGroup
300

 70
     1
 71
     1
  0
GROUP
  5
8ED
102
{ACAD_REACTORS
330
D
102
}
330
D
100
AcDbGroup
300

 70
     1
 71
     1
  0
GROUP
  5
869
102
{ACAD_REACTORS
330
D
102
}
330
D
100
AcDbGroup
300

 70
     1
 71
     1
  0
GROUP
  5
8F6
102
{ACAD_REACTORS
330
D
102
}
330
D
100
AcDbGroup
300

 70
     1
 71
     1
  0
GROUP
  5
8E4
102
{ACAD_REACTORS
330
D
102
}
330
D
100
AcDbGroup
300

 70
     1
 71
     1
  0
GROUP
  5
885
102
{ACAD_REACTORS
330
D
102
}
330
D
100
AcDbGroup
300

 70
     1
 71
     1
  0
GROUP
  5
886
102
{ACAD_REACTORS
330
D
102
}
330
D
100
AcDbGroup
300

 70
     1
 71
     1
  0
GROUP
  5
8D4
102
{ACAD_REACTORS
330
D
102
}
330
D
100
AcDbGroup
300

 70
     1
 71
     1
  0
GROUP
  5
8E3
102
{ACAD_REACTORS
330
D
102
}
330
D
100
AcDbGroup
300

 70
     1
 71
     1
  0
GROUP
  5
2134
102
{ACAD_REACTORS
330
D
102
}
330
D
100
AcDbGroup
300

 70
     1
 71
     1
  0
GROUP
  5
1A87
102
{ACAD_REACTORS
330
D
102
}
330
D
100
AcDbGroup
300

 70
     1
 71
     1
  0
GROUP
  5
905
102
{ACAD_REACTORS
330
D
102
}
330
D
100
AcDbGroup
300

 70
     1
 71
     1
  0
GROUP
  5
93F
102
{ACAD_REACTORS
330
D
102
}
330
D
100
AcDbGroup
300

 70
     1
 71
     1
  0
GROUP
  5
90F
102
{ACAD_REACTORS
330
D
102
}
330
D
100
AcDbGroup
300

 70
     1
 71
     1
  0
GROUP
  5
91E
102
{ACAD_REACTORS
330
D
102
}
330
D
100
AcDbGroup
300

 70
     1
 71
     1
  0
GROUP
  5
92D
102
{ACAD_REACTORS
330
D
102
}
330
D
100
AcDbGroup
300

 70
     1
 71
     1
  0
LAYOUT
  5
FEB
102
{ACAD_REACTORS
330
1A
102
}
330
1A
100
AcDbPlotSettings
  1

  2
EPSON Stylus COLOR 1520
  4
A4
  6

 40
3.757083177566528
 41
14.7637300491333
 42
3.757080078125
 43
3.757080078125
 44
209.9733276367187
 45
296.9683227539062
 46
0.0
 47
0.0
 48
0.0
 49
0.0
140
0.0
141
0.0
142
1.0
143
1.0
 70
   688
 72
     1
 73
     1
 74
     5
  7

 75
    16
147
1.0
148
0.0
149
0.0
100
AcDbLayout
  1
Layout1
 70
     1
 71
     1
 10
-3.757080078125
 20
-3.757083177566528
 11
293.2112426757812
 21
206.2162444591522
 12
0.0
 22
0.0
 32
0.0
 14
-3.400241753399768
 24
-2.934382174902054
 34
0.0
 15
292.8544043510557
 25
206.1211149578283
 35
0.0
146
0.0
 13
0.0
 23
0.0
 33
0.0
 16
1.0
 26
0.0
 36
0.0
 17
0.0
 27
1.0
 37
0.0
 76
     0
330
FEA
331
FF1
  0
LAYOUT
  5
22
102
{ACAD_REACTORS
330
1A
102
}
330
1A
100
AcDbPlotSettings
  1

  2
EPSON Stylus COLOR 1520
  4
A4
  6

 40
3.757083177566528
 41
14.7637300491333
 42
3.757080078125
 43
3.757080078125
 44
209.9733276367187
 45
296.9683227539062
 46
0.0
 47
0.0
 48
0.0
 49
0.0
140
0.0
141
0.0
142
1.0
143
1.0
 70
 11952
 72
     1
 73
     1
 74
     0
  7

 75
     0
147
1.0
148
-89.73529411764705
149
0.0
100
AcDbLayout
  1
Model
 70
     1
 71
     0
 10
0.0
 20
0.0
 11
12.0
 21
9.0
 12
0.0
 22
0.0
 32
0.0
 14
0.0
 24
0.0
 34
0.0
 15
0.0
 25
0.0
 35
0.0
146
0.0
 13
0.0
 23
0.0
 33
0.0
 16
1.0
 26
0.0
 36
0.0
 17
0.0
 27
1.0
 37
0.0
 76
     0
330
1F
  0
MLINESTYLE
  5
18
102
{ACAD_REACTORS
330
17
102
}
330
17
100
AcDbMlineStyle
  2
STANDARD
 70
     0
  3

 62
   256
 51
90.0
 52
90.0
 71
     2
 49
0.5
 62
   256
  6
BYLAYER
 49
-0.5
 62
   256
  6
BYLAYER
  0
ACDBPLACEHOLDER
  5
F
102
{ACAD_REACTORS
330
E
102
}
330
E
  0
DICTIONARYVAR
  5
52
102
{ACAD_REACTORS
330
50
102
}
330
50
100
DictionaryVariables
280
     0
  1
2
  0
DICTIONARYVAR
  5
51
102
{ACAD_REACTORS
330
50
102
}
330
50
100
DictionaryVariables
280
     0
  1
1
  0
ENDSEC
  0
EOF
