  0
SECTION
  2
HEADER
  9
$ACADVER
  1
AC1015
  9
$ACADMAINTVER
 70
    13
  9
$DWGCODEPAGE
  3
ANSI_1252
  9
$INSBASE
 10
0.0
 20
0.0
 30
0.0
  9
$EXTMIN
 10
-197.4613220059151
 20
-202.3703022986152
 30
0.0
  9
$EXTMAX
 10
585.8283154579616
 20
260.9957647100989
 30
0.0
  9
$LIMMIN
 10
0.0
 20
0.0
  9
$LIMMAX
 10
420.0
 20
297.0
  9
$ORTHOMODE
 70
     1
  9
$REGENMODE
 70
     1
  9
$FILLMODE
 70
     1
  9
$QTEXTMODE
 70
     0
  9
$MIRRTEXT
 70
     1
  9
$LTSCALE
 40
1.0
  9
$ATTMODE
 70
     1
  9
$TEXTSIZE
 40
26.5350450929028
  9
$TRACEWID
 40
1.0
  9
$TEXTSTYLE
  7
Standard
  9
$CLAYER
  8
0
  9
$CELTYPE
  6
ByLayer
  9
$CECOLOR
 62
   256
  9
$CELTSCALE
 40
1.0
  9
$DISPSILH
 70
     0
  9
$DIMSCALE
 40
1.0
  9
$DIMASZ
 40
2.5
  9
$DIMEXO
 40
0.625
  9
$DIMDLI
 40
3.75
  9
$DIMRND
 40
0.0
  9
$DIMDLE
 40
0.0
  9
$DIMEXE
 40
1.25
  9
$DIMTP
 40
0.0
  9
$DIMTM
 40
0.0
  9
$DIMTXT
 40
2.5
  9
$DIMCEN
 40
2.5
  9
$DIMTSZ
 40
0.0
  9
$DIMTOL
 70
     0
  9
$DIMLIM
 70
     0
  9
$DIMTIH
 70
     0
  9
$DIMTOH
 70
     0
  9
$DIMSE1
 70
     0
  9
$DIMSE2
 70
     0
  9
$DIMTAD
 70
     1
  9
$DIMZIN
 70
     8
  9
$DIMBLK
  1

  9
$DIMASO
 70
     1
  9
$DIMSHO
 70
     1
  9
$DIMPOST
  1

  9
$DIMAPOST
  1

  9
$DIMALT
 70
     0
  9
$DIMALTD
 70
     3
  9
$DIMALTF
 40
0.03937007874016
  9
$DIMLFAC
 40
1.0
  9
$DIMTOFL
 70
     1
  9
$DIMTVP
 40
0.0
  9
$DIMTIX
 70
     0
  9
$DIMSOXD
 70
     0
  9
$DIMSAH
 70
     0
  9
$DIMBLK1
  1

  9
$DIMBLK2
  1

  9
$DIMSTYLE
  2
ISO-25
  9
$DIMCLRD
 70
     0
  9
$DIMCLRE
 70
     0
  9
$DIMCLRT
 70
     0
  9
$DIMTFAC
 40
1.0
  9
$DIMGAP
 40
0.625
  9
$DIMJUST
 70
     0
  9
$DIMSD1
 70
     0
  9
$DIMSD2
 70
     0
  9
$DIMTOLJ
 70
     0
  9
$DIMTZIN
 70
     8
  9
$DIMALTZ
 70
     0
  9
$DIMALTTZ
 70
     0
  9
$DIMUPT
 70
     0
  9
$DIMDEC
 70
     2
  9
$DIMTDEC
 70
     2
  9
$DIMALTU
 70
     2
  9
$DIMALTTD
 70
     3
  9
$DIMTXSTY
  7
Standard
  9
$DIMAUNIT
 70
     0
  9
$DIMADEC
 70
     0
  9
$DIMALTRND
 40
0.0
  9
$DIMAZIN
 70
     0
  9
$DIMDSEP
 70
    44
  9
$DIMATFIT
 70
     3
  9
$DIMFRAC
 70
     0
  9
$DIMLDRBLK
  1

  9
$DIMLUNIT
 70
     2
  9
$DIMLWD
 70
    -2
  9
$DIMLWE
 70
    -2
  9
$DIMTMOVE
 70
     0
  9
$LUNITS
 70
     2
  9
$LUPREC
 70
     4
  9
$SKETCHINC
 40
1.0
  9
$FILLETRAD
 40
3.0
  9
$AUNITS
 70
     0
  9
$AUPREC
 70
     0
  9
$MENU
  1
.
  9
$ELEVATION
 40
0.0
  9
$PELEVATION
 40
0.0
  9
$THICKNESS
 40
0.0
  9
$LIMCHECK
 70
     0
  9
$CHAMFERA
 40
10.0
  9
$CHAMFERB
 40
10.0
  9
$CHAMFERC
 40
20.0
  9
$CHAMFERD
 40
0.0
  9
$SKPOLY
 70
     0
  9
$TDCREATE
 40
2452181.456949305
  9
$TDUCREATE
 40
2452181.415282638
  9
$TDUPDATE
 40
2452321.497231365
  9
$TDUUPDATE
 40
2452321.455564699
  9
$TDINDWG
 40
1.0663118056
  9
$TDUSRTIMER
 40
1.0663023148
  9
$USRTIMER
 70
     1
  9
$ANGBASE
 50
0.0
  9
$ANGDIR
 70
     0
  9
$PDMODE
 70
     0
  9
$PDSIZE
 40
0.0
  9
$PLINEWID
 40
0.0
  9
$SPLFRAME
 70
     0
  9
$SPLINETYPE
 70
     6
  9
$SPLINESEGS
 70
     8
  9
$HANDSEED
  5
36C9
  9
$SURFTAB1
 70
     6
  9
$SURFTAB2
 70
     6
  9
$SURFTYPE
 70
     6
  9
$SURFU
 70
     6
  9
$SURFV
 70
     6
  9
$UCSBASE
  2

  9
$UCSNAME
  2

  9
$UCSORG
 10
-53.08748352590964
 20
3.820899076262548
 30
0.0
  9
$UCSXDIR
 10
1.0
 20
0.0
 30
0.0
  9
$UCSYDIR
 10
0.0
 20
1.0
 30
0.0
  9
$UCSORTHOREF
  2

  9
$UCSORTHOVIEW
 70
     0
  9
$UCSORGTOP
 10
0.0
 20
0.0
 30
0.0
  9
$UCSORGBOTTOM
 10
0.0
 20
0.0
 30
0.0
  9
$UCSORGLEFT
 10
0.0
 20
0.0
 30
0.0
  9
$UCSORGRIGHT
 10
0.0
 20
0.0
 30
0.0
  9
$UCSORGFRONT
 10
0.0
 20
0.0
 30
0.0
  9
$UCSORGBACK
 10
0.0
 20
0.0
 30
0.0
  9
$PUCSBASE
  2

  9
$PUCSNAME
  2

  9
$PUCSORG
 10
0.0
 20
0.0
 30
0.0
  9
$PUCSXDIR
 10
1.0
 20
0.0
 30
0.0
  9
$PUCSYDIR
 10
0.0
 20
1.0
 30
0.0
  9
$PUCSORTHOREF
  2

  9
$PUCSORTHOVIEW
 70
     0
  9
$PUCSORGTOP
 10
0.0
 20
0.0
 30
0.0
  9
$PUCSORGBOTTOM
 10
0.0
 20
0.0
 30
0.0
  9
$PUCSORGLEFT
 10
0.0
 20
0.0
 30
0.0
  9
$PUCSORGRIGHT
 10
0.0
 20
0.0
 30
0.0
  9
$PUCSORGFRONT
 10
0.0
 20
0.0
 30
0.0
  9
$PUCSORGBACK
 10
0.0
 20
0.0
 30
0.0
  9
$USERI1
 70
     0
  9
$USERI2
 70
     0
  9
$USERI3
 70
     0
  9
$USERI4
 70
     0
  9
$USERI5
 70
     0
  9
$USERR1
 40
0.0
  9
$USERR2
 40
0.0
  9
$USERR3
 40
0.0
  9
$USERR4
 40
0.0
  9
$USERR5
 40
0.0
  9
$WORLDVIEW
 70
     1
  9
$SHADEDGE
 70
     3
  9
$SHADEDIF
 70
    70
  9
$TILEMODE
 70
     1
  9
$MAXACTVP
 70
    64
  9
$PINSBASE
 10
0.0
 20
0.0
 30
0.0
  9
$PLIMCHECK
 70
     0
  9
$PEXTMIN
 10
-3.400241753399768
 20
-2.934382174902054
 30
0.0
  9
$PEXTMAX
 10
292.8544043510557
 20
206.1211149578283
 30
0.0
  9
$PLIMMIN
 10
-3.757080078125
 20
-3.757083177566528
  9
$PLIMMAX
 10
293.2112426757812
 20
206.2162444591522
  9
$UNITMODE
 70
     0
  9
$VISRETAIN
 70
     1
  9
$PLINEGEN
 70
     0
  9
$PSLTSCALE
 70
     1
  9
$TREEDEPTH
 70
  3020
  9
$CMLSTYLE
  2
Standard
  9
$CMLJUST
 70
     0
  9
$CMLSCALE
 40
20.0
  9
$PROXYGRAPHICS
 70
     1
  9
$MEASUREMENT
 70
     1
  9
$CELWEIGHT
370
    -1
  9
$ENDCAPS
280
     0
  9
$JOINSTYLE
280
     0
  9
$LWDISPLAY
290
     0
  9
$INSUNITS
 70
     4
  9
$HYPERLINKBASE
  1

  9
$STYLESHEET
  1

  9
$XEDIT
290
     1
  9
$CEPSNTYPE
380
     0
  9
$PSTYLEMODE
290
     1
  9
$FINGERPRINTGUID
  2
{F84AA5D3-2765-4D6B-8594-ABD9F52FB735}
  9
$VERSIONGUID
  2
{9D684C9F-8DD8-4086-BCB3-3C07DD199889}
  9
$EXTNAMES
290
     1
  9
$PSVPSCALE
 40
0.0
  9
$OLESTARTUP
290
     0
  0
ENDSEC
  0
SECTION
  2
CLASSES
  0
CLASS
  1
ACDBDICTIONARYWDFLT
  2
AcDbDictionaryWithDefault
  3
AutoCAD 2000
 90
        0
280
     0
281
     0
  0
CLASS
  1
ACDBPLACEHOLDER
  2
AcDbPlaceHolder
  3
AutoCAD 2000
 90
        0
280
     0
281
     0
  0
CLASS
  1
LAYOUT
  2
AcDbLayout
  3
AutoCAD 2000
 90
        0
280
     0
281
     0
  0
CLASS
  1
DICTIONARYVAR
  2
AcDbDictionaryVar
  3
AutoCAD 2000
 90
        0
280
     0
281
     0
  0
CLASS
  1
DIMASSOC
  2
AcDbDimAssoc
  3
"AcDbDimAssoc|Product Desc:     AcDim ARX App For Dimension|Company:          Autodesk, Inc.|WEB Address:      www.autodesk.com"
 90
        0
280
     0
281
     0
  0
ENDSEC
  0
SECTION
  2
TABLES
  0
TABLE
  2
VPORT
  5
8
330
0
100
AcDbSymbolTable
 70
     2
  0
VPORT
  5
36C8
330
8
100
AcDbSymbolTableRecord
100
AcDbViewportTableRecord
  2
*Active
 70
     0
 10
0.0
 20
0.0
 11
1.0
 21
1.0
 12
287.9300889757645
 22
23.77485358840829
 13
0.0
 23
0.0
 14
10.0
 24
10.0
 15
10.0
 25
10.0
 16
0.0
 26
0.0
 36
1.0
 17
0.0
 27
0.0
 37
0.0
 40
728.1158612105043
 41
1.699453551912568
 42
50.0
 43
0.0
 44
0.0
 50
0.0
 51
0.0
 71
     0
 72
   100
 73
     1
 74
     3
 75
     1
 76
     0
 77
     0
 78
     0
281
     0
 65
     1
110
-53.08748352590964
120
3.820899076262548
130
0.0
111
1.0
121
0.0
131
0.0
112
0.0
122
1.0
132
0.0
 79
     0
146
0.0
  0
ENDTAB
  0
TABLE
  2
LTYPE
  5
5
330
0
100
AcDbSymbolTable
 70
     4
  0
LTYPE
  5
14
330
5
100
AcDbSymbolTableRecord
100
AcDbLinetypeTableRecord
  2
ByBlock
 70
     0
  3

 72
    65
 73
     0
 40
0.0
  0
LTYPE
  5
15
330
5
100
AcDbSymbolTableRecord
100
AcDbLinetypeTableRecord
  2
ByLayer
 70
     0
  3

 72
    65
 73
     0
 40
0.0
  0
LTYPE
  5
16
330
5
100
AcDbSymbolTableRecord
100
AcDbLinetypeTableRecord
  2
Continuous
 70
     0
  3
Solid line
 72
    65
 73
     0
 40
0.0
  0
LTYPE
  5
2D
330
5
100
AcDbSymbolTableRecord
100
AcDbLinetypeTableRecord
  2
MITTE
 70
     0
  3
Mitte ____ _ ____ _ ____ _ ____ _ ____ _ ____
 72
    65
 73
     4
 40
50.8
 49
31.75
 74
     0
 49
-6.349999999999999
 74
     0
 49
6.349999999999999
 74
     0
 49
-6.349999999999999
 74
     0
  0
LTYPE
  5
39
330
5
100
AcDbSymbolTableRecord
100
AcDbLinetypeTableRecord
  2
VERDECKT
 70
     0
  3
Verdeckt __ __ __ __ __ __ __ __ __ __ __ __ __
 72
    65
 73
     2
 40
9.524999999999998
 49
6.349999999999999
 74
     0
 49
-3.174999999999999
 74
     0
  0
LTYPE
  5
AE7
330
5
100
AcDbSymbolTableRecord
100
AcDbLinetypeTableRecord
  2
CENTER
 70
     0
  3
____ _ ____ _ ____ _ ____ _ ____ _ ____ _ ____
 72
    65
 73
     4
 40
17.5
 49
13.0
 74
     0
 49
-1.5
 74
     0
 49
1.5
 74
     0
 49
-1.5
 74
     0
  0
ENDTAB
  0
TABLE
  2
LAYER
  5
2
330
0
100
AcDbSymbolTable
 70
     6
  0
LAYER
  5
10
330
2
100
AcDbSymbolTableRecord
100
AcDbLayerTableRecord
  2
0
 70
     0
 62
     7
  6
Continuous
370
    35
390
F
  0
LAYER
  5
2E
330
2
100
AcDbSymbolTableRecord
100
AcDbLayerTableRecord
  2
Mittellinie
 70
     0
 62
     3
  6
MITTE
370
    18
390
F
  0
LAYER
  5
3A
330
2
100
AcDbSymbolTableRecord
100
AcDbLayerTableRecord
  2
Unsichtbar
 70
     0
 62
     5
  6
Continuous
370
    18
390
F
  0
LAYER
  5
87
330
2
100
AcDbSymbolTableRecord
100
AcDbLayerTableRecord
  2
Innenkanten
 70
     0
 62
     1
  6
Continuous
370
    25
390
F
  0
LAYER
  5
46F
330
2
100
AcDbSymbolTableRecord
100
AcDbLayerTableRecord
  2
Defpoints
 70
     0
 62
     6
  6
Continuous
290
     0
370
    15
390
F
  0
LAYER
  5
9F1
330
2
100
AcDbSymbolTableRecord
100
AcDbLayerTableRecord
  2
Bemaßung
 70
     0
 62
     6
  6
Continuous
370
    15
390
F
  0
ENDTAB
  0
TABLE
  2
STYLE
  5
3
330
0
100
AcDbSymbolTable
 70
     2
  0
STYLE
  5
11
330
3
100
AcDbSymbolTableRecord
100
AcDbTextStyleTableRecord
  2
Standard
 70
     0
 40
0.0
 41
1.0
 50
0.0
 71
     0
 42
26.5350450929028
  3
txt
  4

  0
STYLE
  5
2C
330
3
100
AcDbSymbolTableRecord
100
AcDbTextStyleTableRecord
  2

 70
     1
 40
0.0
 41
1.0
 50
0.0
 71
     0
 42
2.5
  3
ltypeshp.shx
  4

  0
ENDTAB
  0
TABLE
  2
VIEW
  5
6
330
0
100
AcDbSymbolTable
 70
     1
  0
VIEW
  5
81C
330
6
100
AcDbSymbolTableRecord
100
AcDbViewTableRecord
  2
tom
 70
     0
 40
127.2859585283894
 10
166.2856675397948
 20
206.2562233711272
 41
204.2020725054376
 11
0.0
 21
0.0
 31
1.0
 12
0.0
 22
0.0
 32
0.0
 42
50.0
 43
0.0
 44
0.0
 50
0.0
 71
     0
281
     0
 72
     1
110
-53.08748352590964
120
3.820899076262548
130
0.0
111
1.0
121
0.0
131
0.0
112
0.0
122
1.0
132
0.0
 79
     0
146
0.0
  0
ENDTAB
  0
TABLE
  2
UCS
  5
7
330
0
100
AcDbSymbolTable
 70
     0
  0
ENDTAB
  0
TABLE
  2
APPID
  5
9
330
0
100
AcDbSymbolTable
 70
     1
  0
APPID
  5
12
330
9
100
AcDbSymbolTableRecord
100
AcDbRegAppTableRecord
  2
ACAD
 70
     0
  0
ENDTAB
  0
TABLE
  2
DIMSTYLE
  5
A
330
0
100
AcDbSymbolTable
 70
     2
100
AcDbDimStyleTable
 71
     1
340
27
  0
DIMSTYLE
105
27
102
{ACAD_REACTORS
330
3292
330
32B3
330
32DA
330
32FB
330
3392
330
33B9
330
33EC
330
340D
330
342F
330
3459
330
348D
330
34AE
330
3544
330
3563
330
358A
330
35C6
330
35E8
330
3609
330
362A
102
}
330
A
100
AcDbSymbolTableRecord
100
AcDbDimStyleTableRecord
  2
ISO-25
 70
     0
 41
2.5
 42
0.625
 43
3.75
 44
1.25
 73
     0
 74
     0
 77
     1
 78
     8
140
2.5
141
2.5
143
0.03937007874016
147
0.625
171
     3
172
     1
271
     2
272
     2
274
     3
278
    44
283
     0
284
     8
340
11
  0
DIMSTYLE
105
AE8
330
A
100
AcDbSymbolTableRecord
100
AcDbDimStyleTableRecord
  2
STANDARD
 70
     0
 41
2.5
 73
     0
 77
     1
140
2.5
141
-0.09
147
0.2
176
     6
178
     6
271
     0
272
     0
279
     1
289
     2
340
11
371
    15
  0
ENDTAB
  0
TABLE
  2
BLOCK_RECORD
  5
1
330
0
100
AcDbSymbolTable
 70
    42
  0
BLOCK_RECORD
  5
1F
330
1
100
AcDbSymbolTableRecord
100
AcDbBlockTableRecord
  2
*Model_Space
340
22
  0
BLOCK_RECORD
  5
FEA
330
1
100
AcDbSymbolTableRecord
100
AcDbBlockTableRecord
  2
*Paper_Space
340
FEB
  0
BLOCK_RECORD
  5
3293
330
1
100
AcDbSymbolTableRecord
100
AcDbBlockTableRecord
  2
*D21
340
0
  0
BLOCK_RECORD
  5
32B4
330
1
100
AcDbSymbolTableRecord
100
AcDbBlockTableRecord
  2
*D22
340
0
  0
BLOCK_RECORD
  5
32DB
330
1
100
AcDbSymbolTableRecord
100
AcDbBlockTableRecord
  2
*D23
340
0
  0
BLOCK_RECORD
  5
32FC
330
1
100
AcDbSymbolTableRecord
100
AcDbBlockTableRecord
  2
*D24
340
0
  0
BLOCK_RECORD
  5
3393
330
1
100
AcDbSymbolTableRecord
100
AcDbBlockTableRecord
  2
*D25
340
0
  0
BLOCK_RECORD
  5
33BA
330
1
100
AcDbSymbolTableRecord
100
AcDbBlockTableRecord
  2
*D26
340
0
  0
BLOCK_RECORD
  5
33ED
330
1
100
AcDbSymbolTableRecord
100
AcDbBlockTableRecord
  2
*D27
340
0
  0
BLOCK_RECORD
  5
340E
330
1
100
AcDbSymbolTableRecord
100
AcDbBlockTableRecord
  2
*D28
340
0
  0
BLOCK_RECORD
  5
3430
330
1
100
AcDbSymbolTableRecord
100
AcDbBlockTableRecord
  2
*D29
340
0
  0
BLOCK_RECORD
  5
345A
330
1
100
AcDbSymbolTableRecord
100
AcDbBlockTableRecord
  2
*D30
340
0
  0
BLOCK_RECORD
  5
348E
330
1
100
AcDbSymbolTableRecord
100
AcDbBlockTableRecord
  2
*D31
340
0
  0
BLOCK_RECORD
  5
34AF
330
1
100
AcDbSymbolTableRecord
100
AcDbBlockTableRecord
  2
*D32
340
0
  0
BLOCK_RECORD
  5
3545
330
1
100
AcDbSymbolTableRecord
100
AcDbBlockTableRecord
  2
*D35
340
0
  0
BLOCK_RECORD
  5
3564
330
1
100
AcDbSymbolTableRecord
100
AcDbBlockTableRecord
  2
*D36
340
0
  0
BLOCK_RECORD
  5
358B
330
1
100
AcDbSymbolTableRecord
100
AcDbBlockTableRecord
  2
*D37
340
0
  0
BLOCK_RECORD
  5
35C7
330
1
100
AcDbSymbolTableRecord
100
AcDbBlockTableRecord
  2
*D38
340
0
  0
BLOCK_RECORD
  5
35E9
330
1
100
AcDbSymbolTableRecord
100
AcDbBlockTableRecord
  2
*D39
340
0
  0
BLOCK_RECORD
  5
360A
330
1
100
AcDbSymbolTableRecord
100
AcDbBlockTableRecord
  2
*D40
340
0
  0
BLOCK_RECORD
  5
362B
330
1
100
AcDbSymbolTableRecord
100
AcDbBlockTableRecord
  2
*D41
340
0
  0
ENDTAB
  0
ENDSEC
  0
SECTION
  2
BLOCKS
  0
BLOCK
  5
20
330
1F
100
AcDbEntity
  8
0
100
AcDbBlockBegin
  2
*Model_Space
 70
     0
 10
0.0
 20
0.0
 30
0.0
  3
*Model_Space
  1

  0
ENDBLK
  5
21
330
1F
100
AcDbEntity
  8
0
100
AcDbBlockEnd
  0
BLOCK
  5
FEC
330
FEA
100
AcDbEntity
 67
     1
  8
0
100
AcDbBlockBegin
  2
*Paper_Space
 70
     0
 10
0.0
 20
0.0
 30
0.0
  3
*Paper_Space
  1

  0
ENDBLK
  5
FED
330
FEA
100
AcDbEntity
 67
     1
  8
0
100
AcDbBlockEnd
  0
BLOCK
  5
329D
330
3293
100
AcDbEntity
  8
0
100
AcDbBlockBegin
  2
*D21
 70
     1
 10
0.0
 20
0.0
 30
0.0
  3
*D21
  1

  0
LINE
  5
3375
330
3293
100
AcDbEntity
  8
Bemaßung
 62
     0
370
    -2
100
AcDbLine
 10
505.826963733756
 20
233.2874123724645
 30
0.0
 11
505.826963733756
 21
242.3692243214623
 31
0.0
  0
LINE
  5
3376
330
3293
100
AcDbEntity
  8
Bemaßung
 62
     0
370
    -2
100
AcDbLine
 10
513.826963733756
 20
233.2874123724645
 30
0.0
 11
513.826963733756
 21
242.3692243214623
 31
0.0
  0
LINE
  5
3377
330
3293
100
AcDbEntity
  8
Bemaßung
 62
     0
370
    -2
100
AcDbLine
 10
508.326963733756
 20
241.1192243214623
 30
0.0
 11
511.3269637337561
 21
241.1192243214623
 31
0.0
  0
SOLID
  5
3378
330
3293
100
AcDbEntity
  8
Bemaßung
 62
     0
100
AcDbTrace
 10
508.326963733756
 20
241.535890988129
 30
0.0
 11
508.326963733756
 21
240.7025576547956
 31
0.0
 12
505.826963733756
 22
241.1192243214623
 32
0.0
 13
505.826963733756
 23
241.1192243214623
 33
0.0
  0
SOLID
  5
3379
330
3293
100
AcDbEntity
  8
Bemaßung
 62
     0
100
AcDbTrace
 10
511.3269637337561
 20
241.535890988129
 30
0.0
 11
511.3269637337561
 21
240.7025576547956
 31
0.0
 12
513.826963733756
 22
241.1192243214623
 32
0.0
 13
513.826963733756
 23
241.1192243214623
 33
0.0
  0
MTEXT
  5
337A
330
3293
100
AcDbEntity
  8
Bemaßung
 62
     0
100
AcDbMText
 10
509.826963733756
 20
242.9942243214623
 30
0.0
 40
2.5
 41
0.0
 71
     5
 72
     1
  1
8
 73
     1
 44
1.0
  0
POINT
  5
337B
330
3293
100
AcDbEntity
  8
Defpoints
 62
     0
100
AcDbPoint
 10
505.826963733756
 20
232.6624123724645
 30
0.0
  0
POINT
  5
337C
330
3293
100
AcDbEntity
  8
Defpoints
 62
     0
100
AcDbPoint
 10
513.826963733756
 20
232.6624123724645
 30
0.0
  0
POINT
  5
337D
330
3293
100
AcDbEntity
  8
Defpoints
 62
     0
100
AcDbPoint
 10
513.826963733756
 20
241.1192243214623
 30
0.0
  0
ENDBLK
  5
329E
330
3293
100
AcDbEntity
  8
0
100
AcDbBlockEnd
  0
BLOCK
  5
32C0
330
32B4
100
AcDbEntity
  8
0
100
AcDbBlockBegin
  2
*D22
 70
     1
 10
0.0
 20
0.0
 30
0.0
  3
*D22
  1

  0
LINE
  5
336A
330
32B4
100
AcDbEntity
  8
Bemaßung
 62
     0
370
    -2
100
AcDbLine
 10
513.826963733756
 20
233.2874123724645
 30
0.0
 11
513.826963733756
 21
242.3692243214623
 31
0.0
  0
LINE
  5
336B
330
32B4
100
AcDbEntity
  8
Bemaßung
 62
     0
370
    -2
100
AcDbLine
 10
516.826963733756
 20
228.0874223724645
 30
0.0
 11
516.826963733756
 21
242.3692243214623
 31
0.0
  0
LINE
  5
336C
330
32B4
100
AcDbEntity
  8
Bemaßung
 62
     0
370
    -2
100
AcDbLine
 10
511.3269637337561
 20
241.1192243214622
 30
0.0
 11
508.826963733756
 21
241.1192243214622
 31
0.0
  0
LINE
  5
336D
330
32B4
100
AcDbEntity
  8
Bemaßung
 62
     0
370
    -2
100
AcDbLine
 10
519.3269637337561
 20
241.1192243214622
 30
0.0
 11
521.826963733756
 21
241.1192243214622
 31
0.0
  0
LINE
  5
336E
330
32B4
100
AcDbEntity
  8
Bemaßung
 62
     0
370
    -2
100
AcDbLine
 10
513.826963733756
 20
241.1192243214622
 30
0.0
 11
516.826963733756
 21
241.1192243214622
 31
0.0
  0
SOLID
  5
336F
330
32B4
100
AcDbEntity
  8
Bemaßung
 62
     0
100
AcDbTrace
 10
511.3269637337561
 20
241.5358909881289
 30
0.0
 11
511.3269637337561
 21
240.7025576547956
 31
0.0
 12
513.826963733756
 22
241.1192243214622
 32
0.0
 13
513.826963733756
 23
241.1192243214622
 33
0.0
  0
SOLID
  5
3370
330
32B4
100
AcDbEntity
  8
Bemaßung
 62
     0
100
AcDbTrace
 10
519.3269637337561
 20
241.5358909881289
 30
0.0
 11
519.3269637337561
 21
240.7025576547956
 31
0.0
 12
516.826963733756
 22
241.1192243214622
 32
0.0
 13
516.826963733756
 23
241.1192243214622
 33
0.0
  0
MTEXT
  5
3371
330
32B4
100
AcDbEntity
  8
Bemaßung
 62
     0
100
AcDbMText
 10
515.3269637337561
 20
242.9942243214623
 30
0.0
 40
2.5
 41
0.0
 71
     5
 72
     1
  1
3
 73
     1
 44
1.0
  0
POINT
  5
3372
330
32B4
100
AcDbEntity
  8
Defpoints
 62
     0
100
AcDbPoint
 10
513.826963733756
 20
232.6624123724645
 30
0.0
  0
POINT
  5
3373
330
32B4
100
AcDbEntity
  8
Defpoints
 62
     0
100
AcDbPoint
 10
516.826963733756
 20
227.4624223724645
 30
0.0
  0
POINT
  5
3374
330
32B4
100
AcDbEntity
  8
Defpoints
 62
     0
100
AcDbPoint
 10
516.826963733756
 20
241.1192243214622
 30
0.0
  0
ENDBLK
  5
32C1
330
32B4
100
AcDbEntity
  8
0
100
AcDbBlockEnd
  0
BLOCK
  5
32E5
330
32DB
100
AcDbEntity
  8
0
100
AcDbBlockBegin
  2
*D23
 70
     1
 10
0.0
 20
0.0
 30
0.0
  3
*D23
  1

  0
LINE
  5
33E3
330
32DB
100
AcDbEntity
  8
Bemaßung
 62
     0
370
    -2
100
AcDbLine
 10
513.826963733756
 20
233.2874123724645
 30
0.0
 11
513.826963733756
 21
258.7040980434321
 31
0.0
  0
LINE
  5
33E4
330
32DB
100
AcDbEntity
  8
Bemaßung
 62
     0
370
    -2
100
AcDbLine
 10
553.827033733756
 20
202.5874123724645
 30
0.0
 11
553.827033733756
 21
258.7040980434321
 31
0.0
  0
LINE
  5
33E5
330
32DB
100
AcDbEntity
  8
Bemaßung
 62
     0
370
    -2
100
AcDbLine
 10
516.3269637337561
 20
257.4540980434321
 30
0.0
 11
551.327033733756
 21
257.4540980434321
 31
0.0
  0
SOLID
  5
33E6
330
32DB
100
AcDbEntity
  8
Bemaßung
 62
     0
100
AcDbTrace
 10
516.3269637337561
 20
257.8707647100988
 30
0.0
 11
516.3269637337561
 21
257.0374313767654
 31
0.0
 12
513.826963733756
 22
257.4540980434321
 32
0.0
 13
513.826963733756
 23
257.4540980434321
 33
0.0
  0
SOLID
  5
33E7
330
32DB
100
AcDbEntity
  8
Bemaßung
 62
     0
100
AcDbTrace
 10
551.327033733756
 20
257.8707647100988
 30
0.0
 11
551.327033733756
 21
257.0374313767654
 31
0.0
 12
553.827033733756
 22
257.4540980434321
 32
0.0
 13
553.827033733756
 23
257.4540980434321
 33
0.0
  0
MTEXT
  5
33E8
330
32DB
100
AcDbEntity
  8
Bemaßung
 62
     0
100
AcDbMText
 10
533.826998733756
 20
259.3290980434321
 30
0.0
 40
2.5
 41
0.0
 71
     5
 72
     1
  1
40
 73
     1
 44
1.0
  0
POINT
  5
33E9
330
32DB
100
AcDbEntity
  8
Defpoints
 62
     0
100
AcDbPoint
 10
513.826963733756
 20
232.6624123724645
 30
0.0
  0
POINT
  5
33EA
330
32DB
100
AcDbEntity
  8
Defpoints
 62
     0
100
AcDbPoint
 10
553.827033733756
 20
201.9624123724645
 30
0.0
  0
POINT
  5
33EB
330
32DB
100
AcDbEntity
  8
Defpoints
 62
     0
100
AcDbPoint
 10
553.827033733756
 20
257.4540980434321
 30
0.0
  0
ENDBLK
  5
32E6
330
32DB
100
AcDbEntity
  8
0
100
AcDbBlockEnd
  0
BLOCK
  5
3306
330
32FC
100
AcDbEntity
  8
0
100
AcDbBlockBegin
  2
*D24
 70
     1
 10
0.0
 20
0.0
 30
0.0
  3
*D24
  1

  0
LINE
  5
33DA
330
32FC
100
AcDbEntity
  8
Bemaßung
 62
     0
370
    -2
100
AcDbLine
 10
513.826963733756
 20
233.2874123724645
 30
0.0
 11
513.826963733756
 21
258.7040980434321
 31
0.0
  0
LINE
  5
33DB
330
32FC
100
AcDbEntity
  8
Bemaßung
 62
     0
370
    -2
100
AcDbLine
 10
336.3269637337804
 20
193.0873927461281
 30
0.0
 11
336.3269637337804
 21
258.7040980434321
 31
0.0
  0
LINE
  5
33DC
330
32FC
100
AcDbEntity
  8
Bemaßung
 62
     0
370
    -2
100
AcDbLine
 10
511.3269637337561
 20
257.4540980434321
 30
0.0
 11
338.8269637337804
 21
257.4540980434321
 31
0.0
  0
SOLID
  5
33DD
330
32FC
100
AcDbEntity
  8
Bemaßung
 62
     0
100
AcDbTrace
 10
511.3269637337561
 20
257.8707647100988
 30
0.0
 11
511.3269637337561
 21
257.0374313767654
 31
0.0
 12
513.826963733756
 22
257.4540980434321
 32
0.0
 13
513.826963733756
 23
257.4540980434321
 33
0.0
  0
SOLID
  5
33DE
330
32FC
100
AcDbEntity
  8
Bemaßung
 62
     0
100
AcDbTrace
 10
338.8269637337804
 20
257.8707647100988
 30
0.0
 11
338.8269637337804
 21
257.0374313767654
 31
0.0
 12
336.3269637337804
 22
257.4540980434321
 32
0.0
 13
336.3269637337804
 23
257.4540980434321
 33
0.0
  0
MTEXT
  5
33DF
330
32FC
100
AcDbEntity
  8
Bemaßung
 62
     0
100
AcDbMText
 10
425.0769637337682
 20
259.5374313767655
 30
0.0
 40
2.5
 41
0.0
 71
     5
 72
     1
  1
177,5
 73
     1
 44
1.0
  0
POINT
  5
33E0
330
32FC
100
AcDbEntity
  8
Defpoints
 62
     0
100
AcDbPoint
 10
513.826963733756
 20
232.6624123724645
 30
0.0
  0
POINT
  5
33E1
330
32FC
100
AcDbEntity
  8
Defpoints
 62
     0
100
AcDbPoint
 10
336.3269637337804
 20
192.4623927461281
 30
0.0
  0
POINT
  5
33E2
330
32FC
100
AcDbEntity
  8
Defpoints
 62
     0
100
AcDbPoint
 10
336.3269637337804
 20
257.4540980434321
 30
0.0
  0
ENDBLK
  5
3307
330
32FC
100
AcDbEntity
  8
0
100
AcDbBlockEnd
  0
BLOCK
  5
339F
330
3393
100
AcDbEntity
  8
0
100
AcDbBlockBegin
  2
*D25
 70
     1
 10
0.0
 20
0.0
 30
0.0
  3
*D25
  1

  0
LINE
  5
33AE
330
3393
100
AcDbEntity
  8
Bemaßung
 62
     0
370
    -2
100
AcDbLine
 10
372.626993733756
 20
233.2874123724645
 30
0.0
 11
372.626993733756
 21
242.160890988129
 31
0.0
  0
LINE
  5
33AF
330
3393
100
AcDbEntity
  8
Bemaßung
 62
     0
370
    -2
100
AcDbLine
 10
375.3270037337561
 20
233.2874123724645
 30
0.0
 11
375.3270037337561
 21
242.160890988129
 31
0.0
  0
LINE
  5
33B0
330
3393
100
AcDbEntity
  8
Bemaßung
 62
     0
370
    -2
100
AcDbLine
 10
370.126993733756
 20
240.910890988129
 30
0.0
 11
367.626993733756
 21
240.910890988129
 31
0.0
  0
LINE
  5
33B1
330
3393
100
AcDbEntity
  8
Bemaßung
 62
     0
370
    -2
100
AcDbLine
 10
377.8270037337561
 20
240.910890988129
 30
0.0
 11
386.9936704004227
 21
240.910890988129
 31
0.0
  0
LINE
  5
33B2
330
3393
100
AcDbEntity
  8
Bemaßung
 62
     0
370
    -2
100
AcDbLine
 10
372.626993733756
 20
240.910890988129
 30
0.0
 11
375.3270037337561
 21
240.910890988129
 31
0.0
  0
SOLID
  5
33B3
330
3393
100
AcDbEntity
  8
Bemaßung
 62
     0
100
AcDbTrace
 10
370.126993733756
 20
241.3275576547956
 30
0.0
 11
370.126993733756
 21
240.4942243214623
 31
0.0
 12
372.626993733756
 22
240.910890988129
 32
0.0
 13
372.626993733756
 23
240.910890988129
 33
0.0
  0
SOLID
  5
33B4
330
3393
100
AcDbEntity
  8
Bemaßung
 62
     0
100
AcDbTrace
 10
377.8270037337561
 20
241.3275576547956
 30
0.0
 11
377.8270037337561
 21
240.4942243214623
 31
0.0
 12
375.3270037337561
 22
240.910890988129
 32
0.0
 13
375.3270037337561
 23
240.910890988129
 33
0.0
  0
MTEXT
  5
33B5
330
3393
100
AcDbEntity
  8
Bemaßung
 62
     0
100
AcDbMText
 10
383.6603370670894
 20
242.9942243214624
 30
0.0
 40
2.5
 41
0.0
 71
     5
 72
     1
  1
2,7
 73
     1
 44
1.0
  0
POINT
  5
33B6
330
3393
100
AcDbEntity
  8
Defpoints
 62
     0
100
AcDbPoint
 10
372.626993733756
 20
232.6624123724645
 30
0.0
  0
POINT
  5
33B7
330
3393
100
AcDbEntity
  8
Defpoints
 62
     0
100
AcDbPoint
 10
375.3270037337561
 20
232.6624123724645
 30
0.0
  0
POINT
  5
33B8
330
3393
100
AcDbEntity
  8
Defpoints
 62
     0
100
AcDbPoint
 10
375.3270037337561
 20
240.910890988129
 30
0.0
  0
ENDBLK
  5
33A0
330
3393
100
AcDbEntity
  8
0
100
AcDbBlockEnd
  0
BLOCK
  5
33C4
330
33BA
100
AcDbEntity
  8
0
100
AcDbBlockBegin
  2
*D26
 70
     1
 10
0.0
 20
0.0
 30
0.0
  3
*D26
  1

  0
LINE
  5
33D1
330
33BA
100
AcDbEntity
  8
Bemaßung
 62
     0
370
    -2
100
AcDbLine
 10
375.3270037337561
 20
234.2874123724645
 30
0.0
 11
375.3270037337561
 21
251.6031687439449
 31
0.0
  0
LINE
  5
33D2
330
33BA
100
AcDbEntity
  8
Bemaßung
 62
     0
370
    -2
100
AcDbLine
 10
336.3269637337804
 20
193.0873927461281
 30
0.0
 11
336.3269637337804
 21
251.6031687439449
 31
0.0
  0
LINE
  5
33D3
330
33BA
100
AcDbEntity
  8
Bemaßung
 62
     0
370
    -2
100
AcDbLine
 10
372.8270037337561
 20
250.3531687439449
 30
0.0
 11
338.8269637337804
 21
250.3531687439449
 31
0.0
  0
SOLID
  5
33D4
330
33BA
100
AcDbEntity
  8
Bemaßung
 62
     0
100
AcDbTrace
 10
372.8270037337561
 20
250.7698354106115
 30
0.0
 11
372.8270037337561
 21
249.9365020772782
 31
0.0
 12
375.3270037337561
 22
250.3531687439449
 32
0.0
 13
375.3270037337561
 23
250.3531687439449
 33
0.0
  0
SOLID
  5
33D5
330
33BA
100
AcDbEntity
  8
Bemaßung
 62
     0
100
AcDbTrace
 10
338.8269637337804
 20
250.7698354106115
 30
0.0
 11
338.8269637337804
 21
249.9365020772782
 31
0.0
 12
336.3269637337804
 22
250.3531687439449
 32
0.0
 13
336.3269637337804
 23
250.3531687439449
 33
0.0
  0
MTEXT
  5
33D6
330
33BA
100
AcDbEntity
  8
Bemaßung
 62
     0
100
AcDbMText
 10
355.8269837337683
 20
252.2281687439449
 30
0.0
 40
2.5
 41
0.0
 71
     5
 72
     1
  1
39
 73
     1
 44
1.0
  0
POINT
  5
33D7
330
33BA
100
AcDbEntity
  8
Defpoints
 62
     0
100
AcDbPoint
 10
375.3270037337561
 20
233.6624123724646
 30
0.0
  0
POINT
  5
33D8
330
33BA
100
AcDbEntity
  8
Defpoints
 62
     0
100
AcDbPoint
 10
336.3269637337804
 20
192.4623927461281
 30
0.0
  0
POINT
  5
33D9
330
33BA
100
AcDbEntity
  8
Defpoints
 62
     0
100
AcDbPoint
 10
336.3269637337804
 20
250.3531687439449
 30
0.0
  0
ENDBLK
  5
33C5
330
33BA
100
AcDbEntity
  8
0
100
AcDbBlockEnd
  0
BLOCK
  5
33F7
330
33ED
100
AcDbEntity
  8
0
100
AcDbBlockBegin
  2
*D27
 70
     1
 10
0.0
 20
0.0
 30
0.0
  3
*D27
  1

  0
LINE
  5
3404
330
33ED
100
AcDbEntity
  8
Bemaßung
 62
     0
370
    -2
100
AcDbLine
 10
554.452033733756
 20
201.9624123724645
 30
0.0
 11
573.8426372168267
 21
201.9624123724645
 31
0.0
  0
LINE
  5
3405
330
33ED
100
AcDbEntity
  8
Bemaßung
 62
     0
370
    -2
100
AcDbLine
 10
554.452033733756
 20
182.9624123724645
 30
0.0
 11
573.8426372168267
 21
182.9624123724645
 31
0.0
  0
LINE
  5
3406
330
33ED
100
AcDbEntity
  8
Bemaßung
 62
     0
370
    -2
100
AcDbLine
 10
572.5926372168267
 20
199.4624123724645
 30
0.0
 11
572.5926372168267
 21
185.4624123724645
 31
0.0
  0
SOLID
  5
3407
330
33ED
100
AcDbEntity
  8
Bemaßung
 62
     0
100
AcDbTrace
 10
572.17597055016
 20
199.4624123724645
 30
0.0
 11
573.0093038834933
 21
199.4624123724645
 31
0.0
 12
572.5926372168267
 22
201.9624123724645
 32
0.0
 13
572.5926372168267
 23
201.9624123724645
 33
0.0
  0
SOLID
  5
3408
330
33ED
100
AcDbEntity
  8
Bemaßung
 62
     0
100
AcDbTrace
 10
572.17597055016
 20
185.4624123724645
 30
0.0
 11
573.0093038834933
 21
185.4624123724645
 31
0.0
 12
572.5926372168267
 22
182.9624123724645
 32
0.0
 13
572.5926372168267
 23
182.9624123724645
 33
0.0
  0
MTEXT
  5
3409
330
33ED
100
AcDbEntity
  8
Bemaßung
 62
     0
100
AcDbMText
 10
570.7176372168267
 20
192.4624123724646
 30
0.0
 40
2.5
 41
0.0
 71
     5
 72
     1
  1
19
 11
0.0000000000000001
 21
1.0
 31
0.0
 73
     1
 44
1.0
  0
POINT
  5
340A
330
33ED
100
AcDbEntity
  8
Defpoints
 62
     0
100
AcDbPoint
 10
553.827033733756
 20
201.9624123724645
 30
0.0
  0
POINT
  5
340B
330
33ED
100
AcDbEntity
  8
Defpoints
 62
     0
100
AcDbPoint
 10
553.827033733756
 20
182.9624123724645
 30
0.0
  0
POINT
  5
340C
330
33ED
100
AcDbEntity
  8
Defpoints
 62
     0
100
AcDbPoint
 10
572.5926372168267
 20
182.9624123724645
 30
0.0
  0
ENDBLK
  5
33F8
330
33ED
100
AcDbEntity
  8
0
100
AcDbBlockEnd
  0
BLOCK
  5
3418
330
340E
100
AcDbEntity
  8
0
100
AcDbBlockBegin
  2
*D28
 70
     1
 10
0.0
 20
0.0
 30
0.0
  3
*D28
  1

  0
LINE
  5
3425
330
340E
100
AcDbEntity
  8
Bemaßung
 62
     0
370
    -2
100
AcDbLine
 10
517.451963733756
 20
227.4624223724645
 30
0.0
 11
585.8283154579616
 21
227.4624223724645
 31
0.0
  0
LINE
  5
3426
330
340E
100
AcDbEntity
  8
Bemaßung
 62
     0
370
    -2
100
AcDbLine
 10
517.451963733756
 20
157.4624123724645
 30
0.0
 11
585.8283154579616
 21
157.4624123724645
 31
0.0
  0
LINE
  5
3427
330
340E
100
AcDbEntity
  8
Bemaßung
 62
     0
370
    -2
100
AcDbLine
 10
584.5783154579617
 20
224.9624223724645
 30
0.0
 11
584.5783154579617
 21
159.9624123724645
 31
0.0
  0
SOLID
  5
3428
330
340E
100
AcDbEntity
  8
Bemaßung
 62
     0
100
AcDbTrace
 10
584.1616487912951
 20
224.9624223724645
 30
0.0
 11
584.9949821246283
 21
224.9624223724645
 31
0.0
 12
584.5783154579617
 22
227.4624223724645
 32
0.0
 13
584.5783154579617
 23
227.4624223724645
 33
0.0
  0
SOLID
  5
3429
330
340E
100
AcDbEntity
  8
Bemaßung
 62
     0
100
AcDbTrace
 10
584.1616487912951
 20
159.9624123724645
 30
0.0
 11
584.9949821246283
 21
159.9624123724645
 31
0.0
 12
584.5783154579617
 22
157.4624123724645
 32
0.0
 13
584.5783154579617
 23
157.4624123724645
 33
0.0
  0
MTEXT
  5
342A
330
340E
100
AcDbEntity
  8
Bemaßung
 62
     0
100
AcDbMText
 10
582.7033154579616
 20
192.4624173724646
 30
0.0
 40
2.5
 41
0.0
 71
     5
 72
     1
  1
70
 11
0.0000000000000001
 21
1.0
 31
0.0
 73
     1
 44
1.0
  0
POINT
  5
342B
330
340E
100
AcDbEntity
  8
Defpoints
 62
     0
100
AcDbPoint
 10
516.826963733756
 20
227.4624223724645
 30
0.0
  0
POINT
  5
342C
330
340E
100
AcDbEntity
  8
Defpoints
 62
     0
100
AcDbPoint
 10
516.826963733756
 20
157.4624123724645
 30
0.0
  0
POINT
  5
342D
330
340E
100
AcDbEntity
  8
Defpoints
 62
     0
100
AcDbPoint
 10
584.5783154579617
 20
157.4624123724645
 30
0.0
  0
ENDBLK
  5
3419
330
340E
100
AcDbEntity
  8
0
100
AcDbBlockEnd
  0
BLOCK
  5
343A
330
3430
100
AcDbEntity
  8
0
100
AcDbBlockBegin
  2
*D29
 70
     1
 10
0.0
 20
0.0
 30
0.0
  3
*D29
  1

  0
LINE
  5
3450
330
3430
100
AcDbEntity
  8
Bemaßung
 62
     0
370
    -2
100
AcDbLine
 10
427.126953733756
 20
131.7471423724645
 30
0.0
 11
427.126953733756
 21
120.0182712324044
 31
0.0
  0
LINE
  5
3451
330
3430
100
AcDbEntity
  8
Bemaßung
 62
     0
370
    -2
100
AcDbLine
 10
513.826963733756
 20
151.6374023724645
 30
0.0
 11
513.826963733756
 21
120.0182712324044
 31
0.0
  0
LINE
  5
3452
330
3430
100
AcDbEntity
  8
Bemaßung
 62
     0
370
    -2
100
AcDbLine
 10
429.626953733756
 20
121.2682712324044
 30
0.0
 11
511.3269637337561
 21
121.2682712324044
 31
0.0
  0
SOLID
  5
3453
330
3430
100
AcDbEntity
  8
Bemaßung
 62
     0
100
AcDbTrace
 10
429.626953733756
 20
121.6849378990711
 30
0.0
 11
429.626953733756
 21
120.8516045657377
 31
0.0
 12
427.126953733756
 22
121.2682712324044
 32
0.0
 13
427.126953733756
 23
121.2682712324044
 33
0.0
  0
SOLID
  5
3454
330
3430
100
AcDbEntity
  8
Bemaßung
 62
     0
100
AcDbTrace
 10
511.3269637337561
 20
121.6849378990711
 30
0.0
 11
511.3269637337561
 21
120.8516045657377
 31
0.0
 12
513.826963733756
 22
121.2682712324044
 32
0.0
 13
513.826963733756
 23
121.2682712324044
 33
0.0
  0
MTEXT
  5
3455
330
3430
100
AcDbEntity
  8
Bemaßung
 62
     0
100
AcDbMText
 10
470.476958733756
 20
123.3516045657377
 30
0.0
 40
2.5
 41
0.0
 71
     5
 72
     1
  1
86,7
 73
     1
 44
1.0
  0
POINT
  5
3456
330
3430
100
AcDbEntity
  8
Defpoints
 62
     0
100
AcDbPoint
 10
427.126953733756
 20
132.3721423724645
 30
0.0
  0
POINT
  5
3457
330
3430
100
AcDbEntity
  8
Defpoints
 62
     0
100
AcDbPoint
 10
513.826963733756
 20
152.2624023724645
 30
0.0
  0
POINT
  5
3458
330
3430
100
AcDbEntity
  8
Defpoints
 62
     0
100
AcDbPoint
 10
513.826963733756
 20
121.2682712324044
 30
0.0
  0
ENDBLK
  5
343B
330
3430
100
AcDbEntity
  8
0
100
AcDbBlockEnd
  0
BLOCK
  5
3464
330
345A
100
AcDbEntity
  8
0
100
AcDbBlockBegin
  2
*D30
 70
     1
 10
0.0
 20
0.0
 30
0.0
  3
*D30
  1

  0
LINE
  5
3483
330
345A
100
AcDbEntity
  8
Bemaßung
 62
     0
370
    -2
100
AcDbLine
 10
336.326963733756
 20
191.8375323724646
 30
0.0
 11
336.326963733756
 21
127.466786399526
 31
0.0
  0
LINE
  5
3484
330
345A
100
AcDbEntity
  8
Bemaßung
 62
     0
370
    -2
100
AcDbLine
 10
408.3221537337561
 20
140.9616223724645
 30
0.0
 11
408.3221537337561
 21
127.466786399526
 31
0.0
  0
LINE
  5
3485
330
345A
100
AcDbEntity
  8
Bemaßung
 62
     0
370
    -2
100
AcDbLine
 10
338.8269637337561
 20
128.716786399526
 30
0.0
 11
405.822153733756
 21
128.716786399526
 31
0.0
  0
SOLID
  5
3486
330
345A
100
AcDbEntity
  8
Bemaßung
 62
     0
100
AcDbTrace
 10
338.8269637337561
 20
129.1334530661926
 30
0.0
 11
338.8269637337561
 21
128.3001197328593
 31
0.0
 12
336.326963733756
 22
128.716786399526
 32
0.0
 13
336.326963733756
 23
128.716786399526
 33
0.0
  0
SOLID
  5
3487
330
345A
100
AcDbEntity
  8
Bemaßung
 62
     0
100
AcDbTrace
 10
405.822153733756
 20
129.1334530661926
 30
0.0
 11
405.822153733756
 21
128.3001197328593
 31
0.0
 12
408.3221537337561
 22
128.716786399526
 32
0.0
 13
408.3221537337561
 23
128.716786399526
 33
0.0
  0
MTEXT
  5
3488
330
345A
100
AcDbEntity
  8
Bemaßung
 62
     0
100
AcDbMText
 10
372.324558733756
 20
130.591786399526
 30
0.0
 40
2.5
 41
0.0
 71
     5
 72
     1
  1
72
 73
     1
 44
1.0
  0
POINT
  5
3489
330
345A
100
AcDbEntity
  8
Defpoints
 62
     0
100
AcDbPoint
 10
336.326963733756
 20
192.4625323724645
 30
0.0
  0
POINT
  5
348A
330
345A
100
AcDbEntity
  8
Defpoints
 62
     0
100
AcDbPoint
 10
408.3221537337561
 20
141.5866223724645
 30
0.0
  0
POINT
  5
348B
330
345A
100
AcDbEntity
  8
Defpoints
 62
     0
100
AcDbPoint
 10
408.3221537337561
 20
128.716786399526
 30
0.0
  0
ENDBLK
  5
3465
330
345A
100
AcDbEntity
  8
0
100
AcDbBlockEnd
  0
BLOCK
  5
3498
330
348E
100
AcDbEntity
  8
0
100
AcDbBlockBegin
  2
*D31
 70
     1
 10
0.0
 20
0.0
 30
0.0
  3
*D31
  1

  0
LINE
  5
34D8
330
348E
100
AcDbEntity
  8
Bemaßung
 62
     0
370
    -2
100
AcDbLine
 10
198.1292379940849
 20
226.2554842524654
 30
0.0
 11
198.1292379940849
 21
259.1207647100988
 31
0.0
  0
LINE
  5
34D9
330
348E
100
AcDbEntity
  8
Bemaßung
 62
     0
370
    -2
100
AcDbLine
 10
278.1291979940849
 20
226.2554842524654
 30
0.0
 11
278.1291979940849
 21
259.1207647100988
 31
0.0
  0
LINE
  5
34DA
330
348E
100
AcDbEntity
  8
Bemaßung
 62
     0
370
    -2
100
AcDbLine
 10
200.6292379940849
 20
257.8707647100988
 30
0.0
 11
275.6291979940848
 21
257.8707647100988
 31
0.0
  0
SOLID
  5
34DB
330
348E
100
AcDbEntity
  8
Bemaßung
 62
     0
100
AcDbTrace
 10
200.6292379940849
 20
258.2874313767655
 30
0.0
 11
200.6292379940849
 21
257.4540980434321
 31
0.0
 12
198.1292379940849
 22
257.8707647100988
 32
0.0
 13
198.1292379940849
 23
257.8707647100988
 33
0.0
  0
SOLID
  5
34DC
330
348E
100
AcDbEntity
  8
Bemaßung
 62
     0
100
AcDbTrace
 10
275.6291979940848
 20
258.2874313767655
 30
0.0
 11
275.6291979940848
 21
257.4540980434321
 31
0.0
 12
278.1291979940849
 22
257.8707647100988
 32
0.0
 13
278.1291979940849
 23
257.8707647100988
 33
0.0
  0
MTEXT
  5
34DD
330
348E
100
AcDbEntity
  8
Bemaßung
 62
     0
100
AcDbMText
 10
238.1292179940849
 20
259.7457647100988
 30
0.0
 40
2.5
 41
0.0
 71
     5
 72
     1
  1
80
 73
     1
 44
1.0
  0
POINT
  5
34DE
330
348E
100
AcDbEntity
  8
Defpoints
 62
     0
100
AcDbPoint
 10
198.1292379940849
 20
225.6304842524654
 30
0.0
  0
POINT
  5
34DF
330
348E
100
AcDbEntity
  8
Defpoints
 62
     0
100
AcDbPoint
 10
278.1291979940849
 20
225.6304842524654
 30
0.0
  0
POINT
  5
34E0
330
348E
100
AcDbEntity
  8
Defpoints
 62
     0
100
AcDbPoint
 10
278.1291979940849
 20
257.8707647100988
 30
0.0
  0
ENDBLK
  5
3499
330
348E
100
AcDbEntity
  8
0
100
AcDbBlockEnd
  0
BLOCK
  5
34B9
330
34AF
100
AcDbEntity
  8
0
100
AcDbBlockBegin
  2
*D32
 70
     1
 10
0.0
 20
0.0
 30
0.0
  3
*D32
  1

  0
LINE
  5
34F3
330
34AF
100
AcDbEntity
  8
Bemaßung
 62
     0
370
    -2
100
AcDbLine
 10
204.3042379940849
 20
232.4304842524654
 30
0.0
 11
173.1591527702026
 21
232.4304842524654
 31
0.0
  0
LINE
  5
34F4
330
34AF
100
AcDbEntity
  8
Bemaßung
 62
     0
370
    -2
100
AcDbLine
 10
204.3042416592763
 20
152.4304742524653
 30
0.0
 11
173.1591527702025
 21
152.4304742524654
 31
0.0
  0
LINE
  5
34F5
330
34AF
100
AcDbEntity
  8
Bemaßung
 62
     0
370
    -2
100
AcDbLine
 10
174.4091527702026
 20
229.9304842524654
 30
0.0
 11
174.4091527702025
 21
154.9304742524654
 31
0.0
  0
SOLID
  5
34F6
330
34AF
100
AcDbEntity
  8
Bemaßung
 62
     0
100
AcDbTrace
 10
173.9924861035359
 20
229.9304842524654
 30
0.0
 11
174.8258194368692
 21
229.9304842524654
 31
0.0
 12
174.4091527702026
 22
232.4304842524654
 32
0.0
 13
174.4091527702026
 23
232.4304842524654
 33
0.0
  0
SOLID
  5
34F7
330
34AF
100
AcDbEntity
  8
Bemaßung
 62
     0
100
AcDbTrace
 10
173.9924861035359
 20
154.9304742524654
 30
0.0
 11
174.8258194368692
 21
154.9304742524654
 31
0.0
 12
174.4091527702025
 22
152.4304742524654
 32
0.0
 13
174.4091527702025
 23
152.4304742524654
 33
0.0
  0
MTEXT
  5
34F8
330
34AF
100
AcDbEntity
  8
Bemaßung
 62
     0
100
AcDbMText
 10
172.5341527702025
 20
192.4304792524654
 30
0.0
 40
2.5
 41
0.0
 71
     5
 72
     1
  1
80
 11
0.0000000000000001
 21
1.0
 31
0.0
 73
     1
 44
1.0
  0
POINT
  5
34F9
330
34AF
100
AcDbEntity
  8
Defpoints
 62
     0
100
AcDbPoint
 10
204.9292379940849
 20
232.4304842524654
 30
0.0
  0
POINT
  5
34FA
330
34AF
100
AcDbEntity
  8
Defpoints
 62
     0
100
AcDbPoint
 10
204.9292416592763
 20
152.4304742524653
 30
0.0
  0
POINT
  5
34FB
330
34AF
100
AcDbEntity
  8
Defpoints
 62
     0
100
AcDbPoint
 10
174.4091527702025
 20
152.4304742524654
 30
0.0
  0
ENDBLK
  5
34BA
330
34AF
100
AcDbEntity
  8
0
100
AcDbBlockEnd
  0
BLOCK
  5
354B
330
3545
100
AcDbEntity
  8
0
100
AcDbBlockBegin
  2
*D35
 70
     1
 10
0.0
 20
0.0
 30
0.0
  3
*D35
  1

  0
LINE
  5
355E
330
3545
100
AcDbEntity
  8
Bemaßung
 62
     0
370
    -2
100
AcDbLine
 10
227.1418214124922
 20
200.237185558119
 30
0.0
 11
203.4838507383207
 21
217.0464637980835
 31
0.0
  0
MTEXT
  5
355F
330
3545
100
AcDbEntity
  8
Bemaßung
 62
     0
100
AcDbMText
 10
225.1708736934079
 20
203.9376571616632
 30
0.0
 40
2.5
 41
0.0
 71
     5
 72
     1
  1
\U+220590
 11
0.8151858177826859
 21
-0.5791995187204263
 31
0.0
 73
     1
 44
1.0
  0
SOLID
  5
3560
330
3545
100
AcDbEntity
  8
Bemaßung
 62
     0
100
AcDbTrace
 10
203.7251838711208
 20
217.3861245554929
 30
0.0
 11
203.2425176055205
 21
216.706803040674
 31
0.0
 12
201.4458861938639
 22
218.4944625948845
 32
0.0
 13
201.4458861938639
 23
218.4944625948845
 33
0.0
  0
POINT
  5
3561
330
3545
100
AcDbEntity
  8
Defpoints
 62
     0
100
AcDbPoint
 10
201.4458861938639
 20
218.4944625948845
 30
0.0
  0
POINT
  5
3562
330
3545
100
AcDbEntity
  8
Defpoints
 62
     0
100
AcDbPoint
 10
274.8126097943057
 20
166.3665059100462
 30
0.0
  0
ENDBLK
  5
354C
330
3545
100
AcDbEntity
  8
0
100
AcDbBlockEnd
  0
BLOCK
  5
3570
330
3564
100
AcDbEntity
  8
0
100
AcDbBlockBegin
  2
*D36
 70
     1
 10
0.0
 20
0.0
 30
0.0
  3
*D36
  1

  0
LINE
  5
357F
330
3564
100
AcDbEntity
  8
Bemaßung
 62
     0
370
    -2
100
AcDbLine
 10
238.1292479940849
 20
234.8636942524653
 30
0.0
 11
238.1292479940848
 21
245.8654356361605
 31
0.0
  0
LINE
  5
3580
330
3564
100
AcDbEntity
  8
Bemaßung
 62
     0
370
    -2
100
AcDbLine
 10
201.208876487856
 20
229.3509862227196
 30
0.0
 11
200.3451161952097
 21
230.2147474222884
 31
0.0
  0
ARC
  5
3581
330
3564
100
AcDbEntity
  8
Bemaßung
 62
     0
370
    -2
100
AcDbCircle
 10
238.1292479940848
 20
192.4305759512013
 30
0.0
 40
52.18485968495914
100
AcDbArc
 50
92.74510941907296
 51
132.2548605015126
  0
SOLID
  5
3582
330
3564
100
AcDbEntity
  8
Bemaßung
 62
     0
100
AcDbTrace
 10
235.619984753311
 20
244.9720994829584
 30
0.0
 11
235.63994584304
 21
244.1390052509886
 31
0.0
 12
238.1292479940848
 22
244.6154356361605
 32
0.0
 13
238.1292479940848
 23
244.6154356361605
 33
0.0
  0
SOLID
  5
3583
330
3564
100
AcDbEntity
  8
Bemaßung
 62
     0
100
AcDbTrace
 10
203.3260895424303
 20
230.7541776561472
 30
0.0
 11
202.7511179002159
 21
231.3573791606991
 31
0.0
 12
201.2289992076674
 22
229.33086348178
 32
0.0
 13
201.2289992076674
 23
229.33086348178
 33
0.0
  0
MTEXT
  5
3584
330
3564
100
AcDbEntity
  8
Bemaßung
 62
     0
100
AcDbMText
 10
217.4414484468005
 20
242.3753792749592
 30
0.0
 40
2.5
 41
0.0
 71
     5
 72
     1
  1
45°
 11
0.9238796329627508
 21
0.3826831898537129
 31
0.0
 73
     1
 44
1.0
  0
POINT
  5
3585
330
3564
100
AcDbEntity
  8
Defpoints
 62
     0
100
AcDbPoint
 10
224.6228212625329
 20
242.8372820257317
 30
0.0
  0
POINT
  5
3586
330
3564
100
AcDbEntity
  8
Defpoints
 62
     0
100
AcDbPoint
 10
201.6508179940848
 20
228.9090442524653
 30
0.0
  0
POINT
  5
3587
330
3564
100
AcDbEntity
  8
Defpoints
 62
     0
100
AcDbPoint
 10
238.1292479940848
 20
147.1644642524653
 30
0.0
  0
POINT
  5
3588
330
3564
100
AcDbEntity
  8
Defpoints
 62
     0
100
AcDbPoint
 10
238.1292479940848
 20
234.2386942524654
 30
0.0
  0
POINT
  5
3589
330
3564
100
AcDbEntity
  8
Defpoints
 62
     0
100
AcDbPoint
 10
211.1748979940848
 20
219.3849542524653
 30
0.0
  0
ENDBLK
  5
3571
330
3564
100
AcDbEntity
  8
0
100
AcDbBlockEnd
  0
BLOCK
  5
3595
330
358B
100
AcDbEntity
  8
0
100
AcDbBlockBegin
  2
*D37
 70
     1
 10
0.0
 20
0.0
 30
0.0
  3
*D37
  1

  0
LINE
  5
35BD
330
358B
100
AcDbEntity
  8
Bemaßung
 62
     0
370
    -2
100
AcDbLine
 10
247.7542479940848
 20
134.3350142524653
 30
0.0
 11
295.6074732206982
 21
134.3350142524653
 31
0.0
  0
LINE
  5
35BE
330
358B
100
AcDbEntity
  8
Bemaßung
 62
     0
370
    -2
100
AcDbLine
 10
280.5624779940848
 20
192.4304842524653
 30
0.0
 11
295.6074732206982
 21
192.4304842524653
 31
0.0
  0
LINE
  5
35BF
330
358B
100
AcDbEntity
  8
Bemaßung
 62
     0
370
    -2
100
AcDbLine
 10
294.3574732206982
 20
136.8350142524653
 30
0.0
 11
294.3574732206982
 21
189.9304842524653
 31
0.0
  0
SOLID
  5
35C0
330
358B
100
AcDbEntity
  8
Bemaßung
 62
     0
100
AcDbTrace
 10
293.9408065540315
 20
136.8350142524653
 30
0.0
 11
294.7741398873649
 21
136.8350142524653
 31
0.0
 12
294.3574732206982
 22
134.3350142524653
 32
0.0
 13
294.3574732206982
 23
134.3350142524653
 33
0.0
  0
SOLID
  5
35C1
330
358B
100
AcDbEntity
  8
Bemaßung
 62
     0
100
AcDbTrace
 10
293.9408065540315
 20
189.9304842524653
 30
0.0
 11
294.7741398873649
 21
189.9304842524653
 31
0.0
 12
294.3574732206982
 22
192.4304842524653
 32
0.0
 13
294.3574732206982
 23
192.4304842524653
 33
0.0
  0
MTEXT
  5
35C2
330
358B
100
AcDbEntity
  8
Bemaßung
 62
     0
100
AcDbMText
 10
292.2741398873648
 20
163.3827492524654
 30
0.0
 40
2.5
 41
0.0
 71
     5
 72
     1
  1
58,1
 11
0.0000000000000001
 21
1.0
 31
0.0
 73
     1
 44
1.0
  0
POINT
  5
35C3
330
358B
100
AcDbEntity
  8
Defpoints
 62
     0
100
AcDbPoint
 10
247.1292479940848
 20
134.3350142524653
 30
0.0
  0
POINT
  5
35C4
330
358B
100
AcDbEntity
  8
Defpoints
 62
     0
100
AcDbPoint
 10
279.9374779940848
 20
192.4304842524653
 30
0.0
  0
POINT
  5
35C5
330
358B
100
AcDbEntity
  8
Defpoints
 62
     0
100
AcDbPoint
 10
294.3574732206982
 20
192.4304842524653
 30
0.0
  0
ENDBLK
  5
3596
330
358B
100
AcDbEntity
  8
0
100
AcDbBlockEnd
  0
BLOCK
  5
35D1
330
35C7
100
AcDbEntity
  8
0
100
AcDbBlockBegin
  2
*D38
 70
     1
 10
0.0
 20
0.0
 30
0.0
  3
*D38
  1

  0
LINE
  5
35DE
330
35C7
100
AcDbEntity
  8
Bemaßung
 62
     0
370
    -2
100
AcDbLine
 10
228.1292479940848
 20
134.7100142524653
 30
0.0
 11
228.1292479940848
 21
117.5947126065061
 31
0.0
  0
LINE
  5
35DF
330
35C7
100
AcDbEntity
  8
Bemaßung
 62
     0
370
    -2
100
AcDbLine
 10
248.1292479940849
 20
134.7100142524653
 30
0.0
 11
248.1292479940849
 21
117.5947126065061
 31
0.0
  0
LINE
  5
35E0
330
35C7
100
AcDbEntity
  8
Bemaßung
 62
     0
370
    -2
100
AcDbLine
 10
230.6292479940848
 20
118.8447126065061
 30
0.0
 11
245.6292479940848
 21
118.8447126065061
 31
0.0
  0
SOLID
  5
35E1
330
35C7
100
AcDbEntity
  8
Bemaßung
 62
     0
100
AcDbTrace
 10
230.6292479940848
 20
119.2613792731728
 30
0.0
 11
230.6292479940848
 21
118.4280459398394
 31
0.0
 12
228.1292479940848
 22
118.8447126065061
 32
0.0
 13
228.1292479940848
 23
118.8447126065061
 33
0.0
  0
SOLID
  5
35E2
330
35C7
100
AcDbEntity
  8
Bemaßung
 62
     0
100
AcDbTrace
 10
245.6292479940848
 20
119.2613792731728
 30
0.0
 11
245.6292479940848
 21
118.4280459398394
 31
0.0
 12
248.1292479940849
 22
118.8447126065061
 32
0.0
 13
248.1292479940849
 23
118.8447126065061
 33
0.0
  0
MTEXT
  5
35E3
330
35C7
100
AcDbEntity
  8
Bemaßung
 62
     0
100
AcDbMText
 10
238.1292479940849
 20
120.7197126065061
 30
0.0
 40
2.5
 41
0.0
 71
     5
 72
     1
  1
20
 73
     1
 44
1.0
  0
POINT
  5
35E4
330
35C7
100
AcDbEntity
  8
Defpoints
 62
     0
100
AcDbPoint
 10
228.1292479940848
 20
135.3350142524653
 30
0.0
  0
POINT
  5
35E5
330
35C7
100
AcDbEntity
  8
Defpoints
 62
     0
100
AcDbPoint
 10
248.1292479940849
 20
135.3350142524653
 30
0.0
  0
POINT
  5
35E6
330
35C7
100
AcDbEntity
  8
Defpoints
 62
     0
100
AcDbPoint
 10
248.1292479940849
 20
118.8447126065061
 30
0.0
  0
ENDBLK
  5
35D2
330
35C7
100
AcDbEntity
  8
0
100
AcDbBlockEnd
  0
BLOCK
  5
35F3
330
35E9
100
AcDbEntity
  8
0
100
AcDbBlockBegin
  2
*D39
 70
     1
 10
0.0
 20
0.0
 30
0.0
  3
*D39
  1

  0
LINE
  5
3600
330
35E9
100
AcDbEntity
  8
Bemaßung
 62
     0
370
    -2
100
AcDbLine
 10
-194.881458064288
 20
193.0554842524653
 30
0.0
 11
-194.881458064288
 21
259.1207647100988
 31
0.0
  0
LINE
  5
3601
330
35E9
100
AcDbEntity
  8
Bemaßung
 62
     0
370
    -2
100
AcDbLine
 10
-112.8849508709647
 20
193.4889395206653
 30
0.0
 11
-112.8849508709647
 21
259.1207647100988
 31
0.0
  0
LINE
  5
3602
330
35E9
100
AcDbEntity
  8
Bemaßung
 62
     0
370
    -2
100
AcDbLine
 10
-192.381458064288
 20
257.8707647100988
 30
0.0
 11
-115.3849508709646
 21
257.8707647100988
 31
0.0
  0
SOLID
  5
3603
330
35E9
100
AcDbEntity
  8
Bemaßung
 62
     0
100
AcDbTrace
 10
-192.381458064288
 20
258.2874313767655
 30
0.0
 11
-192.381458064288
 21
257.4540980434321
 31
0.0
 12
-194.881458064288
 22
257.8707647100988
 32
0.0
 13
-194.881458064288
 23
257.8707647100988
 33
0.0
  0
SOLID
  5
3604
330
35E9
100
AcDbEntity
  8
Bemaßung
 62
     0
100
AcDbTrace
 10
-115.3849508709646
 20
258.2874313767655
 30
0.0
 11
-115.3849508709646
 21
257.4540980434321
 31
0.0
 12
-112.8849508709647
 22
257.8707647100988
 32
0.0
 13
-112.8849508709647
 23
257.8707647100988
 33
0.0
  0
MTEXT
  5
3605
330
35E9
100
AcDbEntity
  8
Bemaßung
 62
     0
100
AcDbMText
 10
-153.8832044676263
 20
259.7457647100988
 30
0.0
 40
2.5
 41
0.0
 71
     5
 72
     1
  1
82
 73
     1
 44
1.0
  0
POINT
  5
3606
330
35E9
100
AcDbEntity
  8
Defpoints
 62
     0
100
AcDbPoint
 10
-194.881458064288
 20
192.4304842524653
 30
0.0
  0
POINT
  5
3607
330
35E9
100
AcDbEntity
  8
Defpoints
 62
     0
100
AcDbPoint
 10
-112.8849508709647
 20
192.8639395206653
 30
0.0
  0
POINT
  5
3608
330
35E9
100
AcDbEntity
  8
Defpoints
 62
     0
100
AcDbPoint
 10
-112.8849508709647
 20
257.8707647100988
 30
0.0
  0
ENDBLK
  5
35F4
330
35E9
100
AcDbEntity
  8
0
100
AcDbBlockEnd
  0
BLOCK
  5
3614
330
360A
100
AcDbEntity
  8
0
100
AcDbBlockBegin
  2
*D40
 70
     1
 10
0.0
 20
0.0
 30
0.0
  3
*D40
  1

  0
LINE
  5
3621
330
360A
100
AcDbEntity
  8
Bemaßung
 62
     0
370
    -2
100
AcDbLine
 10
-109.0038120059151
 20
192.4304842524653
 30
0.0
 11
-95.43570522515208
 21
192.4304842524653
 31
0.0
  0
LINE
  5
3622
330
360A
100
AcDbEntity
  8
Bemaßung
 62
     0
370
    -2
100
AcDbLine
 10
-141.4832620059151
 20
143.7304742524653
 30
0.0
 11
-95.4357052251521
 21
143.7304742524653
 31
0.0
  0
LINE
  5
3623
330
360A
100
AcDbEntity
  8
Bemaßung
 62
     0
370
    -2
100
AcDbLine
 10
-96.6857052251521
 20
189.9304842524653
 30
0.0
 11
-96.6857052251521
 21
146.2304742524653
 31
0.0
  0
SOLID
  5
3624
330
360A
100
AcDbEntity
  8
Bemaßung
 62
     0
100
AcDbTrace
 10
-97.10237189181876
 20
189.9304842524653
 30
0.0
 11
-96.26903855848542
 21
189.9304842524653
 31
0.0
 12
-96.6857052251521
 22
192.4304842524653
 32
0.0
 13
-96.6857052251521
 23
192.4304842524653
 33
0.0
  0
SOLID
  5
3625
330
360A
100
AcDbEntity
  8
Bemaßung
 62
     0
100
AcDbTrace
 10
-97.10237189181878
 20
146.2304742524653
 30
0.0
 11
-96.26903855848544
 21
146.2304742524653
 31
0.0
 12
-96.6857052251521
 22
143.7304742524653
 32
0.0
 13
-96.6857052251521
 23
143.7304742524653
 33
0.0
  0
MTEXT
  5
3626
330
360A
100
AcDbEntity
  8
Bemaßung
 62
     0
100
AcDbMText
 10
-98.76903855848546
 20
168.0804792524653
 30
0.0
 40
2.5
 41
0.0
 71
     5
 72
     1
  1
48,7
 11
0.0000000000000001
 21
1.0
 31
0.0
 73
     1
 44
1.0
  0
POINT
  5
3627
330
360A
100
AcDbEntity
  8
Defpoints
 62
     0
100
AcDbPoint
 10
-109.6288120059151
 20
192.4304842524653
 30
0.0
  0
POINT
  5
3628
330
360A
100
AcDbEntity
  8
Defpoints
 62
     0
100
AcDbPoint
 10
-142.108262005915
 20
143.7304742524653
 30
0.0
  0
POINT
  5
3629
330
360A
100
AcDbEntity
  8
Defpoints
 62
     0
100
AcDbPoint
 10
-96.6857052251521
 20
143.7304742524653
 30
0.0
  0
ENDBLK
  5
3615
330
360A
100
AcDbEntity
  8
0
100
AcDbBlockEnd
  0
BLOCK
  5
3635
330
362B
100
AcDbEntity
  8
0
100
AcDbBlockBegin
  2
*D41
 70
     1
 10
0.0
 20
0.0
 30
0.0
  3
*D41
  1

  0
LINE
  5
3642
330
362B
100
AcDbEntity
  8
Bemaßung
 62
     0
370
    -2
100
AcDbLine
 10
-166.308261005915
 20
144.1054744269982
 30
0.0
 11
-166.308261005915
 21
108.1133458987696
 31
0.0
  0
LINE
  5
3643
330
362B
100
AcDbEntity
  8
Bemaßung
 62
     0
370
    -2
100
AcDbLine
 10
-141.108262005915
 20
144.1054742452532
 30
0.0
 11
-141.108262005915
 21
108.1133458987696
 31
0.0
  0
LINE
  5
3644
330
362B
100
AcDbEntity
  8
Bemaßung
 62
     0
370
    -2
100
AcDbLine
 10
-163.808261005915
 20
109.3633458987697
 30
0.0
 11
-143.608262005915
 21
109.3633458987697
 31
0.0
  0
SOLID
  5
3645
330
362B
100
AcDbEntity
  8
Bemaßung
 62
     0
100
AcDbTrace
 10
-163.808261005915
 20
109.7800125654363
 30
0.0
 11
-163.808261005915
 21
108.946679232103
 31
0.0
 12
-166.308261005915
 22
109.3633458987697
 32
0.0
 13
-166.308261005915
 23
109.3633458987697
 33
0.0
  0
SOLID
  5
3646
330
362B
100
AcDbEntity
  8
Bemaßung
 62
     0
100
AcDbTrace
 10
-143.608262005915
 20
109.7800125654363
 30
0.0
 11
-143.608262005915
 21
108.946679232103
 31
0.0
 12
-141.108262005915
 22
109.3633458987697
 32
0.0
 13
-141.108262005915
 23
109.3633458987697
 33
0.0
  0
MTEXT
  5
3647
330
362B
100
AcDbEntity
  8
Bemaßung
 62
     0
100
AcDbMText
 10
-153.708261505915
 20
111.446679232103
 30
0.0
 40
2.5
 41
0.0
 71
     5
 72
     1
  1
25,2
 73
     1
 44
1.0
  0
POINT
  5
3648
330
362B
100
AcDbEntity
  8
Defpoints
 62
     0
100
AcDbPoint
 10
-166.308261005915
 20
144.7304744269982
 30
0.0
  0
POINT
  5
3649
330
362B
100
AcDbEntity
  8
Defpoints
 62
     0
100
AcDbPoint
 10
-141.108262005915
 20
144.7304742452532
 30
0.0
  0
POINT
  5
364A
330
362B
100
AcDbEntity
  8
Defpoints
 62
     0
100
AcDbPoint
 10
-141.108262005915
 20
109.3633458987697
 30
0.0
  0
ENDBLK
  5
3636
330
362B
100
AcDbEntity
  8
0
100
AcDbBlockEnd
  0
ENDSEC
  0
SECTION
  2
ENTITIES
  0
LINE
  5
2E86
330
1F
100
AcDbEntity
  8
Mittellinie
100
AcDbLine
 10
-153.8822320059151
 20
236.2642642524653
 30
0.0
 11
-153.8822320059151
 21
129.3371042524653
 31
0.0
  0
ARC
  5
2E89
330
1F
100
AcDbEntity
  8
0
100
AcDbCircle
 10
-158.2165720059151
 20
125.8309042524654
 30
0.0
 40
1.0
100
AcDbArc
 50
89.99998199999916
 51
179.9999599999992
  0
LINE
  5
2E8A
330
1F
100
AcDbEntity
  8
0
100
AcDbLine
 10
-156.3165620059151
 20
93.2167642524654
 30
0.0
 11
-159.7165720059151
 21
93.2167642524654
 31
0.0
  0
LINE
  5
2E8B
330
1F
100
AcDbEntity
  8
0
100
AcDbLine
 10
-160.7165710059151
 20
99.7167642524654
 30
0.0
 11
-146.716572005915
 21
99.7167642524654
 31
0.0
  0
LINE
  5
2E8C
330
1F
100
AcDbEntity
  8
0
100
AcDbLine
 10
-162.610606005915
 20
106.2167642524654
 30
0.0
 11
-144.8165620059151
 21
106.2167642524654
 31
0.0
  0
LINE
  5
2E8D
330
1F
100
AcDbEntity
  8
0
100
AcDbLine
 10
-162.7165480059151
 20
110.7382642524653
 30
0.0
 11
-162.7105820059151
 21
106.3166342524654
 31
0.0
  0
LINE
  5
2E8E
330
1F
100
AcDbEntity
  8
0
100
AcDbLine
 10
-159.7165720059151
 20
93.2167642524654
 30
0.0
 11
-159.7165720059151
 21
99.7167642524654
 31
0.0
  0
LINE
  5
2E8F
330
1F
100
AcDbEntity
  8
0
100
AcDbLine
 10
-160.7165710059151
 20
106.2167642524654
 30
0.0
 11
-160.7165710059151
 21
99.7167642524654
 31
0.0
  0
ARC
  5
2E90
330
1F
100
AcDbEntity
  8
0
100
AcDbCircle
 10
-162.610606005915
 20
106.3167742524653
 30
0.0
 40
0.1
100
AcDbArc
 50
180.0786699999992
 51
270.0000200000004
  0
LINE
  5
2E91
330
1F
100
AcDbEntity
  8
0
100
AcDbLine
 10
-159.2165720059151
 20
125.8309042524654
 30
0.0
 11
-159.2165720059151
 21
115.0680242524653
 31
0.0
  0
ARC
  5
2E92
330
1F
100
AcDbEntity
  8
0
100
AcDbCircle
 10
-161.7165710059151
 20
110.7395942524654
 30
0.0
 40
1.0
100
AcDbArc
 50
135.0000099999999
 51
180.0773400000007
  0
ARC
  5
2E93
330
1F
100
AcDbEntity
  8
0
100
AcDbCircle
 10
-160.2165720059151
 20
115.0680242524653
 30
0.0
 40
1.0
100
AcDbArc
 50
315.0
 51
0.0
  0
LINE
  5
2E94
330
1F
100
AcDbEntity
  8
0
100
AcDbLine
 10
-162.423694005915
 20
111.4466842524654
 30
0.0
 11
-159.5094620059151
 21
114.3609042524653
 31
0.0
  0
LINE
  5
2E95
330
1F
100
AcDbEntity
  8
0
100
AcDbLine
 10
-144.716452005915
 20
110.7395942524654
 30
0.0
 11
-144.716452005915
 21
106.3167742524653
 31
0.0
  0
LINE
  5
2E96
330
1F
100
AcDbEntity
  8
0
100
AcDbLine
 10
-156.3165620059151
 20
99.7167642524654
 30
0.0
 11
-156.3165620059151
 21
93.2167642524654
 31
0.0
  0
LINE
  5
2E97
330
1F
100
AcDbEntity
  8
0
100
AcDbLine
 10
-155.4165620059151
 20
93.2167642524654
 30
0.0
 11
-155.4165620059151
 21
99.7167642524654
 31
0.0
  0
LINE
  5
2E98
330
1F
100
AcDbEntity
  8
0
100
AcDbLine
 10
-152.0165720059151
 20
99.7167642524654
 30
0.0
 11
-152.0165720059151
 21
93.2167642524654
 31
0.0
  0
LINE
  5
2E99
330
1F
100
AcDbEntity
  8
0
100
AcDbLine
 10
-151.1165820059151
 20
93.2167642524654
 30
0.0
 11
-151.1165820059151
 21
99.7167642524654
 31
0.0
  0
LINE
  5
2E9A
330
1F
100
AcDbEntity
  8
0
100
AcDbLine
 10
-147.716572005915
 20
99.7167642524654
 30
0.0
 11
-147.716572005915
 21
93.2167642524654
 31
0.0
  0
LINE
  5
2E9B
330
1F
100
AcDbEntity
  8
0
100
AcDbLine
 10
-147.716572005915
 20
93.2167642524654
 30
0.0
 11
-151.1165820059151
 21
93.2167642524654
 31
0.0
  0
LINE
  5
2E9C
330
1F
100
AcDbEntity
  8
0
100
AcDbLine
 10
-152.0165720059151
 20
93.2167642524654
 30
0.0
 11
-155.4165620059151
 21
93.2167642524654
 31
0.0
  0
LINE
  5
2E9D
330
1F
100
AcDbEntity
  8
0
100
AcDbLine
 10
-146.716572005915
 20
99.7167642524654
 30
0.0
 11
-146.716572005915
 21
106.2167642524654
 31
0.0
  0
ARC
  5
2E9E
330
1F
100
AcDbEntity
  8
0
100
AcDbCircle
 10
-144.8165620059151
 20
106.3167742524653
 30
0.0
 40
0.1
100
AcDbArc
 50
270.0000200000004
 51
0.0
  0
LINE
  5
2E9F
330
1F
100
AcDbEntity
  8
0
100
AcDbLine
 10
-148.216572005915
 20
125.8309042524654
 30
0.0
 11
-148.216572005915
 21
115.0680242524653
 31
0.0
  0
ARC
  5
2EA0
330
1F
100
AcDbEntity
  8
0
100
AcDbCircle
 10
-145.716572005915
 20
110.7395942524654
 30
0.0
 40
1.0
100
AcDbArc
 50
0.0
 51
44.99984399999951
  0
ARC
  5
2EA1
330
1F
100
AcDbEntity
  8
0
100
AcDbCircle
 10
-147.216572005915
 20
115.0680242524653
 30
0.0
 40
1.0
100
AcDbArc
 50
179.9999799999979
 51
224.9999800000012
  0
LINE
  5
2EA2
330
1F
100
AcDbEntity
  8
0
100
AcDbLine
 10
-147.923712005915
 20
114.3609042524653
 30
0.0
 11
-145.0094820059151
 21
111.4466842524654
 31
0.0
  0
ARC
  5
2EA3
330
1F
100
AcDbEntity
  8
0
100
AcDbCircle
 10
-149.216572005915
 20
125.8309042524654
 30
0.0
 40
1.0
100
AcDbArc
 50
0.0
 51
89.99998199999916
  0
LINE
  5
2EA4
330
1F
100
AcDbEntity
  8
0
100
AcDbLine
 10
-149.803572005915
 20
133.7656242524653
 30
0.0
 11
-149.803572005915
 21
126.8309042524654
 31
0.0
  0
LINE
  5
2EA5
330
1F
100
AcDbEntity
  8
0
100
AcDbLine
 10
-157.6015820059151
 20
133.7655342524653
 30
0.0
 11
-157.6015820059151
 21
126.8309042524654
 31
0.0
  0
LINE
  5
2EA6
330
1F
100
AcDbEntity
  8
0
100
AcDbLine
 10
-149.216572005915
 20
126.8309042524654
 30
0.0
 11
-158.2165720059151
 21
126.8309042524654
 31
0.0
  0
ARC
  5
2EA7
330
1F
100
AcDbEntity
  8
0
100
AcDbCircle
 10
-155.652172005915
 20
137.1434342524653
 30
0.0
 40
3.9000001
100
AcDbArc
 50
240.01177
 51
299.9926099999995
  0
ARC
  5
2EA8
330
1F
100
AcDbEntity
  8
0
100
AcDbCircle
 10
-155.6519120059151
 20
130.3877842524653
 30
0.0
 40
3.9000001
100
AcDbArc
 50
60.01181099999969
 51
119.9926300000002
  0
ARC
  5
2EA9
330
1F
100
AcDbEntity
  8
0
100
AcDbCircle
 10
-151.7531520059151
 20
130.3878842524653
 30
0.0
 40
3.9000001
100
AcDbArc
 50
60.00739199999978
 51
119.9908200000007
  0
CIRCLE
  5
2EC4
330
1F
100
AcDbEntity
  8
Innenkanten
100
AcDbCircle
 10
-161.3822360059151
 20
148.6304942524653
 30
0.0
 40
2.749999
  0
CIRCLE
  5
2EC5
330
1F
100
AcDbEntity
  8
Innenkanten
100
AcDbCircle
 10
-161.3822360059151
 20
148.6304942524653
 30
0.0
 40
3.0
  0
LINE
  5
2EC6
330
1F
100
AcDbEntity
  8
0
100
AcDbLine
 10
-141.908272005915
 20
154.6704742524654
 30
0.0
 11
-165.508258005915
 21
154.6704742524654
 31
0.0
  0
LINE
  5
2EC7
330
1F
100
AcDbEntity
  8
0
100
AcDbLine
 10
-141.108262005915
 20
153.9704942524653
 30
0.0
 11
-166.308261005915
 21
153.9704942524653
 31
0.0
  0
LINE
  5
2EC8
102
{ACAD_REACTORS
330
3620
102
}
330
1F
100
AcDbEntity
  8
0
100
AcDbLine
 10
-142.108262005915
 20
143.7304742524653
 30
0.0
 11
-165.308261005915
 21
143.7304742524653
 31
0.0
  0
LINE
  5
2EC9
330
1F
100
AcDbEntity
  8
Innenkanten
100
AcDbLine
 10
-178.1531480059151
 20
232.6304842524653
 30
0.0
 11
-129.2459320059151
 21
232.6304842524653
 31
0.0
  0
LINE
  5
2ECA
330
1F
100
AcDbEntity
  8
0
100
AcDbLine
 10
-178.257083005915
 20
233.6304842524654
 30
0.0
 11
-129.1595420059151
 21
233.6304842524654
 31
0.0
  0
LINE
  5
2ECB
102
{ACAD_REACTORS
330
35FF
330
3620
102
}
330
1F
100
AcDbEntity
  8
Mittellinie
100
AcDbLine
 10
-109.6288120059151
 20
192.4304842524653
 30
0.0
 11
-197.4613220059151
 21
192.4304842524653
 31
0.0
  0
ARC
  5
2ECC
102
{ACAD_REACTORS
330
35FF
102
}
330
1F
100
AcDbEntity
  8
0
100
AcDbCircle
 10
76.29214799408487
 20
191.4304542524653
 30
0.0
 40
271.17545
100
AcDbArc
 50
175.2357600000002
 51
184.54185
  0
ARC
  5
2ECD
330
1F
100
AcDbEntity
  8
Innenkanten
100
AcDbCircle
 10
76.29214799408487
 20
191.4304542524653
 30
0.0
 40
270.17545
100
AcDbArc
 50
175.2357600000002
 51
184.54185
  0
ARC
  5
2ECE
330
1F
100
AcDbEntity
  8
Innenkanten
100
AcDbCircle
 10
279.0831079940849
 20
191.4304542524653
 30
0.0
 40
460.0
100
AcDbArc
 50
174.9755000000003
 51
184.9219300000004
  0
ARC
  5
2ECF
330
1F
100
AcDbEntity
  8
Innenkanten
100
AcDbCircle
 10
-184.8489790059151
 20
159.9332942524653
 30
0.0
 40
4.0
100
AcDbArc
 50
3.884011799998022
 51
64.00000599999987
  0
ARC
  5
2ED0
330
1F
100
AcDbEntity
  8
Innenkanten
100
AcDbCircle
 10
-184.8489790059151
 20
159.9332942524653
 30
0.0
 40
5.0
100
AcDbArc
 50
3.884011799998022
 51
64.00000599999987
  0
CIRCLE
  5
2ED1
330
1F
100
AcDbEntity
  8
Innenkanten
100
AcDbCircle
 10
-185.702014005915
 20
159.6106542524653
 30
0.0
 40
3.299999999999999
  0
ARC
  5
2ED2
330
1F
100
AcDbEntity
  8
Mittellinie
100
AcDbCircle
 10
-153.6822220059151
 20
191.4304542524653
 30
0.0
 40
45.0
100
AcDbArc
 50
215.3569500000005
 51
233.1863999999998
  0
LINE
  5
2ED3
330
1F
100
AcDbEntity
  8
0
100
AcDbLine
 10
-193.882220005915
 20
169.3740242524653
 30
0.0
 11
-193.882220005915
 21
159.4304842524653
 31
0.0
  0
LINE
  5
2ED4
330
1F
100
AcDbEntity
  8
Mittellinie
100
AcDbLine
 10
-190.244899005915
 20
155.0677842524653
 30
0.0
 11
-180.8313710059151
 21
164.4813142524653
 31
0.0
  0
ARC
  5
2ED5
330
1F
100
AcDbEntity
  8
0
100
AcDbCircle
 10
-178.341243005915
 20
153.2304742524653
 30
0.0
 40
2.0
100
AcDbArc
 50
192.1771700000013
 51
270.0
  0
ARC
  5
2ED6
330
1F
100
AcDbEntity
  8
0
100
AcDbCircle
 10
-186.8822200059151
 20
159.4304842524653
 30
0.0
 40
7.0
100
AcDbArc
 50
179.9999799999979
 51
270.0000299999997
  0
ARC
  5
2ED7
330
1F
100
AcDbEntity
  8
Innenkanten
100
AcDbCircle
 10
279.0831079940849
 20
191.4304542524653
 30
0.0
 40
461.0
100
AcDbArc
 50
183.8839500000007
 51
184.8057800000004
  0
LINE
  5
2ED8
330
1F
100
AcDbEntity
  8
0
100
AcDbLine
 10
-186.8822200059151
 20
152.4304842524653
 30
0.0
 11
-180.174274005915
 21
152.4304842524653
 31
0.0
  0
LINE
  5
2ED9
330
1F
100
AcDbEntity
  8
Innenkanten
100
AcDbLine
 10
-162.655025005915
 20
149.9032742524653
 30
0.0
 11
-160.109442005915
 21
147.3576842524653
 31
0.0
  0
LINE
  5
2EDA
330
1F
100
AcDbEntity
  8
Innenkanten
100
AcDbLine
 10
-160.109442005915
 20
149.9032642524653
 30
0.0
 11
-162.6550170059151
 21
147.3576942524653
 31
0.0
  0
LINE
  5
2EDB
330
1F
100
AcDbEntity
  8
0
100
AcDbLine
 10
-166.308261005915
 20
153.9704942524653
 30
0.0
 11
-166.308261005915
 21
144.7304742524653
 31
0.0
  0
ARC
  5
2EDC
102
{ACAD_REACTORS
330
3641
102
}
330
1F
100
AcDbEntity
  8
0
100
AcDbCircle
 10
-165.308261005915
 20
144.7304742524653
 30
0.0
 40
1.0
100
AcDbArc
 50
179.9999899999989
 51
270.0
  0
LINE
  5
2EDD
330
1F
100
AcDbEntity
  8
0
100
AcDbLine
 10
-178.341243005915
 20
151.2304742524653
 30
0.0
 11
-166.308261005915
 21
151.2304742524653
 31
0.0
  0
ARC
  5
2EDE
330
1F
100
AcDbEntity
  8
0
100
AcDbCircle
 10
-178.2570760059151
 20
152.2304742524653
 30
0.0
 40
1.0
100
AcDbArc
 50
195.5017800000004
 51
270.0
  0
LINE
  5
2EDF
330
1F
100
AcDbEntity
  8
0
100
AcDbLine
 10
-165.508258005915
 20
154.6704742524654
 30
0.0
 11
-165.508258005915
 21
153.9704942524653
 31
0.0
  0
CIRCLE
  5
2EE0
330
1F
100
AcDbEntity
  8
Innenkanten
100
AcDbCircle
 10
-188.708278005915
 20
172.4303942524653
 30
0.0
 40
2.75
  0
ARC
  5
2EE1
330
1F
100
AcDbEntity
  8
Innenkanten
100
AcDbCircle
 10
-188.7082700059151
 20
172.4304242524653
 30
0.0
 40
3.599999899999999
100
AcDbArc
 50
4.000073799999841
 51
63.99993800000085
  0
CIRCLE
  5
2EE2
330
1F
100
AcDbEntity
  8
Innenkanten
100
AcDbCircle
 10
-188.7082700059151
 20
172.4304242524653
 30
0.0
 40
3.5
  0
LINE
  5
2EE3
330
1F
100
AcDbEntity
  8
Innenkanten
100
AcDbLine
 10
-192.914783005915
 20
168.3176442524653
 30
0.0
 11
-183.0954850059151
 21
163.5284642524653
 31
0.0
  0
LINE
  5
2EE4
330
1F
100
AcDbEntity
  8
Innenkanten
100
AcDbLine
 10
-192.4764130059151
 20
169.2164442524654
 30
0.0
 11
-182.6571150059151
 21
164.4272442524653
 31
0.0
  0
ARC
  5
2EE5
330
1F
100
AcDbEntity
  8
0
100
AcDbCircle
 10
-192.038043005915
 20
170.1152342524653
 30
0.0
 40
2.0
100
AcDbArc
 50
184.5418399999995
 51
243.9999900000012
  0
ARC
  5
2EE6
330
1F
100
AcDbEntity
  8
Innenkanten
100
AcDbCircle
 10
-192.038043005915
 20
170.1152342524653
 30
0.0
 40
1.0
100
AcDbArc
 50
184.5418399999995
 51
243.9999900000012
  0
LINE
  5
2EE7
330
1F
100
AcDbEntity
  8
Innenkanten
100
AcDbLine
 10
-185.1170300059151
 20
172.6815542524653
 30
0.0
 11
-184.5992310059151
 21
165.2769042524653
 31
0.0
  0
LINE
  5
2EE8
330
1F
100
AcDbEntity
  8
Innenkanten
100
AcDbLine
 10
-189.9810520059151
 20
173.7032142524653
 30
0.0
 11
-187.4354740059151
 21
171.1576442524654
 31
0.0
  0
LINE
  5
2EE9
330
1F
100
AcDbEntity
  8
Innenkanten
100
AcDbLine
 10
-187.4354740059151
 20
173.7032142524653
 30
0.0
 11
-189.981067005915
 21
171.1576242524653
 31
0.0
  0
LINE
  5
2EEA
330
1F
100
AcDbEntity
  8
Innenkanten
100
AcDbLine
 10
-193.5790280059151
 20
178.8114042524653
 30
0.0
 11
-187.130107005915
 21
175.6660442524653
 31
0.0
  0
CIRCLE
  5
2EEB
330
1F
100
AcDbEntity
  8
Innenkanten
100
AcDbCircle
 10
-188.708278005915
 20
211.4304842524653
 30
0.0
 40
2.75
  0
ARC
  5
2EEC
330
1F
100
AcDbEntity
  8
0
100
AcDbCircle
 10
-191.953281005915
 20
213.7870542524653
 30
0.0
 40
1.0
100
AcDbArc
 50
115.9999599999996
 51
175.2357600000002
  0
CIRCLE
  5
2EED
330
1F
100
AcDbEntity
  8
Innenkanten
100
AcDbCircle
 10
-188.7082700059151
 20
211.4305142524654
 30
0.0
 40
3.5
  0
LINE
  5
2EEE
330
1F
100
AcDbEntity
  8
Innenkanten
100
AcDbLine
 10
-185.117015005915
 20
211.1793842524654
 30
0.0
 11
-184.606288005915
 21
218.4830142524653
 31
0.0
  0
LINE
  5
2EEF
330
1F
100
AcDbEntity
  8
Innenkanten
100
AcDbLine
 10
-193.793315005915
 20
204.9449642524653
 30
0.0
 11
-187.130084005915
 21
208.1948542524653
 31
0.0
  0
ARC
  5
2EF0
330
1F
100
AcDbEntity
  8
Innenkanten
100
AcDbCircle
 10
-188.7082700059151
 20
211.4305142524654
 30
0.0
 40
3.599999899999999
100
AcDbArc
 50
296.0000600000004
 51
355.9999300000011
  0
LINE
  5
2EF1
330
1F
100
AcDbEntity
  8
Innenkanten
100
AcDbLine
 10
-189.981067005915
 20
212.7032942524654
 30
0.0
 11
-187.435489005915
 21
210.1577142524653
 31
0.0
  0
LINE
  5
2EF2
330
1F
100
AcDbEntity
  8
Innenkanten
100
AcDbLine
 10
-187.4354740059151
 20
212.7033242524653
 30
0.0
 11
-189.981067005915
 21
210.1577342524653
 31
0.0
  0
ARC
  5
2EF3
330
1F
100
AcDbEntity
  8
Innenkanten
100
AcDbCircle
 10
-184.7629730059151
 20
223.9695942524654
 30
0.0
 40
5.0
100
AcDbArc
 50
295.9999599999995
 51
355.9626500000004
  0
ARC
  5
2EF4
330
1F
100
AcDbEntity
  8
0
100
AcDbCircle
 10
-178.257083005915
 20
231.6304842524654
 30
0.0
 40
2.0
100
AcDbArc
 50
89.99998199999916
 51
167.5984899999989
  0
ARC
  5
2EF5
330
1F
100
AcDbEntity
  8
Mittellinie
100
AcDbCircle
 10
-153.882222005915
 20
192.4304842524653
 30
0.0
 40
45.0
100
AcDbArc
 50
123.8710100000001
 51
144.5514199999987
  0
LINE
  5
2EF6
330
1F
100
AcDbEntity
  8
0
100
AcDbLine
 10
-186.8822200059151
 20
232.4304642524654
 30
0.0
 11
-180.0901140059151
 21
232.4304642524654
 31
0.0
  0
ARC
  5
2EF7
330
1F
100
AcDbEntity
  8
Innenkanten
100
AcDbCircle
 10
279.0831079940849
 20
192.4304842524653
 30
0.0
 40
461.0
100
AcDbArc
 50
175.0685300000017
 51
176.1160499999992
  0
CIRCLE
  5
2EF8
330
1F
100
AcDbEntity
  8
Innenkanten
100
AcDbCircle
 10
-185.702014005915
 20
224.2502942524653
 30
0.0
 40
3.299999999999999
  0
ARC
  5
2EF9
330
1F
100
AcDbEntity
  8
0
100
AcDbCircle
 10
-186.8822200059151
 20
225.4304642524653
 30
0.0
 40
7.0
100
AcDbArc
 50
89.99998199999916
 51
179.9999599999992
  0
LINE
  5
2EFA
330
1F
100
AcDbEntity
  8
Mittellinie
100
AcDbLine
 10
-190.3606670059151
 20
228.9089542524653
 30
0.0
 11
-180.836559005915
 21
219.3848442524654
 31
0.0
  0
LINE
  5
2EFB
330
1F
100
AcDbEntity
  8
Innenkanten
100
AcDbLine
 10
-192.812564005915
 20
215.5931542524653
 30
0.0
 11
-183.0954850059151
 21
220.3324742524653
 31
0.0
  0
LINE
  5
2EFC
330
1F
100
AcDbEntity
  8
Innenkanten
100
AcDbLine
 10
-192.391650005915
 20
214.6858342524653
 30
0.0
 11
-182.571117005915
 21
219.4756342524653
 31
0.0
  0
LINE
  5
2EFD
330
1F
100
AcDbEntity
  8
0
100
AcDbLine
 10
-193.882220005915
 20
225.4304642524653
 30
0.0
 11
-193.882220005915
 21
214.3154342524653
 31
0.0
  0
ARC
  5
2EFE
330
1F
100
AcDbEntity
  8
Innenkanten
100
AcDbCircle
 10
-191.953281005915
 20
213.7870542524653
 30
0.0
 40
2.0
100
AcDbArc
 50
115.9999599999996
 51
175.2357600000002
  0
ARC
  5
2EFF
330
1F
100
AcDbEntity
  8
Innenkanten
100
AcDbCircle
 10
-184.8489790059151
 20
223.9276642524653
 30
0.0
 40
4.0
100
AcDbArc
 50
295.9999899999997
 51
356.1159900000005
  0
ARC
  5
2F00
330
1F
100
AcDbEntity
  8
Innenkanten
100
AcDbCircle
 10
-178.1531480059151
 20
231.6304842524654
 30
0.0
 40
1.0
100
AcDbArc
 50
90.00000300000095
 51
174.9755099999999
  0
ARC
  5
2F01
102
{ACAD_REACTORS
330
35FF
102
}
330
1F
100
AcDbEntity
  8
0
100
AcDbCircle
 10
-384.056612005915
 20
191.4304542524653
 30
0.0
 40
271.17545
100
AcDbArc
 50
355.4581600000004
 51
4.764228999999202
  0
ARC
  5
2F02
330
1F
100
AcDbEntity
  8
Innenkanten
100
AcDbCircle
 10
-384.056612005915
 20
191.4304542524653
 30
0.0
 40
270.17545
100
AcDbArc
 50
355.4581600000004
 51
4.764228999999202
  0
ARC
  5
2F03
330
1F
100
AcDbEntity
  8
Innenkanten
100
AcDbCircle
 10
-586.4996920059151
 20
191.4303042524653
 30
0.0
 40
460.0
100
AcDbArc
 50
355.0780800000006
 51
5.047536699999402
  0
CIRCLE
  5
2F04
330
1F
100
AcDbEntity
  8
Innenkanten
100
AcDbCircle
 10
-119.056212005915
 20
172.4303942524653
 30
0.0
 40
2.75
  0
CIRCLE
  5
2F05
330
1F
100
AcDbEntity
  8
Innenkanten
100
AcDbCircle
 10
-119.056212005915
 20
172.4304242524653
 30
0.0
 40
3.5
  0
ARC
  5
2F06
330
1F
100
AcDbEntity
  8
0
100
AcDbCircle
 10
-120.882262005915
 20
159.4304842524653
 30
0.0
 40
7.0
100
AcDbArc
 50
270.0000200000004
 51
0.0
  0
LINE
  5
2F07
330
1F
100
AcDbEntity
  8
Innenkanten
100
AcDbLine
 10
-114.849662005915
 20
168.3176442524653
 30
0.0
 11
-124.309232005915
 21
163.7039042524653
 31
0.0
  0
LINE
  5
2F08
330
1F
100
AcDbEntity
  8
Innenkanten
100
AcDbLine
 10
-114.185422005915
 20
178.8114542524653
 30
0.0
 11
-120.6343620059151
 21
175.6660742524653
 31
0.0
  0
LINE
  5
2F09
330
1F
100
AcDbEntity
  8
Innenkanten
100
AcDbLine
 10
-115.2880520059151
 20
169.2164342524653
 30
0.0
 11
-124.7476020059151
 21
164.6026942524653
 31
0.0
  0
ARC
  5
2F0A
330
1F
100
AcDbEntity
  8
Innenkanten
100
AcDbCircle
 10
-122.5557520059151
 20
160.1087342524654
 30
0.0
 40
4.0
100
AcDbArc
 50
116.0000099999988
 51
176.1377400000007
  0
ARC
  5
2F0B
330
1F
100
AcDbEntity
  8
Innenkanten
100
AcDbCircle
 10
-122.5557520059151
 20
160.1087342524654
 30
0.0
 40
5.0
100
AcDbArc
 50
116.0000099999988
 51
176.1377400000007
  0
CIRCLE
  5
2F0C
330
1F
100
AcDbEntity
  8
Innenkanten
100
AcDbCircle
 10
-122.062402005915
 20
159.6106542524653
 30
0.0
 40
3.299999999999999
  0
ARC
  5
2F0D
330
1F
100
AcDbEntity
  8
Mittellinie
100
AcDbCircle
 10
-153.882222005915
 20
191.4304542524653
 30
0.0
 40
45.0
100
AcDbArc
 50
307.0810000000004
 51
323.0504599999989
  0
LINE
  5
2F0E
330
1F
100
AcDbEntity
  8
Mittellinie
100
AcDbLine
 10
-126.263542005915
 20
163.8118442524653
 30
0.0
 11
-117.790222005915
 21
155.3385142524653
 31
0.0
  0
LINE
  5
2F0F
330
1F
100
AcDbEntity
  8
0
100
AcDbLine
 10
-141.108262005915
 20
151.2304742524653
 30
0.0
 11
-129.0753420059151
 21
151.2304742524653
 31
0.0
  0
CIRCLE
  5
2F10
330
1F
100
AcDbEntity
  8
Innenkanten
100
AcDbCircle
 10
-146.382242005915
 20
148.6304942524653
 30
0.0
 40
2.749999
  0
CIRCLE
  5
2F11
330
1F
100
AcDbEntity
  8
Innenkanten
100
AcDbCircle
 10
-146.3822320059151
 20
148.6304942524653
 30
0.0
 40
3.0
  0
LINE
  5
2F12
330
1F
100
AcDbEntity
  8
Innenkanten
100
AcDbLine
 10
-147.6550320059151
 20
149.9032742524653
 30
0.0
 11
-145.1094420059151
 21
147.3576842524653
 31
0.0
  0
LINE
  5
2F13
330
1F
100
AcDbEntity
  8
Innenkanten
100
AcDbLine
 10
-145.1094320059151
 20
149.9032942524653
 30
0.0
 11
-147.655022005915
 21
147.3576942524653
 31
0.0
  0
LINE
  5
2F14
330
1F
100
AcDbEntity
  8
0
100
AcDbLine
 10
-141.108262005915
 20
153.9704942524653
 30
0.0
 11
-141.108262005915
 21
144.7304742524653
 31
0.0
  0
LINE
  5
2F15
330
1F
100
AcDbEntity
  8
0
100
AcDbLine
 10
-149.803572005915
 20
143.7304742524653
 30
0.0
 11
-149.803572005915
 21
137.2249442524653
 31
0.0
  0
LINE
  5
2F16
330
1F
100
AcDbEntity
  8
0
100
AcDbLine
 10
-157.6015820059151
 20
143.7304742524653
 30
0.0
 11
-157.6015820059151
 21
137.2249442524653
 31
0.0
  0
ARC
  5
2F17
330
1F
100
AcDbEntity
  8
0
100
AcDbCircle
 10
-155.6562420059151
 20
140.6036742524653
 30
0.0
 40
3.9000001
100
AcDbArc
 50
240.0360899999995
 51
299.9665200000002
  0
ARC
  5
2F18
330
1F
100
AcDbEntity
  8
0
100
AcDbCircle
 10
-151.7603720059151
 20
133.8463142524654
 30
0.0
 40
3.9000001
100
AcDbArc
 50
60.03359300000028
 51
119.9637099999999
  0
ARC
  5
2F19
330
1F
100
AcDbEntity
  8
0
100
AcDbCircle
 10
-151.7602120059151
 20
140.6036742524653
 30
0.0
 40
3.9000001
100
AcDbArc
 50
240.033570000001
 51
299.9637
  0
ARC
  5
2F1A
102
{ACAD_REACTORS
330
3641
102
}
330
1F
100
AcDbEntity
  8
0
100
AcDbCircle
 10
-142.108262005915
 20
144.7304742524653
 30
0.0
 40
1.0
100
AcDbArc
 50
270.0
 51
0.0
  0
LINE
  5
2F1B
330
1F
100
AcDbEntity
  8
0
100
AcDbLine
 10
-141.908272005915
 20
154.6704742524654
 30
0.0
 11
-141.908272005915
 21
153.9704942524653
 31
0.0
  0
ARC
  5
2F1C
330
1F
100
AcDbEntity
  8
0
100
AcDbCircle
 10
-129.0753420059151
 20
153.2304742524653
 30
0.0
 40
2.0
100
AcDbArc
 50
270.0
 51
347.8228699999999
  0
ARC
  5
2F1D
330
1F
100
AcDbEntity
  8
0
100
AcDbCircle
 10
-129.159512005915
 20
152.2304742524653
 30
0.0
 40
1.0
100
AcDbArc
 50
270.0
 51
344.498259999998
  0
ARC
  5
2F1E
330
1F
100
AcDbEntity
  8
Innenkanten
100
AcDbCircle
 10
-586.4996920059151
 20
191.4303042524653
 30
0.0
 40
461.0
100
AcDbArc
 50
355.1942400000001
 51
356.1377299999986
  0
LINE
  5
2F1F
330
1F
100
AcDbEntity
  8
0
100
AcDbLine
 10
-127.2423020059151
 20
152.4304842524653
 30
0.0
 11
-120.882262005915
 21
152.4304842524653
 31
0.0
  0
ARC
  5
2F20
330
1F
100
AcDbEntity
  8
Innenkanten
100
AcDbCircle
 10
-119.056212005915
 20
172.4304242524653
 30
0.0
 40
3.599999899999999
100
AcDbArc
 50
116.0000300000006
 51
175.9998900000008
  0
LINE
  5
2F21
330
1F
100
AcDbEntity
  8
Innenkanten
100
AcDbLine
 10
-122.647452005915
 20
172.6815542524653
 30
0.0
 11
-123.1581820059151
 21
165.3779442524653
 31
0.0
  0
LINE
  5
2F22
330
1F
100
AcDbEntity
  8
Innenkanten
100
AcDbLine
 10
-117.7833920059151
 20
173.7032142524653
 30
0.0
 11
-120.328992005915
 21
171.1576442524654
 31
0.0
  0
LINE
  5
2F23
330
1F
100
AcDbEntity
  8
Innenkanten
100
AcDbLine
 10
-120.328992005915
 20
173.7032142524653
 30
0.0
 11
-117.7834120059151
 21
171.1576442524654
 31
0.0
  0
LINE
  5
2F24
330
1F
100
AcDbEntity
  8
0
100
AcDbLine
 10
-113.882262005915
 20
169.3412842524653
 30
0.0
 11
-113.882262005915
 21
159.4304842524653
 31
0.0
  0
ARC
  5
2F25
330
1F
100
AcDbEntity
  8
0
100
AcDbCircle
 10
-115.726432005915
 20
170.1152342524653
 30
0.0
 40
2.0
100
AcDbArc
 50
296.0000099999987
 51
355.4581600000004
  0
ARC
  5
2F26
330
1F
100
AcDbEntity
  8
Innenkanten
100
AcDbCircle
 10
-115.726432005915
 20
170.1152342524653
 30
0.0
 40
1.0
100
AcDbArc
 50
296.0000099999987
 51
355.4581600000004
  0
CIRCLE
  5
2F27
330
1F
100
AcDbEntity
  8
Innenkanten
100
AcDbCircle
 10
-119.056212005915
 20
211.4304842524653
 30
0.0
 40
2.75
  0
ARC
  5
2F28
330
1F
100
AcDbEntity
  8
0
100
AcDbCircle
 10
-120.8562320059151
 20
225.4304642524653
 30
0.0
 40
7.0
100
AcDbArc
 50
0.0
 51
90.00000300000095
  0
CIRCLE
  5
2F29
330
1F
100
AcDbEntity
  8
Innenkanten
100
AcDbCircle
 10
-119.056212005915
 20
211.4305142524654
 30
0.0
 40
3.5
  0
ARC
  5
2F2A
330
1F
100
AcDbEntity
  8
Mittellinie
100
AcDbCircle
 10
-153.882222005915
 20
192.4304842524653
 30
0.0
 40
45.0
100
AcDbArc
 50
34.99952500000117
 51
56.67140800000024
  0
LINE
  5
2F2B
330
1F
100
AcDbEntity
  8
Innenkanten
100
AcDbLine
 10
-124.3092420059151
 20
220.1570042524653
 30
0.0
 11
-114.9344320059151
 21
215.5846142524653
 31
0.0
  0
LINE
  5
2F2C
330
1F
100
AcDbEntity
  8
Innenkanten
100
AcDbLine
 10
-114.2360820059151
 20
205.0741742524653
 30
0.0
 11
-120.6343620059151
 21
208.1948442524653
 31
0.0
  0
LINE
  5
2F2E
330
1F
100
AcDbEntity
  8
Innenkanten
100
AcDbLine
 10
-124.8331220059151
 20
219.2998942524653
 30
0.0
 11
-115.3728020059151
 21
214.6858042524653
 31
0.0
  0
LINE
  5
2F2F
330
1F
100
AcDbEntity
  8
Innenkanten
100
AcDbLine
 10
-122.6474720059151
 20
211.1793842524654
 30
0.0
 11
-123.1581820059151
 21
218.4829542524653
 31
0.0
  0
LINE
  5
2F32
330
1F
100
AcDbEntity
  8
Innenkanten
100
AcDbLine
 10
-120.329002005915
 20
212.7032942524654
 30
0.0
 11
-117.783432005915
 21
210.1577142524653
 31
0.0
  0
LINE
  5
2F33
330
1F
100
AcDbEntity
  8
Innenkanten
100
AcDbLine
 10
-117.783432005915
 20
212.7032942524654
 30
0.0
 11
-120.329022005915
 21
210.1577142524653
 31
0.0
  0
ARC
  5
2F34
330
1F
100
AcDbEntity
  8
Innenkanten
100
AcDbCircle
 10
-586.4996920059151
 20
192.4303342524654
 30
0.0
 40
461.0
100
AcDbArc
 50
3.862298200000721
 51
4.931481100000952
  0
CIRCLE
  5
2F35
330
1F
100
AcDbEntity
  8
Innenkanten
100
AcDbCircle
 10
-122.062432005915
 20
224.2502942524653
 30
0.0
 40
3.299999999999999
  0
LINE
  5
2F36
330
1F
100
AcDbEntity
  8
Mittellinie
100
AcDbLine
 10
-126.5901920059151
 20
219.7225342524653
 30
0.0
 11
-117.010782005915
 21
229.3019242524653
 31
0.0
  0
ARC
  5
2F37
330
1F
100
AcDbEntity
  8
Innenkanten
100
AcDbCircle
 10
-122.6412620059151
 20
223.7938742524653
 30
0.0
 40
5.0
100
AcDbArc
 50
184.0156699999998
 51
244.000060000001
  0
ARC
  5
2F38
330
1F
100
AcDbEntity
  8
Innenkanten
100
AcDbCircle
 10
-122.5557820059151
 20
223.7521842524653
 30
0.0
 40
4.0
100
AcDbArc
 50
183.862300000002
 51
244.000060000001
  0
ARC
  5
2F39
330
1F
100
AcDbEntity
  8
0
100
AcDbCircle
 10
-129.1595420059151
 20
231.6304842524654
 30
0.0
 40
2.0
100
AcDbArc
 50
12.39842700000157
 51
89.99998199999916
  0
ARC
  5
2F3A
330
1F
100
AcDbEntity
  8
Innenkanten
100
AcDbCircle
 10
-129.2459320059151
 20
231.6304842524654
 30
0.0
 40
1.0
100
AcDbArc
 50
15.76223399999987
 51
90.00000300000095
  0
LINE
  5
2F3B
330
1F
100
AcDbEntity
  8
0
100
AcDbLine
 10
-127.3265320059151
 20
232.4304642524654
 30
0.0
 11
-120.8562320059151
 21
232.4304642524654
 31
0.0
  0
ARC
  5
2F3C
330
1F
100
AcDbEntity
  8
0
100
AcDbCircle
 10
-115.811182005915
 20
213.7870242524653
 30
0.0
 40
1.0
100
AcDbArc
 50
4.764228999999202
 51
64.00006099999896
  0
LINE
  5
2F3D
330
1F
100
AcDbEntity
  8
0
100
AcDbLine
 10
-113.8562320059151
 20
225.4304642524653
 30
0.0
 11
-113.8562320059151
 21
214.1265542524653
 31
0.0
  0
ARC
  5
2F3E
330
1F
100
AcDbEntity
  8
0
100
AcDbCircle
 10
-115.811182005915
 20
213.7870242524653
 30
0.0
 40
2.0
100
AcDbArc
 50
4.764228999999202
 51
64.00006099999896
  0
LINE
  5
2F86
102
{ACAD_REACTORS
330
35DD
102
}
330
1F
100
AcDbEntity
  8
0
100
AcDbLine
 10
228.1292479940848
 20
143.8650142524653
 30
0.0
 11
228.1292479940848
 21
135.3350142524653
 31
0.0
  0
LINE
  5
2F87
330
1F
100
AcDbEntity
  8
0
100
AcDbLine
 10
248.1292479940849
 20
143.8650142524653
 30
0.0
 11
248.1292479940849
 21
135.3350142524653
 31
0.0
  0
LINE
  5
2F8E
330
1F
100
AcDbEntity
  8
0
100
AcDbLine
 10
229.1565879940849
 20
111.4082242524653
 30
0.0
 11
229.1625679940849
 21
106.9866242524653
 31
0.0
  0
LINE
  5
2F8F
330
1F
100
AcDbEntity
  8
0
100
AcDbLine
 10
247.1564679940848
 20
111.4095942524653
 30
0.0
 11
247.1564679940848
 21
106.9867742524653
 31
0.0
  0
LINE
  5
2F90
330
1F
100
AcDbEntity
  8
0
100
AcDbLine
 10
244.1563479940849
 20
93.88676425246538
 30
0.0
 11
240.7563179940849
 21
93.88676425246538
 31
0.0
  0
LINE
  5
2F91
330
1F
100
AcDbEntity
  8
0
100
AcDbLine
 10
231.1563479940849
 20
100.3867642524653
 30
0.0
 11
245.1563479940848
 21
100.3867642524653
 31
0.0
  0
LINE
  5
2F92
330
1F
100
AcDbEntity
  8
0
100
AcDbLine
 10
229.2623079940849
 20
106.8867942524653
 30
0.0
 11
247.0563079940849
 21
106.8867942524653
 31
0.0
  0
LINE
  5
2F93
330
1F
100
AcDbEntity
  8
0
100
AcDbLine
 10
235.5563079940849
 20
100.3867642524653
 30
0.0
 11
235.5563079940849
 21
93.88676425246538
 31
0.0
  0
LINE
  5
2F94
330
1F
100
AcDbEntity
  8
0
100
AcDbLine
 10
236.4563379940849
 20
93.88676425246538
 30
0.0
 11
236.4563379940849
 21
100.3867642524653
 31
0.0
  0
LINE
  5
2F95
330
1F
100
AcDbEntity
  8
0
100
AcDbLine
 10
239.8562979940848
 20
100.3867642524653
 30
0.0
 11
239.8562979940848
 21
93.88676425246538
 31
0.0
  0
LINE
  5
2F96
330
1F
100
AcDbEntity
  8
0
100
AcDbLine
 10
240.7563179940849
 20
93.88676425246538
 30
0.0
 11
240.7563179940849
 21
100.3867642524653
 31
0.0
  0
LINE
  5
2F97
330
1F
100
AcDbEntity
  8
0
100
AcDbLine
 10
232.1563479940849
 20
93.88676425246538
 30
0.0
 11
232.1563479940849
 21
100.3867642524653
 31
0.0
  0
LINE
  5
2F98
330
1F
100
AcDbEntity
  8
0
100
AcDbLine
 10
239.8562979940848
 20
93.88676425246538
 30
0.0
 11
236.4563379940849
 21
93.88676425246538
 31
0.0
  0
LINE
  5
2F99
330
1F
100
AcDbEntity
  8
0
100
AcDbLine
 10
235.5563079940849
 20
93.88676425246538
 30
0.0
 11
232.1563479940849
 21
93.88676425246538
 31
0.0
  0
LINE
  5
2F9A
330
1F
100
AcDbEntity
  8
0
100
AcDbLine
 10
231.1563479940849
 20
106.8867642524653
 30
0.0
 11
231.1563479940849
 21
100.3867642524653
 31
0.0
  0
ARC
  5
2F9B
330
1F
100
AcDbEntity
  8
0
100
AcDbCircle
 10
229.2623079940849
 20
106.9867742524653
 30
0.0
 40
0.1
100
AcDbArc
 50
180.0786699999992
 51
270.0000200000004
  0
LINE
  5
2F9C
330
1F
100
AcDbEntity
  8
0
100
AcDbLine
 10
244.1563479940849
 20
100.3867642524653
 30
0.0
 11
244.1563479940849
 21
93.88676425246538
 31
0.0
  0
LINE
  5
2F9D
330
1F
100
AcDbEntity
  8
0
100
AcDbLine
 10
245.1563479940848
 20
100.3867642524653
 30
0.0
 11
245.1563479940848
 21
106.8867642524653
 31
0.0
  0
ARC
  5
2F9E
330
1F
100
AcDbEntity
  8
0
100
AcDbCircle
 10
247.0563079940849
 20
106.9867742524653
 30
0.0
 40
0.1
100
AcDbArc
 50
270.0000200000004
 51
0.0
  0
LINE
  5
2F9F
102
{ACAD_REACTORS
330
35DD
102
}
330
1F
100
AcDbEntity
  8
Innenkanten
100
AcDbLine
 10
228.1292479940848
 20
135.3350142524653
 30
0.0
 11
248.1292479940849
 21
135.3350142524653
 31
0.0
  0
LINE
  5
2FA0
102
{ACAD_REACTORS
330
35A1
102
}
330
1F
100
AcDbEntity
  8
0
100
AcDbLine
 10
229.1292479940849
 20
134.3350142524653
 30
0.0
 11
247.1292479940848
 21
134.3350142524653
 31
0.0
  0
LINE
  5
2FA1
330
1F
100
AcDbEntity
  8
0
100
AcDbLine
 10
242.6563479940849
 20
127.5009042524654
 30
0.0
 11
233.6563479940849
 21
127.5009042524654
 31
0.0
  0
LINE
  5
2FA2
330
1F
100
AcDbEntity
  8
0
100
AcDbLine
 10
232.6563479940848
 20
126.5009042524654
 30
0.0
 11
232.6563479940848
 21
115.7380242524653
 31
0.0
  0
LINE
  5
2FA3
330
1F
100
AcDbEntity
  8
0
100
AcDbLine
 10
229.4490979940848
 20
112.1167642524653
 30
0.0
 11
232.3633779940848
 21
115.0310242524653
 31
0.0
  0
ARC
  5
2FA4
330
1F
100
AcDbEntity
  8
0
100
AcDbCircle
 10
230.1563479940849
 20
111.4095942524653
 30
0.0
 40
1.0
100
AcDbArc
 50
135.0000099999999
 51
180.0773400000007
  0
ARC
  5
2FA5
330
1F
100
AcDbEntity
  8
0
100
AcDbCircle
 10
231.6563479940849
 20
115.7380242524653
 30
0.0
 40
1.0
100
AcDbArc
 50
315.0
 51
0.0
  0
ARC
  5
2FA6
330
1F
100
AcDbEntity
  8
0
100
AcDbCircle
 10
231.5542679940849
 20
132.4030342524653
 30
0.0
 40
1.149999999999999
100
AcDbArc
 50
240.5736500000009
 51
300.0000299999987
  0
ARC
  5
2FA7
330
1F
100
AcDbEntity
  8
0
100
AcDbCircle
 10
229.1292479940849
 20
135.3350142524653
 30
0.0
 40
1.0
100
AcDbArc
 50
179.9999899999989
 51
270.0
  0
LINE
  5
2FA8
330
1F
100
AcDbEntity
  8
0
100
AcDbLine
 10
230.9892879940849
 20
134.3350142524653
 30
0.0
 11
230.9892879940849
 21
131.4070942524653
 31
0.0
  0
LINE
  5
2FA9
330
1F
100
AcDbEntity
  8
0
100
AcDbLine
 10
234.2062379940849
 20
134.3350142524653
 30
0.0
 11
234.2062379940849
 21
127.5009042524654
 31
0.0
  0
ARC
  5
2FAA
330
1F
100
AcDbEntity
  8
0
100
AcDbCircle
 10
233.6563479940849
 20
126.5009042524654
 30
0.0
 40
1.0
100
AcDbArc
 50
89.99998199999916
 51
179.9999599999992
  0
ARC
  5
2FAB
330
1F
100
AcDbEntity
  8
0
100
AcDbCircle
 10
236.7042579940849
 20
132.4030342524653
 30
0.0
 40
1.149999999999999
100
AcDbArc
 50
240.0000199999998
 51
299.4263499999991
  0
ARC
  5
2FAC
330
1F
100
AcDbEntity
  8
0
100
AcDbCircle
 10
236.7042579940849
 20
130.4111842524653
 30
0.0
 40
1.149999999999999
100
AcDbArc
 50
60.57370999999946
 51
120.0000199999996
  0
ARC
  5
2FAD
330
1F
100
AcDbEntity
  8
0
100
AcDbCircle
 10
236.1557379940849
 20
137.7890242524653
 30
0.0
 40
3.9000001
100
AcDbArc
 50
242.33114
 51
252.5964500000006
  0
ARC
  5
2FAE
330
1F
100
AcDbEntity
  8
0
100
AcDbCircle
 10
232.7042579940849
 20
132.4030342524653
 30
0.0
 40
1.149999999999999
100
AcDbArc
 50
240.0000199999998
 51
299.4263499999991
  0
ARC
  5
2FAF
330
1F
100
AcDbEntity
  8
0
100
AcDbCircle
 10
232.7042579940849
 20
130.4111842524653
 30
0.0
 40
1.149999999999999
100
AcDbArc
 50
60.57370999999946
 51
120.0000199999996
  0
ARC
  5
2FB0
330
1F
100
AcDbEntity
  8
0
100
AcDbCircle
 10
235.5542679940849
 20
132.4030342524653
 30
0.0
 40
1.149999999999999
100
AcDbArc
 50
240.5736500000009
 51
300.0000299999987
  0
LINE
  5
2FB1
330
1F
100
AcDbEntity
  8
0
100
AcDbLine
 10
233.2692879940849
 20
134.3350142524653
 30
0.0
 11
233.2692879940849
 21
131.4013842524653
 31
0.0
  0
LINE
  5
2FB2
330
1F
100
AcDbEntity
  8
0
100
AcDbLine
 10
234.9892879940849
 20
134.3350142524653
 30
0.0
 11
234.9892879940849
 21
131.4070942524653
 31
0.0
  0
ARC
  5
2FB3
330
1F
100
AcDbEntity
  8
0
100
AcDbCircle
 10
236.1557379940849
 20
137.7890242524653
 30
0.0
 40
3.9000001
100
AcDbArc
 50
286.5896600000002
 51
297.6688500000001
  0
ARC
  5
2FB4
330
1F
100
AcDbEntity
  8
0
100
AcDbCircle
 10
240.7042579940849
 20
130.4111842524653
 30
0.0
 40
1.149999999999999
100
AcDbArc
 50
60.57370999999946
 51
120.0000199999996
  0
ARC
  5
2FB5
330
1F
100
AcDbEntity
  8
0
100
AcDbCircle
 10
240.7042579940849
 20
132.4030342524653
 30
0.0
 40
1.149999999999999
100
AcDbArc
 50
240.0000199999998
 51
299.4263499999991
  0
ARC
  5
2FB6
330
1F
100
AcDbEntity
  8
0
100
AcDbCircle
 10
239.5542679940849
 20
132.4030342524653
 30
0.0
 40
1.149999999999999
100
AcDbArc
 50
240.5736500000009
 51
300.0000299999987
  0
LINE
  5
2FB7
330
1F
100
AcDbEntity
  8
0
100
AcDbLine
 10
238.9892879940849
 20
134.3350142524653
 30
0.0
 11
238.9892879940849
 21
131.4070942524653
 31
0.0
  0
LINE
  5
2FB8
330
1F
100
AcDbEntity
  8
0
100
AcDbLine
 10
241.2692879940849
 20
134.3350142524653
 30
0.0
 11
241.2692879940849
 21
131.4013842524653
 31
0.0
  0
LINE
  5
2FB9
330
1F
100
AcDbEntity
  8
0
100
AcDbLine
 10
237.2692879940849
 20
134.3350142524653
 30
0.0
 11
237.2692879940849
 21
131.4013842524653
 31
0.0
  0
LINE
  5
2FBA
330
1F
100
AcDbEntity
  8
0
100
AcDbLine
 10
243.6563479940849
 20
126.5009042524654
 30
0.0
 11
243.6563479940849
 21
115.7380242524653
 31
0.0
  0
ARC
  5
2FBB
330
1F
100
AcDbEntity
  8
0
100
AcDbCircle
 10
246.1563479940849
 20
111.4095942524653
 30
0.0
 40
1.0
100
AcDbArc
 50
0.0
 51
44.99984399999951
  0
ARC
  5
2FBC
330
1F
100
AcDbEntity
  8
0
100
AcDbCircle
 10
244.6563479940849
 20
115.7380242524653
 30
0.0
 40
1.0
100
AcDbArc
 50
179.9999799999979
 51
224.9999800000012
  0
LINE
  5
2FBD
330
1F
100
AcDbEntity
  8
0
100
AcDbLine
 10
243.9490679940849
 20
115.0307642524653
 30
0.0
 11
246.8632879940849
 21
112.1165642524653
 31
0.0
  0
LINE
  5
2FBE
330
1F
100
AcDbEntity
  8
0
100
AcDbLine
 10
242.0040979940848
 20
134.3350142524653
 30
0.0
 11
242.0040979940848
 21
127.5009042524654
 31
0.0
  0
ARC
  5
2FBF
330
1F
100
AcDbEntity
  8
0
100
AcDbCircle
 10
242.6563479940849
 20
126.5009042524654
 30
0.0
 40
1.0
100
AcDbArc
 50
0.0
 51
89.99998199999916
  0
ARC
  5
2FC0
330
1F
100
AcDbEntity
  8
0
100
AcDbCircle
 10
247.1292479940848
 20
135.3350142524653
 30
0.0
 40
1.0
100
AcDbArc
 50
270.0
 51
0.0
  0
ARC
  5
2FC1
330
1F
100
AcDbEntity
  8
0
100
AcDbCircle
 10
243.5542679940849
 20
132.4030342524653
 30
0.0
 40
1.149999999999999
100
AcDbArc
 50
240.5736500000009
 51
300.0000299999987
  0
ARC
  5
2FC2
330
1F
100
AcDbEntity
  8
0
100
AcDbCircle
 10
244.7042579940849
 20
132.4030342524653
 30
0.0
 40
1.149999999999999
100
AcDbArc
 50
240.0000199999998
 51
299.4263499999991
  0
ARC
  5
2FC3
330
1F
100
AcDbEntity
  8
0
100
AcDbCircle
 10
244.7042579940849
 20
130.4111842524653
 30
0.0
 40
1.149999999999999
100
AcDbArc
 50
60.57370999999946
 51
120.0000199999996
  0
LINE
  5
2FC4
330
1F
100
AcDbEntity
  8
0
100
AcDbLine
 10
245.2692879940849
 20
134.3350142524653
 30
0.0
 11
245.2692879940849
 21
131.4013842524653
 31
0.0
  0
LINE
  5
2FC5
330
1F
100
AcDbEntity
  8
0
100
AcDbLine
 10
242.9892879940849
 20
134.3350142524653
 30
0.0
 11
242.9892879940849
 21
131.4070942524653
 31
0.0
  0
CIRCLE
  5
2FE4
330
1F
100
AcDbEntity
  8
Innenkanten
100
AcDbCircle
 10
238.1292479940849
 20
192.4304842524653
 30
0.0
 40
35.0
  0
LINE
  5
2FE5
102
{ACAD_REACTORS
330
35A1
102
}
330
1F
100
AcDbEntity
  8
Mittellinie
100
AcDbLine
 10
192.8632279940848
 20
192.4304842524653
 30
0.0
 11
279.9374779940848
 21
192.4304842524653
 31
0.0
  0
LINE
  5
2FE6
330
1F
100
AcDbEntity
  8
0
100
AcDbLine
 10
204.9292379940849
 20
152.4304742524653
 30
0.0
 11
271.3291979940848
 21
152.4304742524653
 31
0.0
  0
LINE
  5
2FE7
330
1F
100
AcDbEntity
  8
0
100
AcDbLine
 10
204.9292379940849
 20
232.4304842524654
 30
0.0
 11
271.3291979940848
 21
232.4304842524654
 31
0.0
  0
CIRCLE
  5
2FE8
330
1F
100
AcDbEntity
  8
Innenkanten
100
AcDbCircle
 10
238.1292479940849
 20
192.4304842524653
 30
0.0
 40
12.5
  0
CIRCLE
  5
2FE9
330
1F
100
AcDbEntity
  8
Innenkanten
100
AcDbCircle
 10
238.1292479940849
 20
192.4304842524653
 30
0.0
 40
9.5
  0
LINE
  5
2FEA
330
1F
100
AcDbEntity
  8
0
100
AcDbLine
 10
198.1292379940849
 20
225.6304842524654
 30
0.0
 11
198.1292379940849
 21
159.2304742524653
 31
0.0
  0
LINE
  5
2FEB
102
{ACAD_REACTORS
330
357E
102
}
330
1F
100
AcDbEntity
  8
Mittellinie
100
AcDbLine
 10
238.1292479940849
 20
147.1644642524653
 30
0.0
 11
238.1292479940849
 21
234.2386942524654
 31
0.0
  0
CIRCLE
  5
2FEC
330
1F
100
AcDbEntity
  8
Innenkanten
100
AcDbCircle
 10
206.3097579940849
 20
160.6109842524654
 30
0.0
 40
3.299999999999999
  0
LINE
  5
2FED
330
1F
100
AcDbEntity
  8
Mittellinie
100
AcDbLine
 10
200.9893879940849
 20
165.9313342524653
 30
0.0
 11
210.7815879940849
 21
156.1391342524653
 31
0.0
  0
LINE
  5
2FEE
330
1F
100
AcDbEntity
  8
Mittellinie
100
AcDbLine
 10
202.1553379940848
 20
156.4565742524653
 30
0.0
 11
211.1926279940848
 21
165.4938242524654
 31
0.0
  0
ARC
  5
2FEF
102
{ACAD_REACTORS
330
34C5
102
}
330
1F
100
AcDbEntity
  8
0
100
AcDbCircle
 10
204.4823109199445
 20
158.7835469374308
 30
0.0
 40
6.368773792985134
100
AcDbArc
 50
175.9759738011568
 51
274.024057081188
  0
LINE
  5
2FF0
330
1F
100
AcDbEntity
  8
0
100
AcDbLine
 10
228.1292479940848
 20
143.8650142524653
 30
0.0
 11
248.1292479940849
 21
143.8650142524653
 31
0.0
  0
LINE
  5
2FF1
330
1F
100
AcDbEntity
  8
0
100
AcDbLine
 10
223.0292379940848
 20
146.8250342524654
 30
0.0
 11
253.2292179940849
 21
146.8250342524654
 31
0.0
  0
LINE
  5
2FF2
330
1F
100
AcDbEntity
  8
0
100
AcDbLine
 10
222.0292379940849
 20
152.4304742524653
 30
0.0
 11
222.0292379940849
 21
147.8250342524654
 31
0.0
  0
ARC
  5
2FF3
330
1F
100
AcDbEntity
  8
0
100
AcDbCircle
 10
226.7032179940849
 20
144.4250042524653
 30
0.0
 40
1.0
100
AcDbArc
 50
179.9999899999989
 51
270.0
  0
ARC
  5
2FF4
330
1F
100
AcDbEntity
  8
0
100
AcDbCircle
 10
223.0292379940848
 20
147.8250342524654
 30
0.0
 40
1.0
100
AcDbArc
 50
179.9999899999989
 51
270.0
  0
LINE
  5
2FF5
330
1F
100
AcDbEntity
  8
0
100
AcDbLine
 10
225.7032179940849
 20
146.8250342524654
 30
0.0
 11
225.7032179940849
 21
144.4250042524653
 31
0.0
  0
LINE
  5
2FF6
330
1F
100
AcDbEntity
  8
0
100
AcDbLine
 10
228.1292479940848
 20
143.4250042524653
 30
0.0
 11
226.7032179940849
 21
143.4250042524653
 31
0.0
  0
LINE
  5
2FF7
330
1F
100
AcDbEntity
  8
0
100
AcDbLine
 10
229.1292479940849
 20
146.8250342524654
 30
0.0
 11
229.1292479940849
 21
143.8650142524653
 31
0.0
  0
LINE
  5
2FF8
330
1F
100
AcDbEntity
  8
0
100
AcDbLine
 10
254.2292179940849
 20
152.4304742524653
 30
0.0
 11
254.2292179940849
 21
147.8250342524654
 31
0.0
  0
LINE
  5
2FF9
330
1F
100
AcDbEntity
  8
0
100
AcDbLine
 10
247.1292479940848
 20
146.8250342524654
 30
0.0
 11
247.1292479940848
 21
143.8650142524653
 31
0.0
  0
ARC
  5
2FFA
330
1F
100
AcDbEntity
  8
0
100
AcDbCircle
 10
249.9032379940849
 20
144.4250042524653
 30
0.0
 40
1.0
100
AcDbArc
 50
270.0
 51
0.0
  0
LINE
  5
2FFB
330
1F
100
AcDbEntity
  8
0
100
AcDbLine
 10
249.9032379940849
 20
143.4250042524653
 30
0.0
 11
248.1292479940849
 21
143.4250042524653
 31
0.0
  0
LINE
  5
2FFC
330
1F
100
AcDbEntity
  8
0
100
AcDbLine
 10
250.9032379940849
 20
146.8250342524654
 30
0.0
 11
250.9032379940849
 21
144.4250042524653
 31
0.0
  0
ARC
  5
2FFD
330
1F
100
AcDbEntity
  8
0
100
AcDbCircle
 10
253.2292179940849
 20
147.8250342524654
 30
0.0
 40
1.0
100
AcDbArc
 50
270.0
 51
0.0
  0
ARC
  5
2FFE
102
{ACAD_REACTORS
330
34C5
102
}
330
1F
100
AcDbEntity
  8
0
100
AcDbCircle
 10
204.4823106882646
 20
226.0774115582857
 30
0.0
 40
6.368773561229811
100
AcDbArc
 50
85.97597373758295
 51
184.024026262417
  0
CIRCLE
  5
2FFF
330
1F
100
AcDbEntity
  8
Innenkanten
100
AcDbCircle
 10
206.3097579940849
 20
224.2499842524653
 30
0.0
 40
3.299999999999999
  0
LINE
  5
3000
330
1F
100
AcDbEntity
  8
Mittellinie
100
AcDbLine
 10
200.9245979940848
 20
218.8648442524653
 30
0.0
 11
212.4529479940848
 21
230.3931742524654
 31
0.0
  0
LINE
  5
3001
102
{ACAD_REACTORS
330
357E
102
}
330
1F
100
AcDbEntity
  8
Mittellinie
100
AcDbLine
 10
201.6508179940848
 20
228.9090442524653
 30
0.0
 11
211.1748979940848
 21
219.3849542524653
 31
0.0
  0
LINE
  5
3002
102
{ACAD_REACTORS
330
34A4
102
}
330
1F
100
AcDbEntity
  8
0
100
AcDbLine
 10
278.1291979940849
 20
225.6304842524654
 30
0.0
 11
278.1291979940849
 21
159.2304742524653
 31
0.0
  0
CIRCLE
  5
3003
330
1F
100
AcDbEntity
  8
Innenkanten
100
AcDbCircle
 10
269.9487679940848
 20
160.6109842524654
 30
0.0
 40
3.299999999999999
  0
LINE
  5
3004
330
1F
100
AcDbEntity
  8
Mittellinie
100
AcDbLine
 10
265.7477779940849
 20
164.8118442524653
 30
0.0
 11
274.2211079940849
 21
156.3385142524653
 31
0.0
  0
LINE
  5
3005
330
1F
100
AcDbEntity
  8
Mittellinie
100
AcDbLine
 10
265.507607994085
 20
156.1698342524654
 30
0.0
 11
274.4300279940848
 21
165.0923142524653
 31
0.0
  0
ARC
  5
3006
330
1F
100
AcDbEntity
  8
0
100
AcDbCircle
 10
271.7761253498636
 20
158.7835468966865
 30
0.0
 40
6.368773514900313
100
AcDbArc
 50
265.9759732577067
 51
4.024026742293258
  0
CIRCLE
  5
3007
330
1F
100
AcDbEntity
  8
Innenkanten
100
AcDbCircle
 10
269.9490679940848
 20
224.2502942524653
 30
0.0
 40
3.299999999999999
  0
ARC
  5
3008
330
1F
100
AcDbEntity
  8
0
100
AcDbCircle
 10
271.7761256332239
 20
226.0774117470687
 30
0.0
 40
6.368773241980569
100
AcDbArc
 50
355.9759718329797
 51
94.02400963760477
  0
LINE
  5
3009
330
1F
100
AcDbEntity
  8
Mittellinie
100
AcDbLine
 10
265.4212379940848
 20
219.7225042524653
 30
0.0
 11
274.9503479940848
 21
229.2516042524653
 31
0.0
  0
LINE
  5
300A
330
1F
100
AcDbEntity
  8
Mittellinie
100
AcDbLine
 10
263.5299379940848
 20
230.6694542524653
 30
0.0
 11
275.8440879940849
 21
218.3553142524653
 31
0.0
  0
LINE
  5
30BE
330
1F
100
AcDbEntity
  8
Mittellinie
100
AcDbLine
 10
332.014243733756
 20
192.4624123724645
 30
0.0
 11
559.4394537337562
 21
192.4624123724645
 31
0.0
  0
LINE
  5
30BF
102
{ACAD_REACTORS
330
3446
102
}
330
1F
100
AcDbEntity
  8
0
100
AcDbLine
 10
513.826963733756
 20
152.2624023724645
 30
0.0
 11
375.3270037337561
 21
152.2624023724645
 31
0.0
  0
LINE
  5
30C0
102
{ACAD_REACTORS
330
32A9
330
32CE
330
32F1
330
3312
102
}
330
1F
100
AcDbEntity
  8
0
100
AcDbLine
 10
513.826963733756
 20
232.6624123724645
 30
0.0
 11
375.3270037337561
 21
232.6624123724645
 31
0.0
  0
LINE
  5
30C1
330
1F
100
AcDbEntity
  8
0
100
AcDbLine
 10
437.3269637337561
 20
152.2624023724645
 30
0.0
 11
437.3269637337561
 21
147.1623923724645
 31
0.0
  0
LINE
  5
30C2
102
{ACAD_REACTORS
330
3446
102
}
330
1F
100
AcDbEntity
  8
Mittellinie
100
AcDbLine
 10
427.126953733756
 20
158.3002123724645
 30
0.0
 11
427.126953733756
 21
132.3721423724645
 31
0.0
  0
LINE
  5
30C3
102
{ACAD_REACTORS
330
3470
102
}
330
1F
100
AcDbEntity
  8
Mittellinie
100
AcDbLine
 10
408.3221537337561
 20
141.5866023724645
 30
0.0
 11
408.3221537337561
 21
152.2532723724645
 31
0.0
  0
LINE
  5
30C4
330
1F
100
AcDbEntity
  8
0
100
AcDbLine
 10
414.988803733756
 20
142.2866123724645
 30
0.0
 11
414.988803733756
 21
152.2532723724645
 31
0.0
  0
LINE
  5
30C5
330
1F
100
AcDbEntity
  8
0
100
AcDbLine
 10
417.655463733756
 20
149.5865823724646
 30
0.0
 11
417.655463733756
 21
144.5532923724645
 31
0.0
  0
LINE
  5
30C6
330
1F
100
AcDbEntity
  8
0
100
AcDbLine
 10
401.762033733756
 20
151.3866923724645
 30
0.0
 11
402.913003733756
 21
142.1995923724645
 31
0.0
  0
LINE
  5
30C7
330
1F
100
AcDbEntity
  8
0
100
AcDbLine
 10
355.975953733756
 20
145.0783523724645
 30
0.0
 11
357.747803733756
 21
149.9464323724645
 31
0.0
  0
LINE
  5
30C8
330
1F
100
AcDbEntity
  8
Innenkanten
100
AcDbLine
 10
345.396993733756
 20
152.5073923724645
 30
0.0
 11
345.396993733756
 21
143.7624023724645
 31
0.0
  0
LINE
  5
30C9
330
1F
100
AcDbEntity
  8
0
100
AcDbLine
 10
340.596983733756
 20
152.9273423724645
 30
0.0
 11
340.596983733756
 21
144.5624223724645
 31
0.0
  0
LINE
  5
30CA
330
1F
100
AcDbEntity
  8
Innenkanten
100
AcDbLine
 10
417.326963733756
 20
232.6624123724645
 30
0.0
 11
417.326963733756
 21
152.2624023724645
 31
0.0
  0
LINE
  5
30CB
330
1F
100
AcDbEntity
  8
Mittellinie
100
AcDbLine
 10
418.790473733756
 20
146.9199323724645
 30
0.0
 11
401.6490837337561
 21
146.9199323724645
 31
0.0
  0
ARC
  5
30CC
330
1F
100
AcDbEntity
  8
0
100
AcDbCircle
 10
416.3554737337561
 20
144.5532923724645
 30
0.0
 40
1.3
100
AcDbArc
 50
270.0000199999987
 51
0.0
  0
LINE
  5
30CD
330
1F
100
AcDbEntity
  8
0
100
AcDbLine
 10
354.658923733756
 20
106.2486923724645
 30
0.0
 11
354.658923733756
 21
99.74869237246458
 31
0.0
  0
LINE
  5
30CE
330
1F
100
AcDbEntity
  8
0
100
AcDbLine
 10
340.658923733756
 20
99.74869237246458
 30
0.0
 11
340.658923733756
 21
106.2486923724645
 31
0.0
  0
LINE
  5
30CF
330
1F
100
AcDbEntity
  8
0
100
AcDbLine
 10
354.658923733756
 20
99.74869237246458
 30
0.0
 11
340.658923733756
 21
99.74869237246458
 31
0.0
  0
LINE
  5
30D0
330
1F
100
AcDbEntity
  8
0
100
AcDbLine
 10
353.658923733756
 20
93.24869237246458
 30
0.0
 11
350.258903733756
 21
93.24869237246458
 31
0.0
  0
LINE
  5
30D1
330
1F
100
AcDbEntity
  8
0
100
AcDbLine
 10
349.358903733756
 20
93.24869237246458
 30
0.0
 11
349.358903733756
 21
99.74869237246458
 31
0.0
  0
LINE
  5
30D2
330
1F
100
AcDbEntity
  8
0
100
AcDbLine
 10
345.958913733756
 20
93.24869237246458
 30
0.0
 11
345.958913733756
 21
99.74869237246458
 31
0.0
  0
LINE
  5
30D3
330
1F
100
AcDbEntity
  8
0
100
AcDbLine
 10
350.258903733756
 20
93.24869237246458
 30
0.0
 11
350.258903733756
 21
99.74869237246458
 31
0.0
  0
LINE
  5
30D4
330
1F
100
AcDbEntity
  8
0
100
AcDbLine
 10
345.058913733756
 20
99.74869237246458
 30
0.0
 11
345.058913733756
 21
93.24869237246458
 31
0.0
  0
LINE
  5
30D5
330
1F
100
AcDbEntity
  8
0
100
AcDbLine
 10
341.658923733756
 20
93.24869237246458
 30
0.0
 11
341.658923733756
 21
99.74869237246458
 31
0.0
  0
LINE
  5
30D6
330
1F
100
AcDbEntity
  8
0
100
AcDbLine
 10
349.358903733756
 20
93.24869237246458
 30
0.0
 11
345.958913733756
 21
93.24869237246458
 31
0.0
  0
LINE
  5
30D7
330
1F
100
AcDbEntity
  8
0
100
AcDbLine
 10
345.058913733756
 20
93.24869237246458
 30
0.0
 11
341.658923733756
 21
93.24869237246458
 31
0.0
  0
LINE
  5
30D8
330
1F
100
AcDbEntity
  8
0
100
AcDbLine
 10
353.658893733756
 20
93.24869237246458
 30
0.0
 11
353.658893733756
 21
99.74869237246458
 31
0.0
  0
LINE
  5
30D9
330
1F
100
AcDbEntity
  8
0
100
AcDbLine
 10
338.658923733756
 20
126.8628323724646
 30
0.0
 11
338.658923733756
 21
106.2486923724645
 31
0.0
  0
LINE
  5
30DA
330
1F
100
AcDbEntity
  8
0
100
AcDbLine
 10
356.658923733756
 20
106.2486923724645
 30
0.0
 11
356.658923733756
 21
126.8628323724646
 31
0.0
  0
LINE
  5
30DB
330
1F
100
AcDbEntity
  8
Innenkanten
100
AcDbLine
 10
356.658923733756
 20
114.6907423724645
 30
0.0
 11
338.658923733756
 21
114.6907423724645
 31
0.0
  0
LINE
  5
30DC
330
1F
100
AcDbEntity
  8
Innenkanten
100
AcDbLine
 10
356.658923733756
 20
111.0906723724645
 30
0.0
 11
338.658923733756
 21
111.0906723724645
 31
0.0
  0
LINE
  5
30DD
330
1F
100
AcDbEntity
  8
0
100
AcDbLine
 10
338.658923733756
 20
106.2486923724645
 30
0.0
 11
356.658923733756
 21
106.2486923724645
 31
0.0
  0
ARC
  5
30DE
330
1F
100
AcDbEntity
  8
0
100
AcDbCircle
 10
341.396993733756
 20
144.5624223724645
 30
0.0
 40
0.8000000099999999
100
AcDbArc
 50
179.9999899999989
 51
270.0
  0
LINE
  5
30DF
330
1F
100
AcDbEntity
  8
0
100
AcDbLine
 10
356.658923733756
 20
126.8628323724646
 30
0.0
 11
338.658923733756
 21
126.8628323724646
 31
0.0
  0
LINE
  5
30E0
330
1F
100
AcDbEntity
  8
0
100
AcDbLine
 10
351.506673733756
 20
133.7733223724645
 30
0.0
 11
351.506673733756
 21
126.8628323724646
 31
0.0
  0
LINE
  5
30E1
330
1F
100
AcDbEntity
  8
0
100
AcDbLine
 10
343.708823733756
 20
133.7731723724645
 30
0.0
 11
343.708823733756
 21
126.8628323724646
 31
0.0
  0
ARC
  5
30E2
330
1F
100
AcDbEntity
  8
0
100
AcDbCircle
 10
345.658313733756
 20
130.3953923724645
 30
0.0
 40
3.9000001
100
AcDbArc
 50
60.00848500000108
 51
119.9915300000001
  0
ARC
  5
30E3
330
1F
100
AcDbEntity
  8
0
100
AcDbCircle
 10
345.658313733756
 20
137.1509523724645
 30
0.0
 40
3.9000001
100
AcDbArc
 50
240.0084699999998
 51
299.9915199999998
  0
ARC
  5
30E4
330
1F
100
AcDbEntity
  8
0
100
AcDbCircle
 10
349.5573737337561
 20
130.3954223724645
 30
0.0
 40
3.9000001
100
AcDbArc
 50
60.0119070000017
 51
119.9927199999989
  0
LINE
  5
30E5
330
1F
100
AcDbEntity
  8
0
100
AcDbLine
 10
341.396993733756
 20
143.7624023724645
 30
0.0
 11
354.0965737337561
 21
143.7624023724645
 31
0.0
  0
LINE
  5
30E6
330
1F
100
AcDbEntity
  8
0
100
AcDbLine
 10
351.296953733756
 20
137.9044623724645
 30
0.0
 11
351.296953733756
 21
143.7624023724645
 31
0.0
  0
LINE
  5
30E7
330
1F
100
AcDbEntity
  8
0
100
AcDbLine
 10
343.496963733756
 20
137.9043923724645
 30
0.0
 11
343.496963733756
 21
143.7624023724645
 31
0.0
  0
ARC
  5
30E8
330
1F
100
AcDbEntity
  8
0
100
AcDbCircle
 10
345.446993733756
 20
141.2819023724645
 30
0.0
 40
3.9000001
100
AcDbArc
 50
239.9994199999991
 51
299.9989200000011
  0
ARC
  5
30E9
330
1F
100
AcDbEntity
  8
0
100
AcDbCircle
 10
349.347013733756
 20
134.5269223724645
 30
0.0
 40
3.9000001
100
AcDbArc
 50
60.00106700000128
 51
120.0015700000002
  0
ARC
  5
30EA
330
1F
100
AcDbEntity
  8
0
100
AcDbCircle
 10
349.346863733756
 20
141.2819023724645
 30
0.0
 40
3.9000001
100
AcDbArc
 50
240.0010599999998
 51
300.0015400000001
  0
ARC
  5
30EB
330
1F
100
AcDbEntity
  8
0
100
AcDbCircle
 10
354.0965737337561
 20
145.7624023724645
 30
0.0
 40
2.0
100
AcDbArc
 50
270.0
 51
340.0000000000004
  0
LINE
  5
30EC
330
1F
100
AcDbEntity
  8
0
100
AcDbLine
 10
409.5887837337561
 20
141.5866223724645
 30
0.0
 11
409.5887837337561
 21
133.7431223724645
 31
0.0
  0
LINE
  5
30ED
330
1F
100
AcDbEntity
  8
0
100
AcDbLine
 10
407.055453733756
 20
141.5866223724645
 30
0.0
 11
407.055453733756
 21
133.7431423724645
 31
0.0
  0
ARC
  5
30EE
330
1F
100
AcDbEntity
  8
0
100
AcDbCircle
 10
407.6887637337561
 20
134.8400223724645
 30
0.0
 40
1.266579
100
AcDbArc
 50
239.9982799999985
 51
300.0058599999994
  0
ARC
  5
30EF
330
1F
100
AcDbEntity
  8
0
100
AcDbCircle
 10
408.955513733756
 20
134.8398523724645
 30
0.0
 40
1.266423899999999
100
AcDbArc
 50
239.9922600000011
 51
300.006350000002
  0
ARC
  5
30F0
330
1F
100
AcDbEntity
  8
0
100
AcDbCircle
 10
408.9554837337561
 20
132.6461623724645
 30
0.0
 40
1.2667201
100
AcDbArc
 50
60.0030960000019
 51
120.0018899999994
  0
LINE
  5
30F1
102
{ACAD_REACTORS
330
3470
102
}
330
1F
100
AcDbEntity
  8
0
100
AcDbLine
 10
403.577313733756
 20
141.5866223724645
 30
0.0
 11
414.288793733756
 21
141.5866223724645
 31
0.0
  0
ARC
  5
30F2
330
1F
100
AcDbEntity
  8
0
100
AcDbCircle
 10
403.6075837337561
 20
142.2866423724645
 30
0.0
 40
0.6999999900000001
100
AcDbArc
 50
187.1411100000006
 51
270.0524500000001
  0
ARC
  5
30F3
330
1F
100
AcDbEntity
  8
0
100
AcDbCircle
 10
414.288793733756
 20
142.2866123724645
 30
0.0
 40
0.6999999900000001
100
AcDbArc
 50
270.0000199999987
 51
0.0
  0
LINE
  5
30F4
330
1F
100
AcDbEntity
  8
0
100
AcDbLine
 10
416.3554737337561
 20
143.2532923724645
 30
0.0
 11
414.988803733756
 21
143.2532723724645
 31
0.0
  0
LINE
  5
30F5
330
1F
100
AcDbEntity
  8
0
100
AcDbLine
 10
432.076963733756
 20
145.2023723724645
 30
0.0
 11
432.076963733756
 21
136.2023723724645
 31
0.0
  0
LINE
  5
30F6
330
1F
100
AcDbEntity
  8
0
100
AcDbLine
 10
422.176943733756
 20
145.2023723724645
 30
0.0
 11
422.176943733756
 21
136.2023723724645
 31
0.0
  0
LINE
  5
30F7
330
1F
100
AcDbEntity
  8
Innenkanten
100
AcDbLine
 10
422.176943733756
 20
136.2023723724645
 30
0.0
 11
432.076963733756
 21
136.2023723724645
 31
0.0
  0
LINE
  5
30F8
330
1F
100
AcDbEntity
  8
0
100
AcDbLine
 10
423.176943733756
 20
135.2023723724645
 30
0.0
 11
431.0769637337561
 21
135.2023723724645
 31
0.0
  0
ARC
  5
30F9
330
1F
100
AcDbEntity
  8
0
100
AcDbCircle
 10
427.552213733756
 20
128.8289623724645
 30
0.0
 40
0.8500000199999998
100
AcDbArc
 50
60.0009850000009
 51
119.9990300000012
  0
ARC
  5
30FA
330
1F
100
AcDbEntity
  8
0
100
AcDbCircle
 10
427.552213733756
 20
130.3012223724645
 30
0.0
 40
0.8500000199999998
100
AcDbArc
 50
240.0009499999997
 51
299.9990300000011
  0
LINE
  5
30FB
330
1F
100
AcDbEntity
  8
0
100
AcDbLine
 10
426.276703733756
 20
135.2023723724645
 30
0.0
 11
426.276703733756
 21
129.5651023724645
 31
0.0
  0
ARC
  5
30FC
330
1F
100
AcDbEntity
  8
0
100
AcDbCircle
 10
426.702243733756
 20
130.3012223724645
 30
0.0
 40
0.8500000199999998
100
AcDbArc
 50
239.9986599999992
 51
299.9990300000011
  0
ARC
  5
30FD
330
1F
100
AcDbEntity
  8
0
100
AcDbCircle
 10
423.176943733756
 20
136.2023723724645
 30
0.0
 40
1.0
100
AcDbArc
 50
179.9999899999989
 51
270.0
  0
LINE
  5
30FE
330
1F
100
AcDbEntity
  8
0
100
AcDbLine
 10
427.977173733756
 20
135.2023723724645
 30
0.0
 11
427.977173733756
 21
129.5651023724645
 31
0.0
  0
ARC
  5
30FF
330
1F
100
AcDbEntity
  8
0
100
AcDbCircle
 10
431.0769637337561
 20
136.2023723724645
 30
0.0
 40
1.0
100
AcDbArc
 50
270.0
 51
0.0
  0
LINE
  5
3100
330
1F
100
AcDbEntity
  8
0
100
AcDbLine
 10
419.3269637337561
 20
147.1623923724645
 30
0.0
 11
437.3269637337561
 21
147.1623923724645
 31
0.0
  0
LINE
  5
3101
330
1F
100
AcDbEntity
  8
0
100
AcDbLine
 10
422.176943733756
 20
145.2023723724645
 30
0.0
 11
432.076963733756
 21
145.2023723724645
 31
0.0
  0
LINE
  5
3102
330
1F
100
AcDbEntity
  8
0
100
AcDbLine
 10
423.2269337337561
 20
147.1623923724645
 30
0.0
 11
423.2269337337561
 21
145.2023723724645
 31
0.0
  0
LINE
  5
3103
330
1F
100
AcDbEntity
  8
0
100
AcDbLine
 10
431.0269237337561
 20
147.1623923724645
 30
0.0
 11
431.0269237337561
 21
145.2023723724645
 31
0.0
  0
ARC
  5
3104
330
1F
100
AcDbEntity
  8
0
100
AcDbCircle
 10
416.655463733756
 20
149.5865823724646
 30
0.0
 40
1.0
100
AcDbArc
 50
0.0
 51
89.99998199999753
  0
LINE
  5
3105
330
1F
100
AcDbEntity
  8
Innenkanten
100
AcDbLine
 10
501.826963733756
 20
220.7386523724645
 30
0.0
 11
339.4065737337561
 21
220.7386523724645
 31
0.0
  0
LINE
  5
3106
330
1F
100
AcDbEntity
  8
Innenkanten
100
AcDbLine
 10
501.826963733756
 20
214.4624123724645
 30
0.0
 11
339.8270037337561
 21
214.4624123724645
 31
0.0
  0
LINE
  5
3107
330
1F
100
AcDbEntity
  8
Innenkanten
100
AcDbLine
 10
340.326963733756
 20
170.4624123724645
 30
0.0
 11
501.826963733756
 21
170.4624123724645
 31
0.0
  0
LINE
  5
3108
330
1F
100
AcDbEntity
  8
Innenkanten
100
AcDbLine
 10
339.8197937337561
 20
164.1861623724645
 30
0.0
 11
501.826963733756
 21
164.1861623724645
 31
0.0
  0
ARC
  5
3109
330
1F
100
AcDbEntity
  8
Innenkanten
100
AcDbCircle
 10
736.3269637337561
 20
192.4625323724645
 30
0.0
 40
398.4999999999999
100
AcDbArc
 50
177.4902800000003
 51
182.5097599999994
  0
ARC
  5
310A
102
{ACAD_REACTORS
330
3312
330
3470
102
}
330
1F
100
AcDbEntity
  8
0
100
AcDbCircle
 10
736.3269637337561
 20
192.4625323724645
 30
0.0
 40
400.0
100
AcDbArc
 50
177.4699299999986
 51
182.5301100000002
  0
LINE
  5
310B
330
1F
100
AcDbEntity
  8
Innenkanten
100
AcDbLine
 10
376.327003733756
 20
232.6624123724645
 30
0.0
 11
376.327003733756
 21
152.2624023724645
 31
0.0
  0
LINE
  5
310C
330
1F
100
AcDbEntity
  8
Innenkanten
100
AcDbLine
 10
372.627003733756
 20
233.1624123724645
 30
0.0
 11
372.627003733756
 21
151.2624023724645
 31
0.0
  0
LINE
  5
310D
102
{ACAD_REACTORS
330
33AD
102
}
330
1F
100
AcDbEntity
  8
0
100
AcDbLine
 10
375.3270037337561
 20
232.6624123724645
 30
0.0
 11
375.3270037337561
 21
152.2624023724645
 31
0.0
  0
LINE
  5
310E
330
1F
100
AcDbEntity
  8
0
100
AcDbLine
 10
375.3270037337561
 20
232.6624123724645
 30
0.0
 11
375.3270037337561
 21
152.2624023724645
 31
0.0
  0
LINE
  5
310F
102
{ACAD_REACTORS
330
33D0
102
}
330
1F
100
AcDbEntity
  8
0
100
AcDbLine
 10
375.3270037337561
 20
233.6624123724646
 30
0.0
 11
375.3270037337561
 21
151.2624023724645
 31
0.0
  0
LINE
  5
3110
330
1F
100
AcDbEntity
  8
0
100
AcDbLine
 10
359.627183733756
 20
151.2624023724645
 30
0.0
 11
375.3270037337561
 21
151.2624023724645
 31
0.0
  0
LINE
  5
3111
330
1F
100
AcDbEntity
  8
Innenkanten
100
AcDbLine
 10
338.326963733756
 20
169.7623723724645
 30
0.0
 11
338.326963733756
 21
174.7623723724645
 31
0.0
  0
LINE
  5
3112
330
1F
100
AcDbEntity
  8
Innenkanten
100
AcDbLine
 10
340.326963733756
 20
166.3089123724645
 30
0.0
 11
340.326963733756
 21
178.6604423724645
 31
0.0
  0
LINE
  5
3113
330
1F
100
AcDbEntity
  8
0
100
AcDbLine
 10
336.326963733756
 20
174.0123723724645
 30
0.0
 11
336.326963733756
 21
170.5123723724645
 31
0.0
  0
LINE
  5
3114
330
1F
100
AcDbEntity
  8
0
100
AcDbLine
 10
339.827653733756
 20
152.9946723724645
 30
0.0
 11
359.627203733756
 21
151.2624323724645
 31
0.0
  0
ARC
  5
3115
330
1F
100
AcDbEntity
  8
0
100
AcDbCircle
 10
736.3269637337561
 20
191.4625323724645
 30
0.0
 40
400.0
100
AcDbArc
 50
183.1336199999987
 51
185.2583699999993
  0
ARC
  5
3116
330
1F
100
AcDbEntity
  8
0
100
AcDbCircle
 10
340.001953733756
 20
154.9870523724645
 30
0.0
 40
2.0
100
AcDbArc
 50
185.2583699999993
 51
265.0000000000002
  0
ARC
  5
3117
330
1F
100
AcDbEntity
  8
Innenkanten
100
AcDbCircle
 10
339.675193733756
 20
165.3089123724645
 30
0.0
 40
1.0
100
AcDbArc
 50
90.00000300000095
 51
183.7436300000002
  0
ARC
  5
3118
330
1F
100
AcDbEntity
  8
Innenkanten
100
AcDbCircle
 10
736.3269637337561
 20
191.2625223724645
 30
0.0
 40
398.4999999999999
100
AcDbArc
 50
183.1568899999995
 51
184.0503100000012
  0
ARC
  5
3119
330
1F
100
AcDbEntity
  8
Innenkanten
100
AcDbCircle
 10
339.8197937337561
 20
163.1861623724645
 30
0.0
 40
1.0
100
AcDbArc
 50
90.00000300000095
 51
184.0503100000012
  0
LINE
  5
311A
330
1F
100
AcDbEntity
  8
Innenkanten
100
AcDbLine
 10
338.358703733756
 20
169.5123723724645
 30
0.0
 11
337.3269637337561
 21
169.5123723724645
 31
0.0
  0
ARC
  5
311B
330
1F
100
AcDbEntity
  8
Innenkanten
100
AcDbCircle
 10
339.3269637337561
 20
169.7623723724645
 30
0.0
 40
1.0
100
AcDbArc
 50
179.9999799999979
 51
270.0000299999997
  0
LINE
  5
311C
330
1F
100
AcDbEntity
  8
Innenkanten
100
AcDbLine
 10
340.326963733756
 20
168.7623723724645
 30
0.0
 11
339.3269637337561
 21
168.7623723724645
 31
0.0
  0
ARC
  5
311D
330
1F
100
AcDbEntity
  8
0
100
AcDbCircle
 10
337.3269637337561
 20
170.5123723724645
 30
0.0
 40
1.0
100
AcDbArc
 50
179.9999799999979
 51
270.0000299999997
  0
LINE
  5
311E
330
1F
100
AcDbEntity
  8
0
100
AcDbLine
 10
340.326963733756
 20
166.3089123724645
 30
0.0
 11
339.675193733756
 21
166.3089123724645
 31
0.0
  0
ARC
  5
311F
330
1F
100
AcDbEntity
  8
0
100
AcDbCircle
 10
359.627183733756
 20
149.2624023724645
 30
0.0
 40
2.0
100
AcDbArc
 50
90.00000300000095
 51
160.0000000000004
  0
LINE
  5
3120
330
1F
100
AcDbEntity
  8
Mittellinie
100
AcDbLine
 10
342.013183733756
 20
172.2623723724645
 30
0.0
 11
333.553653733756
 21
172.2623723724645
 31
0.0
  0
LINE
  5
3121
330
1F
100
AcDbEntity
  8
Innenkanten
100
AcDbLine
 10
337.3269637337561
 20
175.0123723724645
 30
0.0
 11
338.358703733756
 21
175.0123723724645
 31
0.0
  0
ARC
  5
3122
330
1F
100
AcDbEntity
  8
Innenkanten
100
AcDbCircle
 10
339.3269637337561
 20
174.7623723724645
 30
0.0
 40
1.0
100
AcDbArc
 50
89.99998199999753
 51
179.9999599999992
  0
LINE
  5
3123
330
1F
100
AcDbEntity
  8
Innenkanten
100
AcDbLine
 10
339.3269637337561
 20
175.7623723724645
 30
0.0
 11
340.326963733756
 21
175.7623723724645
 31
0.0
  0
ARC
  5
3124
330
1F
100
AcDbEntity
  8
0
100
AcDbCircle
 10
337.3269637337561
 20
174.0123723724645
 30
0.0
 40
1.0
100
AcDbArc
 50
89.99998199999753
 51
179.9999599999992
  0
ARC
  5
3125
330
1F
100
AcDbEntity
  8
Innenkanten
100
AcDbCircle
 10
339.033203733756
 20
179.6604423724645
 30
0.0
 40
1.0
100
AcDbArc
 50
181.8456200000009
 51
270.0
  0
LINE
  5
3126
330
1F
100
AcDbEntity
  8
Innenkanten
100
AcDbLine
 10
340.326963733756
 20
178.6604423724645
 30
0.0
 11
338.996343733756
 21
178.6604423724645
 31
0.0
  0
ARC
  5
3127
330
1F
100
AcDbEntity
  8
0
100
AcDbCircle
 10
400.769783733756
 20
151.2624023724645
 30
0.0
 40
1.0
100
AcDbArc
 50
7.141064799999614
 51
89.99998199999753
  0
LINE
  5
3128
330
1F
100
AcDbEntity
  8
0
100
AcDbLine
 10
414.988803733756
 20
150.5891323724645
 30
0.0
 11
416.655463733756
 21
150.5891323724645
 31
0.0
  0
LINE
  5
3129
330
1F
100
AcDbEntity
  8
0
100
AcDbLine
 10
339.1406237337561
 20
232.4623923724645
 30
0.0
 11
372.426993733756
 21
232.4623923724645
 31
0.0
  0
ARC
  5
312A
330
1F
100
AcDbEntity
  8
Innenkanten
100
AcDbCircle
 10
736.3269637337561
 20
193.6625423724645
 30
0.0
 40
398.4999999999999
100
AcDbArc
 50
175.9497300000002
 51
176.8431299999984
  0
LINE
  5
312B
330
1F
100
AcDbEntity
  8
Innenkanten
100
AcDbLine
 10
340.326963733756
 20
218.6159423724645
 30
0.0
 11
340.326963733756
 21
206.2643523724645
 31
0.0
  0
ARC
  5
312C
330
1F
100
AcDbEntity
  8
0
100
AcDbCircle
 10
736.3269637337561
 20
193.4625323724645
 30
0.0
 40
400.0
100
AcDbArc
 50
174.5349899999981
 51
176.8664200000012
  0
LINE
  5
312D
330
1F
100
AcDbEntity
  8
Mittellinie
100
AcDbLine
 10
333.553653733756
 20
212.6624223724645
 30
0.0
 11
342.427493733756
 21
212.6624223724645
 31
0.0
  0
ARC
  5
312E
330
1F
100
AcDbEntity
  8
Innenkanten
100
AcDbCircle
 10
339.033203733756
 20
205.2643523724645
 30
0.0
 40
1.0
100
AcDbArc
 50
90.00000300000095
 51
178.1544200000004
  0
LINE
  5
312F
330
1F
100
AcDbEntity
  8
Innenkanten
100
AcDbLine
 10
338.996343733756
 20
206.2643523724645
 30
0.0
 11
340.326963733756
 21
206.2643523724645
 31
0.0
  0
LINE
  5
3130
330
1F
100
AcDbEntity
  8
Innenkanten
100
AcDbLine
 10
338.326963733756
 20
215.1624223724645
 30
0.0
 11
338.326963733756
 21
210.1624223724645
 31
0.0
  0
LINE
  5
3131
330
1F
100
AcDbEntity
  8
0
100
AcDbLine
 10
336.326963733756
 20
214.4124223724645
 30
0.0
 11
336.326963733756
 21
210.9124223724645
 31
0.0
  0
LINE
  5
3132
330
1F
100
AcDbEntity
  8
Innenkanten
100
AcDbLine
 10
338.358703733756
 20
209.9124223724645
 30
0.0
 11
337.3269637337561
 21
209.9124223724645
 31
0.0
  0
ARC
  5
3133
330
1F
100
AcDbEntity
  8
Innenkanten
100
AcDbCircle
 10
339.3269637337561
 20
210.1624223724645
 30
0.0
 40
1.0
100
AcDbArc
 50
179.9999799999979
 51
270.0000299999997
  0
LINE
  5
3134
330
1F
100
AcDbEntity
  8
Innenkanten
100
AcDbLine
 10
340.326963733756
 20
209.1624223724645
 30
0.0
 11
339.3269637337561
 21
209.1624223724645
 31
0.0
  0
ARC
  5
3135
330
1F
100
AcDbEntity
  8
0
100
AcDbCircle
 10
337.3269637337561
 20
210.9124223724645
 30
0.0
 40
1.0
100
AcDbArc
 50
179.9999799999979
 51
270.0000299999997
  0
LINE
  5
3136
330
1F
100
AcDbEntity
  8
Innenkanten
100
AcDbLine
 10
338.358703733756
 20
215.4124223724645
 30
0.0
 11
337.3269637337561
 21
215.4124223724645
 31
0.0
  0
LINE
  5
3137
330
1F
100
AcDbEntity
  8
Innenkanten
100
AcDbLine
 10
340.326963733756
 20
216.1624223724645
 30
0.0
 11
339.3269637337561
 21
216.1624223724645
 31
0.0
  0
ARC
  5
3138
330
1F
100
AcDbEntity
  8
Innenkanten
100
AcDbCircle
 10
339.3269637337561
 20
215.1624223724645
 30
0.0
 40
1.0
100
AcDbArc
 50
89.99998199999753
 51
179.9999599999992
  0
ARC
  5
3139
330
1F
100
AcDbEntity
  8
0
100
AcDbCircle
 10
337.3269637337561
 20
214.4124223724645
 30
0.0
 40
1.0
100
AcDbArc
 50
89.99998199999753
 51
179.9999599999992
  0
ARC
  5
313A
330
1F
100
AcDbEntity
  8
Innenkanten
100
AcDbCircle
 10
339.675173733756
 20
219.6159423724645
 30
0.0
 40
1.0
100
AcDbArc
 50
176.2564099999986
 51
270.0
  0
ARC
  5
313B
330
1F
100
AcDbEntity
  8
Innenkanten
100
AcDbCircle
 10
339.819763733756
 20
221.7386523724645
 30
0.0
 40
1.0
100
AcDbArc
 50
175.9497300000002
 51
270.0
  0
LINE
  5
313C
330
1F
100
AcDbEntity
  8
0
100
AcDbLine
 10
339.675173733756
 20
218.6159423724645
 30
0.0
 11
340.326963733756
 21
218.6159423724645
 31
0.0
  0
ARC
  5
313D
330
1F
100
AcDbEntity
  8
0
100
AcDbCircle
 10
339.1406237337561
 20
231.4623923724645
 30
0.0
 40
1.0
100
AcDbArc
 50
90.00000300000095
 51
174.5349899999981
  0
ARC
  5
313E
102
{ACAD_REACTORS
330
33AD
102
}
330
1F
100
AcDbEntity
  8
0
100
AcDbCircle
 10
372.426993733756
 20
232.6624123724645
 30
0.0
 40
0.2
100
AcDbArc
 50
270.0
 51
0.0
  0
ARC
  5
313F
330
1F
100
AcDbEntity
  8
0
100
AcDbCircle
 10
373.127003733756
 20
233.1624123724645
 30
0.0
 40
0.5
100
AcDbArc
 50
90.00000300000095
 51
180.0000100000009
  0
LINE
  5
3140
330
1F
100
AcDbEntity
  8
0
100
AcDbLine
 10
373.127003733756
 20
233.6624123724646
 30
0.0
 11
375.3270037337561
 21
233.6624123724646
 31
0.0
  0
LINE
  5
3141
102
{ACAD_REACTORS
330
32A9
102
}
330
1F
100
AcDbEntity
  8
Innenkanten
100
AcDbLine
 10
505.826963733756
 20
232.6624123724645
 30
0.0
 11
505.826963733756
 21
152.2624023724645
 31
0.0
  0
LINE
  5
3142
330
1F
100
AcDbEntity
  8
Innenkanten
100
AcDbLine
 10
501.826963733756
 20
232.6624123724645
 30
0.0
 11
501.826963733756
 21
152.2624023724645
 31
0.0
  0
LINE
  5
3143
330
1F
100
AcDbEntity
  8
Innenkanten
100
AcDbLine
 10
501.826963733756
 20
156.7255823724645
 30
0.0
 11
505.826963733756
 21
156.7255823724645
 31
0.0
  0
LINE
  5
3144
330
1F
100
AcDbEntity
  8
Innenkanten
100
AcDbLine
 10
501.826963733756
 20
167.4841823724645
 30
0.0
 11
505.826963733756
 21
167.4841823724645
 31
0.0
  0
LINE
  5
3145
330
1F
100
AcDbEntity
  8
Innenkanten
100
AcDbLine
 10
501.826963733756
 20
217.4406523724645
 30
0.0
 11
505.826963733756
 21
217.4406523724645
 31
0.0
  0
LINE
  5
3146
330
1F
100
AcDbEntity
  8
Innenkanten
100
AcDbLine
 10
501.826963733756
 20
228.1992423724645
 30
0.0
 11
505.826963733756
 21
228.1992423724645
 31
0.0
  0
LINE
  5
3147
102
{ACAD_REACTORS
330
32F1
330
3403
102
}
330
1F
100
AcDbEntity
  8
0
100
AcDbLine
 10
553.827033733756
 20
201.9624123724645
 30
0.0
 11
553.827033733756
 21
182.9624123724645
 31
0.0
  0
LINE
  5
3148
102
{ACAD_REACTORS
330
32CE
330
3424
102
}
330
1F
100
AcDbEntity
  8
0
100
AcDbLine
 10
516.826963733756
 20
227.4624223724645
 30
0.0
 11
516.826963733756
 21
157.4624123724645
 31
0.0
  0
LINE
  5
3149
330
1F
100
AcDbEntity
  8
0
100
AcDbLine
 10
513.826963733756
 20
152.2624023724645
 30
0.0
 11
513.826963733756
 21
232.6624123724645
 31
0.0
  0
LINE
  5
314A
330
1F
100
AcDbEntity
  8
0
100
AcDbLine
 10
516.826963733756
 20
157.4624123724645
 30
0.0
 11
513.826963733756
 21
157.4624123724645
 31
0.0
  0
LINE
  5
314B
330
1F
100
AcDbEntity
  8
0
100
AcDbLine
 10
553.827033733756
 20
182.9624123724645
 30
0.0
 11
516.826963733756
 21
182.9624123724645
 31
0.0
  0
LINE
  5
314C
330
1F
100
AcDbEntity
  8
0
100
AcDbLine
 10
516.826963733756
 20
201.9624123724645
 30
0.0
 11
553.827033733756
 21
201.9624123724645
 31
0.0
  0
LINE
  5
314D
330
1F
100
AcDbEntity
  8
0
100
AcDbLine
 10
516.826963733756
 20
227.4624223724645
 30
0.0
 11
513.826963733756
 21
227.4624223724645
 31
0.0
  0
LINE
  5
31E6
330
1F
100
AcDbEntity
  8
Mittellinie
100
AcDbLine
 10
152.9737083088302
 20
192.4030028877465
 30
0.0
 11
-74.45150169116977
 21
192.4030028877465
 31
0.0
  0
LINE
  5
31E7
330
1F
100
AcDbEntity
  8
0
100
AcDbLine
 10
-26.83901169116973
 20
152.2029928877465
 30
0.0
 11
109.6609483088302
 21
152.2029928877465
 31
0.0
  0
LINE
  5
31E8
330
1F
100
AcDbEntity
  8
0
100
AcDbLine
 10
-26.83901169116973
 20
232.6030028877466
 30
0.0
 11
109.6609483088302
 21
232.6030028877466
 31
0.0
  0
LINE
  5
31E9
330
1F
100
AcDbEntity
  8
0
100
AcDbLine
 10
49.66098830883026
 20
152.2029928877465
 30
0.0
 11
49.66098830883026
 21
147.1029828877465
 31
0.0
  0
LINE
  5
31EA
330
1F
100
AcDbEntity
  8
Mittellinie
100
AcDbLine
 10
59.86099830883029
 20
158.2408028877465
 30
0.0
 11
59.86099830883029
 21
132.3127328877464
 31
0.0
  0
LINE
  5
31EB
330
1F
100
AcDbEntity
  8
Mittellinie
100
AcDbLine
 10
80.0357983088303
 20
141.5271928877465
 30
0.0
 11
80.0357983088303
 21
152.1938628877465
 31
0.0
  0
LINE
  5
31EC
330
1F
100
AcDbEntity
  8
0
100
AcDbLine
 10
73.36914830883029
 20
142.2272028877465
 30
0.0
 11
73.36914830883029
 21
152.1938628877465
 31
0.0
  0
LINE
  5
31ED
330
1F
100
AcDbEntity
  8
0
100
AcDbLine
 10
70.70248830883031
 20
149.5271728877465
 30
0.0
 11
70.70248830883031
 21
144.4938828877465
 31
0.0
  0
LINE
  5
31EE
330
1F
100
AcDbEntity
  8
0
100
AcDbLine
 10
86.59591830883028
 20
151.3272828877465
 30
0.0
 11
85.4449483088303
 21
142.1401828877464
 31
0.0
  0
LINE
  5
31EF
330
1F
100
AcDbEntity
  8
0
100
AcDbLine
 10
129.0119983088303
 20
145.0189428877465
 30
0.0
 11
127.2401483088302
 21
149.8870228877465
 31
0.0
  0
LINE
  5
31F0
330
1F
100
AcDbEntity
  8
Innenkanten
100
AcDbLine
 10
139.5909583088303
 20
152.4479828877465
 30
0.0
 11
139.5909583088303
 21
143.7029928877465
 31
0.0
  0
LINE
  5
31F1
330
1F
100
AcDbEntity
  8
0
100
AcDbLine
 10
144.3909683088302
 20
152.8679328877465
 30
0.0
 11
144.3909683088302
 21
144.5030128877465
 31
0.0
  0
LINE
  5
31F2
330
1F
100
AcDbEntity
  8
Innenkanten
100
AcDbLine
 10
67.66098830883027
 20
232.6030028877466
 30
0.0
 11
67.66098830883027
 21
147.1029828877465
 31
0.0
  0
LINE
  5
31F3
330
1F
100
AcDbEntity
  8
Mittellinie
100
AcDbLine
 10
69.56747830883029
 20
146.8605228877465
 30
0.0
 11
86.70886830883029
 21
146.8605228877465
 31
0.0
  0
ARC
  5
31F4
330
1F
100
AcDbEntity
  8
0
100
AcDbCircle
 10
72.00247830883029
 20
144.4938828877465
 30
0.0
 40
1.3
100
AcDbArc
 50
180.0
 51
269.9999799999996
  0
LINE
  5
31F5
330
1F
100
AcDbEntity
  8
0
100
AcDbLine
 10
130.3290283088302
 20
106.1892828877465
 30
0.0
 11
130.3290283088302
 21
99.68928288774657
 31
0.0
  0
LINE
  5
31F6
330
1F
100
AcDbEntity
  8
0
100
AcDbLine
 10
144.3290283088303
 20
99.68928288774657
 30
0.0
 11
144.3290283088303
 21
106.1892828877465
 31
0.0
  0
LINE
  5
31F7
330
1F
100
AcDbEntity
  8
0
100
AcDbLine
 10
130.3290283088302
 20
99.68928288774657
 30
0.0
 11
144.3290283088303
 21
99.68928288774657
 31
0.0
  0
LINE
  5
31F8
330
1F
100
AcDbEntity
  8
0
100
AcDbLine
 10
131.3290283088302
 20
93.18928288774657
 30
0.0
 11
134.7290483088303
 21
93.18928288774657
 31
0.0
  0
LINE
  5
31F9
330
1F
100
AcDbEntity
  8
0
100
AcDbLine
 10
135.6290483088303
 20
93.18928288774657
 30
0.0
 11
135.6290483088303
 21
99.68928288774657
 31
0.0
  0
LINE
  5
31FA
330
1F
100
AcDbEntity
  8
0
100
AcDbLine
 10
139.0290383088303
 20
93.18928288774657
 30
0.0
 11
139.0290383088303
 21
99.68928288774657
 31
0.0
  0
LINE
  5
31FB
330
1F
100
AcDbEntity
  8
0
100
AcDbLine
 10
134.7290483088303
 20
93.18928288774657
 30
0.0
 11
134.7290483088303
 21
99.68928288774657
 31
0.0
  0
LINE
  5
31FC
330
1F
100
AcDbEntity
  8
0
100
AcDbLine
 10
139.9290383088302
 20
99.68928288774657
 30
0.0
 11
139.9290383088302
 21
93.18928288774657
 31
0.0
  0
LINE
  5
31FD
330
1F
100
AcDbEntity
  8
0
100
AcDbLine
 10
143.3290283088302
 20
93.18928288774657
 30
0.0
 11
143.3290283088302
 21
99.68928288774657
 31
0.0
  0
LINE
  5
31FE
330
1F
100
AcDbEntity
  8
0
100
AcDbLine
 10
135.6290483088303
 20
93.18928288774657
 30
0.0
 11
139.0290383088303
 21
93.18928288774657
 31
0.0
  0
LINE
  5
31FF
330
1F
100
AcDbEntity
  8
0
100
AcDbLine
 10
139.9290383088302
 20
93.18928288774657
 30
0.0
 11
143.3290283088302
 21
93.18928288774657
 31
0.0
  0
LINE
  5
3200
330
1F
100
AcDbEntity
  8
0
100
AcDbLine
 10
131.3290583088303
 20
93.18928288774657
 30
0.0
 11
131.3290583088303
 21
99.68928288774657
 31
0.0
  0
LINE
  5
3201
330
1F
100
AcDbEntity
  8
0
100
AcDbLine
 10
146.3290283088302
 20
126.8034228877465
 30
0.0
 11
146.3290283088302
 21
106.1892828877465
 31
0.0
  0
LINE
  5
3202
330
1F
100
AcDbEntity
  8
0
100
AcDbLine
 10
128.3290283088302
 20
106.1892828877465
 30
0.0
 11
128.3290283088302
 21
126.8034228877465
 31
0.0
  0
LINE
  5
3203
330
1F
100
AcDbEntity
  8
Innenkanten
100
AcDbLine
 10
128.3290283088302
 20
114.6313328877465
 30
0.0
 11
146.3290283088302
 21
114.6313328877465
 31
0.0
  0
LINE
  5
3204
330
1F
100
AcDbEntity
  8
Innenkanten
100
AcDbLine
 10
128.3290283088302
 20
111.0312628877465
 30
0.0
 11
146.3290283088302
 21
111.0312628877465
 31
0.0
  0
LINE
  5
3205
330
1F
100
AcDbEntity
  8
0
100
AcDbLine
 10
146.3290283088302
 20
106.1892828877465
 30
0.0
 11
128.3290283088302
 21
106.1892828877465
 31
0.0
  0
ARC
  5
3206
330
1F
100
AcDbEntity
  8
0
100
AcDbCircle
 10
143.5909583088303
 20
144.5030128877465
 30
0.0
 40
0.8000000099999999
100
AcDbArc
 50
270.0
 51
0.0000100000010134
  0
LINE
  5
3207
330
1F
100
AcDbEntity
  8
0
100
AcDbLine
 10
128.3290283088302
 20
126.8034228877465
 30
0.0
 11
146.3290283088302
 21
126.8034228877465
 31
0.0
  0
LINE
  5
3208
330
1F
100
AcDbEntity
  8
0
100
AcDbLine
 10
133.4812783088302
 20
133.7139128877465
 30
0.0
 11
133.4812783088302
 21
126.8034228877465
 31
0.0
  0
LINE
  5
3209
330
1F
100
AcDbEntity
  8
0
100
AcDbLine
 10
141.2791283088303
 20
133.7137628877465
 30
0.0
 11
141.2791283088303
 21
126.8034228877465
 31
0.0
  0
ARC
  5
320A
330
1F
100
AcDbEntity
  8
0
100
AcDbCircle
 10
139.3296383088302
 20
130.3359828877465
 30
0.0
 40
3.9000001
100
AcDbArc
 50
60.00846999999878
 51
119.9915150000003
  0
ARC
  5
320B
330
1F
100
AcDbEntity
  8
0
100
AcDbCircle
 10
139.3296383088302
 20
137.0915428877465
 30
0.0
 40
3.9000001
100
AcDbArc
 50
240.0084800000001
 51
299.9915300000012
  0
ARC
  5
320C
330
1F
100
AcDbEntity
  8
0
100
AcDbCircle
 10
135.4305783088302
 20
130.3360128877464
 30
0.0
 40
3.9000001
100
AcDbArc
 50
60.00728000000003
 51
119.9880929999997
  0
LINE
  5
320D
330
1F
100
AcDbEntity
  8
0
100
AcDbLine
 10
143.5909583088303
 20
143.7029928877465
 30
0.0
 11
130.8913783088302
 21
143.7029928877465
 31
0.0
  0
LINE
  5
320E
330
1F
100
AcDbEntity
  8
0
100
AcDbLine
 10
133.6909983088303
 20
137.8450528877465
 30
0.0
 11
133.6909983088303
 21
143.7029928877465
 31
0.0
  0
LINE
  5
320F
330
1F
100
AcDbEntity
  8
0
100
AcDbLine
 10
141.4909883088303
 20
137.8449828877465
 30
0.0
 11
141.4909883088303
 21
143.7029928877465
 31
0.0
  0
ARC
  5
3210
330
1F
100
AcDbEntity
  8
0
100
AcDbCircle
 10
139.5409583088302
 20
141.2224928877465
 30
0.0
 40
3.9000001
100
AcDbArc
 50
240.0010800000002
 51
300.000579999999
  0
ARC
  5
3211
330
1F
100
AcDbEntity
  8
0
100
AcDbCircle
 10
135.6409383088303
 20
134.4675128877465
 30
0.0
 40
3.9000001
100
AcDbArc
 50
59.99842999999982
 51
119.9989329999989
  0
ARC
  5
3212
330
1F
100
AcDbEntity
  8
0
100
AcDbCircle
 10
135.6410883088302
 20
141.2224928877465
 30
0.0
 40
3.9000001
100
AcDbArc
 50
239.9984599999998
 51
299.9989399999989
  0
ARC
  5
3213
330
1F
100
AcDbEntity
  8
0
100
AcDbCircle
 10
130.8913783088302
 20
145.7029928877465
 30
0.0
 40
2.0
100
AcDbArc
 50
200.0
 51
270.0
  0
LINE
  5
3214
330
1F
100
AcDbEntity
  8
0
100
AcDbLine
 10
78.76916830883027
 20
141.5272128877465
 30
0.0
 11
78.76916830883027
 21
133.6837128877465
 31
0.0
  0
LINE
  5
3215
330
1F
100
AcDbEntity
  8
0
100
AcDbLine
 10
81.3024983088303
 20
141.5272128877465
 30
0.0
 11
81.3024983088303
 21
133.6837328877465
 31
0.0
  0
ARC
  5
3216
330
1F
100
AcDbEntity
  8
0
100
AcDbCircle
 10
80.66918830883025
 20
134.7806128877465
 30
0.0
 40
1.266579
100
AcDbArc
 50
239.9941400000016
 51
300.00172
  0
ARC
  5
3217
330
1F
100
AcDbEntity
  8
0
100
AcDbCircle
 10
79.40243830883026
 20
134.7804428877465
 30
0.0
 40
1.266423899999999
100
AcDbArc
 50
239.9936499999981
 51
300.0077400000003
  0
ARC
  5
3218
330
1F
100
AcDbEntity
  8
0
100
AcDbCircle
 10
79.40246830883023
 20
132.5867528877465
 30
0.0
 40
1.2667201
100
AcDbArc
 50
59.99811000000164
 51
119.9969039999995
  0
LINE
  5
3219
330
1F
100
AcDbEntity
  8
0
100
AcDbLine
 10
84.7806383088303
 20
141.5272128877465
 30
0.0
 11
74.06915830883031
 21
141.5272128877465
 31
0.0
  0
ARC
  5
321A
330
1F
100
AcDbEntity
  8
0
100
AcDbCircle
 10
84.75036830883027
 20
142.2272328877465
 30
0.0
 40
0.6999999900000001
100
AcDbArc
 50
269.9475499999998
 51
352.8588899999994
  0
ARC
  5
321B
330
1F
100
AcDbEntity
  8
0
100
AcDbCircle
 10
74.06915830883031
 20
142.2272028877465
 30
0.0
 40
0.6999999900000001
100
AcDbArc
 50
180.0
 51
269.9999799999996
  0
LINE
  5
321C
330
1F
100
AcDbEntity
  8
0
100
AcDbLine
 10
72.00247830883029
 20
143.1938828877465
 30
0.0
 11
73.36914830883029
 21
143.1938628877465
 31
0.0
  0
LINE
  5
321D
330
1F
100
AcDbEntity
  8
0
100
AcDbLine
 10
54.91098830883027
 20
145.1429628877465
 30
0.0
 11
54.91098830883027
 21
136.1429628877465
 31
0.0
  0
LINE
  5
321E
330
1F
100
AcDbEntity
  8
0
100
AcDbLine
 10
64.81100830883031
 20
145.1429628877465
 30
0.0
 11
64.81100830883031
 21
136.1429628877465
 31
0.0
  0
LINE
  5
321F
330
1F
100
AcDbEntity
  8
Innenkanten
100
AcDbLine
 10
64.81100830883031
 20
136.1429628877465
 30
0.0
 11
54.91098830883027
 21
136.1429628877465
 31
0.0
  0
LINE
  5
3220
330
1F
100
AcDbEntity
  8
0
100
AcDbLine
 10
63.81100830883031
 20
135.1429628877465
 30
0.0
 11
55.91098830883026
 21
135.1429628877465
 31
0.0
  0
ARC
  5
3221
330
1F
100
AcDbEntity
  8
0
100
AcDbCircle
 10
59.43573830883031
 20
128.7695528877465
 30
0.0
 40
0.8500000199999998
100
AcDbArc
 50
60.00097000000021
 51
119.9990149999994
  0
ARC
  5
3222
330
1F
100
AcDbEntity
  8
0
100
AcDbCircle
 10
59.43573830883031
 20
130.2418128877464
 30
0.0
 40
0.8500000199999998
100
AcDbArc
 50
240.0009700000001
 51
299.9990500000013
  0
LINE
  5
3223
330
1F
100
AcDbEntity
  8
0
100
AcDbLine
 10
60.71124830883031
 20
135.1429628877465
 30
0.0
 11
60.71124830883031
 21
129.5056928877465
 31
0.0
  0
ARC
  5
3224
330
1F
100
AcDbEntity
  8
0
100
AcDbCircle
 10
60.2857083088303
 20
130.2418128877464
 30
0.0
 40
0.8500000199999998
100
AcDbArc
 50
240.0009700000001
 51
300.0013400000011
  0
ARC
  5
3225
330
1F
100
AcDbEntity
  8
0
100
AcDbCircle
 10
63.81100830883031
 20
136.1429628877465
 30
0.0
 40
1.0
100
AcDbArc
 50
270.0
 51
0.0000100000010134
  0
LINE
  5
3226
330
1F
100
AcDbEntity
  8
0
100
AcDbLine
 10
59.01077830883025
 20
135.1429628877465
 30
0.0
 11
59.01077830883025
 21
129.5056928877465
 31
0.0
  0
ARC
  5
3227
330
1F
100
AcDbEntity
  8
0
100
AcDbCircle
 10
55.91098830883026
 20
136.1429628877465
 30
0.0
 40
1.0
100
AcDbArc
 50
180.0
 51
270.0
  0
LINE
  5
3228
330
1F
100
AcDbEntity
  8
0
100
AcDbLine
 10
67.66098830883027
 20
147.1029828877465
 30
0.0
 11
49.66098830883026
 21
147.1029828877465
 31
0.0
  0
LINE
  5
3229
330
1F
100
AcDbEntity
  8
0
100
AcDbLine
 10
64.81100830883031
 20
145.1429628877465
 30
0.0
 11
54.91098830883027
 21
145.1429628877465
 31
0.0
  0
LINE
  5
322A
330
1F
100
AcDbEntity
  8
0
100
AcDbLine
 10
63.76101830883027
 20
147.1029828877465
 30
0.0
 11
63.76101830883027
 21
145.1429628877465
 31
0.0
  0
LINE
  5
322B
330
1F
100
AcDbEntity
  8
0
100
AcDbLine
 10
55.9610283088303
 20
147.1029828877465
 30
0.0
 11
55.9610283088303
 21
145.1429628877465
 31
0.0
  0
ARC
  5
322C
330
1F
100
AcDbEntity
  8
0
100
AcDbCircle
 10
71.70248830883031
 20
149.5271728877465
 30
0.0
 40
1.0
100
AcDbArc
 50
90.00001800000083
 51
180.0
  0
LINE
  5
322D
330
1F
100
AcDbEntity
  8
Innenkanten
100
AcDbLine
 10
-14.83901169116973
 20
220.6792428877465
 30
0.0
 11
145.5813783088302
 21
220.6792428877465
 31
0.0
  0
LINE
  5
322E
330
1F
100
AcDbEntity
  8
Innenkanten
100
AcDbLine
 10
-14.83901169116973
 20
214.4030028877465
 30
0.0
 11
145.1609483088302
 21
214.4030028877465
 31
0.0
  0
LINE
  5
322F
330
1F
100
AcDbEntity
  8
Innenkanten
100
AcDbLine
 10
144.6609883088302
 20
170.4030028877465
 30
0.0
 11
-14.83901169116973
 21
170.4030028877465
 31
0.0
  0
LINE
  5
3230
330
1F
100
AcDbEntity
  8
Innenkanten
100
AcDbLine
 10
145.1681583088302
 20
164.1267528877465
 30
0.0
 11
-14.83901169116973
 21
164.1267528877465
 31
0.0
  0
ARC
  5
3231
330
1F
100
AcDbEntity
  8
Innenkanten
100
AcDbCircle
 10
-251.3390116911697
 20
192.4031228877465
 30
0.0
 40
398.4999999999999
100
AcDbArc
 50
357.4902400000007
 51
2.509719999999634
  0
ARC
  5
3232
330
1F
100
AcDbEntity
  8
0
100
AcDbCircle
 10
-251.3390116911697
 20
192.4031228877465
 30
0.0
 40
400.0
100
AcDbArc
 50
357.4698899999996
 51
2.530070000001348
  0
LINE
  5
3233
330
1F
100
AcDbEntity
  8
Innenkanten
100
AcDbLine
 10
108.6609483088302
 20
232.6030028877466
 30
0.0
 11
108.6609483088302
 21
152.2029928877465
 31
0.0
  0
LINE
  5
3234
330
1F
100
AcDbEntity
  8
Innenkanten
100
AcDbLine
 10
112.3609483088302
 20
233.1030028877465
 30
0.0
 11
112.3609483088302
 21
151.2029928877465
 31
0.0
  0
LINE
  5
3235
330
1F
100
AcDbEntity
  8
0
100
AcDbLine
 10
109.6609483088302
 20
232.6030028877466
 30
0.0
 11
109.6609483088302
 21
152.2029928877465
 31
0.0
  0
LINE
  5
3236
330
1F
100
AcDbEntity
  8
0
100
AcDbLine
 10
109.6609483088302
 20
232.6030028877466
 30
0.0
 11
109.6609483088302
 21
152.2029928877465
 31
0.0
  0
LINE
  5
3237
330
1F
100
AcDbEntity
  8
0
100
AcDbLine
 10
109.6609483088302
 20
233.6030028877465
 30
0.0
 11
109.6609483088302
 21
151.2029928877465
 31
0.0
  0
LINE
  5
3238
330
1F
100
AcDbEntity
  8
0
100
AcDbLine
 10
125.3607683088302
 20
151.2029928877465
 30
0.0
 11
109.6609483088302
 21
151.2029928877465
 31
0.0
  0
LINE
  5
3239
330
1F
100
AcDbEntity
  8
Innenkanten
100
AcDbLine
 10
146.6609883088302
 20
169.7029628877465
 30
0.0
 11
146.6609883088302
 21
174.7029628877465
 31
0.0
  0
LINE
  5
323A
330
1F
100
AcDbEntity
  8
Innenkanten
100
AcDbLine
 10
144.6609883088302
 20
166.2495028877465
 30
0.0
 11
144.6609883088302
 21
178.6010328877465
 31
0.0
  0
LINE
  5
323B
330
1F
100
AcDbEntity
  8
0
100
AcDbLine
 10
148.6609883088302
 20
173.9529628877465
 30
0.0
 11
148.6609883088302
 21
170.4529628877465
 31
0.0
  0
LINE
  5
323C
330
1F
100
AcDbEntity
  8
0
100
AcDbLine
 10
145.1602983088303
 20
152.9352628877465
 30
0.0
 11
125.3607483088303
 21
151.2030228877465
 31
0.0
  0
ARC
  5
323D
330
1F
100
AcDbEntity
  8
0
100
AcDbCircle
 10
-251.3390116911697
 20
191.4031228877465
 30
0.0
 40
400.0
100
AcDbArc
 50
354.7416300000006
 51
356.8663800000013
  0
ARC
  5
323E
330
1F
100
AcDbEntity
  8
0
100
AcDbCircle
 10
144.9859983088303
 20
154.9276428877465
 30
0.0
 40
2.0
100
AcDbArc
 50
274.9999999999997
 51
354.7416300000006
  0
ARC
  5
323F
330
1F
100
AcDbEntity
  8
Innenkanten
100
AcDbCircle
 10
145.3127583088302
 20
165.2495028877465
 30
0.0
 40
1.0
100
AcDbArc
 50
356.2563699999997
 51
89.99999699999905
  0
ARC
  5
3240
330
1F
100
AcDbEntity
  8
Innenkanten
100
AcDbCircle
 10
-251.3390116911697
 20
191.2031128877465
 30
0.0
 40
398.4999999999999
100
AcDbArc
 50
355.9496899999988
 51
356.8431100000005
  0
ARC
  5
3241
330
1F
100
AcDbEntity
  8
Innenkanten
100
AcDbCircle
 10
145.1681583088302
 20
163.1267528877465
 30
0.0
 40
1.0
100
AcDbArc
 50
355.9496899999988
 51
89.99999699999905
  0
LINE
  5
3242
330
1F
100
AcDbEntity
  8
Innenkanten
100
AcDbLine
 10
146.6292483088302
 20
169.4529628877465
 30
0.0
 11
147.6609883088302
 21
169.4529628877465
 31
0.0
  0
ARC
  5
3243
330
1F
100
AcDbEntity
  8
Innenkanten
100
AcDbCircle
 10
145.6609883088302
 20
169.7029628877465
 30
0.0
 40
1.0
100
AcDbArc
 50
269.9999700000002
 51
0.0000200000020199
  0
LINE
  5
3244
330
1F
100
AcDbEntity
  8
Innenkanten
100
AcDbLine
 10
144.6609883088302
 20
168.7029628877465
 30
0.0
 11
145.6609883088302
 21
168.7029628877465
 31
0.0
  0
ARC
  5
3245
330
1F
100
AcDbEntity
  8
0
100
AcDbCircle
 10
147.6609883088302
 20
170.4529628877465
 30
0.0
 40
1.0
100
AcDbArc
 50
269.9999700000002
 51
0.0000200000020199
  0
LINE
  5
3246
330
1F
100
AcDbEntity
  8
0
100
AcDbLine
 10
144.6609883088302
 20
166.2495028877465
 30
0.0
 11
145.3127583088302
 21
166.2495028877465
 31
0.0
  0
ARC
  5
3247
330
1F
100
AcDbEntity
  8
0
100
AcDbCircle
 10
125.3607683088302
 20
149.2029928877465
 30
0.0
 40
2.0
100
AcDbArc
 50
20.0000000000001
 51
89.99999699999905
  0
LINE
  5
3248
330
1F
100
AcDbEntity
  8
Mittellinie
100
AcDbLine
 10
142.9747683088302
 20
172.2029628877465
 30
0.0
 11
151.4342983088303
 21
172.2029628877465
 31
0.0
  0
LINE
  5
3249
330
1F
100
AcDbEntity
  8
Innenkanten
100
AcDbLine
 10
147.6609883088302
 20
174.9529628877465
 30
0.0
 11
146.6292483088302
 21
174.9529628877465
 31
0.0
  0
ARC
  5
324A
330
1F
100
AcDbEntity
  8
Innenkanten
100
AcDbCircle
 10
145.6609883088302
 20
174.7029628877465
 30
0.0
 40
1.0
100
AcDbArc
 50
0.0000400000007758
 51
90.00001800000083
  0
LINE
  5
324B
330
1F
100
AcDbEntity
  8
Innenkanten
100
AcDbLine
 10
145.6609883088302
 20
175.7029628877465
 30
0.0
 11
144.6609883088302
 21
175.7029628877465
 31
0.0
  0
ARC
  5
324C
330
1F
100
AcDbEntity
  8
0
100
AcDbCircle
 10
147.6609883088302
 20
173.9529628877465
 30
0.0
 40
1.0
100
AcDbArc
 50
0.0000400000007758
 51
90.00001800000083
  0
ARC
  5
324D
330
1F
100
AcDbEntity
  8
Innenkanten
100
AcDbCircle
 10
145.9547483088302
 20
179.6010328877465
 30
0.0
 40
1.0
100
AcDbArc
 50
270.0
 51
358.1543799999991
  0
LINE
  5
324E
330
1F
100
AcDbEntity
  8
Innenkanten
100
AcDbLine
 10
144.6609883088302
 20
178.6010328877465
 30
0.0
 11
145.9916083088302
 21
178.6010328877465
 31
0.0
  0
ARC
  5
324F
330
1F
100
AcDbEntity
  8
0
100
AcDbCircle
 10
87.58816830883029
 20
151.2029928877465
 30
0.0
 40
1.0
100
AcDbArc
 50
90.00001800000083
 51
172.8589352000001
  0
LINE
  5
3250
330
1F
100
AcDbEntity
  8
0
100
AcDbLine
 10
73.36914830883029
 20
150.5297228877465
 30
0.0
 11
71.70248830883031
 21
150.5297228877465
 31
0.0
  0
LINE
  5
3251
330
1F
100
AcDbEntity
  8
0
100
AcDbLine
 10
145.8473283088302
 20
232.4029828877466
 30
0.0
 11
112.5609583088303
 21
232.4029828877466
 31
0.0
  0
ARC
  5
3252
330
1F
100
AcDbEntity
  8
Innenkanten
100
AcDbCircle
 10
-251.3390116911697
 20
193.6031328877465
 30
0.0
 40
398.4999999999999
100
AcDbArc
 50
3.156870000001556
 51
4.05026999999983
  0
LINE
  5
3253
330
1F
100
AcDbEntity
  8
Innenkanten
100
AcDbLine
 10
144.6609883088302
 20
218.5565328877465
 30
0.0
 11
144.6609883088302
 21
206.2049428877465
 31
0.0
  0
ARC
  5
3254
330
1F
100
AcDbEntity
  8
0
100
AcDbCircle
 10
-251.3390116911697
 20
193.4031228877465
 30
0.0
 40
400.0
100
AcDbArc
 50
3.133579999998828
 51
5.465010000001919
  0
LINE
  5
3255
330
1F
100
AcDbEntity
  8
Mittellinie
100
AcDbLine
 10
151.4342983088303
 20
212.6030128877465
 30
0.0
 11
142.5604583088302
 21
212.6030128877465
 31
0.0
  0
ARC
  5
3256
330
1F
100
AcDbEntity
  8
Innenkanten
100
AcDbCircle
 10
145.9547483088302
 20
205.2049428877465
 30
0.0
 40
1.0
100
AcDbArc
 50
1.84557999999959
 51
89.99999699999905
  0
LINE
  5
3257
330
1F
100
AcDbEntity
  8
Innenkanten
100
AcDbLine
 10
145.9916083088302
 20
206.2049428877465
 30
0.0
 11
144.6609883088302
 21
206.2049428877465
 31
0.0
  0
LINE
  5
3258
330
1F
100
AcDbEntity
  8
Innenkanten
100
AcDbLine
 10
146.6609883088302
 20
215.1030128877465
 30
0.0
 11
146.6609883088302
 21
210.1030128877465
 31
0.0
  0
LINE
  5
3259
330
1F
100
AcDbEntity
  8
0
100
AcDbLine
 10
148.6609883088302
 20
214.3530128877465
 30
0.0
 11
148.6609883088302
 21
210.8530128877465
 31
0.0
  0
LINE
  5
325A
330
1F
100
AcDbEntity
  8
Innenkanten
100
AcDbLine
 10
146.6292483088302
 20
209.8530128877465
 30
0.0
 11
147.6609883088302
 21
209.8530128877465
 31
0.0
  0
ARC
  5
325B
330
1F
100
AcDbEntity
  8
Innenkanten
100
AcDbCircle
 10
145.6609883088302
 20
210.1030128877465
 30
0.0
 40
1.0
100
AcDbArc
 50
269.9999700000002
 51
0.0000200000020199
  0
LINE
  5
325C
330
1F
100
AcDbEntity
  8
Innenkanten
100
AcDbLine
 10
144.6609883088302
 20
209.1030128877465
 30
0.0
 11
145.6609883088302
 21
209.1030128877465
 31
0.0
  0
ARC
  5
325D
330
1F
100
AcDbEntity
  8
0
100
AcDbCircle
 10
147.6609883088302
 20
210.8530128877465
 30
0.0
 40
1.0
100
AcDbArc
 50
269.9999700000002
 51
0.0000200000020199
  0
LINE
  5
325E
330
1F
100
AcDbEntity
  8
Innenkanten
100
AcDbLine
 10
146.6292483088302
 20
215.3530128877465
 30
0.0
 11
147.6609883088302
 21
215.3530128877465
 31
0.0
  0
LINE
  5
325F
330
1F
100
AcDbEntity
  8
Innenkanten
100
AcDbLine
 10
144.6609883088302
 20
216.1030128877465
 30
0.0
 11
145.6609883088302
 21
216.1030128877465
 31
0.0
  0
ARC
  5
3260
330
1F
100
AcDbEntity
  8
Innenkanten
100
AcDbCircle
 10
145.6609883088302
 20
215.1030128877465
 30
0.0
 40
1.0
100
AcDbArc
 50
0.0000400000007758
 51
90.00001800000083
  0
ARC
  5
3261
330
1F
100
AcDbEntity
  8
0
100
AcDbCircle
 10
147.6609883088302
 20
214.3530128877465
 30
0.0
 40
1.0
100
AcDbArc
 50
0.0000400000007758
 51
90.00001800000083
  0
ARC
  5
3262
330
1F
100
AcDbEntity
  8
Innenkanten
100
AcDbCircle
 10
145.3127783088302
 20
219.5565328877465
 30
0.0
 40
1.0
100
AcDbArc
 50
270.0
 51
3.743590000001221
  0
ARC
  5
3263
330
1F
100
AcDbEntity
  8
Innenkanten
100
AcDbCircle
 10
145.1681883088302
 20
221.6792428877465
 30
0.0
 40
1.0
100
AcDbArc
 50
270.0
 51
4.05026999999983
  0
LINE
  5
3264
330
1F
100
AcDbEntity
  8
0
100
AcDbLine
 10
145.3127783088302
 20
218.5565328877465
 30
0.0
 11
144.6609883088302
 21
218.5565328877465
 31
0.0
  0
ARC
  5
3265
330
1F
100
AcDbEntity
  8
0
100
AcDbCircle
 10
145.8473283088302
 20
231.4029828877465
 30
0.0
 40
1.0
100
AcDbArc
 50
5.465010000001919
 51
89.99999699999905
  0
ARC
  5
3266
330
1F
100
AcDbEntity
  8
0
100
AcDbCircle
 10
112.5609583088303
 20
232.6030028877466
 30
0.0
 40
0.2
100
AcDbArc
 50
180.0
 51
270.0
  0
ARC
  5
3267
330
1F
100
AcDbEntity
  8
0
100
AcDbCircle
 10
111.8609483088303
 20
233.1030028877465
 30
0.0
 40
0.5
100
AcDbArc
 50
359.999989999999
 51
89.99999699999905
  0
LINE
  5
3268
330
1F
100
AcDbEntity
  8
0
100
AcDbLine
 10
111.8609483088303
 20
233.6030028877465
 30
0.0
 11
109.6609483088302
 21
233.6030028877465
 31
0.0
  0
LINE
  5
3269
330
1F
100
AcDbEntity
  8
Innenkanten
100
AcDbLine
 10
-18.83901169116973
 20
232.6030028877466
 30
0.0
 11
-18.83901169116973
 21
152.2029928877465
 31
0.0
  0
LINE
  5
326A
330
1F
100
AcDbEntity
  8
Innenkanten
100
AcDbLine
 10
-14.83901169116973
 20
232.6030028877466
 30
0.0
 11
-14.83901169116973
 21
152.2029928877465
 31
0.0
  0
LINE
  5
326B
330
1F
100
AcDbEntity
  8
Innenkanten
100
AcDbLine
 10
-14.83901169116973
 20
156.6661728877465
 30
0.0
 11
-18.83901169116973
 21
156.6661728877465
 31
0.0
  0
LINE
  5
326C
330
1F
100
AcDbEntity
  8
Innenkanten
100
AcDbLine
 10
-14.83901169116973
 20
167.4247728877465
 30
0.0
 11
-18.83901169116973
 21
167.4247728877465
 31
0.0
  0
LINE
  5
326D
330
1F
100
AcDbEntity
  8
Innenkanten
100
AcDbLine
 10
-14.83901169116973
 20
217.3812428877465
 30
0.0
 11
-18.83901169116973
 21
217.3812428877465
 31
0.0
  0
LINE
  5
326E
330
1F
100
AcDbEntity
  8
Innenkanten
100
AcDbLine
 10
-14.83901169116973
 20
228.1398328877465
 30
0.0
 11
-18.83901169116973
 21
228.1398328877465
 31
0.0
  0
LINE
  5
326F
330
1F
100
AcDbEntity
  8
0
100
AcDbLine
 10
-66.83908169116972
 20
201.9030028877465
 30
0.0
 11
-66.83908169116972
 21
182.9030028877465
 31
0.0
  0
LINE
  5
3270
330
1F
100
AcDbEntity
  8
0
100
AcDbLine
 10
-29.83901169116973
 20
227.4030128877465
 30
0.0
 11
-29.83901169116973
 21
157.4030028877465
 31
0.0
  0
LINE
  5
3271
330
1F
100
AcDbEntity
  8
0
100
AcDbLine
 10
-26.83901169116973
 20
152.2029928877465
 30
0.0
 11
-26.83901169116973
 21
232.6030028877466
 31
0.0
  0
LINE
  5
3272
330
1F
100
AcDbEntity
  8
0
100
AcDbLine
 10
-29.83901169116973
 20
157.4030028877465
 30
0.0
 11
-26.83901169116973
 21
157.4030028877465
 31
0.0
  0
LINE
  5
3273
330
1F
100
AcDbEntity
  8
0
100
AcDbLine
 10
-66.83908169116972
 20
182.9030028877465
 30
0.0
 11
-29.83901169116973
 21
182.9030028877465
 31
0.0
  0
LINE
  5
3274
330
1F
100
AcDbEntity
  8
0
100
AcDbLine
 10
-29.83901169116973
 20
201.9030028877465
 30
0.0
 11
-66.83908169116972
 21
201.9030028877465
 31
0.0
  0
LINE
  5
3275
330
1F
100
AcDbEntity
  8
0
100
AcDbLine
 10
-29.83901169116973
 20
227.4030128877465
 30
0.0
 11
-26.83901169116973
 21
227.4030128877465
 31
0.0
  0
DIMENSION
  5
3292
102
{ACAD_XDICTIONARY
360
329F
102
}
102
{ACAD_REACTORS
330
32A9
102
}
330
1F
100
AcDbEntity
  8
Bemaßung
100
AcDbDimension
  2
*D21
 10
513.826963733756
 20
241.1192243214623
 30
0.0
 11
509.826963733756
 21
242.9942243214623
 31
0.0
 70
    32
 71
     5
 42
8.0
  3
ISO-25
100
AcDbAlignedDimension
 13
505.826963733756
 23
232.6624123724645
 33
0.0
 14
513.826963733756
 24
232.6624123724645
 34
0.0
100
AcDbRotatedDimension
  0
DIMENSION
  5
32B3
102
{ACAD_XDICTIONARY
360
32C2
102
}
102
{ACAD_REACTORS
330
32CE
102
}
330
1F
100
AcDbEntity
  8
Bemaßung
100
AcDbDimension
  2
*D22
 10
516.826963733756
 20
241.1192243214622
 30
0.0
 11
515.3269637337561
 21
242.9942243214623
 31
0.0
 70
    32
 71
     5
 42
3.0
  3
ISO-25
100
AcDbAlignedDimension
 13
513.826963733756
 23
232.6624123724645
 33
0.0
 14
516.826963733756
 24
227.4624223724645
 34
0.0
100
AcDbRotatedDimension
1001
ACAD
1000
DSTYLE
1002
{
1070
   279
1070
     1
1002
}
  0
DIMENSION
  5
32DA
102
{ACAD_XDICTIONARY
360
32E7
102
}
102
{ACAD_REACTORS
330
32F1
102
}
330
1F
100
AcDbEntity
  8
Bemaßung
100
AcDbDimension
  2
*D23
 10
553.827033733756
 20
257.4540980434321
 30
0.0
 11
533.826998733756
 21
259.3290980434321
 31
0.0
 70
    32
 71
     5
 42
40.00006999999993
  3
ISO-25
100
AcDbAlignedDimension
 13
513.826963733756
 23
232.6624123724645
 33
0.0
 14
553.827033733756
 24
201.9624123724645
 34
0.0
100
AcDbRotatedDimension
  0
DIMENSION
  5
32FB
102
{ACAD_XDICTIONARY
360
3308
102
}
102
{ACAD_REACTORS
330
3312
102
}
330
1F
100
AcDbEntity
  8
Bemaßung
100
AcDbDimension
  2
*D24
 10
336.3269637337804
 20
257.4540980434321
 30
0.0
 11
425.0769637337682
 21
257.4540980434321
 31
0.0
 70
   160
 71
     5
 42
177.4999999999756
  3
ISO-25
100
AcDbAlignedDimension
 13
513.826963733756
 23
232.6624123724645
 33
0.0
 14
336.3269637337804
 24
192.4623927461281
 34
0.0
100
AcDbRotatedDimension
  0
LINE
  5
337E
330
1F
100
AcDbEntity
  8
0
100
AcDbLine
 10
419.3269637337561
 20
147.1623923724645
 30
0.0
 11
419.3269637337561
 21
152.2624023724645
 31
0.0
  0
DIMENSION
  5
3392
102
{ACAD_XDICTIONARY
360
33A1
102
}
102
{ACAD_REACTORS
330
33AD
102
}
330
1F
100
AcDbEntity
  8
Bemaßung
100
AcDbDimension
  2
*D25
 10
375.3270037337561
 20
240.910890988129
 30
0.0
 11
383.6603370670894
 21
242.9942243214624
 31
0.0
 70
    32
 71
     5
 42
2.700010000000077
  3
ISO-25
100
AcDbAlignedDimension
 13
372.626993733756
 23
232.6624123724645
 33
0.0
 14
375.3270037337561
 24
232.6624123724645
 34
0.0
100
AcDbRotatedDimension
  0
DIMENSION
  5
33B9
102
{ACAD_XDICTIONARY
360
33C6
102
}
102
{ACAD_REACTORS
330
33D0
102
}
330
1F
100
AcDbEntity
  8
Bemaßung
100
AcDbDimension
  2
*D26
 10
336.3269637337804
 20
250.3531687439449
 30
0.0
 11
355.8269837337683
 21
252.2281687439449
 31
0.0
 70
    32
 71
     5
 42
39.00003999997562
  3
ISO-25
100
AcDbAlignedDimension
 13
375.3270037337561
 23
233.6624123724646
 33
0.0
 14
336.3269637337804
 24
192.4623927461281
 34
0.0
100
AcDbRotatedDimension
  0
DIMENSION
  5
33EC
102
{ACAD_XDICTIONARY
360
33F9
102
}
102
{ACAD_REACTORS
330
3403
102
}
330
1F
100
AcDbEntity
  8
Bemaßung
100
AcDbDimension
  2
*D27
 10
572.5926372168267
 20
182.9624123724645
 30
0.0
 11
570.7176372168267
 21
192.4624123724646
 31
0.0
 70
    32
 71
     5
 42
19.0
  3
ISO-25
100
AcDbAlignedDimension
 13
553.827033733756
 23
201.9624123724645
 33
0.0
 14
553.827033733756
 24
182.9624123724645
 34
0.0
 50
90.0
100
AcDbRotatedDimension
  0
DIMENSION
  5
340D
102
{ACAD_XDICTIONARY
360
341A
102
}
102
{ACAD_REACTORS
330
3424
102
}
330
1F
100
AcDbEntity
  8
Bemaßung
100
AcDbDimension
  2
*D28
 10
584.5783154579617
 20
157.4624123724645
 30
0.0
 11
582.7033154579616
 21
192.4624173724646
 31
0.0
 70
    32
 71
     5
 42
70.00001000000003
  3
ISO-25
100
AcDbAlignedDimension
 13
516.826963733756
 23
227.4624223724645
 33
0.0
 14
516.826963733756
 24
157.4624123724645
 34
0.0
 50
90.0
100
AcDbRotatedDimension
  0
DIMENSION
  5
342F
102
{ACAD_XDICTIONARY
360
343C
102
}
102
{ACAD_REACTORS
330
3446
102
}
330
1F
100
AcDbEntity
  8
Bemaßung
100
AcDbDimension
  2
*D29
 10
513.826963733756
 20
121.2682712324044
 30
0.0
 11
470.476958733756
 21
123.3516045657377
 31
0.0
 70
    32
 71
     5
 42
86.70001000000002
  3
ISO-25
100
AcDbAlignedDimension
 13
427.126953733756
 23
132.3721423724645
 33
0.0
 14
513.826963733756
 24
152.2624023724645
 34
0.0
100
AcDbRotatedDimension
  0
DIMENSION
  5
3459
102
{ACAD_XDICTIONARY
360
3466
102
}
102
{ACAD_REACTORS
330
3470
102
}
330
1F
100
AcDbEntity
  8
Bemaßung
100
AcDbDimension
  2
*D30
 10
408.3221537337561
 20
128.716786399526
 30
0.0
 11
372.324558733756
 21
130.591786399526
 31
0.0
 70
    32
 71
     5
 42
71.99518999999998
  3
ISO-25
100
AcDbAlignedDimension
 13
336.326963733756
 23
192.4625323724645
 33
0.0
 14
408.3221537337561
 24
141.5866223724645
 34
0.0
100
AcDbRotatedDimension
  0
DIMENSION
  5
348D
102
{ACAD_XDICTIONARY
360
349A
102
}
102
{ACAD_REACTORS
330
34A4
102
}
330
1F
100
AcDbEntity
  8
Bemaßung
100
AcDbDimension
  2
*D31
 10
278.1291979940849
 20
257.8707647100988
 30
0.0
 11
238.1292179940849
 21
259.7457647100988
 31
0.0
 70
    32
 71
     5
 42
79.99995999999999
  3
ISO-25
100
AcDbAlignedDimension
 13
198.1292379940849
 23
225.6304842524654
 33
0.0
 14
278.1291979940849
 24
225.6304842524654
 34
0.0
100
AcDbRotatedDimension
  0
DIMENSION
  5
34AE
102
{ACAD_XDICTIONARY
360
34BB
102
}
102
{ACAD_REACTORS
330
34C5
102
}
330
1F
100
AcDbEntity
  8
Bemaßung
100
AcDbDimension
  2
*D32
 10
174.4091527702025
 20
152.4304742524654
 30
0.0
 11
172.5341527702025
 21
192.4304792524654
 31
0.0
 70
    32
 71
     5
 42
80.00001000000002
  3
ISO-25
100
AcDbAlignedDimension
 13
204.9292379940849
 23
232.4304842524654
 33
0.0
 14
204.9292416592763
 24
152.4304742524653
 34
0.0
 50
90.0
100
AcDbRotatedDimension
  0
DIMENSION
  5
3544
330
1F
100
AcDbEntity
  8
Bemaßung
100
AcDbDimension
  2
*D35
 10
274.8126097943057
 20
166.3665059100462
 30
0.0
 11
224.0848745958071
 21
202.4091837533207
 31
0.0
 70
   163
 71
     5
 42
90.00000000000003
  3
ISO-25
100
AcDbDiametricDimension
 15
201.4458861938639
 25
218.4944625948845
 35
0.0
 40
0.0
1001
ACAD
1000
DSTYLE
1002
{
1070
   288
1070
     1
1002
}
  0
DIMENSION
  5
3563
102
{ACAD_XDICTIONARY
360
3572
102
}
102
{ACAD_REACTORS
330
357E
102
}
330
1F
100
AcDbEntity
  8
Bemaßung
100
AcDbDimension
  2
*D36
 10
211.1748979940848
 20
219.3849542524653
 30
0.0
 11
217.4414484468006
 21
242.3753792749592
 31
0.0
 70
    34
 71
     5
 42
0.7853976384126299
  3
ISO-25
100
AcDb2LineAngularDimension
 13
238.1292479940849
 23
147.1644642524653
 33
0.0
 14
238.1292479940849
 24
234.2386942524654
 34
0.0
 15
201.6508179940848
 25
228.9090442524653
 35
0.0
 16
224.6228212625329
 26
242.8372820257317
 36
0.0
  0
DIMENSION
  5
358A
102
{ACAD_XDICTIONARY
360
3597
102
}
102
{ACAD_REACTORS
330
35A1
102
}
330
1F
100
AcDbEntity
  8
Bemaßung
100
AcDbDimension
  2
*D37
 10
294.3574732206982
 20
192.4304842524653
 30
0.0
 11
292.2741398873648
 21
163.3827492524654
 31
0.0
 70
    32
 71
     5
 42
58.09547000000001
  3
ISO-25
100
AcDbAlignedDimension
 13
247.1292479940848
 23
134.3350142524653
 33
0.0
 14
279.9374779940848
 24
192.4304842524653
 34
0.0
 50
90.0
100
AcDbRotatedDimension
  0
DIMENSION
  5
35C6
102
{ACAD_XDICTIONARY
360
35D3
102
}
102
{ACAD_REACTORS
330
35DD
102
}
330
1F
100
AcDbEntity
  8
Bemaßung
100
AcDbDimension
  2
*D38
 10
248.1292479940849
 20
118.8447126065061
 30
0.0
 11
238.1292479940849
 21
120.7197126065061
 31
0.0
 70
    32
 71
     5
 42
20.0
  3
ISO-25
100
AcDbAlignedDimension
 13
228.1292479940848
 23
135.3350142524653
 33
0.0
 14
248.1292479940849
 24
135.3350142524653
 34
0.0
100
AcDbRotatedDimension
  0
DIMENSION
  5
35E8
102
{ACAD_XDICTIONARY
360
35F5
102
}
102
{ACAD_REACTORS
330
35FF
102
}
330
1F
100
AcDbEntity
  8
Bemaßung
100
AcDbDimension
  2
*D39
 10
-112.8849508709647
 20
257.8707647100988
 30
0.0
 11
-153.8832044676263
 21
259.7457647100988
 31
0.0
 70
    32
 71
     5
 42
81.99650719332334
  3
ISO-25
100
AcDbAlignedDimension
 13
-194.881458064288
 23
192.4304842524653
 33
0.0
 14
-112.8849508709647
 24
192.8639395206653
 34
0.0
100
AcDbRotatedDimension
  0
DIMENSION
  5
3609
102
{ACAD_XDICTIONARY
360
3616
102
}
102
{ACAD_REACTORS
330
3620
102
}
330
1F
100
AcDbEntity
  8
Bemaßung
100
AcDbDimension
  2
*D40
 10
-96.6857052251521
 20
143.7304742524653
 30
0.0
 11
-98.76903855848546
 21
168.0804792524653
 31
0.0
 70
    32
 71
     5
 42
48.70001000000002
  3
ISO-25
100
AcDbAlignedDimension
 13
-109.6288120059151
 23
192.4304842524653
 33
0.0
 14
-142.108262005915
 24
143.7304742524653
 34
0.0
 50
90.0
100
AcDbRotatedDimension
  0
DIMENSION
  5
362A
102
{ACAD_XDICTIONARY
360
3637
102
}
102
{ACAD_REACTORS
330
3641
102
}
330
1F
100
AcDbEntity
  8
Bemaßung
100
AcDbDimension
  2
*D41
 10
-141.108262005915
 20
109.3633458987697
 30
0.0
 11
-153.708261505915
 21
111.446679232103
 31
0.0
 70
    32
 71
     5
 42
25.19999899999996
  3
ISO-25
100
AcDbAlignedDimension
 13
-166.308261005915
 23
144.7304744269982
 33
0.0
 14
-141.108262005915
 24
144.7304742452532
 34
0.0
100
AcDbRotatedDimension
  0
LINE
  5
3651
330
1F
100
AcDbEntity
  8
Innenkanten
100
AcDbLine
 10
197.1292379940849
 20
-9.898789995989819
 30
0.0
 11
279.1291979940849
 21
-9.898789995989819
 31
0.0
  0
LINE
  5
3652
330
1F
100
AcDbEntity
  8
Innenkanten
100
AcDbLine
 10
198.1292379940849
 20
-143.0987899959898
 30
0.0
 11
278.1291979940849
 21
-143.0987899959898
 31
0.0
  0
LINE
  5
3653
330
1F
100
AcDbEntity
  8
0
100
AcDbLine
 10
198.1292379940849
 20
-151.0987899959898
 30
0.0
 11
198.1292379940849
 21
-12.59878999598981
 31
0.0
  0
LINE
  5
3654
330
1F
100
AcDbEntity
  8
0
100
AcDbLine
 10
278.1291979940849
 20
-12.59878999598981
 30
0.0
 11
278.1291979940849
 21
-151.0987899959898
 31
0.0
  0
LINE
  5
3656
330
1F
100
AcDbEntity
  8
Innenkanten
100
AcDbLine
 10
207.1292379940849
 20
24.40121000401018
 30
0.0
 11
207.1292379940849
 21
-143.0987899959898
 31
0.0
  0
LINE
  5
3657
330
1F
100
AcDbEntity
  8
0
100
AcDbLine
 10
197.1292379940849
 20
-12.59878999598981
 30
0.0
 11
198.1292379940849
 21
-12.59878999598981
 31
0.0
  0
LINE
  5
3658
330
1F
100
AcDbEntity
  8
Innenkanten
100
AcDbLine
 10
269.1291979940849
 20
24.40121000401018
 30
0.0
 11
269.1291979940849
 21
-143.0987899959898
 31
0.0
  0
LINE
  5
3659
330
1F
100
AcDbEntity
  8
0
100
AcDbLine
 10
279.1291979940849
 20
-12.62215388756135
 30
0.0
 11
278.1291979940849
 21
-12.62215388756135
 31
0.0
  0
LINE
  5
365A
330
1F
100
AcDbEntity
  8
0
100
AcDbLine
 10
203.1292479940848
 20
-154.0987899959898
 30
0.0
 11
273.1292479940849
 21
-154.0987899959898
 31
0.0
  0
LINE
  5
365B
330
1F
100
AcDbEntity
  8
0
100
AcDbLine
 10
225.6292479940849
 20
-191.0987899959898
 30
0.0
 11
250.6292479940849
 21
-191.0987899959898
 31
0.0
  0
LINE
  5
365C
330
1F
100
AcDbEntity
  8
0
100
AcDbLine
 10
203.1292479940848
 20
-154.0987899959898
 30
0.0
 11
203.1292479940848
 21
-151.0987899959898
 31
0.0
  0
LINE
  5
365D
330
1F
100
AcDbEntity
  8
0
100
AcDbLine
 10
273.1292479940849
 20
-154.0987899959898
 30
0.0
 11
273.1292479940849
 21
-151.0987899959898
 31
0.0
  0
LINE
  5
365E
330
1F
100
AcDbEntity
  8
0
100
AcDbLine
 10
250.6292479940849
 20
-191.0987899959898
 30
0.0
 11
250.6292479940849
 21
-154.0987899959898
 31
0.0
  0
LINE
  5
365F
330
1F
100
AcDbEntity
  8
0
100
AcDbLine
 10
225.6292479940849
 20
-191.0987899959898
 30
0.0
 11
225.6292479940849
 21
-154.0987899959898
 31
0.0
  0
LINE
  5
3660
330
1F
100
AcDbEntity
  8
0
100
AcDbLine
 10
198.1292379940849
 20
-12.59878999598981
 30
0.0
 11
278.1291979940849
 21
-12.59878999598981
 31
0.0
  0
LINE
  5
3661
330
1F
100
AcDbEntity
  8
0
100
AcDbLine
 10
197.1292379940849
 20
-12.59878999598981
 30
0.0
 11
197.1292379940849
 21
24.40121000401018
 31
0.0
  0
LINE
  5
3663
330
1F
100
AcDbEntity
  8
0
100
AcDbLine
 10
207.1292379940849
 20
26.40121000401018
 30
0.0
 11
269.1291979940849
 21
26.40121000401018
 31
0.0
  0
LINE
  5
3664
330
1F
100
AcDbEntity
  8
0
100
AcDbLine
 10
207.1292379940849
 20
24.40121000401018
 30
0.0
 11
207.1292379940849
 21
26.40121000401018
 31
0.0
  0
LINE
  5
3665
330
1F
100
AcDbEntity
  8
0
100
AcDbLine
 10
269.1291979940849
 20
24.40121000401018
 30
0.0
 11
269.1291979940849
 21
26.40121000401018
 31
0.0
  0
LINE
  5
3666
330
1F
100
AcDbEntity
  8
0
100
AcDbLine
 10
207.1292379940849
 20
24.40121000401018
 30
0.0
 11
197.1292379940849
 21
24.40121000401018
 31
0.0
  0
LINE
  5
3667
330
1F
100
AcDbEntity
  8
0
100
AcDbLine
 10
269.1291979940849
 20
24.40121000401018
 30
0.0
 11
279.1291979940849
 21
24.40121000401018
 31
0.0
  0
LINE
  5
3668
330
1F
100
AcDbEntity
  8
0
100
AcDbLine
 10
279.1291979940849
 20
24.40121000401018
 30
0.0
 11
279.1291979940849
 21
-12.62215388756135
 31
0.0
  0
LINE
  5
3669
330
1F
100
AcDbEntity
  8
0
100
AcDbLine
 10
198.1292379940849
 20
-151.0987899959898
 30
0.0
 11
278.1291979940849
 21
-151.0987899959898
 31
0.0
  0
LINE
  5
366B
330
1F
100
AcDbEntity
  8
Innenkanten
100
AcDbLine
 10
198.1292379940849
 20
-58.59878999598982
 30
0.0
 11
278.1291979940849
 21
-58.59878999598982
 31
0.0
  0
ARC
  5
3697
330
1F
100
AcDbEntity
  8
0
100
AcDbCircle
 10
200.4285297557284
 20
25.47555374080804
 30
0.0
 40
1.0
100
AcDbArc
 50
89.99997999999798
 51
180.0000299999997
  0
ARC
  5
36AD
330
1F
100
AcDbEntity
  8
0
100
AcDbCircle
 10
272.3990200447291
 20
25.394266796988
 30
0.0
 40
1.0
100
AcDbArc
 50
89.99997999999798
 51
180.0000299999997
  0
LINE
  5
36B0
330
1F
100
AcDbEntity
  8
Mittellinie
100
AcDbLine
 10
202.1785297557284
 20
26.87810374080806
 30
0.0
 11
202.1785297557284
 21
22.00260374080806
 31
0.0
  0
LINE
  5
36B1
330
1F
100
AcDbEntity
  8
0
100
AcDbLine
 10
204.9285297557283
 20
24.49487148390119
 30
0.0
 11
204.9285297557283
 21
25.47555374080804
 31
0.0
  0
ARC
  5
36B2
330
1F
100
AcDbEntity
  8
0
100
AcDbCircle
 10
203.9285297557284
 20
25.47555374080804
 30
0.0
 40
1.0
100
AcDbArc
 50
359.9999820000007
 51
89.99995999999923
  0
LINE
  5
36B3
330
1F
100
AcDbEntity
  8
0
100
AcDbLine
 10
199.4285297557284
 20
24.49487148390119
 30
0.0
 11
199.4285297557284
 21
25.47555374080804
 31
0.0
  0
LINE
  5
36B4
330
1F
100
AcDbEntity
  8
0
100
AcDbLine
 10
203.9285297557284
 20
26.47555374080804
 30
0.0
 11
200.4285297557284
 21
26.47555374080804
 31
0.0
  0
LINE
  5
36B6
330
1F
100
AcDbEntity
  8
0
100
AcDbLine
 10
271.3990200447291
 20
24.41358454008116
 30
0.0
 11
271.3990200447291
 21
25.394266796988
 31
0.0
  0
LINE
  5
36BA
330
1F
100
AcDbEntity
  8
Mittellinie
100
AcDbLine
 10
274.1490200447291
 20
26.79681679698802
 30
0.0
 11
274.1490200447291
 21
21.92131679698803
 31
0.0
  0
LINE
  5
36BB
330
1F
100
AcDbEntity
  8
0
100
AcDbLine
 10
275.8990200447291
 20
26.394266796988
 30
0.0
 11
272.3990200447291
 21
26.394266796988
 31
0.0
  0
LINE
  5
36BC
330
1F
100
AcDbEntity
  8
0
100
AcDbLine
 10
276.8990200447291
 20
24.41358454008116
 30
0.0
 11
276.8990200447291
 21
25.394266796988
 31
0.0
  0
ARC
  5
36BD
330
1F
100
AcDbEntity
  8
0
100
AcDbCircle
 10
275.8990200447291
 20
25.394266796988
 30
0.0
 40
1.0
100
AcDbArc
 50
359.9999820000007
 51
89.99995999999923
  0
LINE
  5
36C1
330
1F
100
AcDbEntity
  8
Mittellinie
100
AcDbLine
 10
238.1292279940848
 20
37.68536364142687
 30
0.0
 11
238.1292279940848
 21
-202.3703022986152
 31
0.0
  0
VIEWPORT
  5
FF1
330
FEA
100
AcDbEntity
 67
     1
  8
0
100
AcDbViewport
 10
144.7270812988281
 20
111.1085416523249
 30
0.0
 40
377.5505027244501
 41
241.9178641406666
 68
     1
 69
     1
 12
144.7270812988281
 22
111.1085416523249
 13
0.0
 23
0.0
 14
10.0
 24
10.0
 15
10.0
 25
10.0
 16
0.0
 26
0.0
 36
1.0
 17
0.0
 27
0.0
 37
0.0
 42
50.0
 43
0.0
 44
0.0
 45
241.9178641406666
 50
0.0
 51
0.0
 72
   100
 90
    32800
  1

281
     0
 71
     1
 74
     0
110
0.0
120
0.0
130
0.0
111
1.0
121
0.0
131
0.0
112
0.0
122
1.0
132
0.0
 79
     0
146
0.0
  0
VIEWPORT
  5
FF3
330
FEA
100
AcDbEntity
 67
     1
  8
0
100
AcDbViewport
 10
144.7270812988279
 20
101.5933663914631
 30
0.0
 40
296.2546461044554
 41
209.0554971327303
 68
     2
 69
     2
 12
203.1282534378307
 22
126.0400189425975
 13
0.0
 23
0.0
 14
10.0
 24
10.0
 15
10.0
 25
10.0
 16
0.0
 26
0.0
 36
1.0
 17
0.0
 27
0.0
 37
0.0
 42
50.0
 43
0.0
 44
0.0
 45
382.825506506762
 50
0.0
 51
0.0
 72
   100
 90
    32864
  1

281
     0
 71
     1
 74
     0
110
-53.08748352590964
120
3.820899076262548
130
0.0
111
1.0
121
0.0
131
0.0
112
0.0
122
1.0
132
0.0
 79
     0
146
0.0
  0
ENDSEC
  0
SECTION
  2
OBJECTS
  0
DICTIONARY
  5
C
330
0
100
AcDbDictionary
281
     1
  3
ACAD_GROUP
350
D
  3
ACAD_LAYOUT
350
1A
  3
ACAD_MLINESTYLE
350
17
  3
ACAD_PLOTSETTINGS
350
19
  3
ACAD_PLOTSTYLENAME
350
E
  3
AcadDim
350
118B
  3
AcDbVariableDictionary
350
50
  3
DWGPROPS
350
A6A
  0
DICTIONARY
  5
329F
330
3292
100
AcDbDictionary
280
     1
281
     1
  3
ACAD_DIMASSOC
360
32A9
  0
DICTIONARY
  5
32C2
330
32B3
100
AcDbDictionary
280
     1
281
     1
  3
ACAD_DIMASSOC
360
32CE
  0
DICTIONARY
  5
32E7
330
32DA
100
AcDbDictionary
280
     1
281
     1
  3
ACAD_DIMASSOC
360
32F1
  0
DICTIONARY
  5
3308
330
32FB
100
AcDbDictionary
280
     1
281
     1
  3
ACAD_DIMASSOC
360
3312
  0
DICTIONARY
  5
33A1
330
3392
100
AcDbDictionary
280
     1
281
     1
  3
ACAD_DIMASSOC
360
33AD
  0
DICTIONARY
  5
33C6
330
33B9
100
AcDbDictionary
280
     1
281
     1
  3
ACAD_DIMASSOC
360
33D0
  0
DICTIONARY
  5
33F9
330
33EC
100
AcDbDictionary
280
     1
281
     1
  3
ACAD_DIMASSOC
360
3403
  0
DICTIONARY
  5
341A
330
340D
100
AcDbDictionary
280
     1
281
     1
  3
ACAD_DIMASSOC
360
3424
  0
DICTIONARY
  5
343C
330
342F
100
AcDbDictionary
280
     1
281
     1
  3
ACAD_DIMASSOC
360
3446
  0
DICTIONARY
  5
3466
330
3459
100
AcDbDictionary
280
     1
281
     1
  3
ACAD_DIMASSOC
360
3470
  0
DICTIONARY
  5
349A
330
348D
100
AcDbDictionary
280
     1
281
     1
  3
ACAD_DIMASSOC
360
34A4
  0
DICTIONARY
  5
34BB
330
34AE
100
AcDbDictionary
280
     1
281
     1
  3
ACAD_DIMASSOC
360
34C5
  0
DICTIONARY
  5
3572
330
3563
100
AcDbDictionary
280
     1
281
     1
  3
ACAD_DIMASSOC
360
357E
  0
DICTIONARY
  5
3597
330
358A
100
AcDbDictionary
280
     1
281
     1
  3
ACAD_DIMASSOC
360
35A1
  0
DICTIONARY
  5
35D3
330
35C6
100
AcDbDictionary
280
     1
281
     1
  3
ACAD_DIMASSOC
360
35DD
  0
DICTIONARY
  5
35F5
330
35E8
100
AcDbDictionary
280
     1
281
     1
  3
ACAD_DIMASSOC
360
35FF
  0
DICTIONARY
  5
3616
330
3609
100
AcDbDictionary
280
     1
281
     1
  3
ACAD_DIMASSOC
360
3620
  0
DICTIONARY
  5
3637
330
362A
100
AcDbDictionary
280
     1
281
     1
  3
ACAD_DIMASSOC
360
3641
  0
DICTIONARY
  5
D
102
{ACAD_REACTORS
330
C
102
}
330
C
100
AcDbDictionary
281
     1
  3
*A1
350
2A6
  3
*A10
350
936
  3
*A11
350
1578
  3
*A12
350
413
  3
*A13
350
94E
  3
*A14
350
85A
  3
*A15
350
3BE
  3
*A16
350
331
  3
*A17
350
369
  3
*A18
350
A72
  3
*A19
350
10FD
  3
*A2
350
8ED
  3
*A20
350
2CEA
  3
*A21
350
869
  3
*A22
350
3277
  3
*A23
350
8F6
  3
*A24
350
8E4
  3
*A25
350
885
  3
*A26
350
886
  3
*A27
350
8D4
  3
*A28
350
8E3
  3
*A3
350
2134
  3
*A4
350
1A87
  3
*A5
350
905
  3
*A6
350
93F
  3
*A7
350
90F
  3
*A8
350
91E
  3
*A9
350
92D
  0
DICTIONARY
  5
1A
102
{ACAD_REACTORS
330
C
102
}
330
C
100
AcDbDictionary
281
     1
  3
Layout1
350
FEB
  3
Model
350
22
  0
DICTIONARY
  5
17
102
{ACAD_REACTORS
330
C
102
}
330
C
100
AcDbDictionary
281
     1
  3
Standard
350
18
  0
DICTIONARY
  5
19
102
{ACAD_REACTORS
330
C
102
}
330
C
100
AcDbDictionary
281
     1
  0
ACDBDICTIONARYWDFLT
  5
E
102
{ACAD_REACTORS
330
C
102
}
330
C
100
AcDbDictionary
281
     1
  3
Normal
350
F
100
AcDbDictionaryWithDefault
340
F
  0
XRECORD
  5
118B
102
{ACAD_REACTORS
330
C
102
}
330
C
100
AcDbXrecord
280
     1
 90
   990106
  3

 60
     0
 61
     0
 62
     1
 63
     3
 64
     0
 65
     0
 66
     0
 67
     3
 68
     1
 69
     0
 70
     0
 71
     0
 72
     0
 40
10.0
170
     0
340
0
  0
DICTIONARY
  5
50
102
{ACAD_REACTORS
330
C
102
}
330
C
100
AcDbDictionary
281
     1
  3
DIMASSOC
350
52
  3
HIDETEXT
350
51
  0
XRECORD
  5
A6A
102
{ACAD_REACTORS
330
C
102
}
330
C
100
AcDbXrecord
280
     1
  1
DWGPROPS COOKIE
  2

  3

  4

  6

  7

  8

  9

300
=
301
=
302
=
303
=
304
=
305
=
306
=
307
=
308
=
309
=
 40
0.587026388888889
 41
2452181.498615972
 42
2452184.61255463
  1

 90
        0
  0
DIMASSOC
  5
32A9
102
{ACAD_REACTORS
330
329F
102
}
330
329F
100
AcDbDimAssoc
330
3292
 90
        3
 70
     0
 71
     0
  1
AcDbOsnapPointRef
 72
    13
331
3141
 73
     2
 91
        0
 40
0.0
 10
505.826963733756
 20
232.6624123724645
 30
0.0
 75
     0
  1
AcDbOsnapPointRef
 72
    13
331
30C0
 73
     2
 91
        0
 40
0.0
 10
513.826963733756
 20
232.6624123724645
 30
0.0
 75
     0
  0
DIMASSOC
  5
32CE
102
{ACAD_REACTORS
330
32C2
102
}
330
32C2
100
AcDbDimAssoc
330
32B3
 90
        3
 70
     0
 71
     0
  1
AcDbOsnapPointRef
 72
    13
331
30C0
 73
     2
 91
        0
 40
0.0
 10
513.826963733756
 20
232.6624123724645
 30
0.0
 75
     0
  1
AcDbOsnapPointRef
 72
    13
331
3148
 73
     2
 91
        0
 40
0.0
 10
516.826963733756
 20
227.4624223724645
 30
0.0
 75
     0
  0
DIMASSOC
  5
32F1
102
{ACAD_REACTORS
330
32E7
102
}
330
32E7
100
AcDbDimAssoc
330
32DA
 90
        3
 70
     0
 71
     0
  1
AcDbOsnapPointRef
 72
    13
331
30C0
 73
     2
 91
        0
 40
0.0
 10
513.826963733756
 20
232.6624123724645
 30
0.0
 75
     0
  1
AcDbOsnapPointRef
 72
    13
331
3147
 73
     2
 91
        0
 40
0.0
 10
553.827033733756
 20
201.9624123724645
 30
0.0
 75
     0
  0
DIMASSOC
  5
3312
102
{ACAD_REACTORS
330
3308
102
}
330
3308
100
AcDbDimAssoc
330
32FB
 90
        3
 70
     0
 71
     0
  1
AcDbOsnapPointRef
 72
    13
331
30C0
 73
     2
 91
        0
 40
0.0
 10
513.826963733756
 20
232.6624123724645
 30
0.0
 75
     0
  1
AcDbOsnapPointRef
 72
     2
331
310A
 73
     2
 91
        0
 40
3.141593002655633
 10
336.3269637337804
 20
192.4623927461281
 30
0.0
 75
     0
  0
DIMASSOC
  5
33AD
102
{ACAD_REACTORS
330
33A1
102
}
330
33A1
100
AcDbDimAssoc
330
3392
 90
        3
 70
     0
 71
     0
  1
AcDbOsnapPointRef
 72
     1
331
313E
 73
     2
 91
        0
 40
6.283185307179586
 10
372.626993733756
 20
232.6624123724645
 30
0.0
 75
     0
  1
AcDbOsnapPointRef
 72
     8
331
310D
 73
     2
 91
        0
 40
0.0000000000000004
 10
375.3270037337561
 20
232.6624123724645
 30
0.0
 75
     1
  1
AcDbOsnapPointRef
 72
     1
331
313E
 73
     2
 91
        0
 40
6.283185307179586
 10
372.626993733756
 20
232.6624123724645
 30
0.0
 75
     0
  0
DIMASSOC
  5
33D0
102
{ACAD_REACTORS
330
33C6
102
}
330
33C6
100
AcDbDimAssoc
330
33B9
 90
        1
 70
     0
 71
     0
  1
AcDbOsnapPointRef
 72
    13
331
310F
 73
     2
 91
        0
 40
0.0
 10
375.3270037337561
 20
233.6624123724646
 30
0.0
 75
     0
  0
DIMASSOC
  5
3403
102
{ACAD_REACTORS
330
33F9
102
}
330
33F9
100
AcDbDimAssoc
330
33EC
 90
        2
 70
     0
 71
     0
  1
AcDbOsnapPointRef
 72
     1
331
3147
 73
     2
 91
        0
 40
1.0
 10
553.827033733756
 20
182.9624123724645
 30
0.0
 75
     0
  0
DIMASSOC
  5
3424
102
{ACAD_REACTORS
330
341A
102
}
330
341A
100
AcDbDimAssoc
330
340D
 90
        2
 70
     0
 71
     0
  1
AcDbOsnapPointRef
 72
     1
331
3148
 73
     2
 91
        0
 40
1.0
 10
516.826963733756
 20
157.4624123724645
 30
0.0
 75
     0
  0
DIMASSOC
  5
3446
102
{ACAD_REACTORS
330
343C
102
}
330
343C
100
AcDbDimAssoc
330
342F
 90
        3
 70
     0
 71
     0
  1
AcDbOsnapPointRef
 72
     1
331
30C2
 73
     2
 91
        0
 40
1.0
 10
427.126953733756
 20
132.3721423724645
 30
0.0
 75
     0
  1
AcDbOsnapPointRef
 72
    13
331
30BF
 73
     2
 91
        0
 40
0.0
 10
513.826963733756
 20
152.2624023724645
 30
0.0
 75
     0
  0
DIMASSOC
  5
3470
102
{ACAD_REACTORS
330
3466
102
}
330
3466
100
AcDbDimAssoc
330
3459
 90
        3
 70
     0
 71
     0
  1
AcDbOsnapPointRef
 72
     5
331
310A
 73
     2
 91
        0
 40
3.141592653589793
 10
336.326963733756
 20
192.4625323724645
 30
0.0
 75
     0
  1
AcDbOsnapPointRef
 72
    11
331
30C3
 73
     2
 91
        0
 40
0.0000018749994147
 10
408.3221537337561
 20
141.5866223724645
 30
0.0
332
30F1
 74
     2
 92
        0
 75
     0
  0
DIMASSOC
  5
34A4
102
{ACAD_REACTORS
330
349A
102
}
330
349A
100
AcDbDimAssoc
330
348D
 90
        2
 70
     0
 71
     0
  1
AcDbOsnapPointRef
 72
    13
331
3002
 73
     2
 91
        0
 40
0.0
 10
278.1291979940849
 20
225.6304842524654
 30
0.0
 75
     0
  0
DIMASSOC
  5
34C5
102
{ACAD_REACTORS
330
34BB
102
}
330
34BB
100
AcDbDimAssoc
330
34AE
 90
        3
 70
     0
 71
     0
  1
AcDbOsnapPointRef
 72
    13
331
2FFE
 73
     2
 91
        0
 40
1.570796012635613
 10
204.9292379940849
 20
232.4304842524654
 30
0.0
 75
     0
  1
AcDbOsnapPointRef
 72
     1
331
2FEF
 73
     2
 91
        0
 40
4.712389503983461
 10
204.9292416592763
 20
152.4304742524653
 30
0.0
 75
     0
  0
DIMASSOC
  5
357E
102
{ACAD_REACTORS
330
3572
102
}
330
3572
100
AcDbDimAssoc
330
3563
 90
       15
 70
     0
 71
     0
  1
AcDbOsnapPointRef
 72
    13
331
2FEB
 73
     2
 91
        0
 40
0.0
 10
238.1292479940849
 20
147.1644642524653
 30
0.0
 75
     0
  1
AcDbOsnapPointRef
 72
     1
331
2FEB
 73
     2
 91
        0
 40
1.0
 10
238.1292479940849
 20
234.2386942524654
 30
0.0
 75
     0
  1
AcDbOsnapPointRef
 72
    13
331
3001
 73
     2
 91
        0
 40
0.0
 10
201.6508179940848
 20
228.9090442524653
 30
0.0
 75
     0
  1
AcDbOsnapPointRef
 72
     1
331
3001
 73
     2
 91
        0
 40
1.0
 10
211.1748979940848
 20
219.3849542524653
 30
0.0
 75
     0
  0
DIMASSOC
  5
35A1
102
{ACAD_REACTORS
330
3597
102
}
330
3597
100
AcDbDimAssoc
330
358A
 90
        3
 70
     0
 71
     0
  1
AcDbOsnapPointRef
 72
     1
331
2FA0
 73
     2
 91
        0
 40
1.0
 10
247.1292479940848
 20
134.3350142524653
 30
0.0
 75
     0
  1
AcDbOsnapPointRef
 72
     1
331
2FE5
 73
     2
 91
        0
 40
1.0
 10
279.9374779940848
 20
192.4304842524653
 30
0.0
 75
     0
  0
DIMASSOC
  5
35DD
102
{ACAD_REACTORS
330
35D3
102
}
330
35D3
100
AcDbDimAssoc
330
35C6
 90
        3
 70
     0
 71
     0
  1
AcDbOsnapPointRef
 72
     1
331
2F86
 73
     2
 91
        0
 40
1.0
 10
228.1292479940848
 20
135.3350142524653
 30
0.0
 75
     0
  1
AcDbOsnapPointRef
 72
     1
331
2F9F
 73
     2
 91
        0
 40
1.0
 10
248.1292479940849
 20
135.3350142524653
 30
0.0
 75
     0
  0
DIMASSOC
  5
35FF
102
{ACAD_REACTORS
330
35F5
102
}
330
35F5
100
AcDbDimAssoc
330
35E8
 90
        3
 70
     0
 71
     0
  1
AcDbOsnapPointRef
 72
    11
331
2ECB
 73
     2
 91
        0
 40
0.9706274596772074
 10
-194.881458064288
 20
192.4304842524653
 30
0.0
332
2ECC
 74
     2
 92
        0
 75
     0
  1
AcDbOsnapPointRef
 72
     8
331
2F01
 73
     2
 91
        0
 40
6.288471522965193
 10
-112.8849508709647
 20
192.8639395206653
 30
0.0
 75
     1
  1
AcDbOsnapPointRef
 72
    11
331
2ECB
 73
     2
 91
        0
 40
0.9706274596772074
 10
-194.881458064288
 20
192.4304842524653
 30
0.0
332
2ECC
 74
     2
 92
        0
 75
     0
  0
DIMASSOC
  5
3620
102
{ACAD_REACTORS
330
3616
102
}
330
3616
100
AcDbDimAssoc
330
3609
 90
        3
 70
     0
 71
     0
  1
AcDbOsnapPointRef
 72
    13
331
2ECB
 73
     2
 91
        0
 40
0.0
 10
-109.6288120059151
 20
192.4304842524653
 30
0.0
 75
     0
  1
AcDbOsnapPointRef
 72
    13
331
2EC8
 73
     2
 91
        0
 40
0.0
 10
-142.108262005915
 20
143.7304742524653
 30
0.0
 75
     0
  0
DIMASSOC
  5
3641
102
{ACAD_REACTORS
330
3637
102
}
330
3637
100
AcDbDimAssoc
330
362A
 90
        3
 70
     0
 71
     0
  1
AcDbOsnapPointRef
 72
    13
331
2EDC
 73
     2
 91
        0
 40
3.14159247905685
 10
-166.308261005915
 20
144.7304744269982
 30
0.0
 75
     0
  1
AcDbOsnapPointRef
 72
     8
331
2F1A
 73
     2
 91
        0
 40
6.283185299967492
 10
-141.108262005915
 20
144.7304742452532
 30
0.0
 75
     1
  1
AcDbOsnapPointRef
 72
    13
331
2EDC
 73
     2
 91
        0
 40
3.14159247905685
 10
-166.308261005915
 20
144.7304744269982
 30
0.0
 75
     0
  0
GROUP
  5
2A6
102
{ACAD_REACTORS
330
D
102
}
330
D
100
AcDbGroup
300

 70
     1
 71
     1
  0
GROUP
  5
936
102
{ACAD_REACTORS
330
D
102
}
330
D
100
AcDbGroup
300

 70
     1
 71
     1
  0
GROUP
  5
1578
102
{ACAD_REACTORS
330
D
102
}
330
D
100
AcDbGroup
300

 70
     1
 71
     1
  0
GROUP
  5
413
102
{ACAD_REACTORS
330
D
102
}
330
D
100
AcDbGroup
300

 70
     1
 71
     1
  0
GROUP
  5
94E
102
{ACAD_REACTORS
330
D
102
}
330
D
100
AcDbGroup
300

 70
     1
 71
     1
  0
GROUP
  5
85A
102
{ACAD_REACTORS
330
D
102
}
330
D
100
AcDbGroup
300

 70
     1
 71
     1
  0
GROUP
  5
3BE
102
{ACAD_REACTORS
330
D
102
}
330
D
100
AcDbGroup
300

 70
     1
 71
     1
  0
GROUP
  5
331
102
{ACAD_REACTORS
330
D
102
}
330
D
100
AcDbGroup
300

 70
     1
 71
     1
  0
GROUP
  5
369
102
{ACAD_REACTORS
330
D
102
}
330
D
100
AcDbGroup
300

 70
     1
 71
     1
  0
GROUP
  5
A72
102
{ACAD_REACTORS
330
D
102
}
330
D
100
AcDbGroup
300

 70
     1
 71
     1
  0
GROUP
  5
10FD
102
{ACAD_REACTORS
330
D
102
}
330
D
100
AcDbGroup
300

 70
     1
 71
     1
  0
GROUP
  5
8ED
102
{ACAD_REACTORS
330
D
102
}
330
D
100
AcDbGroup
300

 70
     1
 71
     1
  0
GROUP
  5
2CEA
102
{ACAD_REACTORS
330
D
102
}
330
D
100
AcDbGroup
300

 70
     1
 71
     1
  0
GROUP
  5
869
102
{ACAD_REACTORS
330
D
102
}
330
D
100
AcDbGroup
300

 70
     1
 71
     1
  0
GROUP
  5
3277
102
{ACAD_REACTORS
330
D
102
}
330
D
100
AcDbGroup
300

 70
     1
 71
     1
  0
GROUP
  5
8F6
102
{ACAD_REACTORS
330
D
102
}
330
D
100
AcDbGroup
300

 70
     1
 71
     1
  0
GROUP
  5
8E4
102
{ACAD_REACTORS
330
D
102
}
330
D
100
AcDbGroup
300

 70
     1
 71
     1
  0
GROUP
  5
885
102
{ACAD_REACTORS
330
D
102
}
330
D
100
AcDbGroup
300

 70
     1
 71
     1
  0
GROUP
  5
886
102
{ACAD_REACTORS
330
D
102
}
330
D
100
AcDbGroup
300

 70
     1
 71
     1
  0
GROUP
  5
8D4
102
{ACAD_REACTORS
330
D
102
}
330
D
100
AcDbGroup
300

 70
     1
 71
     1
  0
GROUP
  5
8E3
102
{ACAD_REACTORS
330
D
102
}
330
D
100
AcDbGroup
300

 70
     1
 71
     1
  0
GROUP
  5
2134
102
{ACAD_REACTORS
330
D
102
}
330
D
100
AcDbGroup
300

 70
     1
 71
     1
  0
GROUP
  5
1A87
102
{ACAD_REACTORS
330
D
102
}
330
D
100
AcDbGroup
300

 70
     1
 71
     1
  0
GROUP
  5
905
102
{ACAD_REACTORS
330
D
102
}
330
D
100
AcDbGroup
300

 70
     1
 71
     1
  0
GROUP
  5
93F
102
{ACAD_REACTORS
330
D
102
}
330
D
100
AcDbGroup
300

 70
     1
 71
     1
  0
GROUP
  5
90F
102
{ACAD_REACTORS
330
D
102
}
330
D
100
AcDbGroup
300

 70
     1
 71
     1
  0
GROUP
  5
91E
102
{ACAD_REACTORS
330
D
102
}
330
D
100
AcDbGroup
300

 70
     1
 71
     1
  0
GROUP
  5
92D
102
{ACAD_REACTORS
330
D
102
}
330
D
100
AcDbGroup
300

 70
     1
 71
     1
  0
LAYOUT
  5
FEB
102
{ACAD_REACTORS
330
1A
102
}
330
1A
100
AcDbPlotSettings
  1

  2
EPSON Stylus COLOR 1520
  4
A4
  6

 40
3.757083177566528
 41
14.7637300491333
 42
3.757080078125
 43
3.757080078125
 44
209.9733276367187
 45
296.9683227539062
 46
0.0
 47
0.0
 48
0.0
 49
0.0
140
0.0
141
0.0
142
1.0
143
1.0
 70
   688
 72
     1
 73
     1
 74
     5
  7

 75
    16
147
1.0
148
0.0
149
0.0
100
AcDbLayout
  1
Layout1
 70
     1
 71
     1
 10
-3.757080078125
 20
-3.757083177566528
 11
293.2112426757812
 21
206.2162444591522
 12
0.0
 22
0.0
 32
0.0
 14
-3.400241753399768
 24
-2.934382174902054
 34
0.0
 15
292.8544043510557
 25
206.1211149578283
 35
0.0
146
0.0
 13
0.0
 23
0.0
 33
0.0
 16
1.0
 26
0.0
 36
0.0
 17
0.0
 27
1.0
 37
0.0
 76
     0
330
FEA
331
FF1
  0
LAYOUT
  5
22
102
{ACAD_REACTORS
330
1A
102
}
330
1A
100
AcDbPlotSettings
  1

  2
EPSON Stylus COLOR 1520
  4
A4
  6

 40
3.757083177566528
 41
14.7637300491333
 42
3.757080078125
 43
3.757080078125
 44
209.9733276367187
 45
296.9683227539062
 46
0.0
 47
0.0
 48
0.0
 49
0.0
140
0.0
141
0.0
142
1.0
143
1.0
 70
 11952
 72
     1
 73
     1
 74
     0
  7

 75
     0
147
1.0
148
-89.73529411764705
149
0.0
100
AcDbLayout
  1
Model
 70
     1
 71
     0
 10
0.0
 20
0.0
 11
12.0
 21
9.0
 12
0.0
 22
0.0
 32
0.0
 14
0.0
 24
0.0
 34
0.0
 15
0.0
 25
0.0
 35
0.0
146
0.0
 13
0.0
 23
0.0
 33
0.0
 16
1.0
 26
0.0
 36
0.0
 17
0.0
 27
1.0
 37
0.0
 76
     0
330
1F
  0
MLINESTYLE
  5
18
102
{ACAD_REACTORS
330
17
102
}
330
17
100
AcDbMlineStyle
  2
STANDARD
 70
     0
  3

 62
   256
 51
90.0
 52
90.0
 71
     2
 49
0.5
 62
   256
  6
BYLAYER
 49
-0.5
 62
   256
  6
BYLAYER
  0
ACDBPLACEHOLDER
  5
F
102
{ACAD_REACTORS
330
E
102
}
330
E
  0
DICTIONARYVAR
  5
52
102
{ACAD_REACTORS
330
50
102
}
330
50
100
DictionaryVariables
280
     0
  1
2
  0
DICTIONARYVAR
  5
51
102
{ACAD_REACTORS
330
50
102
}
330
50
100
DictionaryVariables
280
     0
  1
1
  0
ENDSEC
  0
EOF
