  0
SECTION
  2
HEADER
  9
$ACADVER
  1
AC1015
  9
$ACADMAINTVER
 70
    13
  9
$DWGCODEPAGE
  3
ANSI_1252
  9
$INSBASE
 10
0.0
 20
0.0
 30
0.0
  9
$EXTMIN
 10
-30.20470569495896
 20
-79.98924886699592
 30
0.0
  9
$EXTMAX
 10
469.0041384220355
 20
229.9192955503432
 30
0.0
  9
$LIMMIN
 10
0.0
 20
0.0
  9
$LIMMAX
 10
420.0
 20
297.0
  9
$ORTHOMODE
 70
     1
  9
$REGENMODE
 70
     1
  9
$FILLMODE
 70
     1
  9
$QTEXTMODE
 70
     0
  9
$MIRRTEXT
 70
     1
  9
$LTSCALE
 40
1.0
  9
$ATTMODE
 70
     1
  9
$TEXTSIZE
 40
26.5350450929028
  9
$TRACEWID
 40
1.0
  9
$TEXTSTYLE
  7
Standard
  9
$CLAYER
  8
0
  9
$CELTYPE
  6
ByLayer
  9
$CECOLOR
 62
   256
  9
$CELTSCALE
 40
1.0
  9
$DISPSILH
 70
     0
  9
$DIMSCALE
 40
1.0
  9
$DIMASZ
 40
2.5
  9
$DIMEXO
 40
0.625
  9
$DIMDLI
 40
3.75
  9
$DIMRND
 40
0.0
  9
$DIMDLE
 40
0.0
  9
$DIMEXE
 40
1.25
  9
$DIMTP
 40
0.0
  9
$DIMTM
 40
0.0
  9
$DIMTXT
 40
2.5
  9
$DIMCEN
 40
2.5
  9
$DIMTSZ
 40
0.0
  9
$DIMTOL
 70
     0
  9
$DIMLIM
 70
     0
  9
$DIMTIH
 70
     0
  9
$DIMTOH
 70
     0
  9
$DIMSE1
 70
     0
  9
$DIMSE2
 70
     0
  9
$DIMTAD
 70
     1
  9
$DIMZIN
 70
     8
  9
$DIMBLK
  1

  9
$DIMASO
 70
     1
  9
$DIMSHO
 70
     1
  9
$DIMPOST
  1

  9
$DIMAPOST
  1

  9
$DIMALT
 70
     0
  9
$DIMALTD
 70
     3
  9
$DIMALTF
 40
0.03937007874016
  9
$DIMLFAC
 40
1.0
  9
$DIMTOFL
 70
     1
  9
$DIMTVP
 40
0.0
  9
$DIMTIX
 70
     0
  9
$DIMSOXD
 70
     0
  9
$DIMSAH
 70
     0
  9
$DIMBLK1
  1

  9
$DIMBLK2
  1

  9
$DIMSTYLE
  2
ISO-25
  9
$DIMCLRD
 70
     0
  9
$DIMCLRE
 70
     0
  9
$DIMCLRT
 70
     0
  9
$DIMTFAC
 40
1.0
  9
$DIMGAP
 40
0.625
  9
$DIMJUST
 70
     0
  9
$DIMSD1
 70
     0
  9
$DIMSD2
 70
     0
  9
$DIMTOLJ
 70
     0
  9
$DIMTZIN
 70
     8
  9
$DIMALTZ
 70
     0
  9
$DIMALTTZ
 70
     0
  9
$DIMUPT
 70
     0
  9
$DIMDEC
 70
     2
  9
$DIMTDEC
 70
     2
  9
$DIMALTU
 70
     2
  9
$DIMALTTD
 70
     3
  9
$DIMTXSTY
  7
Standard
  9
$DIMAUNIT
 70
     0
  9
$DIMADEC
 70
     0
  9
$DIMALTRND
 40
0.0
  9
$DIMAZIN
 70
     0
  9
$DIMDSEP
 70
    44
  9
$DIMATFIT
 70
     3
  9
$DIMFRAC
 70
     0
  9
$DIMLDRBLK
  1

  9
$DIMLUNIT
 70
     2
  9
$DIMLWD
 70
    -2
  9
$DIMLWE
 70
    -2
  9
$DIMTMOVE
 70
     0
  9
$LUNITS
 70
     2
  9
$LUPREC
 70
     4
  9
$SKETCHINC
 40
1.0
  9
$FILLETRAD
 40
3.0
  9
$AUNITS
 70
     0
  9
$AUPREC
 70
     0
  9
$MENU
  1
.
  9
$ELEVATION
 40
0.0
  9
$PELEVATION
 40
0.0
  9
$THICKNESS
 40
0.0
  9
$LIMCHECK
 70
     0
  9
$CHAMFERA
 40
10.0
  9
$CHAMFERB
 40
10.0
  9
$CHAMFERC
 40
20.0
  9
$CHAMFERD
 40
0.0
  9
$SKPOLY
 70
     0
  9
$TDCREATE
 40
2452181.456949305
  9
$TDUCREATE
 40
2452181.415282638
  9
$TDUPDATE
 40
2452321.498221180
  9
$TDUUPDATE
 40
2452321.456554514
  9
$TDINDWG
 40
0.9880657407
  9
$TDUSRTIMER
 40
0.9880562500
  9
$USRTIMER
 70
     1
  9
$ANGBASE
 50
0.0
  9
$ANGDIR
 70
     0
  9
$PDMODE
 70
     0
  9
$PDSIZE
 40
0.0
  9
$PLINEWID
 40
0.0
  9
$SPLFRAME
 70
     0
  9
$SPLINETYPE
 70
     6
  9
$SPLINESEGS
 70
     8
  9
$HANDSEED
  5
2094
  9
$SURFTAB1
 70
     6
  9
$SURFTAB2
 70
     6
  9
$SURFTYPE
 70
     6
  9
$SURFU
 70
     6
  9
$SURFV
 70
     6
  9
$UCSBASE
  2

  9
$UCSNAME
  2

  9
$UCSORG
 10
-53.08748352590964
 20
3.820899076262548
 30
0.0
  9
$UCSXDIR
 10
1.0
 20
0.0
 30
0.0
  9
$UCSYDIR
 10
0.0
 20
1.0
 30
0.0
  9
$UCSORTHOREF
  2

  9
$UCSORTHOVIEW
 70
     0
  9
$UCSORGTOP
 10
0.0
 20
0.0
 30
0.0
  9
$UCSORGBOTTOM
 10
0.0
 20
0.0
 30
0.0
  9
$UCSORGLEFT
 10
0.0
 20
0.0
 30
0.0
  9
$UCSORGRIGHT
 10
0.0
 20
0.0
 30
0.0
  9
$UCSORGFRONT
 10
0.0
 20
0.0
 30
0.0
  9
$UCSORGBACK
 10
0.0
 20
0.0
 30
0.0
  9
$PUCSBASE
  2

  9
$PUCSNAME
  2

  9
$PUCSORG
 10
0.0
 20
0.0
 30
0.0
  9
$PUCSXDIR
 10
1.0
 20
0.0
 30
0.0
  9
$PUCSYDIR
 10
0.0
 20
1.0
 30
0.0
  9
$PUCSORTHOREF
  2

  9
$PUCSORTHOVIEW
 70
     0
  9
$PUCSORGTOP
 10
0.0
 20
0.0
 30
0.0
  9
$PUCSORGBOTTOM
 10
0.0
 20
0.0
 30
0.0
  9
$PUCSORGLEFT
 10
0.0
 20
0.0
 30
0.0
  9
$PUCSORGRIGHT
 10
0.0
 20
0.0
 30
0.0
  9
$PUCSORGFRONT
 10
0.0
 20
0.0
 30
0.0
  9
$PUCSORGBACK
 10
0.0
 20
0.0
 30
0.0
  9
$USERI1
 70
     0
  9
$USERI2
 70
     0
  9
$USERI3
 70
     0
  9
$USERI4
 70
     0
  9
$USERI5
 70
     0
  9
$USERR1
 40
0.0
  9
$USERR2
 40
0.0
  9
$USERR3
 40
0.0
  9
$USERR4
 40
0.0
  9
$USERR5
 40
0.0
  9
$WORLDVIEW
 70
     1
  9
$SHADEDGE
 70
     3
  9
$SHADEDIF
 70
    70
  9
$TILEMODE
 70
     1
  9
$MAXACTVP
 70
    64
  9
$PINSBASE
 10
0.0
 20
0.0
 30
0.0
  9
$PLIMCHECK
 70
     0
  9
$PEXTMIN
 10
-3.400241753399768
 20
-2.934382174902054
 30
0.0
  9
$PEXTMAX
 10
292.8544043510557
 20
206.1211149578283
 30
0.0
  9
$PLIMMIN
 10
-3.757080078125
 20
-3.757083177566528
  9
$PLIMMAX
 10
293.2112426757812
 20
206.2162444591522
  9
$UNITMODE
 70
     0
  9
$VISRETAIN
 70
     1
  9
$PLINEGEN
 70
     0
  9
$PSLTSCALE
 70
     1
  9
$TREEDEPTH
 70
  3020
  9
$CMLSTYLE
  2
Standard
  9
$CMLJUST
 70
     0
  9
$CMLSCALE
 40
20.0
  9
$PROXYGRAPHICS
 70
     1
  9
$MEASUREMENT
 70
     1
  9
$CELWEIGHT
370
    -1
  9
$ENDCAPS
280
     0
  9
$JOINSTYLE
280
     0
  9
$LWDISPLAY
290
     0
  9
$INSUNITS
 70
     4
  9
$HYPERLINKBASE
  1

  9
$STYLESHEET
  1

  9
$XEDIT
290
     1
  9
$CEPSNTYPE
380
     0
  9
$PSTYLEMODE
290
     1
  9
$FINGERPRINTGUID
  2
{F84AA5D3-2765-4D6B-8594-ABD9F52FB735}
  9
$VERSIONGUID
  2
{5195CBE2-B435-4DF4-97D1-000E7172C2E0}
  9
$EXTNAMES
290
     1
  9
$PSVPSCALE
 40
0.0
  9
$OLESTARTUP
290
     0
  0
ENDSEC
  0
SECTION
  2
CLASSES
  0
CLASS
  1
ACDBDICTIONARYWDFLT
  2
AcDbDictionaryWithDefault
  3
AutoCAD 2000
 90
        0
280
     0
281
     0
  0
CLASS
  1
ACDBPLACEHOLDER
  2
AcDbPlaceHolder
  3
AutoCAD 2000
 90
        0
280
     0
281
     0
  0
CLASS
  1
LAYOUT
  2
AcDbLayout
  3
AutoCAD 2000
 90
        0
280
     0
281
     0
  0
CLASS
  1
DICTIONARYVAR
  2
AcDbDictionaryVar
  3
AutoCAD 2000
 90
        0
280
     0
281
     0
  0
CLASS
  1
DIMASSOC
  2
AcDbDimAssoc
  3
"AcDbDimAssoc|Product Desc:     AcDim ARX App For Dimension|Company:          Autodesk, Inc.|WEB Address:      www.autodesk.com"
 90
        0
280
     0
281
     0
  0
ENDSEC
  0
SECTION
  2
TABLES
  0
TABLE
  2
VPORT
  5
8
330
0
100
AcDbSymbolTable
 70
     2
  0
VPORT
  5
2093
330
8
100
AcDbSymbolTableRecord
100
AcDbViewportTableRecord
  2
*Active
 70
     0
 10
0.0
 20
0.0
 11
1.0
 21
1.0
 12
245.4997807963733
 22
73.62335545918324
 13
0.0
 23
0.0
 14
10.0
 24
10.0
 15
10.0
 25
10.0
 16
0.0
 26
0.0
 36
1.0
 17
0.0
 27
0.0
 37
0.0
 40
362.199007318353
 41
1.699453551912568
 42
50.0
 43
0.0
 44
0.0
 50
0.0
 51
0.0
 71
     0
 72
   100
 73
     1
 74
     3
 75
     1
 76
     0
 77
     0
 78
     0
281
     0
 65
     1
110
-53.08748352590964
120
3.820899076262548
130
0.0
111
1.0
121
0.0
131
0.0
112
0.0
122
1.0
132
0.0
 79
     0
146
0.0
  0
ENDTAB
  0
TABLE
  2
LTYPE
  5
5
330
0
100
AcDbSymbolTable
 70
     4
  0
LTYPE
  5
14
330
5
100
AcDbSymbolTableRecord
100
AcDbLinetypeTableRecord
  2
ByBlock
 70
     0
  3

 72
    65
 73
     0
 40
0.0
  0
LTYPE
  5
15
330
5
100
AcDbSymbolTableRecord
100
AcDbLinetypeTableRecord
  2
ByLayer
 70
     0
  3

 72
    65
 73
     0
 40
0.0
  0
LTYPE
  5
16
330
5
100
AcDbSymbolTableRecord
100
AcDbLinetypeTableRecord
  2
Continuous
 70
     0
  3
Solid line
 72
    65
 73
     0
 40
0.0
  0
LTYPE
  5
2D
330
5
100
AcDbSymbolTableRecord
100
AcDbLinetypeTableRecord
  2
MITTE
 70
     0
  3
Mitte ____ _ ____ _ ____ _ ____ _ ____ _ ____
 72
    65
 73
     4
 40
50.8
 49
31.75
 74
     0
 49
-6.349999999999999
 74
     0
 49
6.349999999999999
 74
     0
 49
-6.349999999999999
 74
     0
  0
LTYPE
  5
39
330
5
100
AcDbSymbolTableRecord
100
AcDbLinetypeTableRecord
  2
VERDECKT
 70
     0
  3
Verdeckt __ __ __ __ __ __ __ __ __ __ __ __ __
 72
    65
 73
     2
 40
9.524999999999998
 49
6.349999999999999
 74
     0
 49
-3.174999999999999
 74
     0
  0
LTYPE
  5
AE7
330
5
100
AcDbSymbolTableRecord
100
AcDbLinetypeTableRecord
  2
CENTER
 70
     0
  3
____ _ ____ _ ____ _ ____ _ ____ _ ____ _ ____
 72
    65
 73
     4
 40
17.5
 49
13.0
 74
     0
 49
-1.5
 74
     0
 49
1.5
 74
     0
 49
-1.5
 74
     0
  0
ENDTAB
  0
TABLE
  2
LAYER
  5
2
330
0
100
AcDbSymbolTable
 70
     6
  0
LAYER
  5
10
330
2
100
AcDbSymbolTableRecord
100
AcDbLayerTableRecord
  2
0
 70
     0
 62
     7
  6
Continuous
370
    35
390
F
  0
LAYER
  5
2E
330
2
100
AcDbSymbolTableRecord
100
AcDbLayerTableRecord
  2
Mittellinie
 70
     0
 62
     3
  6
MITTE
370
    18
390
F
  0
LAYER
  5
3A
330
2
100
AcDbSymbolTableRecord
100
AcDbLayerTableRecord
  2
Unsichtbar
 70
     0
 62
     5
  6
Continuous
370
    18
390
F
  0
LAYER
  5
87
330
2
100
AcDbSymbolTableRecord
100
AcDbLayerTableRecord
  2
Innenkanten
 70
     0
 62
     1
  6
Continuous
370
    25
390
F
  0
LAYER
  5
46F
330
2
100
AcDbSymbolTableRecord
100
AcDbLayerTableRecord
  2
Defpoints
 70
     0
 62
     6
  6
Continuous
290
     0
370
    15
390
F
  0
LAYER
  5
9F1
330
2
100
AcDbSymbolTableRecord
100
AcDbLayerTableRecord
  2
Bemaßung
 70
     0
 62
     6
  6
Continuous
370
    15
390
F
  0
ENDTAB
  0
TABLE
  2
STYLE
  5
3
330
0
100
AcDbSymbolTable
 70
     2
  0
STYLE
  5
11
330
3
100
AcDbSymbolTableRecord
100
AcDbTextStyleTableRecord
  2
Standard
 70
     0
 40
0.0
 41
1.0
 50
0.0
 71
     0
 42
26.5350450929028
  3
txt
  4

  0
STYLE
  5
2C
330
3
100
AcDbSymbolTableRecord
100
AcDbTextStyleTableRecord
  2

 70
     1
 40
0.0
 41
1.0
 50
0.0
 71
     0
 42
2.5
  3
ltypeshp.shx
  4

  0
ENDTAB
  0
TABLE
  2
VIEW
  5
6
330
0
100
AcDbSymbolTable
 70
     1
  0
VIEW
  5
81C
330
6
100
AcDbSymbolTableRecord
100
AcDbViewTableRecord
  2
tom
 70
     0
 40
127.2859585283894
 10
166.2856675397948
 20
206.2562233711272
 41
204.2020725054376
 11
0.0
 21
0.0
 31
1.0
 12
0.0
 22
0.0
 32
0.0
 42
50.0
 43
0.0
 44
0.0
 50
0.0
 71
     0
281
     0
 72
     1
110
-53.08748352590964
120
3.820899076262548
130
0.0
111
1.0
121
0.0
131
0.0
112
0.0
122
1.0
132
0.0
 79
     0
146
0.0
  0
ENDTAB
  0
TABLE
  2
UCS
  5
7
330
0
100
AcDbSymbolTable
 70
     0
  0
ENDTAB
  0
TABLE
  2
APPID
  5
9
330
0
100
AcDbSymbolTable
 70
     1
  0
APPID
  5
12
330
9
100
AcDbSymbolTableRecord
100
AcDbRegAppTableRecord
  2
ACAD
 70
     0
  0
ENDTAB
  0
TABLE
  2
DIMSTYLE
  5
A
330
0
100
AcDbSymbolTable
 70
     2
100
AcDbDimStyleTable
 71
     1
340
27
  0
DIMSTYLE
105
27
102
{ACAD_REACTORS
330
17C2
330
17FE
330
1A32
330
1AAE
330
1AD0
330
1B0D
330
1B78
330
1B9B
330
1BBC
330
1BDD
330
1C01
330
1C24
330
1C46
330
1D10
330
1E2D
102
}
330
A
100
AcDbSymbolTableRecord
100
AcDbDimStyleTableRecord
  2
ISO-25
 70
     0
 41
2.5
 42
0.625
 43
3.75
 44
1.25
 73
     0
 74
     0
 77
     1
 78
     8
140
2.5
141
2.5
143
0.03937007874016
147
0.625
171
     3
172
     1
271
     2
272
     2
274
     3
278
    44
283
     0
284
     8
340
11
  0
DIMSTYLE
105
AE8
330
A
100
AcDbSymbolTableRecord
100
AcDbDimStyleTableRecord
  2
STANDARD
 70
     0
 41
2.5
 73
     0
 77
     1
140
2.5
141
-0.09
147
0.2
176
     6
178
     6
271
     0
272
     0
279
     1
289
     2
340
11
371
    15
  0
ENDTAB
  0
TABLE
  2
BLOCK_RECORD
  5
1
330
0
100
AcDbSymbolTable
 70
    42
  0
BLOCK_RECORD
  5
1F
330
1
100
AcDbSymbolTableRecord
100
AcDbBlockTableRecord
  2
*Model_Space
340
22
  0
BLOCK_RECORD
  5
FEA
330
1
100
AcDbSymbolTableRecord
100
AcDbBlockTableRecord
  2
*Paper_Space
340
FEB
  0
BLOCK_RECORD
  5
17C3
330
1
100
AcDbSymbolTableRecord
100
AcDbBlockTableRecord
  2
*D15
340
0
  0
BLOCK_RECORD
  5
17FF
330
1
100
AcDbSymbolTableRecord
100
AcDbBlockTableRecord
  2
*D16
340
0
  0
BLOCK_RECORD
  5
1A33
330
1
100
AcDbSymbolTableRecord
100
AcDbBlockTableRecord
  2
*D21
340
0
  0
BLOCK_RECORD
  5
1AAF
330
1
100
AcDbSymbolTableRecord
100
AcDbBlockTableRecord
  2
*D24
340
0
  0
BLOCK_RECORD
  5
1AD1
330
1
100
AcDbSymbolTableRecord
100
AcDbBlockTableRecord
  2
*D25
340
0
  0
BLOCK_RECORD
  5
1B0E
330
1
100
AcDbSymbolTableRecord
100
AcDbBlockTableRecord
  2
*D26
340
0
  0
BLOCK_RECORD
  5
1B79
330
1
100
AcDbSymbolTableRecord
100
AcDbBlockTableRecord
  2
*D27
340
0
  0
BLOCK_RECORD
  5
1B9C
330
1
100
AcDbSymbolTableRecord
100
AcDbBlockTableRecord
  2
*D28
340
0
  0
BLOCK_RECORD
  5
1BBD
330
1
100
AcDbSymbolTableRecord
100
AcDbBlockTableRecord
  2
*D29
340
0
  0
BLOCK_RECORD
  5
1BDE
330
1
100
AcDbSymbolTableRecord
100
AcDbBlockTableRecord
  2
*D30
340
0
  0
BLOCK_RECORD
  5
1C02
330
1
100
AcDbSymbolTableRecord
100
AcDbBlockTableRecord
  2
*D31
340
0
  0
BLOCK_RECORD
  5
1C25
330
1
100
AcDbSymbolTableRecord
100
AcDbBlockTableRecord
  2
*D32
340
0
  0
BLOCK_RECORD
  5
1C47
330
1
100
AcDbSymbolTableRecord
100
AcDbBlockTableRecord
  2
*D33
340
0
  0
BLOCK_RECORD
  5
1D11
330
1
100
AcDbSymbolTableRecord
100
AcDbBlockTableRecord
  2
*D34
340
0
  0
BLOCK_RECORD
  5
1E2E
330
1
100
AcDbSymbolTableRecord
100
AcDbBlockTableRecord
  2
*D37
340
0
  0
ENDTAB
  0
ENDSEC
  0
SECTION
  2
BLOCKS
  0
BLOCK
  5
20
330
1F
100
AcDbEntity
  8
0
100
AcDbBlockBegin
  2
*Model_Space
 70
     0
 10
0.0
 20
0.0
 30
0.0
  3
*Model_Space
  1

  0
ENDBLK
  5
21
330
1F
100
AcDbEntity
  8
0
100
AcDbBlockEnd
  0
BLOCK
  5
FEC
330
FEA
100
AcDbEntity
 67
     1
  8
0
100
AcDbBlockBegin
  2
*Paper_Space
 70
     0
 10
0.0
 20
0.0
 30
0.0
  3
*Paper_Space
  1

  0
ENDBLK
  5
FED
330
FEA
100
AcDbEntity
 67
     1
  8
0
100
AcDbBlockEnd
  0
BLOCK
  5
17CD
330
17C3
100
AcDbEntity
  8
0
100
AcDbBlockBegin
  2
*D15
 70
     1
 10
0.0
 20
0.0
 30
0.0
  3
*D15
  1

  0
LINE
  5
2085
330
17C3
100
AcDbEntity
  8
Bemaßung
 62
     0
370
    -2
100
AcDbLine
 10
301.0517731034484
 20
193.4058071910003
 30
0.0
 11
301.0517731034484
 21
227.6276288836764
 31
0.0
  0
LINE
  5
2086
330
17C3
100
AcDbEntity
  8
Bemaßung
 62
     0
370
    -2
100
AcDbLine
 10
423.55181280664
 20
214.0308071910003
 30
0.0
 11
423.55181280664
 21
227.6276288836764
 31
0.0
  0
LINE
  5
2087
330
17C3
100
AcDbEntity
  8
Bemaßung
 62
     0
370
    -2
100
AcDbLine
 10
303.5517731034484
 20
226.3776288836765
 30
0.0
 11
421.0518128066399
 21
226.3776288836765
 31
0.0
  0
SOLID
  5
2088
330
17C3
100
AcDbEntity
  8
Bemaßung
 62
     0
100
AcDbTrace
 10
303.5517731034484
 20
226.7942955503431
 30
0.0
 11
303.5517731034484
 21
225.9609622170098
 31
0.0
 12
301.0517731034484
 22
226.3776288836765
 32
0.0
 13
301.0517731034484
 23
226.3776288836765
 33
0.0
  0
SOLID
  5
2089
330
17C3
100
AcDbEntity
  8
Bemaßung
 62
     0
100
AcDbTrace
 10
421.0518128066399
 20
226.7942955503431
 30
0.0
 11
421.0518128066399
 21
225.9609622170098
 31
0.0
 12
423.55181280664
 22
226.3776288836765
 32
0.0
 13
423.55181280664
 23
226.3776288836765
 33
0.0
  0
MTEXT
  5
208A
330
17C3
100
AcDbEntity
  8
Bemaßung
 62
     0
100
AcDbMText
 10
362.3017929550442
 20
228.4609622170098
 30
0.0
 40
2.5
 41
0.0
 71
     5
 72
     1
  1
122,5
 73
     1
 44
1.0
  0
POINT
  5
208B
330
17C3
100
AcDbEntity
  8
Defpoints
 62
     0
100
AcDbPoint
 10
301.0517731034484
 20
192.7808071910003
 30
0.0
  0
POINT
  5
208C
330
17C3
100
AcDbEntity
  8
Defpoints
 62
     0
100
AcDbPoint
 10
423.55181280664
 20
213.4058071910003
 30
0.0
  0
POINT
  5
208D
330
17C3
100
AcDbEntity
  8
Defpoints
 62
     0
100
AcDbPoint
 10
423.55181280664
 20
226.3776288836765
 30
0.0
  0
ENDBLK
  5
17CE
330
17C3
100
AcDbEntity
  8
0
100
AcDbBlockEnd
  0
BLOCK
  5
1809
330
17FF
100
AcDbEntity
  8
0
100
AcDbBlockBegin
  2
*D16
 70
     1
 10
0.0
 20
0.0
 30
0.0
  3
*D16
  1

  0
LINE
  5
205E
330
17FF
100
AcDbEntity
  8
Bemaßung
 62
     0
370
    -2
100
AcDbLine
 10
371.05179280664
 20
152.5171611910002
 30
0.0
 11
371.05179280664
 21
144.6235258740389
 31
0.0
  0
LINE
  5
205F
330
17FF
100
AcDbEntity
  8
Bemaßung
 62
     0
370
    -2
100
AcDbLine
 10
423.55181280664
 20
172.1558071910003
 30
0.0
 11
423.55181280664
 21
144.6235258740389
 31
0.0
  0
LINE
  5
2060
330
17FF
100
AcDbEntity
  8
Bemaßung
 62
     0
370
    -2
100
AcDbLine
 10
373.5517928066399
 20
145.8735258740389
 30
0.0
 11
421.0518128066399
 21
145.8735258740389
 31
0.0
  0
SOLID
  5
2061
330
17FF
100
AcDbEntity
  8
Bemaßung
 62
     0
100
AcDbTrace
 10
373.5517928066399
 20
146.2901925407055
 30
0.0
 11
373.5517928066399
 21
145.4568592073722
 31
0.0
 12
371.05179280664
 22
145.8735258740389
 32
0.0
 13
371.05179280664
 23
145.8735258740389
 33
0.0
  0
SOLID
  5
2062
330
17FF
100
AcDbEntity
  8
Bemaßung
 62
     0
100
AcDbTrace
 10
421.0518128066399
 20
146.2901925407055
 30
0.0
 11
421.0518128066399
 21
145.4568592073722
 31
0.0
 12
423.55181280664
 22
145.8735258740389
 32
0.0
 13
423.55181280664
 23
145.8735258740389
 33
0.0
  0
MTEXT
  5
2063
330
17FF
100
AcDbEntity
  8
Bemaßung
 62
     0
100
AcDbMText
 10
397.30180280664
 20
147.9568592073722
 30
0.0
 40
2.5
 41
0.0
 71
     5
 72
     1
  1
52,5
 73
     1
 44
1.0
  0
POINT
  5
2064
330
17FF
100
AcDbEntity
  8
Defpoints
 62
     0
100
AcDbPoint
 10
371.05179280664
 20
153.1421611910003
 30
0.0
  0
POINT
  5
2065
330
17FF
100
AcDbEntity
  8
Defpoints
 62
     0
100
AcDbPoint
 10
423.55181280664
 20
172.7808071910003
 30
0.0
  0
POINT
  5
2066
330
17FF
100
AcDbEntity
  8
Defpoints
 62
     0
100
AcDbPoint
 10
423.55181280664
 20
145.8735258740389
 30
0.0
  0
ENDBLK
  5
180A
330
17FF
100
AcDbEntity
  8
0
100
AcDbBlockEnd
  0
BLOCK
  5
1A3F
330
1A33
100
AcDbEntity
  8
0
100
AcDbBlockBegin
  2
*D21
 70
     1
 10
0.0
 20
0.0
 30
0.0
  3
*D21
  1

  0
LINE
  5
2041
330
1A33
100
AcDbEntity
  8
Bemaßung
 62
     0
370
    -2
100
AcDbLine
 10
418.55181280664
 20
213.4058071910003
 30
0.0
 11
418.55181280664
 21
221.5968079381807
 31
0.0
  0
LINE
  5
2042
330
1A33
100
AcDbEntity
  8
Bemaßung
 62
     0
370
    -2
100
AcDbLine
 10
423.55181280664
 20
213.4058071910003
 30
0.0
 11
423.55181280664
 21
221.5968079381807
 31
0.0
  0
LINE
  5
2043
330
1A33
100
AcDbEntity
  8
Bemaßung
 62
     0
370
    -2
100
AcDbLine
 10
416.0518128066399
 20
220.3468079381807
 30
0.0
 11
413.5518128066399
 21
220.3468079381807
 31
0.0
  0
LINE
  5
2044
330
1A33
100
AcDbEntity
  8
Bemaßung
 62
     0
370
    -2
100
AcDbLine
 10
426.0518128066399
 20
220.3468079381807
 30
0.0
 11
428.5518128066399
 21
220.3468079381807
 31
0.0
  0
LINE
  5
2045
330
1A33
100
AcDbEntity
  8
Bemaßung
 62
     0
370
    -2
100
AcDbLine
 10
418.55181280664
 20
220.3468079381807
 30
0.0
 11
423.55181280664
 21
220.3468079381807
 31
0.0
  0
SOLID
  5
2046
330
1A33
100
AcDbEntity
  8
Bemaßung
 62
     0
100
AcDbTrace
 10
416.0518128066399
 20
220.7634746048474
 30
0.0
 11
416.0518128066399
 21
219.930141271514
 31
0.0
 12
418.55181280664
 22
220.3468079381807
 32
0.0
 13
418.55181280664
 23
220.3468079381807
 33
0.0
  0
SOLID
  5
2047
330
1A33
100
AcDbEntity
  8
Bemaßung
 62
     0
100
AcDbTrace
 10
426.0518128066399
 20
220.7634746048474
 30
0.0
 11
426.0518128066399
 21
219.930141271514
 31
0.0
 12
423.55181280664
 22
220.3468079381807
 32
0.0
 13
423.55181280664
 23
220.3468079381807
 33
0.0
  0
MTEXT
  5
2048
330
1A33
100
AcDbEntity
  8
Bemaßung
 62
     0
100
AcDbMText
 10
421.0518128066399
 20
222.2218079381807
 30
0.0
 40
2.5
 41
0.0
 71
     5
 72
     1
  1
5
 73
     1
 44
1.0
  0
POINT
  5
2049
330
1A33
100
AcDbEntity
  8
Defpoints
 62
     0
100
AcDbPoint
 10
418.55181280664
 20
212.7808071910003
 30
0.0
  0
POINT
  5
204A
330
1A33
100
AcDbEntity
  8
Defpoints
 62
     0
100
AcDbPoint
 10
423.55181280664
 20
212.7808071910003
 30
0.0
  0
POINT
  5
204B
330
1A33
100
AcDbEntity
  8
Defpoints
 62
     0
100
AcDbPoint
 10
423.55181280664
 20
220.3468079381807
 30
0.0
  0
ENDBLK
  5
1A40
330
1A33
100
AcDbEntity
  8
0
100
AcDbBlockEnd
  0
BLOCK
  5
1AB9
330
1AAF
100
AcDbEntity
  8
0
100
AcDbBlockBegin
  2
*D24
 70
     1
 10
0.0
 20
0.0
 30
0.0
  3
*D24
  1

  0
LINE
  5
2024
330
1AAF
100
AcDbEntity
  8
Bemaßung
 62
     0
370
    -2
100
AcDbLine
 10
423.55181280664
 20
214.0308071910003
 30
0.0
 11
423.55181280664
 21
227.6276288836764
 31
0.0
  0
LINE
  5
2025
330
1AAF
100
AcDbEntity
  8
Bemaßung
 62
     0
370
    -2
100
AcDbLine
 10
448.55181280664
 20
197.4058071910003
 30
0.0
 11
448.55181280664
 21
227.6276288836764
 31
0.0
  0
LINE
  5
2026
330
1AAF
100
AcDbEntity
  8
Bemaßung
 62
     0
370
    -2
100
AcDbLine
 10
426.0518128066399
 20
226.3776288836764
 30
0.0
 11
446.0518128066399
 21
226.3776288836764
 31
0.0
  0
SOLID
  5
2027
330
1AAF
100
AcDbEntity
  8
Bemaßung
 62
     0
100
AcDbTrace
 10
426.0518128066399
 20
226.7942955503431
 30
0.0
 11
426.0518128066399
 21
225.9609622170097
 31
0.0
 12
423.55181280664
 22
226.3776288836764
 32
0.0
 13
423.55181280664
 23
226.3776288836764
 33
0.0
  0
SOLID
  5
2028
330
1AAF
100
AcDbEntity
  8
Bemaßung
 62
     0
100
AcDbTrace
 10
446.0518128066399
 20
226.7942955503431
 30
0.0
 11
446.0518128066399
 21
225.9609622170097
 31
0.0
 12
448.55181280664
 22
226.3776288836764
 32
0.0
 13
448.55181280664
 23
226.3776288836764
 33
0.0
  0
MTEXT
  5
2029
330
1AAF
100
AcDbEntity
  8
Bemaßung
 62
     0
100
AcDbMText
 10
436.05181280664
 20
228.2526288836764
 30
0.0
 40
2.5
 41
0.0
 71
     5
 72
     1
  1
25
 73
     1
 44
1.0
  0
POINT
  5
202A
330
1AAF
100
AcDbEntity
  8
Defpoints
 62
     0
100
AcDbPoint
 10
423.55181280664
 20
213.4058071910003
 30
0.0
  0
POINT
  5
202B
330
1AAF
100
AcDbEntity
  8
Defpoints
 62
     0
100
AcDbPoint
 10
448.55181280664
 20
196.7808071910003
 30
0.0
  0
POINT
  5
202C
330
1AAF
100
AcDbEntity
  8
Defpoints
 62
     0
100
AcDbPoint
 10
448.55181280664
 20
226.3776288836764
 30
0.0
  0
ENDBLK
  5
1ABA
330
1AAF
100
AcDbEntity
  8
0
100
AcDbBlockEnd
  0
BLOCK
  5
1ADD
330
1AD1
100
AcDbEntity
  8
0
100
AcDbBlockBegin
  2
*D25
 70
     1
 10
0.0
 20
0.0
 30
0.0
  3
*D25
  1

  0
LINE
  5
2036
330
1AD1
100
AcDbEntity
  8
Bemaßung
 62
     0
370
    -2
100
AcDbLine
 10
423.55181280664
 20
172.1558071910003
 30
0.0
 11
423.55181280664
 21
165.3618270417863
 31
0.0
  0
LINE
  5
2037
330
1AD1
100
AcDbEntity
  8
Bemaßung
 62
     0
370
    -2
100
AcDbLine
 10
426.0518128066399
 20
177.1558071910003
 30
0.0
 11
426.0518128066399
 21
165.3618270417863
 31
0.0
  0
LINE
  5
2038
330
1AD1
100
AcDbEntity
  8
Bemaßung
 62
     0
370
    -2
100
AcDbLine
 10
421.0518128066399
 20
166.6118270417863
 30
0.0
 11
418.55181280664
 21
166.6118270417863
 31
0.0
  0
LINE
  5
2039
330
1AD1
100
AcDbEntity
  8
Bemaßung
 62
     0
370
    -2
100
AcDbLine
 10
428.5518128066399
 20
166.6118270417863
 30
0.0
 11
437.7184794733066
 21
166.6118270417863
 31
0.0
  0
LINE
  5
203A
330
1AD1
100
AcDbEntity
  8
Bemaßung
 62
     0
370
    -2
100
AcDbLine
 10
423.55181280664
 20
166.6118270417863
 30
0.0
 11
426.0518128066399
 21
166.6118270417863
 31
0.0
  0
SOLID
  5
203B
330
1AD1
100
AcDbEntity
  8
Bemaßung
 62
     0
100
AcDbTrace
 10
421.0518128066399
 20
167.028493708453
 30
0.0
 11
421.0518128066399
 21
166.1951603751196
 31
0.0
 12
423.55181280664
 22
166.6118270417863
 32
0.0
 13
423.55181280664
 23
166.6118270417863
 33
0.0
  0
SOLID
  5
203C
330
1AD1
100
AcDbEntity
  8
Bemaßung
 62
     0
100
AcDbTrace
 10
428.5518128066399
 20
167.028493708453
 30
0.0
 11
428.5518128066399
 21
166.1951603751196
 31
0.0
 12
426.0518128066399
 22
166.6118270417863
 32
0.0
 13
426.0518128066399
 23
166.6118270417863
 33
0.0
  0
MTEXT
  5
203D
330
1AD1
100
AcDbEntity
  8
Bemaßung
 62
     0
100
AcDbMText
 10
434.3851461399733
 20
168.6951603751196
 30
0.0
 40
2.5
 41
0.0
 71
     5
 72
     1
  1
2,5
 73
     1
 44
1.0
  0
POINT
  5
203E
330
1AD1
100
AcDbEntity
  8
Defpoints
 62
     0
100
AcDbPoint
 10
423.55181280664
 20
172.7808071910003
 30
0.0
  0
POINT
  5
203F
330
1AD1
100
AcDbEntity
  8
Defpoints
 62
     0
100
AcDbPoint
 10
426.0518128066399
 20
177.7808071910003
 30
0.0
  0
POINT
  5
2040
330
1AD1
100
AcDbEntity
  8
Defpoints
 62
     0
100
AcDbPoint
 10
426.0518128066399
 20
166.6118270417863
 30
0.0
  0
ENDBLK
  5
1ADE
330
1AD1
100
AcDbEntity
  8
0
100
AcDbBlockEnd
  0
BLOCK
  5
1B19
330
1B0E
100
AcDbEntity
  8
0
100
AcDbBlockBegin
  2
*D26
 70
     1
 10
0.0
 20
0.0
 30
0.0
  3
*D26
  1

  0
LINE
  5
204C
330
1B0E
100
AcDbEntity
  8
Bemaßung
 62
     0
370
    -2
100
AcDbLine
 10
449.1768128066399
 20
196.7808071910003
 30
0.0
 11
461.1425116892093
 21
196.7808071910003
 31
0.0
  0
LINE
  5
204D
330
1B0E
100
AcDbEntity
  8
Bemaßung
 62
     0
370
    -2
100
AcDbLine
 10
449.1768128066399
 20
188.7808071910003
 30
0.0
 11
461.1425116892093
 21
188.7808071910003
 31
0.0
  0
LINE
  5
204E
330
1B0E
100
AcDbEntity
  8
Bemaßung
 62
     0
370
    -2
100
AcDbLine
 10
459.8925116892094
 20
194.2808071910003
 30
0.0
 11
459.8925116892094
 21
191.2808071910003
 31
0.0
  0
SOLID
  5
204F
330
1B0E
100
AcDbEntity
  8
Bemaßung
 62
     0
100
AcDbTrace
 10
459.4758450225427
 20
194.2808071910003
 30
0.0
 11
460.3091783558761
 21
194.2808071910003
 31
0.0
 12
459.8925116892094
 22
196.7808071910003
 32
0.0
 13
459.8925116892094
 23
196.7808071910003
 33
0.0
  0
SOLID
  5
2050
330
1B0E
100
AcDbEntity
  8
Bemaßung
 62
     0
100
AcDbTrace
 10
459.4758450225427
 20
191.2808071910003
 30
0.0
 11
460.3091783558761
 21
191.2808071910003
 31
0.0
 12
459.8925116892094
 22
188.7808071910003
 32
0.0
 13
459.8925116892094
 23
188.7808071910003
 33
0.0
  0
MTEXT
  5
2051
330
1B0E
100
AcDbEntity
  8
Bemaßung
 62
     0
100
AcDbMText
 10
458.0175116892093
 20
192.7808071910004
 30
0.0
 40
2.5
 41
0.0
 71
     5
 72
     1
  1
8
 11
0.0000000000000001
 21
1.0
 31
0.0
 73
     1
 44
1.0
  0
POINT
  5
2052
330
1B0E
100
AcDbEntity
  8
Defpoints
 62
     0
100
AcDbPoint
 10
448.55181280664
 20
196.7808071910003
 30
0.0
  0
POINT
  5
2053
330
1B0E
100
AcDbEntity
  8
Defpoints
 62
     0
100
AcDbPoint
 10
448.55181280664
 20
188.7808071910003
 30
0.0
  0
POINT
  5
2054
330
1B0E
100
AcDbEntity
  8
Defpoints
 62
     0
100
AcDbPoint
 10
459.8925116892094
 20
188.7808071910003
 30
0.0
  0
ENDBLK
  5
1B1A
330
1B0E
100
AcDbEntity
  8
0
100
AcDbBlockEnd
  0
BLOCK
  5
1B83
330
1B79
100
AcDbEntity
  8
0
100
AcDbBlockBegin
  2
*D27
 70
     1
 10
0.0
 20
0.0
 30
0.0
  3
*D27
  1

  0
LINE
  5
202D
330
1B79
100
AcDbEntity
  8
Bemaßung
 62
     0
370
    -2
100
AcDbLine
 10
426.67681280664
 20
207.7808071910003
 30
0.0
 11
469.0041384220355
 21
207.7808071910002
 31
0.0
  0
LINE
  5
202E
330
1B79
100
AcDbEntity
  8
Bemaßung
 62
     0
370
    -2
100
AcDbLine
 10
426.67681280664
 20
177.7808071910003
 30
0.0
 11
469.0041384220355
 21
177.7808071910002
 31
0.0
  0
LINE
  5
202F
330
1B79
100
AcDbEntity
  8
Bemaßung
 62
     0
370
    -2
100
AcDbLine
 10
467.7541384220355
 20
205.2808071910003
 30
0.0
 11
467.7541384220355
 21
180.2808071910003
 31
0.0
  0
SOLID
  5
2030
330
1B79
100
AcDbEntity
  8
Bemaßung
 62
     0
100
AcDbTrace
 10
467.3374717553689
 20
205.2808071910003
 30
0.0
 11
468.1708050887023
 21
205.2808071910003
 31
0.0
 12
467.7541384220355
 22
207.7808071910002
 32
0.0
 13
467.7541384220355
 23
207.7808071910002
 33
0.0
  0
SOLID
  5
2031
330
1B79
100
AcDbEntity
  8
Bemaßung
 62
     0
100
AcDbTrace
 10
467.3374717553689
 20
180.2808071910003
 30
0.0
 11
468.1708050887023
 21
180.2808071910003
 31
0.0
 12
467.7541384220355
 22
177.7808071910002
 32
0.0
 13
467.7541384220355
 23
177.7808071910002
 33
0.0
  0
MTEXT
  5
2032
330
1B79
100
AcDbEntity
  8
Bemaßung
 62
     0
100
AcDbMText
 10
465.8791384220354
 20
192.7808071910003
 30
0.0
 40
2.5
 41
0.0
 71
     5
 72
     1
  1
30
 11
0.0000000000000001
 21
1.0
 31
0.0
 73
     1
 44
1.0
  0
POINT
  5
2033
330
1B79
100
AcDbEntity
  8
Defpoints
 62
     0
100
AcDbPoint
 10
426.0518128066399
 20
207.7808071910003
 30
0.0
  0
POINT
  5
2034
330
1B79
100
AcDbEntity
  8
Defpoints
 62
     0
100
AcDbPoint
 10
426.0518128066399
 20
177.7808071910003
 30
0.0
  0
POINT
  5
2035
330
1B79
100
AcDbEntity
  8
Defpoints
 62
     0
100
AcDbPoint
 10
467.7541384220355
 20
177.7808071910002
 30
0.0
  0
ENDBLK
  5
1B84
330
1B79
100
AcDbEntity
  8
0
100
AcDbBlockEnd
  0
BLOCK
  5
1BA6
330
1B9C
100
AcDbEntity
  8
0
100
AcDbBlockBegin
  2
*D28
 70
     1
 10
0.0
 20
0.0
 30
0.0
  3
*D28
  1

  0
LINE
  5
1BB3
330
1B9C
100
AcDbEntity
  8
Bemaßung
 62
     0
370
    -2
100
AcDbLine
 10
218.156386305041
 20
210.9058071910003
 30
0.0
 11
218.156386305041
 21
227.6276288836764
 31
0.0
  0
LINE
  5
1BB4
330
1B9C
100
AcDbEntity
  8
Bemaßung
 62
     0
370
    -2
100
AcDbLine
 10
258.156356305041
 20
210.9058071910003
 30
0.0
 11
258.156356305041
 21
227.6276288836764
 31
0.0
  0
LINE
  5
1BB5
330
1B9C
100
AcDbEntity
  8
Bemaßung
 62
     0
370
    -2
100
AcDbLine
 10
220.656386305041
 20
226.3776288836765
 30
0.0
 11
255.6563563050409
 21
226.3776288836765
 31
0.0
  0
SOLID
  5
1BB6
330
1B9C
100
AcDbEntity
  8
Bemaßung
 62
     0
100
AcDbTrace
 10
220.656386305041
 20
226.7942955503431
 30
0.0
 11
220.656386305041
 21
225.9609622170098
 31
0.0
 12
218.156386305041
 22
226.3776288836765
 32
0.0
 13
218.156386305041
 23
226.3776288836765
 33
0.0
  0
SOLID
  5
1BB7
330
1B9C
100
AcDbEntity
  8
Bemaßung
 62
     0
100
AcDbTrace
 10
255.6563563050409
 20
226.7942955503431
 30
0.0
 11
255.6563563050409
 21
225.9609622170098
 31
0.0
 12
258.156356305041
 22
226.3776288836765
 32
0.0
 13
258.156356305041
 23
226.3776288836765
 33
0.0
  0
MTEXT
  5
1BB8
330
1B9C
100
AcDbEntity
  8
Bemaßung
 62
     0
100
AcDbMText
 10
238.156371305041
 20
228.2526288836765
 30
0.0
 40
2.5
 41
0.0
 71
     5
 72
     1
  1
40
 73
     1
 44
1.0
  0
POINT
  5
1BB9
330
1B9C
100
AcDbEntity
  8
Defpoints
 62
     0
100
AcDbPoint
 10
218.156386305041
 20
210.2808071910003
 30
0.0
  0
POINT
  5
1BBA
330
1B9C
100
AcDbEntity
  8
Defpoints
 62
     0
100
AcDbPoint
 10
258.156356305041
 20
210.2808071910003
 30
0.0
  0
POINT
  5
1BBB
330
1B9C
100
AcDbEntity
  8
Defpoints
 62
     0
100
AcDbPoint
 10
258.156356305041
 20
226.3776288836765
 30
0.0
  0
ENDBLK
  5
1BA7
330
1B9C
100
AcDbEntity
  8
0
100
AcDbBlockEnd
  0
BLOCK
  5
1BC7
330
1BBD
100
AcDbEntity
  8
0
100
AcDbBlockBegin
  2
*D29
 70
     1
 10
0.0
 20
0.0
 30
0.0
  3
*D29
  1

  0
LINE
  5
1BD4
330
1BBD
100
AcDbEntity
  8
Bemaßung
 62
     0
370
    -2
100
AcDbLine
 10
220.0313870904392
 20
212.7808071910002
 30
0.0
 11
205.9032041297922
 21
212.7808071910002
 31
0.0
  0
LINE
  5
1BD5
330
1BBD
100
AcDbEntity
  8
Bemaßung
 62
     0
370
    -2
100
AcDbLine
 10
220.0313876140379
 20
172.7808071910006
 30
0.0
 11
205.9032041297922
 21
172.7808071910006
 31
0.0
  0
LINE
  5
1BD6
330
1BBD
100
AcDbEntity
  8
Bemaßung
 62
     0
370
    -2
100
AcDbLine
 10
207.1532041297922
 20
210.2808071910001
 30
0.0
 11
207.1532041297922
 21
175.2808071910006
 31
0.0
  0
SOLID
  5
1BD7
330
1BBD
100
AcDbEntity
  8
Bemaßung
 62
     0
100
AcDbTrace
 10
206.7365374631256
 20
210.2808071910001
 30
0.0
 11
207.5698707964589
 21
210.2808071910001
 31
0.0
 12
207.1532041297922
 22
212.7808071910002
 32
0.0
 13
207.1532041297922
 23
212.7808071910002
 33
0.0
  0
SOLID
  5
1BD8
330
1BBD
100
AcDbEntity
  8
Bemaßung
 62
     0
100
AcDbTrace
 10
206.7365374631255
 20
175.2808071910006
 30
0.0
 11
207.5698707964589
 21
175.2808071910006
 31
0.0
 12
207.1532041297922
 22
172.7808071910006
 32
0.0
 13
207.1532041297922
 23
172.7808071910006
 33
0.0
  0
MTEXT
  5
1BD9
330
1BBD
100
AcDbEntity
  8
Bemaßung
 62
     0
100
AcDbMText
 10
205.2782041297922
 20
192.7808071910004
 30
0.0
 40
2.5
 41
0.0
 71
     5
 72
     1
  1
40
 11
0.0000000000000001
 21
1.0
 31
0.0
 73
     1
 44
1.0
  0
POINT
  5
1BDA
330
1BBD
100
AcDbEntity
  8
Defpoints
 62
     0
100
AcDbPoint
 10
220.6563870904392
 20
212.7808071910002
 30
0.0
  0
POINT
  5
1BDB
330
1BBD
100
AcDbEntity
  8
Defpoints
 62
     0
100
AcDbPoint
 10
220.6563876140379
 20
172.7808071910006
 30
0.0
  0
POINT
  5
1BDC
330
1BBD
100
AcDbEntity
  8
Defpoints
 62
     0
100
AcDbPoint
 10
207.1532041297922
 20
172.7808071910006
 30
0.0
  0
ENDBLK
  5
1BC8
330
1BBD
100
AcDbEntity
  8
0
100
AcDbBlockEnd
  0
BLOCK
  5
1BE9
330
1BDE
100
AcDbEntity
  8
0
100
AcDbBlockBegin
  2
*D30
 70
     1
 10
0.0
 20
0.0
 30
0.0
  3
*D30
  1

  0
LINE
  5
1BF7
330
1BDE
100
AcDbEntity
  8
Bemaßung
 62
     0
370
    -2
100
AcDbLine
 10
238.1563863050411
 20
216.8772289888243
 30
0.0
 11
238.156386305041
 21
219.9162772535572
 31
0.0
  0
ARC
  5
1BF8
330
1BDE
100
AcDbEntity
  8
Bemaßung
 62
     0
370
    -2
100
AcDbCircle
 10
238.156386305041
 20
192.7807881065357
 30
0.0
 40
25.88548914702156
100
AcDbArc
 50
95.5357337904339
 51
129.4642058942194
  0
SOLID
  5
1BF9
330
1BDE
100
AcDbEntity
  8
Bemaßung
 62
     0
100
AcDbTrace
 10
235.63918219552
 20
218.9617338190992
 30
0.0
 11
235.6794235315346
 21
218.1293726719279
 31
0.0
 12
238.156386305041
 22
218.6662772535572
 32
0.0
 13
238.156386305041
 23
218.6662772535572
 33
0.0
  0
SOLID
  5
1BFA
330
1BDE
100
AcDbEntity
  8
Bemaßung
 62
     0
100
AcDbTrace
 10
221.9837281518399
 20
212.4564383450888
 30
0.0
 11
221.4236155114002
 21
213.0734620678614
 31
0.0
 12
219.8526006633023
 22
211.0846122851561
 32
0.0
 13
219.8526006633023
 23
211.0846122851561
 33
0.0
  0
MTEXT
  5
1BFB
330
1BDE
100
AcDbEntity
  8
Bemaßung
 62
     0
100
AcDbMText
 10
227.5329205336257
 20
218.4281414336428
 30
0.0
 40
2.5
 41
0.0
 71
     5
 72
     1
  1
45°
 11
0.9238797339368485
 21
0.3826829460804047
 31
0.0
 73
     1
 44
1.0
  0
POINT
  5
1BFC
330
1BDE
100
AcDbEntity
  8
Defpoints
 62
     0
100
AcDbPoint
 10
231.4567374957242
 20
217.7842529506806
 30
0.0
  0
POINT
  5
1BFD
330
1BDE
100
AcDbEntity
  8
Defpoints
 62
     0
100
AcDbPoint
 10
219.592516305041
 20
211.3446971910003
 30
0.0
  0
POINT
  5
1BFE
330
1BDE
100
AcDbEntity
  8
Defpoints
 62
     0
100
AcDbPoint
 10
238.156386305041
 20
216.2522289888243
 30
0.0
  0
POINT
  5
1BFF
330
1BDE
100
AcDbEntity
  8
Defpoints
 62
     0
100
AcDbPoint
 10
238.156386305041
 20
111.9966015058912
 30
0.0
  0
POINT
  5
1C00
330
1BDE
100
AcDbEntity
  8
Defpoints
 62
     0
100
AcDbPoint
 10
224.342196305041
 20
206.5950071910003
 30
0.0
  0
ENDBLK
  5
1BEA
330
1BDE
100
AcDbEntity
  8
0
100
AcDbBlockEnd
  0
BLOCK
  5
1C08
330
1C02
100
AcDbEntity
  8
0
100
AcDbBlockBegin
  2
*D31
 70
     1
 10
0.0
 20
0.0
 30
0.0
  3
*D31
  1

  0
LINE
  5
1C11
330
1C02
100
AcDbEntity
  8
Bemaßung
 62
     0
370
    -2
100
AcDbLine
 10
249.3858389918861
 20
184.0768092875609
 30
0.0
 11
221.95369660151
 21
205.3395828626608
 31
0.0
  0
MTEXT
  5
1C12
330
1C02
100
AcDbEntity
  8
Bemaßung
 62
     0
100
AcDbMText
 10
247.4059393646285
 20
187.9837294612736
 30
0.0
 40
2.5
 41
0.0
 71
     5
 72
     1
  1
\U+220546
 11
0.7903751074893158
 21
-0.6126232034956335
 31
0.0
 73
     1
 44
1.0
  0
SOLID
  5
1C13
330
1C02
100
AcDbEntity
  8
Bemaßung
 62
     0
100
AcDbTrace
 10
222.2089562696333
 20
205.6689058241147
 30
0.0
 11
221.6984369333868
 21
205.0102599012069
 31
0.0
 12
219.9777588327867
 22
206.8711408713999
 32
0.0
 13
219.9777588327867
 23
206.8711408713999
 33
0.0
  0
POINT
  5
1C14
330
1C02
100
AcDbEntity
  8
Defpoints
 62
     0
100
AcDbPoint
 10
219.9777588327867
 20
206.8711408713999
 30
0.0
  0
POINT
  5
1C15
330
1C02
100
AcDbEntity
  8
Defpoints
 62
     0
100
AcDbPoint
 10
256.3350137772953
 20
178.6904735106007
 30
0.0
  0
ENDBLK
  5
1C09
330
1C02
100
AcDbEntity
  8
0
100
AcDbBlockEnd
  0
BLOCK
  5
1C2F
330
1C25
100
AcDbEntity
  8
0
100
AcDbBlockBegin
  2
*D32
 70
     1
 10
0.0
 20
0.0
 30
0.0
  3
*D32
  1

  0
LINE
  5
1C3C
330
1C25
100
AcDbEntity
  8
Bemaßung
 62
     0
370
    -2
100
AcDbLine
 10
228.756396305041
 20
157.4558131910003
 30
0.0
 11
228.756396305041
 21
142.0366857944359
 31
0.0
  0
LINE
  5
1C3D
330
1C25
100
AcDbEntity
  8
Bemaßung
 62
     0
370
    -2
100
AcDbLine
 10
248.7563963050411
 20
157.4558131910003
 30
0.0
 11
248.7563963050411
 21
142.0366857944359
 31
0.0
  0
LINE
  5
1C3E
330
1C25
100
AcDbEntity
  8
Bemaßung
 62
     0
370
    -2
100
AcDbLine
 10
231.256396305041
 20
143.2866857944359
 30
0.0
 11
246.2563963050411
 21
143.2866857944359
 31
0.0
  0
SOLID
  5
1C3F
330
1C25
100
AcDbEntity
  8
Bemaßung
 62
     0
100
AcDbTrace
 10
231.256396305041
 20
143.7033524611026
 30
0.0
 11
231.256396305041
 21
142.8700191277692
 31
0.0
 12
228.756396305041
 22
143.2866857944359
 32
0.0
 13
228.756396305041
 23
143.2866857944359
 33
0.0
  0
SOLID
  5
1C40
330
1C25
100
AcDbEntity
  8
Bemaßung
 62
     0
100
AcDbTrace
 10
246.2563963050411
 20
143.7033524611026
 30
0.0
 11
246.2563963050411
 21
142.8700191277692
 31
0.0
 12
248.7563963050411
 22
143.2866857944359
 32
0.0
 13
248.7563963050411
 23
143.2866857944359
 33
0.0
  0
MTEXT
  5
1C41
330
1C25
100
AcDbEntity
  8
Bemaßung
 62
     0
100
AcDbMText
 10
238.756396305041
 20
145.1616857944359
 30
0.0
 40
2.5
 41
0.0
 71
     5
 72
     1
  1
20
 73
     1
 44
1.0
  0
POINT
  5
1C42
330
1C25
100
AcDbEntity
  8
Defpoints
 62
     0
100
AcDbPoint
 10
228.756396305041
 20
158.0808131910003
 30
0.0
  0
POINT
  5
1C43
330
1C25
100
AcDbEntity
  8
Defpoints
 62
     0
100
AcDbPoint
 10
248.7563963050411
 20
158.0808131910003
 30
0.0
  0
POINT
  5
1C44
330
1C25
100
AcDbEntity
  8
Defpoints
 62
     0
100
AcDbPoint
 10
248.7563963050411
 20
143.2866857944359
 30
0.0
  0
ENDBLK
  5
1C30
330
1C25
100
AcDbEntity
  8
0
100
AcDbBlockEnd
  0
BLOCK
  5
1C51
330
1C47
100
AcDbEntity
  8
0
100
AcDbBlockBegin
  2
*D33
 70
     1
 10
0.0
 20
0.0
 30
0.0
  3
*D33
  1

  0
LINE
  5
1D07
330
1C47
100
AcDbEntity
  8
Bemaßung
 62
     0
370
    -2
100
AcDbLine
 10
248.3814296740756
 20
157.080835647727
 30
0.0
 11
268.5674392830956
 21
157.080835647727
 31
0.0
  0
LINE
  5
1D08
330
1C47
100
AcDbEntity
  8
Bemaßung
 62
     0
370
    -2
100
AcDbLine
 10
260.8407463050411
 20
192.7808071910003
 30
0.0
 11
268.5674392830956
 21
192.7808071910003
 31
0.0
  0
LINE
  5
1D09
330
1C47
100
AcDbEntity
  8
Bemaßung
 62
     0
370
    -2
100
AcDbLine
 10
267.3174392830956
 20
159.580835647727
 30
0.0
 11
267.3174392830956
 21
190.2808071910003
 31
0.0
  0
SOLID
  5
1D0A
330
1C47
100
AcDbEntity
  8
Bemaßung
 62
     0
100
AcDbTrace
 10
266.9007726164289
 20
159.580835647727
 30
0.0
 11
267.7341059497623
 21
159.580835647727
 31
0.0
 12
267.3174392830956
 22
157.080835647727
 32
0.0
 13
267.3174392830956
 23
157.080835647727
 33
0.0
  0
SOLID
  5
1D0B
330
1C47
100
AcDbEntity
  8
Bemaßung
 62
     0
100
AcDbTrace
 10
266.9007726164289
 20
190.2808071910003
 30
0.0
 11
267.7341059497623
 21
190.2808071910003
 31
0.0
 12
267.3174392830956
 22
192.7808071910003
 32
0.0
 13
267.3174392830956
 23
192.7808071910003
 33
0.0
  0
MTEXT
  5
1D0C
330
1C47
100
AcDbEntity
  8
Bemaßung
 62
     0
100
AcDbMText
 10
265.2341059497622
 20
174.9308214193636
 30
0.0
 40
2.5
 41
0.0
 71
     5
 72
     1
  1
35,7
 11
0.0000000000000001
 21
1.0
 31
0.0
 73
     1
 44
1.0
  0
POINT
  5
1D0D
330
1C47
100
AcDbEntity
  8
Defpoints
 62
     0
100
AcDbPoint
 10
247.7564296740756
 20
157.080835647727
 30
0.0
  0
POINT
  5
1D0E
330
1C47
100
AcDbEntity
  8
Defpoints
 62
     0
100
AcDbPoint
 10
260.215746305041
 20
192.7808071910003
 30
0.0
  0
POINT
  5
1D0F
330
1C47
100
AcDbEntity
  8
Defpoints
 62
     0
100
AcDbPoint
 10
267.3174392830956
 20
192.7808071910003
 30
0.0
  0
ENDBLK
  5
1C52
330
1C47
100
AcDbEntity
  8
0
100
AcDbBlockEnd
  0
BLOCK
  5
1D1B
330
1D11
100
AcDbEntity
  8
0
100
AcDbBlockBegin
  2
*D34
 70
     1
 10
0.0
 20
0.0
 30
0.0
  3
*D34
  1

  0
LINE
  5
2079
330
1D11
100
AcDbEntity
  8
Bemaßung
 62
     0
370
    -2
100
AcDbLine
 10
19.52749130504105
 20
192.7808071910003
 30
0.0
 11
25.90221109603747
 21
192.7808071910003
 31
0.0
  0
LINE
  5
207A
330
1D11
100
AcDbEntity
  8
Bemaßung
 62
     0
370
    -2
100
AcDbLine
 10
-5.716843096357017
 20
164.7807872015924
 30
0.0
 11
25.90221109603746
 21
164.7807872015924
 31
0.0
  0
LINE
  5
207B
330
1D11
100
AcDbEntity
  8
Bemaßung
 62
     0
370
    -2
100
AcDbLine
 10
24.65221109603747
 20
190.2808071910003
 30
0.0
 11
24.65221109603746
 21
167.2807872015924
 31
0.0
  0
SOLID
  5
207C
330
1D11
100
AcDbEntity
  8
Bemaßung
 62
     0
100
AcDbTrace
 10
24.2355444293708
 20
190.2808071910003
 30
0.0
 11
25.06887776270414
 21
190.2808071910003
 31
0.0
 12
24.65221109603747
 22
192.7808071910003
 32
0.0
 13
24.65221109603747
 23
192.7808071910003
 33
0.0
  0
SOLID
  5
207D
330
1D11
100
AcDbEntity
  8
Bemaßung
 62
     0
100
AcDbTrace
 10
24.23554442937079
 20
167.2807872015924
 30
0.0
 11
25.06887776270413
 21
167.2807872015924
 31
0.0
 12
24.65221109603746
 22
164.7807872015924
 32
0.0
 13
24.65221109603746
 23
164.7807872015924
 33
0.0
  0
MTEXT
  5
207E
330
1D11
100
AcDbEntity
  8
Bemaßung
 62
     0
100
AcDbMText
 10
22.77721109603743
 20
178.7807971962963
 30
0.0
 40
2.5
 41
0.0
 71
     5
 72
     1
  1
28
 11
0.0000000000000001
 21
1.0
 31
0.0
 73
     1
 44
1.0
  0
POINT
  5
207F
330
1D11
100
AcDbEntity
  8
Defpoints
 62
     0
100
AcDbPoint
 10
18.90249130504105
 20
192.7808071910003
 30
0.0
  0
POINT
  5
2080
330
1D11
100
AcDbEntity
  8
Defpoints
 62
     0
100
AcDbPoint
 10
-6.341843096357017
 20
164.7807872015924
 30
0.0
  0
POINT
  5
2081
330
1D11
100
AcDbEntity
  8
Defpoints
 62
     0
100
AcDbPoint
 10
24.65221109603746
 20
164.7807872015924
 30
0.0
  0
ENDBLK
  5
1D1C
330
1D11
100
AcDbEntity
  8
0
100
AcDbBlockEnd
  0
BLOCK
  5
1E38
330
1E2E
100
AcDbEntity
  8
0
100
AcDbBlockBegin
  2
*D37
 70
     1
 10
0.0
 20
0.0
 30
0.0
  3
*D37
  1

  0
LINE
  5
2067
330
1E2E
100
AcDbEntity
  8
Bemaßung
 62
     0
370
    -2
100
AcDbLine
 10
6.292916305041046
 20
170.1558071910003
 30
0.0
 11
6.292916305041044
 21
143.555429639665
 31
0.0
  0
LINE
  5
2068
330
1E2E
100
AcDbEntity
  8
Bemaßung
 62
     0
370
    -2
100
AcDbLine
 10
-18.90708369495892
 20
165.1432983655332
 30
0.0
 11
-18.90708369495892
 21
143.555429639665
 31
0.0
  0
LINE
  5
2069
330
1E2E
100
AcDbEntity
  8
Bemaßung
 62
     0
370
    -2
100
AcDbLine
 10
3.792916305041044
 20
144.805429639665
 30
0.0
 11
-16.40708369495892
 21
144.805429639665
 31
0.0
  0
SOLID
  5
206A
330
1E2E
100
AcDbEntity
  8
Bemaßung
 62
     0
100
AcDbTrace
 10
3.792916305041044
 20
145.2220963063316
 30
0.0
 11
3.792916305041044
 21
144.3887629729983
 31
0.0
 12
6.292916305041044
 22
144.805429639665
 32
0.0
 13
6.292916305041044
 23
144.805429639665
 33
0.0
  0
SOLID
  5
206B
330
1E2E
100
AcDbEntity
  8
Bemaßung
 62
     0
100
AcDbTrace
 10
-16.40708369495892
 20
145.2220963063316
 30
0.0
 11
-16.40708369495892
 21
144.3887629729983
 31
0.0
 12
-18.90708369495892
 22
144.805429639665
 32
0.0
 13
-18.90708369495892
 23
144.805429639665
 33
0.0
  0
MTEXT
  5
206C
330
1E2E
100
AcDbEntity
  8
Bemaßung
 62
     0
100
AcDbMText
 10
-6.307083694958941
 20
146.8887629729983
 30
0.0
 40
2.5
 41
0.0
 71
     5
 72
     1
  1
25,2
 73
     1
 44
1.0
  0
POINT
  5
206D
330
1E2E
100
AcDbEntity
  8
Defpoints
 62
     0
100
AcDbPoint
 10
6.292916305041046
 20
170.7808071910003
 30
0.0
  0
POINT
  5
206E
330
1E2E
100
AcDbEntity
  8
Defpoints
 62
     0
100
AcDbPoint
 10
-18.90708369495892
 20
165.7682983655332
 30
0.0
  0
POINT
  5
206F
330
1E2E
100
AcDbEntity
  8
Defpoints
 62
     0
100
AcDbPoint
 10
-18.90708369495892
 20
144.805429639665
 30
0.0
  0
ENDBLK
  5
1E39
330
1E2E
100
AcDbEntity
  8
0
100
AcDbBlockEnd
  0
ENDSEC
  0
SECTION
  2
ENTITIES
  0
LINE
  5
169E
330
1F
100
AcDbEntity
  8
Innenkanten
100
AcDbLine
 10
301.3315978066399
 20
203.3546971910003
 30
0.0
 11
418.55181280664
 21
203.3546971910003
 31
0.0
  0
LINE
  5
169F
102
{ACAD_REACTORS
330
17D9
102
}
330
1F
100
AcDbEntity
  8
Mittellinie
100
AcDbLine
 10
431.5148292016303
 20
192.7808071910003
 30
0.0
 11
297.2177899988386
 21
192.7808071910003
 31
0.0
  0
LINE
  5
16A0
330
1F
100
AcDbEntity
  8
0
100
AcDbLine
 10
423.55181280664
 20
212.7808071910003
 30
0.0
 11
302.7338268066399
 21
212.7808071910003
 31
0.0
  0
LINE
  5
16A1
330
1F
100
AcDbEntity
  8
0
100
AcDbLine
 10
423.55181280664
 20
172.7808071910003
 30
0.0
 11
302.05025580664
 21
172.7808071910003
 31
0.0
  0
LINE
  5
16A2
330
1F
100
AcDbEntity
  8
0
100
AcDbLine
 10
2.656530305041023
 20
114.2286091910003
 30
0.0
 11
2.656530305041023
 21
118.9222131910003
 31
0.0
  0
LINE
  5
16A3
330
1F
100
AcDbEntity
  8
0
100
AcDbLine
 10
-15.34348469495897
 20
114.3286081910003
 30
0.0
 11
-15.34348469495897
 21
118.9222131910003
 31
0.0
  0
LINE
  5
16A4
330
1F
100
AcDbEntity
  8
0
100
AcDbLine
 10
-3.743478694958966
 20
101.2286171910003
 30
0.0
 11
-0.3434696949589693
 21
101.2286171910003
 31
0.0
  0
LINE
  5
16A5
330
1F
100
AcDbEntity
  8
0
100
AcDbLine
 10
-13.34348469495897
 20
107.7286091910003
 30
0.0
 11
0.6565303050410308
 21
107.7286091910003
 31
0.0
  0
LINE
  5
16A6
330
1F
100
AcDbEntity
  8
0
100
AcDbLine
 10
-15.24348369495896
 20
114.2286091910003
 30
0.0
 11
2.656530305041023
 21
114.2286091910003
 31
0.0
  0
LINE
  5
16A7
330
1F
100
AcDbEntity
  8
0
100
AcDbLine
 10
-3.743478694958966
 20
107.7286091910003
 30
0.0
 11
-3.743478694958966
 21
101.2286171910003
 31
0.0
  0
LINE
  5
16A8
330
1F
100
AcDbEntity
  8
0
100
AcDbLine
 10
-4.643487694958977
 20
101.2286171910003
 30
0.0
 11
-4.643487694958977
 21
107.7286091910003
 31
0.0
  0
LINE
  5
16A9
330
1F
100
AcDbEntity
  8
0
100
AcDbLine
 10
-8.04348169495897
 20
107.7286091910003
 30
0.0
 11
-8.04348169495897
 21
101.2286171910003
 31
0.0
  0
LINE
  5
16AA
330
1F
100
AcDbEntity
  8
0
100
AcDbLine
 10
-8.943475694958976
 20
101.2286171910003
 30
0.0
 11
-8.943475694958976
 21
107.7286091910003
 31
0.0
  0
LINE
  5
16AB
330
1F
100
AcDbEntity
  8
0
100
AcDbLine
 10
-12.34346969495897
 20
107.7286091910003
 30
0.0
 11
-12.34346969495897
 21
101.2286171910003
 31
0.0
  0
LINE
  5
16AC
330
1F
100
AcDbEntity
  8
0
100
AcDbLine
 10
-8.04348169495897
 20
101.2286171910003
 30
0.0
 11
-4.643487694958977
 21
101.2286171910003
 31
0.0
  0
LINE
  5
16AD
330
1F
100
AcDbEntity
  8
0
100
AcDbLine
 10
-12.34346969495897
 20
101.2286171910003
 30
0.0
 11
-8.943475694958976
 21
101.2286171910003
 31
0.0
  0
LINE
  5
16AE
330
1F
100
AcDbEntity
  8
0
100
AcDbLine
 10
-13.34348469495897
 20
114.2286091910003
 30
0.0
 11
-13.34348469495897
 21
107.7286091910003
 31
0.0
  0
ARC
  5
16AF
330
1F
100
AcDbEntity
  8
0
100
AcDbCircle
 10
-15.24348369495896
 20
114.3286081910003
 30
0.0
 40
0.1
100
AcDbArc
 50
179.9999799999996
 51
270.0000299999999
  0
LINE
  5
16B0
330
1F
100
AcDbEntity
  8
0
100
AcDbLine
 10
-0.3434696949589693
 20
101.2286171910003
 30
0.0
 11
-0.3434696949589693
 21
107.7286091910003
 31
0.0
  0
LINE
  5
16B1
330
1F
100
AcDbEntity
  8
0
100
AcDbLine
 10
0.6565303050410308
 20
107.7286091910003
 30
0.0
 11
0.6565303050410308
 21
114.2286091910003
 31
0.0
  0
ARC
  5
16B2
330
1F
100
AcDbEntity
  8
0
100
AcDbCircle
 10
-1.843469694958969
 20
133.8427601910003
 30
0.0
 40
1.0
100
AcDbArc
 50
0.0
 51
89.99998199999998
  0
LINE
  5
16B3
330
1F
100
AcDbEntity
  8
0
100
AcDbLine
 10
-11.84346969495897
 20
133.8427601910003
 30
0.0
 11
-11.84346969495897
 21
123.2506431910003
 31
0.0
  0
LINE
  5
16B4
330
1F
100
AcDbEntity
  8
0
100
AcDbLine
 10
-12.13636169495896
 20
122.5435361910003
 30
0.0
 11
-15.05059069495897
 21
119.6293211910003
 31
0.0
  0
ARC
  5
16B5
330
1F
100
AcDbEntity
  8
0
100
AcDbCircle
 10
-14.34348469495897
 20
118.9222131910003
 30
0.0
 40
1.0
100
AcDbArc
 50
134.9999499999998
 51
179.99996
  0
ARC
  5
16B6
330
1F
100
AcDbEntity
  8
0
100
AcDbCircle
 10
-12.84346969495897
 20
123.2506431910003
 30
0.0
 40
1.0
100
AcDbArc
 50
314.99992
 51
0.0
  0
LINE
  5
16B7
330
1F
100
AcDbEntity
  8
0
100
AcDbLine
 10
-2.843469694958969
 20
137.6359351910003
 30
0.0
 11
-2.843469694958969
 21
134.8427601910003
 31
0.0
  0
LINE
  5
16B8
330
1F
100
AcDbEntity
  8
0
100
AcDbLine
 10
-9.843469694958969
 20
137.6358441910003
 30
0.0
 11
-9.843469694958969
 21
134.8427601910003
 31
0.0
  0
LINE
  5
16B9
330
1F
100
AcDbEntity
  8
0
100
AcDbLine
 10
-10.84346969495896
 20
134.8427601910003
 30
0.0
 11
-1.843469694958969
 21
134.8427601910003
 31
0.0
  0
ARC
  5
16BA
330
1F
100
AcDbEntity
  8
0
100
AcDbCircle
 10
-10.84346969495896
 20
133.8427601910003
 30
0.0
 40
1.0
100
AcDbArc
 50
89.99998199999998
 51
179.99996
  0
ARC
  5
16BB
330
1F
100
AcDbEntity
  8
0
100
AcDbCircle
 10
-8.093469694958969
 20
134.6054331910003
 30
0.0
 40
3.499413999999999
100
AcDbArc
 50
59.99446200000016
 51
120.0055600000001
  0
ARC
  5
16BC
330
1F
100
AcDbEntity
  8
0
100
AcDbCircle
 10
-8.093469694958969
 20
140.6676201910003
 30
0.0
 40
3.500598
100
AcDbArc
 50
240.0056199999998
 51
299.9943599999999
  0
ARC
  5
16BD
330
1F
100
AcDbEntity
  8
0
100
AcDbCircle
 10
-4.593389694958972
 20
134.6051351910003
 30
0.0
 40
3.4997101
100
AcDbArc
 50
59.99875900000001
 51
120.0042700000001
  0
LINE
  5
16BE
330
1F
100
AcDbEntity
  8
0
100
AcDbLine
 10
-0.8434696949589692
 20
133.8427601910003
 30
0.0
 11
-0.8434696949589692
 21
123.2506391910003
 31
0.0
  0
ARC
  5
16BF
330
1F
100
AcDbEntity
  8
0
100
AcDbCircle
 10
0.1565303050410307
 20
123.2506391910003
 30
0.0
 40
1.0
100
AcDbArc
 50
179.9999799999996
 51
224.9999799999996
  0
ARC
  5
16C0
330
1F
100
AcDbEntity
  8
0
100
AcDbCircle
 10
1.65653030504103
 20
118.9222131910003
 30
0.0
 40
1.0
100
AcDbArc
 50
0.0
 51
45.00000099999991
  0
LINE
  5
16C1
330
1F
100
AcDbEntity
  8
0
100
AcDbLine
 10
-0.5505806949589669
 20
122.5435321910003
 30
0.0
 11
2.363634305041031
 21
119.6293171910003
 31
0.0
  0
LINE
  5
16C2
330
1F
100
AcDbEntity
  8
0
100
AcDbLine
 10
304.1173178066399
 20
111.2516121910003
 30
0.0
 11
307.5173228066399
 21
111.2516121910003
 31
0.0
  0
LINE
  5
16C3
330
1F
100
AcDbEntity
  8
0
100
AcDbLine
 10
303.1173178066399
 20
117.7516201910003
 30
0.0
 11
317.1173328066399
 21
117.7516201910003
 31
0.0
  0
LINE
  5
16C4
330
1F
100
AcDbEntity
  8
Innenkanten
100
AcDbLine
 10
301.1173178066399
 20
129.1016111910002
 30
0.0
 11
319.1173328066399
 21
129.1016111910002
 31
0.0
  0
LINE
  5
16C5
330
1F
100
AcDbEntity
  8
Innenkanten
100
AcDbLine
 10
301.1173178066399
 20
132.7016171910003
 30
0.0
 11
319.1173328066399
 21
132.7016171910003
 31
0.0
  0
LINE
  5
16C6
330
1F
100
AcDbEntity
  8
0
100
AcDbLine
 10
301.1173178066399
 20
124.2516201910003
 30
0.0
 11
319.1173328066399
 21
124.2516201910003
 31
0.0
  0
LINE
  5
16C7
330
1F
100
AcDbEntity
  8
0
100
AcDbLine
 10
301.1173178066399
 20
144.8657551910003
 30
0.0
 11
319.1173328066399
 21
144.8657551910003
 31
0.0
  0
LINE
  5
16C8
330
1F
100
AcDbEntity
  8
0
100
AcDbLine
 10
301.1173178066399
 20
144.8657551910003
 30
0.0
 11
301.1173178066399
 21
124.2516201910003
 31
0.0
  0
LINE
  5
16C9
330
1F
100
AcDbEntity
  8
0
100
AcDbLine
 10
304.1173178066399
 20
117.7516201910003
 30
0.0
 11
304.1173178066399
 21
111.2516121910003
 31
0.0
  0
LINE
  5
16CA
330
1F
100
AcDbEntity
  8
0
100
AcDbLine
 10
303.1173178066399
 20
124.2516201910003
 30
0.0
 11
303.1173178066399
 21
117.7516201910003
 31
0.0
  0
LINE
  5
16CB
330
1F
100
AcDbEntity
  8
0
100
AcDbLine
 10
319.1173328066399
 20
124.2516201910003
 30
0.0
 11
319.1173328066399
 21
144.8657551910003
 31
0.0
  0
LINE
  5
16CC
330
1F
100
AcDbEntity
  8
0
100
AcDbLine
 10
316.11733280664
 20
111.2516121910003
 30
0.0
 11
316.11733280664
 21
117.7516201910003
 31
0.0
  0
LINE
  5
16CD
330
1F
100
AcDbEntity
  8
0
100
AcDbLine
 10
312.71731280664
 20
117.7516201910003
 30
0.0
 11
312.71731280664
 21
111.2516121910003
 31
0.0
  0
LINE
  5
16CE
330
1F
100
AcDbEntity
  8
0
100
AcDbLine
 10
311.80036280664
 20
111.2516121910003
 30
0.0
 11
311.8173128066399
 21
117.7516201910003
 31
0.0
  0
LINE
  5
16CF
330
1F
100
AcDbEntity
  8
0
100
AcDbLine
 10
308.4319628066399
 20
111.2516121910003
 30
0.0
 11
308.4173128066399
 21
117.7516161910003
 31
0.0
  0
LINE
  5
16D0
330
1F
100
AcDbEntity
  8
0
100
AcDbLine
 10
307.5173228066399
 20
111.2516121910003
 30
0.0
 11
307.5173228066399
 21
117.7516201910003
 31
0.0
  0
LINE
  5
16D1
330
1F
100
AcDbEntity
  8
0
100
AcDbLine
 10
312.71731280664
 20
111.2516121910003
 30
0.0
 11
316.11733280664
 21
111.2516121910003
 31
0.0
  0
LINE
  5
16D2
330
1F
100
AcDbEntity
  8
0
100
AcDbLine
 10
308.4319728066399
 20
111.2516121910003
 30
0.0
 11
311.80036280664
 21
111.2516121910003
 31
0.0
  0
LINE
  5
16D3
330
1F
100
AcDbEntity
  8
0
100
AcDbLine
 10
317.1173328066399
 20
117.7516201910003
 30
0.0
 11
317.1173328066399
 21
124.2516201910003
 31
0.0
  0
LINE
  5
16D4
330
1F
100
AcDbEntity
  8
0
100
AcDbLine
 10
313.61732280664
 20
147.6589301910003
 30
0.0
 11
313.6173328066399
 21
144.8657551910003
 31
0.0
  0
LINE
  5
16D5
330
1F
100
AcDbEntity
  8
0
100
AcDbLine
 10
306.61732280664
 20
147.6589301910003
 30
0.0
 11
306.61732280664
 21
144.8657551910003
 31
0.0
  0
ARC
  5
16D6
330
1F
100
AcDbEntity
  8
0
100
AcDbCircle
 10
311.8672428066399
 20
144.6275351910003
 30
0.0
 40
3.500302099999999
100
AcDbArc
 50
60.00135400000008
 51
119.9956700000002
  0
ARC
  5
16D7
330
1F
100
AcDbEntity
  8
0
100
AcDbCircle
 10
308.36724280664
 20
150.6897301910003
 30
0.0
 40
3.4997101
100
AcDbArc
 50
239.9987399999999
 51
300.00425
  0
ARC
  5
16D8
330
1F
100
AcDbEntity
  8
0
100
AcDbCircle
 10
308.3673928066399
 20
144.6275351910003
 30
0.0
 40
3.500302099999999
100
AcDbArc
 50
60.00434599999991
 51
119.9986599999999
  0
ARC
  5
16D9
102
{ACAD_REACTORS
330
1E89
102
}
330
1F
100
AcDbEntity
  8
Innenkanten
100
AcDbCircle
 10
11.74070530504103
 20
202.3567571910003
 30
0.0
 40
1.5
100
AcDbArc
 50
2.495341099999782
 51
63.82690199999986
  0
LINE
  5
16DA
102
{ACAD_REACTORS
330
1E89
102
}
330
1F
100
AcDbEntity
  8
Innenkanten
100
AcDbLine
 10
6.219824305041043
 20
212.2808071910003
 30
0.0
 11
6.219828305041048
 21
172.7808071910003
 31
0.0
  0
LINE
  5
16DB
102
{ACAD_REACTORS
330
1E89
102
}
330
1F
100
AcDbEntity
  8
Innenkanten
100
AcDbLine
 10
-18.90708369495895
 20
212.7808071910003
 30
0.0
 11
-18.90708369495895
 21
172.7808071910003
 31
0.0
  0
LINE
  5
16DC
102
{ACAD_REACTORS
330
1E89
102
}
330
1F
100
AcDbEntity
  8
0
100
AcDbLine
 10
13.65638230504104
 20
175.2808071910003
 30
0.0
 11
13.65638230504104
 21
210.2808071910003
 31
0.0
  0
LINE
  5
16DD
102
{ACAD_REACTORS
330
1E89
102
}
330
1F
100
AcDbEntity
  8
0
100
AcDbLine
 10
-26.34362189495895
 20
210.2432871910003
 30
0.0
 11
-26.34362189495895
 21
175.2808071910003
 31
0.0
  0
ARC
  5
16DE
102
{ACAD_REACTORS
330
1E89
102
}
330
1F
100
AcDbEntity
  8
Mittellinie
100
AcDbCircle
 10
-6.342095694958956
 20
192.7808071910003
 30
0.0
 40
19.5
100
AcDbArc
 50
134.9999999999998
 51
158.9330099999999
  0
CIRCLE
  5
16DF
102
{ACAD_REACTORS
330
1E89
102
}
330
1F
100
AcDbEntity
  8
Innenkanten
100
AcDbCircle
 10
-22.76760359495895
 20
203.2450171910002
 30
0.0
 40
3.0
  0
ARC
  5
16E0
102
{ACAD_REACTORS
330
1E89
102
}
330
1F
100
AcDbEntity
  8
Innenkanten
100
AcDbCircle
 10
-22.76760359495895
 20
203.2450171910002
 30
0.0
 40
3.599999899999999
100
AcDbArc
 50
269.7068599999999
 51
89.70944599999988
  0
LINE
  5
16E1
102
{ACAD_REACTORS
330
1E89
102
}
330
1F
100
AcDbEntity
  8
Mittellinie
100
AcDbLine
 10
-25.71473519495896
 20
205.1225471910003
 30
0.0
 11
-19.10058669495896
 21
200.9088571910003
 31
0.0
  0
LINE
  5
16E2
102
{ACAD_REACTORS
330
1E89
102
}
330
1F
100
AcDbEntity
  8
Mittellinie
100
AcDbLine
 10
-6.342095694958956
 20
220.4494071910003
 30
0.0
 11
-6.342095694958956
 21
151.6231820867127
 31
0.0
  0
CIRCLE
  5
16E3
102
{ACAD_REACTORS
330
1E89
102
}
330
1F
100
AcDbEntity
  8
Innenkanten
100
AcDbCircle
 10
-22.60555169495896
 20
176.5173471910003
 30
0.0
 40
2.25
  0
ARC
  5
16E4
102
{ACAD_REACTORS
330
1E89
102
}
330
1F
100
AcDbEntity
  8
Mittellinie
100
AcDbCircle
 10
-6.342095694958956
 20
192.7808071910003
 30
0.0
 40
23.0
100
AcDbArc
 50
216.7269699999999
 51
233.4874199999998
  0
LINE
  5
16E5
102
{ACAD_REACTORS
330
1E89
102
}
330
1F
100
AcDbEntity
  8
Innenkanten
100
AcDbLine
 10
-25.34362239495895
 20
199.6581471910003
 30
0.0
 11
-22.78602089495896
 21
199.6450671910003
 31
0.0
  0
LINE
  5
16E6
102
{ACAD_REACTORS
330
1E89
102
}
330
1F
100
AcDbEntity
  8
Innenkanten
100
AcDbLine
 10
-25.08651989495895
 20
181.8586671910003
 30
0.0
 11
-20.97507369495895
 21
179.8379771910003
 31
0.0
  0
LINE
  5
16E7
102
{ACAD_REACTORS
330
1E89
102
}
330
1F
100
AcDbEntity
  8
Mittellinie
100
AcDbLine
 10
-20.52067869495896
 20
178.6037471910003
 30
0.0
 11
-24.83725279495895
 21
174.2871771910003
 31
0.0
  0
LINE
  5
16E8
102
{ACAD_REACTORS
330
1D27
330
1E89
102
}
330
1F
100
AcDbEntity
  8
Mittellinie
100
AcDbLine
 10
-30.20470569495896
 20
192.7808071910003
 30
0.0
 11
18.90249130504104
 21
192.7808071910003
 31
0.0
  0
LINE
  5
16E9
102
{ACAD_REACTORS
330
1E89
102
}
330
1F
100
AcDbEntity
  8
0
100
AcDbLine
 10
-23.84362189495895
 20
172.7808071910003
 30
0.0
 11
-18.90708369495895
 21
172.7808071910003
 31
0.0
  0
ARC
  5
16EA
102
{ACAD_REACTORS
330
1E89
102
}
330
1F
100
AcDbEntity
  8
0
100
AcDbCircle
 10
-23.84362189495895
 20
175.2808071910003
 30
0.0
 40
2.5
100
AcDbArc
 50
179.9999799999996
 51
270.0000299999999
  0
LINE
  5
16EB
102
{ACAD_REACTORS
330
1E89
102
}
330
1F
100
AcDbEntity
  8
Innenkanten
100
AcDbLine
 10
-26.34361429495895
 20
192.7808071910003
 30
0.0
 11
-25.92347019495895
 21
183.1395471910003
 31
0.0
  0
ARC
  5
16EC
102
{ACAD_REACTORS
330
1E89
102
}
330
1F
100
AcDbEntity
  8
Innenkanten
100
AcDbCircle
 10
-24.42489309495896
 20
183.2048571910003
 30
0.0
 40
1.5
100
AcDbArc
 50
182.4953399999996
 51
243.8268999999999
  0
ARC
  5
16ED
102
{ACAD_REACTORS
330
1E89
102
}
330
1F
100
AcDbEntity
  8
Innenkanten
100
AcDbCircle
 10
-25.34356989495896
 20
198.6580971910003
 30
0.0
 40
1.000051999999999
100
AcDbArc
 50
90.00299399999992
 51
179.9970499999998
  0
ARC
  5
16EE
102
{ACAD_REACTORS
330
1E89
102
}
330
1F
100
AcDbEntity
  8
Innenkanten
100
AcDbCircle
 10
-22.60754369495896
 20
176.5170571910003
 30
0.0
 40
3.7004631
100
AcDbArc
 50
0.0044649998000694
 51
63.822538
  0
ARC
  5
16EF
102
{ACAD_REACTORS
330
1E89
102
}
330
1F
100
AcDbEntity
  8
0
100
AcDbCircle
 10
-6.343625694958959
 20
314.7817671910003
 30
0.0
 40
150.0009799999999
100
AcDbArc
 50
265.37167
 51
274.62867
  0
LINE
  5
16F1
102
{ACAD_REACTORS
330
1E89
102
}
330
1F
100
AcDbEntity
  8
0
100
AcDbLine
 10
-2.843957694958959
 20
153.0624951910003
 30
0.0
 11
-2.843957694958959
 21
164.7810691910003
 31
0.0
  0
LINE
  5
16F2
102
{ACAD_REACTORS
330
1E89
102
}
330
1F
100
AcDbEntity
  8
0
100
AcDbLine
 10
-9.843957694958959
 20
164.7810691910003
 30
0.0
 11
-9.843957694958959
 21
153.0624031910003
 31
0.0
  0
ARC
  5
16F3
102
{ACAD_REACTORS
330
1E89
102
}
330
1F
100
AcDbEntity
  8
0
100
AcDbCircle
 10
-8.094037694958956
 20
156.0932031910003
 30
0.0
 40
3.4997101
100
AcDbArc
 50
239.9987399999999
 51
300.00425
  0
ARC
  5
16F4
102
{ACAD_REACTORS
330
1E89
102
}
330
1F
100
AcDbEntity
  8
0
100
AcDbCircle
 10
-4.593957694958959
 20
156.0929051910003
 30
0.0
 40
3.499413999999999
100
AcDbArc
 50
239.99445
 51
300.0055299999998
  0
ARC
  5
16F5
102
{ACAD_REACTORS
330
1E89
102
}
330
1F
100
AcDbEntity
  8
0
100
AcDbCircle
 10
-4.593957694958959
 20
150.0307181910003
 30
0.0
 40
3.500598
100
AcDbArc
 50
60.00564999999991
 51
119.9943800000001
  0
ARC
  5
16F6
102
{ACAD_REACTORS
330
1E89
102
}
330
1F
100
AcDbEntity
  8
0
100
AcDbCircle
 10
-18.40708369495895
 20
165.7682981910003
 30
0.0
 40
0.5
100
AcDbArc
 50
179.9999799999996
 51
265.3716499999999
  0
LINE
  5
16F7
102
{ACAD_REACTORS
330
1E89
102
}
330
1F
100
AcDbEntity
  8
0
100
AcDbLine
 10
6.219828305041048
 20
172.7808071910003
 30
0.0
 11
11.15638230504104
 21
172.7808071910003
 31
0.0
  0
ARC
  5
16F8
102
{ACAD_REACTORS
330
1E89
102
}
330
1F
100
AcDbEntity
  8
0
100
AcDbCircle
 10
5.72074330504104
 20
165.7683741910003
 30
0.0
 40
0.5
100
AcDbArc
 50
274.62867
 51
0.0104910000002841
  0
ARC
  5
16F9
102
{ACAD_REACTORS
330
1E89
102
}
330
1F
100
AcDbEntity
  8
0
100
AcDbCircle
 10
11.15638230504104
 20
175.2808071910003
 30
0.0
 40
2.5
100
AcDbArc
 50
270.0000199999999
 51
0.0
  0
CIRCLE
  5
16FA
102
{ACAD_REACTORS
330
1E89
102
}
330
1F
100
AcDbEntity
  8
Innenkanten
100
AcDbCircle
 10
10.08341030504104
 20
182.3166071910003
 30
0.0
 40
3.0
  0
LINE
  5
16FB
102
{ACAD_REACTORS
330
1E89
102
}
330
1F
100
AcDbEntity
  8
Mittellinie
100
AcDbLine
 10
13.03053530504104
 20
180.4390771910003
 30
0.0
 11
6.416388305041039
 21
184.6527571910003
 31
0.0
  0
LINE
  5
16FC
102
{ACAD_REACTORS
330
1E89
102
}
330
1F
100
AcDbEntity
  8
Innenkanten
100
AcDbLine
 10
10.06515730504104
 20
178.7166571910003
 30
0.0
 11
12.66445030504104
 21
178.7034771910003
 31
0.0
  0
ARC
  5
16FD
102
{ACAD_REACTORS
330
1E89
102
}
330
1F
100
AcDbEntity
  8
Mittellinie
100
AcDbCircle
 10
-6.342095694958956
 20
192.7808071910003
 30
0.0
 40
19.5
100
AcDbArc
 50
315.0000400000001
 51
338.9330199999995
  0
ARC
  5
16FE
102
{ACAD_REACTORS
330
1E89
102
}
330
1F
100
AcDbEntity
  8
Innenkanten
100
AcDbCircle
 10
10.08341030504104
 20
182.3166071910003
 30
0.0
 40
3.599999899999999
100
AcDbArc
 50
89.70687800000003
 51
269.70939
  0
ARC
  5
16FF
102
{ACAD_REACTORS
330
1E89
102
}
330
1F
100
AcDbEntity
  8
Innenkanten
100
AcDbCircle
 10
12.65937630504104
 20
177.7034371910003
 30
0.0
 40
1.000051999999999
100
AcDbArc
 50
0.0029640000996546
 51
89.99701800000003
  0
ARC
  5
1700
102
{ACAD_REACTORS
330
1E89
102
}
330
1F
100
AcDbEntity
  8
Innenkanten
100
AcDbCircle
 10
12.65937630504104
 20
186.9035171910003
 30
0.0
 40
1.000051999999999
100
AcDbArc
 50
270.00302
 51
359.9970799999995
  0
LINE
  5
1701
102
{ACAD_REACTORS
330
1E89
102
}
330
1F
100
AcDbEntity
  8
Innenkanten
100
AcDbLine
 10
12.65943030504104
 20
185.9034671910003
 30
0.0
 11
10.10183130504103
 21
185.9165471910003
 31
0.0
  0
LINE
  5
1702
102
{ACAD_REACTORS
330
1E89
102
}
330
1F
100
AcDbEntity
  8
Innenkanten
100
AcDbLine
 10
13.65942630504104
 20
192.7808271910002
 30
0.0
 11
13.23928330504104
 21
202.4220771910003
 31
0.0
  0
LINE
  5
1703
102
{ACAD_REACTORS
330
1E89
102
}
330
1F
100
AcDbEntity
  8
Innenkanten
100
AcDbLine
 10
-25.34864199495895
 20
206.8581371910003
 30
0.0
 11
-22.74934739495896
 21
206.8449571910003
 31
0.0
  0
LINE
  5
1704
102
{ACAD_REACTORS
330
1E89
102
}
330
1F
100
AcDbEntity
  8
0
100
AcDbLine
 10
-23.84362189495895
 20
212.7808071910003
 30
0.0
 11
11.15638230504104
 21
212.7808071910003
 31
0.0
  0
ARC
  5
1705
102
{ACAD_REACTORS
330
1E89
102
}
330
1F
100
AcDbEntity
  8
Innenkanten
100
AcDbCircle
 10
-25.34356989495896
 20
207.8581871910003
 30
0.0
 40
1.000051999999999
100
AcDbArc
 50
180.0029599999995
 51
269.70941
  0
ARC
  5
1706
102
{ACAD_REACTORS
330
1E89
102
}
330
1F
100
AcDbEntity
  8
0
100
AcDbCircle
 10
-23.84362189495895
 20
210.2432871910003
 30
0.0
 40
2.5
100
AcDbArc
 50
90.06146099999993
 51
179.99996
  0
LINE
  5
1707
102
{ACAD_REACTORS
330
1E89
102
}
330
1F
100
AcDbEntity
  8
Innenkanten
100
AcDbLine
 10
12.40232730504104
 20
203.7029571910003
 30
0.0
 11
8.290880305041042
 21
205.7236471910003
 31
0.0
  0
CIRCLE
  5
1708
102
{ACAD_REACTORS
330
1E89
102
}
330
1F
100
AcDbEntity
  8
Innenkanten
100
AcDbCircle
 10
9.921362305041043
 20
209.0442671910003
 30
0.0
 40
2.25
  0
ARC
  5
1709
102
{ACAD_REACTORS
330
1E89
102
}
330
1F
100
AcDbEntity
  8
Mittellinie
100
AcDbCircle
 10
-6.342095694958956
 20
192.7808071910003
 30
0.0
 40
23.0
100
AcDbArc
 50
36.72697899999988
 51
53.48743000000007
  0
LINE
  5
170A
102
{ACAD_REACTORS
330
1E89
102
}
330
1F
100
AcDbEntity
  8
Mittellinie
100
AcDbLine
 10
7.83648130504104
 20
206.9578771910002
 30
0.0
 11
12.15305530504104
 21
211.2744471910003
 31
0.0
  0
ARC
  5
170B
102
{ACAD_REACTORS
330
1E89
102
}
330
1F
100
AcDbEntity
  8
Innenkanten
100
AcDbCircle
 10
9.923353305041047
 20
209.0445571910003
 30
0.0
 40
3.7004631
100
AcDbArc
 50
180.0044900000005
 51
243.82255
  0
ARC
  5
170C
102
{ACAD_REACTORS
330
1E89
102
}
330
1F
100
AcDbEntity
  8
Innenkanten
100
AcDbCircle
 10
5.71978630504104
 20
212.2807671910003
 30
0.0
 40
0.5000389800000001
100
AcDbArc
 50
0.0045230000998564
 51
89.99548100000001
  0
ARC
  5
170D
102
{ACAD_REACTORS
330
1E89
102
}
330
1F
100
AcDbEntity
  8
0
100
AcDbCircle
 10
11.15638230504104
 20
210.2808071910003
 30
0.0
 40
2.5
100
AcDbArc
 50
0.0
 51
90.06148100000002
  0
LINE
  5
170E
330
1F
100
AcDbEntity
  8
Innenkanten
100
AcDbLine
 10
330.3517928066399
 20
212.7808071910003
 30
0.0
 11
330.3517928066399
 21
172.7808071910003
 31
0.0
  0
LINE
  5
170F
330
1F
100
AcDbEntity
  8
Innenkanten
100
AcDbLine
 10
331.0517928066399
 20
212.7808071910003
 30
0.0
 11
331.0517928066399
 21
172.7808071910003
 31
0.0
  0
ARC
  5
1710
330
1F
100
AcDbEntity
  8
Innenkanten
100
AcDbCircle
 10
500.62292280664
 20
192.7913371910003
 30
0.0
 40
197.5711499999999
100
AcDbArc
 50
177.0729699999998
 51
181.7163899999999
  0
ARC
  5
1711
102
{ACAD_REACTORS
330
17D9
102
}
330
1F
100
AcDbEntity
  8
0
100
AcDbCircle
 10
500.8305928066399
 20
192.7916971910003
 30
0.0
 40
199.77882
100
AcDbArc
 50
174.45284
 51
182.3486699999994
  0
ARC
  5
1712
330
1F
100
AcDbEntity
  8
Innenkanten
100
AcDbCircle
 10
304.97318380664
 20
173.7808071910003
 30
0.0
 40
1.0
100
AcDbArc
 50
185.5496899999997
 51
270.0000199999999
  0
LINE
  5
1713
330
1F
100
AcDbEntity
  8
Mittellinie
100
AcDbLine
 10
299.5609678066399
 20
182.3034671910003
 30
0.0
 11
306.47222280664
 21
182.3034671910003
 31
0.0
  0
LINE
  5
1714
330
1F
100
AcDbEntity
  8
Innenkanten
100
AcDbLine
 10
305.05181180664
 20
179.1034571910003
 30
0.0
 11
303.5518118066399
 21
179.1034571910003
 31
0.0
  0
LINE
  5
1715
330
1F
100
AcDbEntity
  8
Innenkanten
100
AcDbLine
 10
305.05181180664
 20
185.5034671910003
 30
0.0
 11
303.5518118066399
 21
185.5034671910003
 31
0.0
  0
LINE
  5
1716
330
1F
100
AcDbEntity
  8
Innenkanten
100
AcDbLine
 10
305.05181180664
 20
185.9034571910003
 30
0.0
 11
304.13996180664
 21
185.9034571910003
 31
0.0
  0
LINE
  5
1717
330
1F
100
AcDbEntity
  8
Innenkanten
100
AcDbLine
 10
305.05181180664
 20
178.7034671910002
 30
0.0
 11
304.6316618066399
 21
178.7034671910002
 31
0.0
  0
LINE
  5
1718
330
1F
100
AcDbEntity
  8
0
100
AcDbLine
 10
304.2596908066399
 20
170.7808071910003
 30
0.0
 11
304.8899548066399
 21
165.6589381910003
 31
0.0
  0
ARC
  5
1719
330
1F
100
AcDbEntity
  8
Innenkanten
100
AcDbCircle
 10
500.62292280664
 20
192.7913371910003
 30
0.0
 40
197.5711499999999
100
AcDbArc
 50
184.4020699999999
 51
185.5497700000005
  0
ARC
  5
171A
330
1F
100
AcDbEntity
  8
0
100
AcDbCircle
 10
500.8305928066399
 20
192.7916971910003
 30
0.0
 40
199.77882
100
AcDbArc
 50
183.78632
 51
186.0674700000005
  0
ARC
  5
171B
330
1F
100
AcDbEntity
  8
0
100
AcDbCircle
 10
303.16530680664
 20
171.7808071910003
 30
0.0
 40
1.0
100
AcDbArc
 50
186.06729
 51
270.0000199999999
  0
LINE
  5
171C
330
1F
100
AcDbEntity
  8
0
  6
Continuous
100
AcDbLine
 10
303.16530680664
 20
170.7808071910003
 30
0.0
 11
304.2596978066399
 21
170.7808071910003
 31
0.0
  0
LINE
  5
171D
330
1F
100
AcDbEntity
  8
Innenkanten
100
AcDbLine
 10
301.05181180664
 20
184.0534671910003
 30
0.0
 11
301.05181180664
 21
180.5534671910003
 31
0.0
  0
LINE
  5
171E
330
1F
100
AcDbEntity
  8
Innenkanten
100
AcDbLine
 10
303.05181180664
 20
185.0034671910003
 30
0.0
 11
303.05181180664
 21
179.6034571910003
 31
0.0
  0
ARC
  5
171F
330
1F
100
AcDbEntity
  8
Innenkanten
100
AcDbCircle
 10
302.0518118066399
 20
180.5534671910003
 30
0.0
 40
1.0
100
AcDbArc
 50
179.9999799999996
 51
270.0000299999999
  0
LINE
  5
1720
330
1F
100
AcDbEntity
  8
Innenkanten
100
AcDbLine
 10
302.0518118066399
 20
179.5534671910003
 30
0.0
 11
303.05181180664
 21
179.5534671910003
 31
0.0
  0
ARC
  5
1721
330
1F
100
AcDbEntity
  8
Innenkanten
100
AcDbCircle
 10
304.6316618066399
 20
177.7034671910002
 30
0.0
 40
1.0
100
AcDbArc
 50
89.99998199999998
 51
184.4022499999996
  0
ARC
  5
1722
330
1F
100
AcDbEntity
  8
Innenkanten
100
AcDbCircle
 10
303.5518118066399
 20
179.6034571910003
 30
0.0
 40
0.5
100
AcDbArc
 50
179.9999799999996
 51
270.0000299999999
  0
ARC
  5
1723
330
1F
100
AcDbEntity
  8
Innenkanten
100
AcDbCircle
 10
304.13996180664
 20
186.9034571910003
 30
0.0
 40
1.0
100
AcDbArc
 50
181.7164099999994
 51
270.0000199999999
  0
ARC
  5
1724
330
1F
100
AcDbEntity
  8
Innenkanten
100
AcDbCircle
 10
302.0518118066399
 20
184.0534671910003
 30
0.0
 40
1.0
100
AcDbArc
 50
89.99998199999998
 51
179.99996
  0
ARC
  5
1725
330
1F
100
AcDbEntity
  8
Innenkanten
100
AcDbCircle
 10
303.5518118066399
 20
185.0034671910003
 30
0.0
 40
0.5
100
AcDbArc
 50
89.99998199999998
 51
179.99996
  0
LINE
  5
1726
330
1F
100
AcDbEntity
  8
Innenkanten
100
AcDbLine
 10
302.0518118066399
 20
185.0534671910003
 30
0.0
 11
303.05181180664
 21
185.0534671910003
 31
0.0
  0
LINE
  5
1727
330
1F
100
AcDbEntity
  8
0
100
AcDbLine
 10
313.5142328066399
 20
153.5927681910003
 30
0.0
 11
313.52144280664
 21
164.7810771910003
 31
0.0
  0
LINE
  5
1728
330
1F
100
AcDbEntity
  8
0
100
AcDbLine
 10
306.5214728066399
 20
164.7810771910003
 30
0.0
 11
306.51423280664
 21
153.5926771910003
 31
0.0
  0
ARC
  5
1729
330
1F
100
AcDbEntity
  8
0
100
AcDbCircle
 10
311.7642328066399
 20
150.5609921910003
 30
0.0
 40
3.500598
100
AcDbArc
 50
60.00564999999991
 51
119.9943800000001
  0
ARC
  5
172A
330
1F
100
AcDbEntity
  8
0
100
AcDbCircle
 10
308.2641528066399
 20
156.6234761910003
 30
0.0
 40
3.4997101
100
AcDbArc
 50
239.9987399999999
 51
300.00425
  0
LINE
  5
172B
330
1F
100
AcDbEntity
  8
0
100
AcDbLine
 10
316.6684928066399
 20
170.9278671910003
 30
0.0
 11
315.2200728066399
 21
165.5222571910003
 31
0.0
  0
LINE
  5
172C
330
1F
100
AcDbEntity
  8
Innenkanten
  6
Continuous
100
AcDbLine
 10
310.02146280664
 20
172.7808071910003
 30
0.0
 11
310.02146280664
 21
164.7810691910003
 31
0.0
  0
LINE
  5
172D
330
1F
100
AcDbEntity
  8
0
100
AcDbLine
 10
305.8824728066399
 20
164.7810691910003
 30
0.0
 11
314.2541428066399
 21
164.7810691910003
 31
0.0
  0
ARC
  5
172E
330
1F
100
AcDbEntity
  8
0
100
AcDbCircle
 10
305.8824728066399
 20
165.7810691910003
 30
0.0
 40
1.0
100
AcDbArc
 50
187.0151500000004
 51
270.0000199999999
  0
ARC
  5
172F
330
1F
100
AcDbEntity
  8
0
100
AcDbCircle
 10
314.2541428066399
 20
165.7810691910003
 30
0.0
 40
1.0
100
AcDbArc
 50
270.0000199999999
 51
344.9999899999996
  0
ARC
  5
1730
330
1F
100
AcDbEntity
  8
0
100
AcDbCircle
 10
319.0834928066399
 20
170.2805571910003
 30
0.0
 40
2.500252
100
AcDbArc
 50
90.00436699999994
 51
164.9955499999997
  0
LINE
  5
1731
330
1F
100
AcDbEntity
  8
Innenkanten
100
AcDbLine
 10
305.05181180664
 20
185.9034571910003
 30
0.0
 11
305.05181180664
 21
178.7034671910002
 31
0.0
  0
ARC
  5
1732
330
1F
100
AcDbEntity
  8
0
  6
Continuous
 62
     5
100
AcDbCircle
 10
303.8088768066399
 20
202.8546971910003
 30
0.0
 40
0.5
100
AcDbArc
 50
89.99998199999998
 51
177.0734299999995
  0
ARC
  5
1733
330
1F
100
AcDbEntity
  8
0
100
AcDbCircle
 10
302.7338268066399
 20
212.0308071910003
 30
0.0
 40
0.75
100
AcDbArc
 50
90.00000299999992
 51
174.45284
  0
LINE
  5
1734
330
1F
100
AcDbEntity
  8
0
100
AcDbLine
 10
370.2015428066399
 20
157.0807821910003
 30
0.0
 11
370.2015428066399
 21
151.4435301910003
 31
0.0
  0
LINE
  5
1735
330
1F
100
AcDbEntity
  8
0
100
AcDbLine
 10
371.90204280664
 20
151.4435141910003
 30
0.0
 11
371.90204280664
 21
157.0807821910003
 31
0.0
  0
ARC
  5
1736
330
1F
100
AcDbEntity
  8
0
  6
Continuous
 62
     5
100
AcDbCircle
 10
370.6270828066399
 20
152.1796441910003
 30
0.0
 40
0.8500000199999998
100
AcDbArc
 50
239.99866
 51
299.9990299999999
  0
ARC
  5
1737
330
1F
100
AcDbEntity
  8
0
  6
Continuous
 62
     5
100
AcDbCircle
 10
371.4770628066399
 20
150.7073841910003
 30
0.0
 40
0.8500000199999998
100
AcDbArc
 50
60.000985
 51
119.9990299999999
  0
ARC
  5
1738
330
1F
100
AcDbEntity
  8
0
100
AcDbCircle
 10
371.4770628066399
 20
152.1796441910003
 30
0.0
 40
0.8500000199999998
100
AcDbArc
 50
240.0009499999999
 51
299.9990299999999
  0
LINE
  5
1739
330
1F
100
AcDbEntity
  8
0
100
AcDbLine
 10
245.157876305041
 20
120.9851401910003
 30
0.0
 11
245.157876305041
 21
127.4851401910003
 31
0.0
  0
LINE
  5
173A
330
1F
100
AcDbEntity
  8
0
100
AcDbLine
 10
231.157916305041
 20
127.4851401910003
 30
0.0
 11
231.157916305041
 21
120.9851401910003
 31
0.0
  0
LINE
  5
173B
330
1F
100
AcDbEntity
  8
0
100
AcDbLine
 10
231.157916305041
 20
120.9851401910003
 30
0.0
 11
245.157876305041
 21
120.9851401910003
 31
0.0
  0
LINE
  5
173C
330
1F
100
AcDbEntity
  8
0
100
AcDbLine
 10
239.857926305041
 20
114.4851401910003
 30
0.0
 11
239.857926305041
 21
120.9851401910003
 31
0.0
  0
LINE
  5
173D
330
1F
100
AcDbEntity
  8
0
100
AcDbLine
 10
236.457926305041
 20
120.9851291910003
 30
0.0
 11
236.472576305041
 21
114.4851291910003
 31
0.0
  0
LINE
  5
173E
330
1F
100
AcDbEntity
  8
0
100
AcDbLine
 10
235.5579063050409
 20
114.4851401910003
 30
0.0
 11
235.5579063050409
 21
120.9851401910003
 31
0.0
  0
LINE
  5
173F
330
1F
100
AcDbEntity
  8
0
100
AcDbLine
 10
232.157916305041
 20
120.9851401910003
 30
0.0
 11
232.157916305041
 21
114.4851401910003
 31
0.0
  0
LINE
  5
1740
330
1F
100
AcDbEntity
  8
0
100
AcDbLine
 10
232.157916305041
 20
114.4851401910003
 30
0.0
 11
235.5579063050409
 21
114.4851401910003
 31
0.0
  0
LINE
  5
1741
330
1F
100
AcDbEntity
  8
0
100
AcDbLine
 10
236.472576305041
 20
114.4851401910003
 30
0.0
 11
239.857926305041
 21
114.4851401910003
 31
0.0
  0
LINE
  5
1742
330
1F
100
AcDbEntity
  8
0
100
AcDbLine
 10
244.157876305041
 20
114.4851401910003
 30
0.0
 11
244.157876305041
 21
120.9851401910003
 31
0.0
  0
LINE
  5
1743
330
1F
100
AcDbEntity
  8
0
100
AcDbLine
 10
240.757916305041
 20
120.9851401910003
 30
0.0
 11
240.757916305041
 21
114.4851401910003
 31
0.0
  0
LINE
  5
1744
330
1F
100
AcDbEntity
  8
0
100
AcDbLine
 10
240.757916305041
 20
114.4851401910003
 30
0.0
 11
244.157876305041
 21
114.4851401910003
 31
0.0
  0
LINE
  5
1745
330
1F
100
AcDbEntity
  8
0
100
AcDbLine
 10
243.657876305041
 20
147.0992761910003
 30
0.0
 11
243.657876305041
 21
136.3363821910003
 31
0.0
  0
LINE
  5
1746
330
1F
100
AcDbEntity
  8
0
100
AcDbLine
 10
232.657916305041
 20
147.0992761910003
 30
0.0
 11
232.657916305041
 21
136.3363821910003
 31
0.0
  0
LINE
  5
1747
330
1F
100
AcDbEntity
  8
0
100
AcDbLine
 10
229.258006305041
 20
127.4851291910003
 30
0.0
 11
247.057966305041
 21
127.4984921910003
 31
0.0
  0
ARC
  5
1748
330
1F
100
AcDbEntity
  8
0
100
AcDbCircle
 10
230.157916305041
 20
132.0079711910003
 30
0.0
 40
1.0
100
AcDbArc
 50
134.9998600000002
 51
179.99996
  0
LINE
  5
1749
330
1F
100
AcDbEntity
  8
0
100
AcDbLine
 10
229.157916305041
 20
132.0079671910003
 30
0.0
 11
229.157916305041
 21
127.5851311910003
 31
0.0
  0
ARC
  5
174A
330
1F
100
AcDbEntity
  8
0
100
AcDbCircle
 10
229.257916305041
 20
127.5851311910003
 30
0.0
 40
0.1
100
AcDbArc
 50
179.9999799999996
 51
270.0349699999999
  0
ARC
  5
174B
330
1F
100
AcDbEntity
  8
0
100
AcDbCircle
 10
231.657916305041
 20
136.3363821910003
 30
0.0
 40
1.0
100
AcDbArc
 50
314.9998500000002
 51
0.0
  0
LINE
  5
174C
330
1F
100
AcDbEntity
  8
0
100
AcDbLine
 10
229.450816305041
 20
132.7150791910003
 30
0.0
 11
232.365006305041
 21
135.6292751910003
 31
0.0
  0
ARC
  5
174D
330
1F
100
AcDbEntity
  8
0
100
AcDbCircle
 10
246.157916305041
 20
132.0079711910003
 30
0.0
 40
1.0
100
AcDbArc
 50
0.0
 51
45.00015499999984
  0
LINE
  5
174E
330
1F
100
AcDbEntity
  8
0
100
AcDbLine
 10
247.157876305041
 20
132.0079671910003
 30
0.0
 11
247.157876305041
 21
127.5984901910003
 31
0.0
  0
ARC
  5
174F
330
1F
100
AcDbEntity
  8
0
100
AcDbCircle
 10
247.057876305041
 20
127.5984901910003
 30
0.0
 40
0.1
100
AcDbArc
 50
270.0349699999999
 51
0.0
  0
LINE
  5
1750
330
1F
100
AcDbEntity
  8
0
100
AcDbLine
 10
243.950756305041
 20
135.6292751910003
 30
0.0
 11
246.864946305041
 21
132.7150751910003
 31
0.0
  0
ARC
  5
1751
330
1F
100
AcDbEntity
  8
0
100
AcDbCircle
 10
244.657916305041
 20
136.3363821910003
 30
0.0
 40
1.0
100
AcDbArc
 50
179.9999799999996
 51
225.00013
  0
ARC
  5
1752
330
1F
100
AcDbEntity
  8
0
100
AcDbCircle
 10
239.908556305041
 20
147.8603691910003
 30
0.0
 40
3.500962
100
AcDbArc
 50
60.00799300000004
 51
119.9950199999997
  0
LINE
  5
1753
330
1F
100
AcDbEntity
  8
0
100
AcDbLine
 10
233.657916305041
 20
148.0992761910003
 30
0.0
 11
242.657876305041
 21
148.0992761910003
 31
0.0
  0
ARC
  5
1754
330
1F
100
AcDbEntity
  8
0
100
AcDbCircle
 10
233.657916305041
 20
147.0992761910003
 30
0.0
 40
1.0
100
AcDbArc
 50
89.99998199999998
 51
179.99996
  0
LINE
  5
1755
330
1F
100
AcDbEntity
  8
0
100
AcDbLine
 10
234.657916305041
 20
150.8923591910003
 30
0.0
 11
234.657916305041
 21
148.0992761910003
 31
0.0
  0
ARC
  5
1756
330
1F
100
AcDbEntity
  8
0
100
AcDbCircle
 10
236.407916305041
 20
147.8619481910002
 30
0.0
 40
3.499413999999999
100
AcDbArc
 50
59.99446200000016
 51
120.0055600000001
  0
ARC
  5
1757
330
1F
100
AcDbEntity
  8
0
100
AcDbCircle
 10
236.408066305041
 20
153.9235791910003
 30
0.0
 40
3.500186
100
AcDbArc
 50
239.9991
 51
300.0036499999997
  0
LINE
  5
1758
330
1F
100
AcDbEntity
  8
0
100
AcDbLine
 10
241.657916305041
 20
150.8924511910002
 30
0.0
 11
241.657916305041
 21
148.0992761910003
 31
0.0
  0
ARC
  5
1759
330
1F
100
AcDbEntity
  8
0
100
AcDbCircle
 10
242.657876305041
 20
147.0992761910003
 30
0.0
 40
1.0
100
AcDbArc
 50
0.0
 51
89.99998199999998
  0
LINE
  5
175A
102
{ACAD_REACTORS
330
1AEB
330
1B8F
102
}
330
1F
100
AcDbEntity
  8
0
100
AcDbLine
 10
426.0518128066399
 20
207.7808071910003
 30
0.0
 11
426.0518128066399
 21
177.7808071910003
 31
0.0
  0
LINE
  5
175B
330
1F
100
AcDbEntity
  8
Innenkanten
100
AcDbLine
 10
365.5517928066399
 20
212.7808071910003
 30
0.0
 11
365.5517928066399
 21
172.7808071910003
 31
0.0
  0
LINE
  5
175C
102
{ACAD_REACTORS
330
1A4D
102
}
330
1F
100
AcDbEntity
  8
Innenkanten
100
AcDbLine
 10
418.55181280664
 20
212.7808071910003
 30
0.0
 11
418.55181280664
 21
172.7808071910003
 31
0.0
  0
LINE
  5
175D
330
1F
100
AcDbEntity
  8
0
100
AcDbLine
 10
423.55181280664
 20
212.7808071910003
 30
0.0
 11
423.55181280664
 21
172.7808071910003
 31
0.0
  0
LINE
  5
175E
330
1F
100
AcDbEntity
  8
0
100
AcDbLine
 10
426.0518128066399
 20
177.7808071910003
 30
0.0
 11
423.55181280664
 21
177.7808071910003
 31
0.0
  0
LINE
  5
175F
330
1F
100
AcDbEntity
  8
0
100
AcDbLine
 10
376.0017928066399
 20
167.0807821910003
 30
0.0
 11
366.1018028066399
 21
167.0807821910003
 31
0.0
  0
LINE
  5
1760
330
1F
100
AcDbEntity
  8
0
100
AcDbLine
 10
376.0517928066399
 20
169.8807851910003
 30
0.0
 11
366.0517928066399
 21
169.8807851910003
 31
0.0
  0
LINE
  5
1761
330
1F
100
AcDbEntity
  8
0
100
AcDbLine
 10
375.0017928066399
 20
157.0807821910003
 30
0.0
 11
367.1018028066399
 21
157.0807821910003
 31
0.0
  0
LINE
  5
1762
330
1F
100
AcDbEntity
  8
Innenkanten
100
AcDbLine
 10
376.0017928066399
 20
158.0807821910003
 30
0.0
 11
366.1018028066399
 21
158.0807821910003
 31
0.0
  0
LINE
  5
1763
330
1F
100
AcDbEntity
  8
0
100
AcDbLine
 10
366.1018028066399
 20
158.0807821910003
 30
0.0
 11
366.1018028066399
 21
167.0807821910003
 31
0.0
  0
LINE
  5
1764
330
1F
100
AcDbEntity
  8
Mittellinie
100
AcDbLine
 10
371.05179280664
 20
153.1421611910003
 30
0.0
 11
371.05179280664
 21
173.3238671910003
 31
0.0
  0
LINE
  5
1765
330
1F
100
AcDbEntity
  8
0
100
AcDbLine
 10
357.5017928066399
 20
164.7808101910003
 30
0.0
 11
357.5017928066399
 21
158.8720501910003
 31
0.0
  0
LINE
  5
1766
330
1F
100
AcDbEntity
  8
0
100
AcDbLine
 10
355.60181280664
 20
164.7808171910003
 30
0.0
 11
355.6018028066399
 21
158.8720731910003
 31
0.0
  0
ARC
  5
1767
330
1F
100
AcDbEntity
  8
0
100
AcDbCircle
 10
357.0268028066399
 20
159.6948111910003
 30
0.0
 40
0.9500300299999999
100
AcDbArc
 50
240.0016599999997
 51
299.99832
  0
ARC
  5
1768
330
1F
100
AcDbEntity
  8
0
100
AcDbCircle
 10
357.0268028066399
 20
158.0494031910003
 30
0.0
 40
0.9499310299999999
100
AcDbArc
 50
59.99825300000011
 51
120.0017699999998
  0
ARC
  5
1769
330
1F
100
AcDbEntity
  8
0
100
AcDbCircle
 10
356.0768228066399
 20
159.6948191910002
 30
0.0
 40
0.95003802
100
AcDbArc
 50
239.99994
 51
299.99818
  0
ARC
  5
176A
330
1F
100
AcDbEntity
  8
0
100
AcDbCircle
 10
367.1018028066399
 20
158.0807821910003
 30
0.0
 40
1.0
100
AcDbArc
 50
179.9999899999997
 51
270.0
  0
LINE
  5
176B
330
1F
100
AcDbEntity
  8
Mittellinie
100
AcDbLine
 10
351.17045280664
 20
168.7808101910003
 30
0.0
 11
364.04960280664
 21
168.7808101910003
 31
0.0
  0
LINE
  5
176C
330
1F
100
AcDbEntity
  8
0
100
AcDbLine
 10
361.05225280664
 20
164.7883171910003
 30
0.0
 11
352.99430280664
 21
164.7808021910003
 31
0.0
  0
LINE
  5
176D
330
1F
100
AcDbEntity
  8
Innenkanten
100
AcDbLine
 10
356.5517928066399
 20
172.7808071910003
 30
0.0
 11
356.5517928066399
 21
164.7808101910003
 31
0.0
  0
LINE
  5
176E
330
1F
100
AcDbEntity
  8
0
100
AcDbLine
 10
352.49772280664
 20
165.2186451910003
 30
0.0
 11
351.6538128066399
 21
171.9543971910003
 31
0.0
  0
ARC
  5
176F
330
1F
100
AcDbEntity
  8
0
100
AcDbCircle
 10
352.9938328066399
 20
165.2808101910003
 30
0.0
 40
0.5
100
AcDbArc
 50
187.1412600000004
 51
270.0541999999999
  0
ARC
  5
1770
330
1F
100
AcDbEntity
  8
0
100
AcDbCircle
 10
350.66897280664
 20
171.7807671910003
 30
0.0
 40
1.000037
100
AcDbArc
 50
9.99895299999989
 51
89.99564500000003
  0
ARC
  5
1771
330
1F
100
AcDbEntity
  8
0
100
AcDbCircle
 10
362.55179280664
 20
170.5308071910003
 30
0.0
 40
1.0
100
AcDbArc
 50
0.0
 51
89.99998199999998
  0
LINE
  5
1772
330
1F
100
AcDbEntity
  8
0
100
AcDbLine
 10
365.5517928066399
 20
170.3807871910003
 30
0.0
 11
365.5517928066399
 21
172.7808071910003
 31
0.0
  0
LINE
  5
1773
330
1F
100
AcDbEntity
  8
0
100
AcDbLine
 10
361.5517928066399
 20
172.7808071910003
 30
0.0
 11
361.5517928066399
 21
165.2883251910003
 31
0.0
  0
LINE
  5
1774
330
1F
100
AcDbEntity
  8
0
100
AcDbLine
 10
363.5517928066399
 20
170.5308071910003
 30
0.0
 11
363.5517928066399
 21
167.0308101910003
 31
0.0
  0
ARC
  5
1775
330
1F
100
AcDbEntity
  8
0
100
AcDbCircle
 10
362.55179280664
 20
167.0308101910003
 30
0.0
 40
1.0
100
AcDbArc
 50
270.0000199999999
 51
0.0
  0
ARC
  5
1776
330
1F
100
AcDbEntity
  8
0
100
AcDbCircle
 10
361.0517928066399
 20
165.2883251910003
 30
0.0
 40
0.5
100
AcDbArc
 50
270.0541999999999
 51
0.0
  0
LINE
  5
1777
330
1F
100
AcDbEntity
  8
0
100
AcDbLine
 10
361.5517928066399
 20
166.0308101910003
 30
0.0
 11
362.55179280664
 21
166.0308101910003
 31
0.0
  0
ARC
  5
1778
330
1F
100
AcDbEntity
  8
0
100
AcDbCircle
 10
366.0517928066399
 20
170.3807871910003
 30
0.0
 40
0.5
100
AcDbArc
 50
179.9999899999997
 51
270.0
  0
LINE
  5
1779
330
1F
100
AcDbEntity
  8
0
100
AcDbLine
 10
367.1518028066399
 20
167.0807821910003
 30
0.0
 11
367.1518028066399
 21
169.8807851910003
 31
0.0
  0
LINE
  5
177A
330
1F
100
AcDbEntity
  8
0
100
AcDbLine
 10
361.5517928066399
 20
171.5308071910003
 30
0.0
 11
362.55179280664
 21
171.5308071910003
 31
0.0
  0
LINE
  5
177B
330
1F
100
AcDbEntity
  8
0
100
AcDbLine
 10
376.0017928066399
 20
158.0807821910003
 30
0.0
 11
376.0017928066399
 21
167.0807821910003
 31
0.0
  0
ARC
  5
177C
330
1F
100
AcDbEntity
  8
0
100
AcDbCircle
 10
375.0017928066399
 20
158.0807821910003
 30
0.0
 40
1.0
100
AcDbArc
 50
270.0
 51
0.0
  0
LINE
  5
177D
330
1F
100
AcDbEntity
  8
0
100
AcDbLine
 10
376.5517928066399
 20
170.3807871910003
 30
0.0
 11
376.5517928066399
 21
172.7808071910003
 31
0.0
  0
LINE
  5
177E
330
1F
100
AcDbEntity
  8
0
100
AcDbLine
 10
374.9517928066399
 20
167.0807821910003
 30
0.0
 11
374.9517928066399
 21
169.8807851910003
 31
0.0
  0
ARC
  5
177F
330
1F
100
AcDbEntity
  8
0
100
AcDbCircle
 10
376.0517928066399
 20
170.3807871910003
 30
0.0
 40
0.5
100
AcDbArc
 50
270.0
 51
0.0
  0
LINE
  5
1780
102
{ACAD_REACTORS
330
1AC5
102
}
330
1F
100
AcDbEntity
  8
0
100
AcDbLine
 10
426.0518128066399
 20
196.7808071910003
 30
0.0
 11
448.55181280664
 21
196.7808071910003
 31
0.0
  0
LINE
  5
1781
330
1F
100
AcDbEntity
  8
0
100
AcDbLine
 10
426.0518128066399
 20
188.7808071910003
 30
0.0
 11
448.55181280664
 21
188.7808071910003
 31
0.0
  0
LINE
  5
1782
330
1F
100
AcDbEntity
  8
0
100
AcDbLine
 10
448.55181280664
 20
188.7808071910003
 30
0.0
 11
448.55181280664
 21
196.7808071910003
 31
0.0
  0
LINE
  5
1783
330
1F
100
AcDbEntity
  8
0
100
AcDbLine
 10
423.55181280664
 20
207.7808071910003
 30
0.0
 11
426.0518128066399
 21
207.7808071910003
 31
0.0
  0
LINE
  5
1784
102
{ACAD_REACTORS
330
1BB2
102
}
330
1F
100
AcDbEntity
  8
0
100
AcDbLine
 10
258.156356305041
 20
175.2808071910003
 30
0.0
 11
258.156356305041
 21
210.2808071910003
 31
0.0
  0
LINE
  5
1785
102
{ACAD_REACTORS
330
1BB2
102
}
330
1F
100
AcDbEntity
  8
0
100
AcDbLine
 10
218.156386305041
 20
210.2808071910003
 30
0.0
 11
218.156386305041
 21
175.2808071910003
 31
0.0
  0
CIRCLE
  5
1786
330
1F
100
AcDbEntity
  8
Innenkanten
100
AcDbCircle
 10
238.156386305041
 20
192.7808071910003
 30
0.0
 40
15.0
  0
LINE
  5
1787
102
{ACAD_REACTORS
330
1BF6
102
}
330
1F
100
AcDbEntity
  8
Mittellinie
100
AcDbLine
 10
238.156386305041
 20
216.2522289888243
 30
0.0
 11
238.156386305041
 21
111.9966015058912
 31
0.0
  0
LINE
  5
1788
330
1F
100
AcDbEntity
  8
0
100
AcDbLine
 10
220.656386305041
 20
172.7808071910003
 30
0.0
 11
255.6563563050409
 21
172.7808071910003
 31
0.0
  0
LINE
  5
1789
330
1F
100
AcDbEntity
  8
Mittellinie
100
AcDbLine
 10
216.244646305041
 20
192.7808071910003
 30
0.0
 11
260.215746305041
 21
192.7808071910003
 31
0.0
  0
LINE
  5
178A
330
1F
100
AcDbEntity
  8
0
100
AcDbLine
 10
226.492426305041
 20
165.2351861910003
 30
0.0
 11
228.756366305041
 21
165.0901361910003
 31
0.0
  0
LINE
  5
178B
330
1F
100
AcDbEntity
  8
0
100
AcDbLine
 10
249.756396305041
 20
169.8808161910003
 30
0.0
 11
227.756396305041
 21
169.8808161910003
 31
0.0
  0
ARC
  5
178C
330
1F
100
AcDbEntity
  8
0
100
AcDbCircle
 10
229.7562605546043
 20
158.0808356334263
 30
0.0
 40
1.0
100
AcDbArc
 50
180.0000100000002
 51
270.0
  0
ARC
  5
178D
330
1F
100
AcDbEntity
  8
0
100
AcDbCircle
 10
227.756396305041
 20
170.8808171910003
 30
0.0
 40
1.0
100
AcDbArc
 50
180.0000100000002
 51
270.0
  0
LINE
  5
178E
330
1F
100
AcDbEntity
  8
0
100
AcDbLine
 10
225.556376305041
 20
172.7808071910003
 30
0.0
 11
225.556376305041
 21
166.2331261910003
 31
0.0
  0
ARC
  5
178F
330
1F
100
AcDbEntity
  8
0
100
AcDbCircle
 10
226.556376305041
 20
166.2331261910003
 30
0.0
 40
1.0
100
AcDbArc
 50
179.9999799999996
 51
266.3342899999999
  0
ARC
  5
1790
102
{ACAD_REACTORS
330
1BD3
102
}
330
1F
100
AcDbEntity
  8
0
100
AcDbCircle
 10
220.656386305041
 20
175.2808071910003
 30
0.0
 40
2.5
100
AcDbArc
 50
179.9999799999996
 51
270.0000299999999
  0
LINE
  5
1791
330
1F
100
AcDbEntity
  8
0
100
AcDbLine
 10
226.756396305041
 20
170.8808171910003
 30
0.0
 11
226.756396305041
 21
172.7808071910003
 31
0.0
  0
LINE
  5
1792
102
{ACAD_REACTORS
330
1C3B
102
}
330
1F
100
AcDbEntity
  8
0
100
AcDbLine
 10
248.756396305041
 20
158.0808131910003
 30
0.0
 11
248.756396305041
 21
167.0808131910003
 31
0.0
  0
LINE
  5
1793
330
1F
100
AcDbEntity
  8
0
100
AcDbLine
 10
228.756396305041
 20
158.0808131910003
 30
0.0
 11
228.756396305041
 21
167.0808131910003
 31
0.0
  0
ARC
  5
1794
330
1F
100
AcDbEntity
  8
0
100
AcDbCircle
 10
240.181376305041
 20
155.1488371910003
 30
0.0
 40
1.149999999999999
100
AcDbArc
 50
240.5736499999999
 51
299.9999799999999
  0
ARC
  5
1795
330
1F
100
AcDbEntity
  8
0
100
AcDbCircle
 10
240.181376305041
 20
153.1569851910003
 30
0.0
 40
1.149999999999999
100
AcDbArc
 50
59.99997399999978
 51
119.4262899999997
  0
LINE
  5
1796
102
{ACAD_REACTORS
330
1C3B
102
}
330
1F
100
AcDbEntity
  8
Innenkanten
100
AcDbLine
 10
248.756396305041
 20
158.0808131910003
 30
0.0
 11
228.756396305041
 21
158.0808131910003
 31
0.0
  0
LINE
  5
1797
330
1F
100
AcDbEntity
  8
0
100
AcDbLine
 10
247.7562605546042
 20
157.0808356334263
 30
0.0
 11
229.7562605546043
 21
157.0808356334263
 31
0.0
  0
LINE
  5
1798
330
1F
100
AcDbEntity
  8
0
100
AcDbLine
 10
233.896376305041
 20
157.0808131910003
 30
0.0
 11
233.896376305041
 21
154.1529111910003
 31
0.0
  0
LINE
  5
1799
330
1F
100
AcDbEntity
  8
0
100
AcDbLine
 10
231.616376305041
 20
157.0808131910003
 30
0.0
 11
231.616376305041
 21
154.1472041910003
 31
0.0
  0
ARC
  5
179A
330
1F
100
AcDbEntity
  8
0
100
AcDbCircle
 10
232.181376305041
 20
155.1488371910003
 30
0.0
 40
1.149999999999999
100
AcDbArc
 50
240.5736499999999
 51
299.9999799999999
  0
ARC
  5
179B
330
1F
100
AcDbEntity
  8
0
100
AcDbCircle
 10
233.331376305041
 20
155.1488371910003
 30
0.0
 40
1.149999999999999
100
AcDbArc
 50
239.99998
 51
299.4263499999998
  0
ARC
  5
179C
330
1F
100
AcDbEntity
  8
0
100
AcDbCircle
 10
232.181376305041
 20
153.1569851910003
 30
0.0
 40
1.149999999999999
100
AcDbArc
 50
59.99997399999978
 51
119.4262899999997
  0
LINE
  5
179D
330
1F
100
AcDbEntity
  8
0
100
AcDbLine
 10
237.896376305041
 20
157.0808131910003
 30
0.0
 11
237.896376305041
 21
154.1529111910003
 31
0.0
  0
LINE
  5
179E
330
1F
100
AcDbEntity
  8
0
100
AcDbLine
 10
239.616376305041
 20
157.0808131910003
 30
0.0
 11
239.616376305041
 21
154.1472041910003
 31
0.0
  0
LINE
  5
179F
330
1F
100
AcDbEntity
  8
0
100
AcDbLine
 10
235.616376305041
 20
157.0808131910003
 30
0.0
 11
235.616376305041
 21
154.1472041910003
 31
0.0
  0
ARC
  5
17A0
330
1F
100
AcDbEntity
  8
0
100
AcDbCircle
 10
237.331376305041
 20
155.1488371910003
 30
0.0
 40
1.149999999999999
100
AcDbArc
 50
239.99998
 51
299.4263499999998
  0
ARC
  5
17A1
330
1F
100
AcDbEntity
  8
0
100
AcDbCircle
 10
236.181376305041
 20
155.1488371910003
 30
0.0
 40
1.149999999999999
100
AcDbArc
 50
240.5736499999999
 51
299.9999799999999
  0
ARC
  5
17A2
330
1F
100
AcDbEntity
  8
0
100
AcDbCircle
 10
236.181376305041
 20
153.1569851910003
 30
0.0
 40
1.149999999999999
100
AcDbArc
 50
59.99997399999978
 51
119.4262899999997
  0
ARC
  5
17A3
330
1F
100
AcDbEntity
  8
0
100
AcDbCircle
 10
247.7562605546042
 20
158.0808356334263
 30
0.0
 40
1.0
100
AcDbArc
 50
270.0
 51
0.0
  0
ARC
  5
17A4
330
1F
100
AcDbEntity
  8
0
100
AcDbCircle
 10
245.331376305041
 20
155.1488371910003
 30
0.0
 40
1.149999999999999
100
AcDbArc
 50
239.99998
 51
299.4263499999998
  0
LINE
  5
17A5
330
1F
100
AcDbEntity
  8
0
100
AcDbLine
 10
243.616376305041
 20
157.0808131910003
 30
0.0
 11
243.616376305041
 21
154.1472041910003
 31
0.0
  0
LINE
  5
17A6
330
1F
100
AcDbEntity
  8
0
100
AcDbLine
 10
241.896376305041
 20
157.0808131910003
 30
0.0
 11
241.896376305041
 21
154.1529111910003
 31
0.0
  0
ARC
  5
17A7
330
1F
100
AcDbEntity
  8
0
100
AcDbCircle
 10
241.331376305041
 20
155.1488371910003
 30
0.0
 40
1.149999999999999
100
AcDbArc
 50
239.99998
 51
299.4263499999998
  0
ARC
  5
17A8
330
1F
100
AcDbEntity
  8
0
100
AcDbCircle
 10
244.181376305041
 20
153.1569851910003
 30
0.0
 40
1.149999999999999
100
AcDbArc
 50
59.99997399999978
 51
119.4262899999997
  0
ARC
  5
17A9
330
1F
100
AcDbEntity
  8
0
100
AcDbCircle
 10
244.181376305041
 20
155.1488371910003
 30
0.0
 40
1.149999999999999
100
AcDbArc
 50
240.5736499999999
 51
299.9999799999999
  0
LINE
  5
17AA
330
1F
100
AcDbEntity
  8
0
100
AcDbLine
 10
245.896376305041
 20
157.0808131910003
 30
0.0
 11
245.896376305041
 21
154.1529111910003
 31
0.0
  0
LINE
  5
17AB
330
1F
100
AcDbEntity
  8
0
100
AcDbLine
 10
248.756396305041
 20
167.0808131910003
 30
0.0
 11
228.756396305041
 21
167.0808131910003
 31
0.0
  0
LINE
  5
17AC
330
1F
100
AcDbEntity
  8
0
100
AcDbLine
 10
229.756396305041
 20
167.0808131910003
 30
0.0
 11
229.756396305041
 21
169.8808161910003
 31
0.0
  0
ARC
  5
17AD
330
1F
100
AcDbEntity
  8
0
100
AcDbCircle
 10
249.756396305041
 20
170.8808171910003
 30
0.0
 40
1.0
100
AcDbArc
 50
270.0
 51
0.0
  0
LINE
  5
17AE
330
1F
100
AcDbEntity
  8
0
100
AcDbLine
 10
250.756396305041
 20
172.7808071910003
 30
0.0
 11
250.756396305041
 21
166.2331261910003
 31
0.0
  0
LINE
  5
17AF
330
1F
100
AcDbEntity
  8
0
100
AcDbLine
 10
250.756396305041
 20
169.8808161910003
 30
0.0
 11
250.756396305041
 21
172.7808071910003
 31
0.0
  0
LINE
  5
17B0
330
1F
100
AcDbEntity
  8
0
100
AcDbLine
 10
247.756396305041
 20
167.0808131910003
 30
0.0
 11
247.756396305041
 21
169.8808161910003
 31
0.0
  0
ARC
  5
17B1
330
1F
100
AcDbEntity
  8
0
100
AcDbCircle
 10
249.756396305041
 20
166.2331261910003
 30
0.0
 40
1.0
100
AcDbArc
 50
273.6656599999999
 51
0.0
  0
LINE
  5
17B2
330
1F
100
AcDbEntity
  8
0
100
AcDbLine
 10
248.756396305041
 20
165.1670251910003
 30
0.0
 11
249.820326305041
 21
165.2351861910003
 31
0.0
  0
CIRCLE
  5
17B3
330
1F
100
AcDbEntity
  8
Innenkanten
100
AcDbCircle
 10
238.156386305041
 20
192.7808071910003
 30
0.0
 40
5.0
  0
CIRCLE
  5
17B4
330
1F
100
AcDbEntity
  8
Innenkanten
100
AcDbCircle
 10
238.156386305041
 20
192.7808071910003
 30
0.0
 40
4.0
  0
CIRCLE
  5
17B5
330
1F
100
AcDbEntity
  8
Innenkanten
100
AcDbCircle
 10
254.419846305041
 20
176.5173471910003
 30
0.0
 40
2.25
  0
ARC
  5
17B6
330
1F
100
AcDbEntity
  8
Mittellinie
100
AcDbCircle
 10
238.156386305041
 20
192.7808071910003
 30
0.0
 40
23.0
100
AcDbArc
 50
307.39002
 51
323.14946
  0
LINE
  5
17B7
330
1F
100
AcDbEntity
  8
Mittellinie
100
AcDbLine
 10
251.935106305041
 20
179.0020671910003
 30
0.0
 11
256.817366305041
 21
174.1198171910003
 31
0.0
  0
ARC
  5
17B8
330
1F
100
AcDbEntity
  8
0
100
AcDbCircle
 10
255.6563563050409
 20
175.2808071910003
 30
0.0
 40
2.5
100
AcDbArc
 50
270.0000199999999
 51
0.0
  0
LINE
  5
17B9
330
1F
100
AcDbEntity
  8
0
100
AcDbLine
 10
220.656386305041
 20
212.7808071910003
 30
0.0
 11
255.6563563050409
 21
212.7808071910003
 31
0.0
  0
CIRCLE
  5
17BA
330
1F
100
AcDbEntity
  8
Innenkanten
100
AcDbCircle
 10
221.892926305041
 20
209.0442671910003
 30
0.0
 40
2.25
  0
ARC
  5
17BB
102
{ACAD_REACTORS
330
1C10
102
}
330
1F
100
AcDbEntity
  8
Mittellinie
100
AcDbCircle
 10
238.156386305041
 20
192.7808071910003
 30
0.0
 40
23.0
100
AcDbArc
 50
126.7359999999998
 51
143.7794399999998
  0
LINE
  5
17BC
102
{ACAD_REACTORS
330
1BF6
330
1C20
102
}
330
1F
100
AcDbEntity
  8
Mittellinie
100
AcDbLine
 10
219.592516305041
 20
211.3446971910003
 30
0.0
 11
224.342196305041
 21
206.5950071910003
 31
0.0
  0
ARC
  5
17BD
102
{ACAD_REACTORS
330
1BD3
102
}
330
1F
100
AcDbEntity
  8
0
100
AcDbCircle
 10
220.656386305041
 20
210.2808071910003
 30
0.0
 40
2.5
100
AcDbArc
 50
89.99998199999998
 51
179.99996
  0
ARC
  5
17BE
330
1F
100
AcDbEntity
  8
0
100
AcDbCircle
 10
255.6563563050409
 20
210.2808071910003
 30
0.0
 40
2.5
100
AcDbArc
 50
0.0
 51
89.99998199999998
  0
LINE
  5
17C0
102
{ACAD_REACTORS
330
1E89
102
}
330
1F
100
AcDbEntity
  8
0
100
AcDbLine
 10
-18.90708369495895
 20
172.7808071910003
 30
0.0
 11
-18.90708369495892
 21
165.7682983655332
 31
0.0
  0
LINE
  5
17C1
102
{ACAD_REACTORS
330
1E89
102
}
330
1F
100
AcDbEntity
  8
0
100
AcDbLine
 10
6.219828305041048
 20
172.7808071910003
 30
0.0
 11
6.22074330504104
 21
165.7683741910003
 31
0.0
  0
DIMENSION
  5
17C2
102
{ACAD_XDICTIONARY
360
17CF
102
}
102
{ACAD_REACTORS
330
17D9
102
}
330
1F
100
AcDbEntity
  8
Bemaßung
100
AcDbDimension
  2
*D15
 10
423.55181280664
 20
226.3776288836765
 30
0.0
 11
362.3017929550442
 21
226.3776288836765
 31
0.0
 70
   160
 71
     5
 42
122.5000397031915
  3
ISO-25
100
AcDbAlignedDimension
 13
301.0517731034484
 23
192.7808071910003
 33
0.0
 14
423.55181280664
 24
213.4058071910003
 34
0.0
100
AcDbRotatedDimension
  0
DIMENSION
  5
17FE
330
1F
100
AcDbEntity
  8
Bemaßung
100
AcDbDimension
  2
*D16
 10
423.55181280664
 20
145.8735258740389
 30
0.0
 11
397.30180280664
 21
147.9568592073722
 31
0.0
 70
    32
 71
     5
 42
52.50002000000001
  3
ISO-25
100
AcDbAlignedDimension
 13
371.05179280664
 23
153.1421611910003
 33
0.0
 14
423.55181280664
 24
172.7808071910003
 34
0.0
100
AcDbRotatedDimension
  0
ARC
  5
18F6
330
1F
100
AcDbEntity
  8
0
100
AcDbCircle
 10
173.2488131958216
 20
144.5764829362121
 30
0.0
 40
3.500302099999999
100
AcDbArc
 50
60.00432999999906
 51
119.9986459999993
  0
LINE
  5
18F7
330
1F
100
AcDbEntity
  8
0
100
AcDbLine
 10
183.9987381958216
 20
144.8147029362121
 30
0.0
 11
165.9987231958216
 21
144.8147029362121
 31
0.0
  0
LINE
  5
18F8
330
1F
100
AcDbEntity
  8
0
100
AcDbLine
 10
176.6840831958216
 20
111.2005599362121
 30
0.0
 11
173.3156931958216
 21
111.2005599362121
 31
0.0
  0
LINE
  5
18F9
330
1F
100
AcDbEntity
  8
0
100
AcDbLine
 10
181.9987381958216
 20
117.7005679362121
 30
0.0
 11
167.9987231958216
 21
117.7005679362121
 31
0.0
  0
LINE
  5
18FA
330
1F
100
AcDbEntity
  8
0
100
AcDbLine
 10
183.9987381958216
 20
124.2005679362121
 30
0.0
 11
165.9987231958216
 21
124.2005679362121
 31
0.0
  0
LINE
  5
18FB
330
1F
100
AcDbEntity
  8
Innenkanten
100
AcDbLine
 10
183.9987381958216
 20
129.0505589362121
 30
0.0
 11
165.9987231958216
 21
129.0505589362121
 31
0.0
  0
LINE
  5
18FC
330
1F
100
AcDbEntity
  8
Innenkanten
100
AcDbLine
 10
183.9987381958216
 20
132.6505649362121
 30
0.0
 11
165.9987231958216
 21
132.6505649362121
 31
0.0
  0
LINE
  5
18FD
330
1F
100
AcDbEntity
  8
0
100
AcDbLine
 10
183.9987381958216
 20
144.8147029362121
 30
0.0
 11
183.9987381958216
 21
124.2005679362121
 31
0.0
  0
LINE
  5
18FE
330
1F
100
AcDbEntity
  8
0
100
AcDbLine
 10
176.6840931958216
 20
111.2005599362121
 30
0.0
 11
176.6987431958216
 21
117.7005639362121
 31
0.0
  0
LINE
  5
18FF
330
1F
100
AcDbEntity
  8
0
100
AcDbLine
 10
177.5987331958216
 20
111.2005599362121
 30
0.0
 11
177.5987331958216
 21
117.7005679362121
 31
0.0
  0
LINE
  5
1900
330
1F
100
AcDbEntity
  8
0
100
AcDbLine
 10
180.9987381958216
 20
117.7005679362121
 30
0.0
 11
180.9987381958216
 21
111.2005599362121
 31
0.0
  0
LINE
  5
1901
330
1F
100
AcDbEntity
  8
0
100
AcDbLine
 10
180.9987381958216
 20
111.2005599362121
 30
0.0
 11
177.5987331958216
 21
111.2005599362121
 31
0.0
  0
LINE
  5
1902
330
1F
100
AcDbEntity
  8
0
100
AcDbLine
 10
181.9987381958216
 20
124.2005679362121
 30
0.0
 11
181.9987381958216
 21
117.7005679362121
 31
0.0
  0
LINE
  5
1903
330
1F
100
AcDbEntity
  8
0
100
AcDbLine
 10
178.4987331958216
 20
147.6078779362121
 30
0.0
 11
178.4987331958216
 21
144.8147029362121
 31
0.0
  0
ARC
  5
1904
330
1F
100
AcDbEntity
  8
0
100
AcDbCircle
 10
176.7488131958216
 20
150.6386779362121
 30
0.0
 40
3.4997101
100
AcDbArc
 50
239.995750000001
 51
300.0012600000011
  0
ARC
  5
1905
330
1F
100
AcDbEntity
  8
0
100
AcDbCircle
 10
176.7486631958216
 20
144.5764829362121
 30
0.0
 40
3.500302099999999
100
AcDbArc
 50
60.00133999999992
 51
119.995654
  0
LINE
  5
1906
330
1F
100
AcDbEntity
  8
0
100
AcDbLine
 10
165.9987231958216
 20
124.2005679362121
 30
0.0
 11
165.9987231958216
 21
144.8147029362121
 31
0.0
  0
LINE
  5
1907
330
1F
100
AcDbEntity
  8
0
100
AcDbLine
 10
168.9987231958216
 20
111.2005599362121
 30
0.0
 11
168.9987231958216
 21
117.7005679362121
 31
0.0
  0
LINE
  5
1908
330
1F
100
AcDbEntity
  8
0
100
AcDbLine
 10
172.3987431958216
 20
117.7005679362121
 30
0.0
 11
172.3987431958216
 21
111.2005599362121
 31
0.0
  0
LINE
  5
1909
330
1F
100
AcDbEntity
  8
0
100
AcDbLine
 10
173.3156931958216
 20
111.2005599362121
 30
0.0
 11
173.2987431958216
 21
117.7005679362121
 31
0.0
  0
LINE
  5
190A
330
1F
100
AcDbEntity
  8
0
100
AcDbLine
 10
172.3987431958216
 20
111.2005599362121
 30
0.0
 11
168.9987231958216
 21
111.2005599362121
 31
0.0
  0
LINE
  5
190B
330
1F
100
AcDbEntity
  8
0
100
AcDbLine
 10
167.9987231958216
 20
117.7005679362121
 30
0.0
 11
167.9987231958216
 21
124.2005679362121
 31
0.0
  0
LINE
  5
190C
330
1F
100
AcDbEntity
  8
0
100
AcDbLine
 10
171.4987331958216
 20
147.6078779362121
 30
0.0
 11
171.4987231958216
 21
144.8147029362121
 31
0.0
  0
LINE
  5
190D
330
1F
100
AcDbEntity
  8
0
100
AcDbLine
 10
61.56424319582163
 20
212.7297549362122
 30
0.0
 11
182.3822291958216
 21
212.7297549362122
 31
0.0
  0
LINE
  5
1912
330
1F
100
AcDbEntity
  8
0
100
AcDbLine
 10
61.56424319582163
 20
172.7297549362122
 30
0.0
 11
183.0658001958216
 21
172.7297549362122
 31
0.0
  0
LINE
  5
1913
330
1F
100
AcDbEntity
  8
Mittellinie
100
AcDbLine
 10
36.56424319582163
 20
178.1999817191836
 30
0.0
 11
187.8982660036229
 21
177.7297549362122
 31
0.0
  0
LINE
  5
1915
330
1F
100
AcDbEntity
  8
Innenkanten
100
AcDbLine
 10
154.7642631958216
 20
212.7297549362122
 30
0.0
 11
154.7642631958216
 21
172.7297549362122
 31
0.0
  0
LINE
  5
1916
330
1F
100
AcDbEntity
  8
Innenkanten
100
AcDbLine
 10
154.0642631958216
 20
212.7297549362122
 30
0.0
 11
154.0642631958216
 21
172.7297549362122
 31
0.0
  0
ARC
  5
1918
330
1F
100
AcDbEntity
  8
0
100
AcDbCircle
 10
173.3518231958216
 20
150.5099399362121
 30
0.0
 40
3.500598
100
AcDbArc
 50
60.00561999999828
 51
119.9943500000009
  0
LINE
  5
1919
330
1F
100
AcDbEntity
  8
0
100
AcDbLine
 10
179.2335831958216
 20
164.7300169362121
 30
0.0
 11
170.8619131958216
 21
164.7300169362121
 31
0.0
  0
LINE
  5
191A
330
1F
100
AcDbEntity
  8
Innenkanten
  6
Continuous
100
AcDbLine
 10
175.0945931958216
 20
172.7297549362122
 30
0.0
 11
175.0945931958216
 21
164.7300169362121
 31
0.0
  0
LINE
  5
191C
330
1F
100
AcDbEntity
  8
0
100
AcDbLine
 10
178.5945831958216
 20
164.7300249362122
 30
0.0
 11
178.6018231958216
 21
153.5416249362121
 31
0.0
  0
ARC
  5
191D
330
1F
100
AcDbEntity
  8
0
100
AcDbCircle
 10
176.8519031958216
 20
156.5724239362122
 30
0.0
 40
3.4997101
100
AcDbArc
 50
239.995750000001
 51
300.0012600000011
  0
LINE
  5
191E
330
1F
100
AcDbEntity
  8
0
100
AcDbLine
 10
180.8563651958216
 20
170.7297549362122
 30
0.0
 11
180.2261011958216
 21
165.6078859362121
 31
0.0
  0
ARC
  5
191F
330
1F
100
AcDbEntity
  8
0
100
AcDbCircle
 10
179.2335831958216
 20
165.7300169362121
 30
0.0
 40
1.0
100
AcDbArc
 50
269.9999800000012
 51
352.9848499999995
  0
LINE
  5
1920
330
1F
100
AcDbEntity
  8
0
  6
Continuous
100
AcDbLine
 10
181.9507491958216
 20
170.7297549362122
 30
0.0
 11
180.8563581958216
 21
170.7297549362122
 31
0.0
  0
ARC
  5
1921
330
1F
100
AcDbEntity
  8
0
100
AcDbCircle
 10
181.9507491958216
 20
171.7297549362122
 30
0.0
 40
1.0
100
AcDbArc
 50
269.9999800000012
 51
353.9327099999999
  0
LINE
  5
1925
330
1F
100
AcDbEntity
  8
Mittellinie
100
AcDbLine
 10
185.7041870263488
 20
203.1556013805259
 30
0.0
 11
178.7929320263488
 21
203.1556013805259
 31
0.0
  0
ARC
  5
1928
330
1F
100
AcDbEntity
  8
Innenkanten
100
AcDbCircle
 10
180.1392098950613
 20
211.7237964502851
 30
0.0
 40
1.0
100
AcDbArc
 50
5.549689999995398
 51
90.00001999999444
  0
ARC
  5
1934
330
1F
100
AcDbEntity
  8
0
100
AcDbCircle
 10
166.0325631958216
 20
170.2295049362121
 30
0.0
 40
2.500252
100
AcDbArc
 50
15.00445000000028
 51
89.99563299999989
  0
LINE
  5
1935
330
1F
100
AcDbEntity
  8
0
100
AcDbLine
 10
171.6018231958216
 20
153.5417159362121
 30
0.0
 11
171.5946131958216
 21
164.7300249362122
 31
0.0
  0
LINE
  5
1936
330
1F
100
AcDbEntity
  8
0
100
AcDbLine
 10
168.4475631958216
 20
170.8768149362121
 30
0.0
 11
169.8959831958216
 21
165.4712049362121
 31
0.0
  0
ARC
  5
1937
330
1F
100
AcDbEntity
  8
0
100
AcDbCircle
 10
170.8619131958216
 20
165.7300169362121
 30
0.0
 40
1.0
100
AcDbArc
 50
195.0000100000004
 51
269.9999800000012
  0
ARC
  5
1939
330
1F
100
AcDbEntity
  8
0
100
AcDbCircle
 10
182.3822291958216
 20
211.9797549362122
 30
0.0
 40
0.75
100
AcDbArc
 50
5.547159999999933
 51
89.99999699999905
  0
LINE
  5
193A
330
1F
100
AcDbEntity
  8
0
100
AcDbLine
 10
59.06424319582163
 20
188.7297549362122
 30
0.0
 11
36.56424319582163
 21
188.7297549362122
 31
0.0
  0
LINE
  5
193B
330
1F
100
AcDbEntity
  8
0
100
AcDbLine
 10
59.06424319582163
 20
196.7297549362122
 30
0.0
 11
36.56424319582163
 21
196.7297549362122
 31
0.0
  0
LINE
  5
193C
330
1F
100
AcDbEntity
  8
Innenkanten
100
AcDbLine
 10
66.56424319582163
 20
212.7297549362122
 30
0.0
 11
66.56424319582163
 21
172.7297549362122
 31
0.0
  0
LINE
  5
193D
330
1F
100
AcDbEntity
  8
0
100
AcDbLine
 10
61.56424319582163
 20
212.7297549362122
 30
0.0
 11
61.56424319582163
 21
172.7297549362122
 31
0.0
  0
LINE
  5
193E
330
1F
100
AcDbEntity
  8
0
100
AcDbLine
 10
59.06424319582163
 20
207.7297549362122
 30
0.0
 11
59.06424319582163
 21
177.7297549362122
 31
0.0
  0
LINE
  5
193F
330
1F
100
AcDbEntity
  8
Innenkanten
100
AcDbLine
 10
119.5642631958216
 20
212.7297549362122
 30
0.0
 11
119.5642631958216
 21
172.7297549362122
 31
0.0
  0
LINE
  5
1940
330
1F
100
AcDbEntity
  8
0
100
AcDbLine
 10
108.5642631958216
 20
170.3297349362121
 30
0.0
 11
108.5642631958216
 21
172.7297549362122
 31
0.0
  0
ARC
  5
1941
330
1F
100
AcDbEntity
  8
0
100
AcDbCircle
 10
122.5642631958216
 20
170.4797549362122
 30
0.0
 40
1.0
100
AcDbArc
 50
90.00001799999919
 51
180.0
  0
LINE
  5
1942
330
1F
100
AcDbEntity
  8
0
100
AcDbLine
 10
119.5642631958216
 20
170.3297349362121
 30
0.0
 11
119.5642631958216
 21
172.7297549362122
 31
0.0
  0
LINE
  5
1943
330
1F
100
AcDbEntity
  8
0
100
AcDbLine
 10
123.5642631958216
 20
172.7297549362122
 30
0.0
 11
123.5642631958216
 21
165.2372729362121
 31
0.0
  0
LINE
  5
1944
330
1F
100
AcDbEntity
  8
Innenkanten
100
AcDbLine
 10
128.5642631958216
 20
172.7297549362122
 30
0.0
 11
128.5642631958216
 21
164.7297579362122
 31
0.0
  0
LINE
  5
1945
330
1F
100
AcDbEntity
  8
0
100
AcDbLine
 10
132.6183331958216
 20
165.1675929362121
 30
0.0
 11
133.4622431958216
 21
171.9033449362122
 31
0.0
  0
LINE
  5
1946
330
1F
100
AcDbEntity
  8
Mittellinie
100
AcDbLine
 10
114.0642631958216
 20
153.0911089362121
 30
0.0
 11
114.0642631958216
 21
173.2728149362121
 31
0.0
  0
ARC
  5
1947
330
1F
100
AcDbEntity
  8
0
100
AcDbCircle
 10
122.5642631958216
 20
166.9797579362121
 30
0.0
 40
1.0
100
AcDbArc
 50
180.0
 51
269.9999800000012
  0
LINE
  5
1948
330
1F
100
AcDbEntity
  8
Mittellinie
100
AcDbLine
 10
133.9456031958216
 20
168.7297579362121
 30
0.0
 11
121.0664531958216
 21
168.7297579362121
 31
0.0
  0
LINE
  5
1949
330
1F
100
AcDbEntity
  8
0
100
AcDbLine
 10
127.6142631958216
 20
164.7297579362122
 30
0.0
 11
127.6142631958216
 21
158.8209979362121
 31
0.0
  0
LINE
  5
194A
330
1F
100
AcDbEntity
  8
0
100
AcDbLine
 10
129.5142431958216
 20
164.7297649362121
 30
0.0
 11
129.5142531958216
 21
158.8210209362121
 31
0.0
  0
ARC
  5
194B
330
1F
100
AcDbEntity
  8
0
100
AcDbCircle
 10
128.0892531958216
 20
159.6437589362121
 30
0.0
 40
0.9500300299999999
100
AcDbArc
 50
240.0016799999994
 51
299.9983399999995
  0
ARC
  5
194C
330
1F
100
AcDbEntity
  8
0
100
AcDbCircle
 10
128.0892531958216
 20
157.9983509362122
 30
0.0
 40
0.9499310299999999
100
AcDbArc
 50
59.99822999999918
 51
120.0017470000008
  0
ARC
  5
194D
330
1F
100
AcDbEntity
  8
0
100
AcDbCircle
 10
129.0392331958216
 20
159.6437669362121
 30
0.0
 40
0.95003802
100
AcDbArc
 50
240.001820000001
 51
300.0000599999995
  0
LINE
  5
194E
330
1F
100
AcDbEntity
  8
0
100
AcDbLine
 10
124.0638031958215
 20
164.7372649362121
 30
0.0
 11
132.1217531958216
 21
164.7297499362121
 31
0.0
  0
ARC
  5
194F
330
1F
100
AcDbEntity
  8
0
100
AcDbCircle
 10
132.1222231958216
 20
165.2297579362121
 30
0.0
 40
0.5
100
AcDbArc
 50
269.9458000000004
 51
352.8587399999995
  0
ARC
  5
1950
330
1F
100
AcDbEntity
  8
0
100
AcDbCircle
 10
124.0642631958216
 20
165.2372729362121
 30
0.0
 40
0.5
100
AcDbArc
 50
180.0
 51
269.9458000000004
  0
LINE
  5
1951
330
1F
100
AcDbEntity
  8
0
100
AcDbLine
 10
123.5642631958216
 20
171.4797549362122
 30
0.0
 11
122.5642631958216
 21
171.4797549362122
 31
0.0
  0
LINE
  5
1952
330
1F
100
AcDbEntity
  8
0
100
AcDbLine
 10
123.5642631958216
 20
165.9797579362122
 30
0.0
 11
122.5642631958216
 21
165.9797579362122
 31
0.0
  0
LINE
  5
1953
330
1F
100
AcDbEntity
  8
0
100
AcDbLine
 10
121.5642631958216
 20
170.4797549362122
 30
0.0
 11
121.5642631958216
 21
166.9797579362121
 31
0.0
  0
LINE
  5
1954
330
1F
100
AcDbEntity
  8
0
100
AcDbLine
 10
109.1142631958216
 20
158.0297299362121
 30
0.0
 11
109.1142631958216
 21
167.0297299362121
 31
0.0
  0
LINE
  5
1955
330
1F
100
AcDbEntity
  8
0
100
AcDbLine
 10
119.0142531958216
 20
158.0297299362121
 30
0.0
 11
119.0142531958216
 21
167.0297299362121
 31
0.0
  0
LINE
  5
1956
330
1F
100
AcDbEntity
  8
0
100
AcDbLine
 10
110.1142631958216
 20
157.0297299362121
 30
0.0
 11
118.0142531958216
 21
157.0297299362121
 31
0.0
  0
LINE
  5
1957
330
1F
100
AcDbEntity
  8
Innenkanten
100
AcDbLine
 10
109.1142631958216
 20
158.0297299362121
 30
0.0
 11
119.0142531958216
 21
158.0297299362121
 31
0.0
  0
LINE
  5
1958
330
1F
100
AcDbEntity
  8
0
100
AcDbLine
 10
113.2140131958216
 20
151.3924619362121
 30
0.0
 11
113.2140131958216
 21
157.0297299362121
 31
0.0
  0
LINE
  5
1959
330
1F
100
AcDbEntity
  8
0
100
AcDbLine
 10
114.9145131958216
 20
157.0297299362121
 30
0.0
 11
114.9145131958216
 21
151.3924779362121
 31
0.0
  0
ARC
  5
195A
330
1F
100
AcDbEntity
  8
0
  6
Continuous
 62
     5
100
AcDbCircle
 10
113.6389931958216
 20
150.6563319362121
 30
0.0
 40
0.8500000199999998
100
AcDbArc
 50
60.00096999999875
 51
119.9990149999992
  0
ARC
  5
195B
330
1F
100
AcDbEntity
  8
0
100
AcDbCircle
 10
113.6389931958216
 20
152.1285919362121
 30
0.0
 40
0.8500000199999998
100
AcDbArc
 50
240.0009699999987
 51
299.9990499999997
  0
ARC
  5
195C
330
1F
100
AcDbEntity
  8
0
  6
Continuous
 62
     5
100
AcDbCircle
 10
114.4889731958216
 20
152.1285919362121
 30
0.0
 40
0.8500000199999998
100
AcDbArc
 50
240.0009699999987
 51
300.0013400000006
  0
ARC
  5
195D
330
1F
100
AcDbEntity
  8
0
100
AcDbCircle
 10
118.0142531958216
 20
158.0297299362121
 30
0.0
 40
1.0
100
AcDbArc
 50
270.0
 51
0.0000100000001992
  0
ARC
  5
195E
330
1F
100
AcDbEntity
  8
0
100
AcDbCircle
 10
110.1142631958216
 20
158.0297299362121
 30
0.0
 40
1.0
100
AcDbArc
 50
180.0
 51
270.0
  0
LINE
  5
195F
330
1F
100
AcDbEntity
  8
0
100
AcDbLine
 10
109.1142631958216
 20
167.0297299362121
 30
0.0
 11
119.0142531958216
 21
167.0297299362121
 31
0.0
  0
LINE
  5
1960
330
1F
100
AcDbEntity
  8
0
100
AcDbLine
 10
109.0642631958216
 20
169.8297329362121
 30
0.0
 11
119.0642631958216
 21
169.8297329362121
 31
0.0
  0
LINE
  5
1961
330
1F
100
AcDbEntity
  8
0
100
AcDbLine
 10
117.9642531958216
 20
167.0297299362121
 30
0.0
 11
117.9642531958216
 21
169.8297329362121
 31
0.0
  0
ARC
  5
1962
330
1F
100
AcDbEntity
  8
0
100
AcDbCircle
 10
119.0642631958216
 20
170.3297349362121
 30
0.0
 40
0.5
100
AcDbArc
 50
270.0
 51
0.0000100000001992
  0
ARC
  5
1963
330
1F
100
AcDbEntity
  8
0
100
AcDbCircle
 10
109.0642631958216
 20
170.3297349362121
 30
0.0
 40
0.5
100
AcDbArc
 50
180.0
 51
270.0
  0
LINE
  5
1964
330
1F
100
AcDbEntity
  8
0
100
AcDbLine
 10
110.1642631958216
 20
167.0297299362121
 30
0.0
 11
110.1642631958216
 21
169.8297329362121
 31
0.0
  0
ARC
  5
1965
330
1F
100
AcDbEntity
  8
0
100
AcDbCircle
 10
134.4470831958216
 20
171.7297149362121
 30
0.0
 40
1.000037
100
AcDbArc
 50
90.00435499999955
 51
170.0010470000001
  0
LINE
  5
1966
330
1F
100
AcDbEntity
  8
0
100
AcDbLine
 10
59.06424319582163
 20
177.7297549362122
 30
0.0
 11
61.56424319582163
 21
177.7297549362122
 31
0.0
  0
LINE
  5
1967
330
1F
100
AcDbEntity
  8
0
100
AcDbLine
 10
61.56424319582163
 20
207.7297549362122
 30
0.0
 11
59.06424319582163
 21
207.7297549362122
 31
0.0
  0
LINE
  5
1968
330
1F
100
AcDbEntity
  8
0
100
AcDbLine
 10
36.56424319582163
 20
188.7297549362122
 30
0.0
 11
36.56424319582163
 21
196.7297549362122
 31
0.0
  0
DIMENSION
  5
1A32
102
{ACAD_XDICTIONARY
360
1A41
102
}
102
{ACAD_REACTORS
330
1A4D
102
}
330
1F
100
AcDbEntity
  8
Bemaßung
100
AcDbDimension
  2
*D21
 10
423.55181280664
 20
220.3468079381807
 30
0.0
 11
421.0518128066399
 21
222.2218079381807
 31
0.0
 70
    32
 71
     5
 42
5.0
  3
ISO-25
100
AcDbAlignedDimension
 13
418.55181280664
 23
212.7808071910003
 33
0.0
 14
423.55181280664
 24
212.7808071910003
 34
0.0
100
AcDbRotatedDimension
  0
DIMENSION
  5
1AAE
102
{ACAD_XDICTIONARY
360
1ABB
102
}
102
{ACAD_REACTORS
330
1AC5
102
}
330
1F
100
AcDbEntity
  8
Bemaßung
100
AcDbDimension
  2
*D24
 10
448.55181280664
 20
226.3776288836764
 30
0.0
 11
436.05181280664
 21
228.2526288836764
 31
0.0
 70
    32
 71
     5
 42
25.0
  3
ISO-25
100
AcDbAlignedDimension
 13
423.55181280664
 23
213.4058071910003
 33
0.0
 14
448.55181280664
 24
196.7808071910003
 34
0.0
100
AcDbRotatedDimension
1001
ACAD
1000
DSTYLE
1002
{
1070
   279
1070
     1
1002
}
  0
DIMENSION
  5
1AD0
102
{ACAD_XDICTIONARY
360
1ADF
102
}
102
{ACAD_REACTORS
330
1AEB
102
}
330
1F
100
AcDbEntity
  8
Bemaßung
100
AcDbDimension
  2
*D25
 10
426.0518128066399
 20
166.6118270417863
 30
0.0
 11
434.3851461399733
 21
166.6118270417863
 31
0.0
 70
   160
 71
     5
 42
2.5
  3
ISO-25
100
AcDbAlignedDimension
 13
423.55181280664
 23
172.7808071910003
 33
0.0
 14
426.0518128066399
 24
177.7808071910003
 34
0.0
100
AcDbRotatedDimension
  0
DIMENSION
  5
1B0D
330
1F
100
AcDbEntity
  8
Bemaßung
100
AcDbDimension
  2
*D26
 10
459.8925116892094
 20
188.7808071910003
 30
0.0
 11
458.0175116892093
 21
192.7808071910004
 31
0.0
 70
    32
 71
     5
 42
8.0
  3
ISO-25
100
AcDbAlignedDimension
 13
448.55181280664
 23
196.7808071910003
 33
0.0
 14
448.55181280664
 24
188.7808071910003
 34
0.0
 50
90.0
100
AcDbRotatedDimension
  0
DIMENSION
  5
1B78
102
{ACAD_XDICTIONARY
360
1B85
102
}
102
{ACAD_REACTORS
330
1B8F
102
}
330
1F
100
AcDbEntity
  8
Bemaßung
100
AcDbDimension
  2
*D27
 10
467.7541384220355
 20
177.7808071910002
 30
0.0
 11
465.8791384220354
 21
192.7808071910003
 31
0.0
 70
    32
 71
     5
 42
30.0
  3
ISO-25
100
AcDbAlignedDimension
 13
426.0518128066399
 23
207.7808071910003
 33
0.0
 14
426.0518128066399
 24
177.7808071910003
 34
0.0
 50
90.0
100
AcDbRotatedDimension
  0
DIMENSION
  5
1B9B
102
{ACAD_XDICTIONARY
360
1BA8
102
}
102
{ACAD_REACTORS
330
1BB2
102
}
330
1F
100
AcDbEntity
  8
Bemaßung
100
AcDbDimension
  2
*D28
 10
258.156356305041
 20
226.3776288836765
 30
0.0
 11
238.156371305041
 21
228.2526288836765
 31
0.0
 70
    32
 71
     5
 42
39.99996999999996
  3
ISO-25
100
AcDbAlignedDimension
 13
218.156386305041
 23
210.2808071910003
 33
0.0
 14
258.156356305041
 24
210.2808071910003
 34
0.0
100
AcDbRotatedDimension
  0
DIMENSION
  5
1BBC
102
{ACAD_XDICTIONARY
360
1BC9
102
}
102
{ACAD_REACTORS
330
1BD3
102
}
330
1F
100
AcDbEntity
  8
Bemaßung
100
AcDbDimension
  2
*D29
 10
207.1532041297922
 20
172.7808071910006
 30
0.0
 11
205.2782041297922
 21
192.7808071910004
 31
0.0
 70
    32
 71
     5
 42
39.99999999999954
  3
ISO-25
100
AcDbAlignedDimension
 13
220.6563870904392
 23
212.7808071910002
 33
0.0
 14
220.6563876140379
 24
172.7808071910006
 34
0.0
 50
90.0
100
AcDbRotatedDimension
  0
DIMENSION
  5
1BDD
102
{ACAD_XDICTIONARY
360
1BEB
102
}
102
{ACAD_REACTORS
330
1BF6
102
}
330
1F
100
AcDbEntity
  8
Bemaßung
100
AcDbDimension
  2
*D30
 10
224.342196305041
 20
206.5950071910003
 30
0.0
 11
227.5329205336257
 21
218.4281414336428
 31
0.0
 70
    34
 71
     5
 42
0.7853971106960602
  3
ISO-25
100
AcDb2LineAngularDimension
 13
238.156386305041
 23
216.2522289888243
 33
0.0
 14
238.156386305041
 24
111.9966015058912
 34
0.0
 15
219.592516305041
 25
211.3446971910003
 35
0.0
 16
231.4567374957242
 26
217.7842529506806
 36
0.0
  0
DIMENSION
  5
1C01
102
{ACAD_XDICTIONARY
360
1C0A
102
}
102
{ACAD_REACTORS
330
1C10
102
}
330
1F
100
AcDbEntity
  8
Bemaßung
100
AcDbDimension
  2
*D31
 10
256.3350137772953
 20
178.6904735106007
 30
0.0
 11
246.2572708580742
 21
186.5017761347311
 31
0.0
 70
   163
 71
     5
 42
46.00000000000004
  3
ISO-25
100
AcDbDiametricDimension
 15
219.9777588327867
 25
206.8711408713999
 35
0.0
 40
0.0
1001
ACAD
1000
DSTYLE
1002
{
1070
   279
1070
     1
1070
   288
1070
     1
1002
}
  0
LEADER
  5
1C1D
102
{ACAD_XDICTIONARY
360
1C1F
102
}
102
{ACAD_REACTORS
330
1C20
102
}
330
1F
100
AcDbEntity
  8
Bemaßung
100
AcDbLeader
  3
ISO-25
 73
     0
 40
2.916666666666666
 41
17.91666666666666
 76
     3
 10
221.967356305041
 20
208.9698521910003
 30
0.0
 10
214.3012592548926
 20
217.3950578223671
 30
0.0
 10
193.0168699592514
 20
217.3529127069887
 30
0.0
340
1C1E
213
-21.80427106575598
223
-0.9988083530471385
233
0.0
1001
ACAD
1000
DSTYLE
1002
{
1070
   147
1040
0.625
1070
    77
1070
     0
1002
}
  0
MTEXT
  5
1C1E
102
{ACAD_REACTORS
330
1C1D
102
}
330
1F
100
AcDbEntity
  8
Bemaßung
100
AcDbMText
 10
214.1961410250075
 20
218.3517210600358
 30
0.0
 40
2.5
 41
19.65715214734427
 71
     9
 72
     1
  1
2 x ø4,5
 73
     1
 44
1.0
  0
DIMENSION
  5
1C24
102
{ACAD_XDICTIONARY
360
1C31
102
}
102
{ACAD_REACTORS
330
1C3B
102
}
330
1F
100
AcDbEntity
  8
Bemaßung
100
AcDbDimension
  2
*D32
 10
248.7563963050411
 20
143.2866857944359
 30
0.0
 11
238.756396305041
 21
145.1616857944359
 31
0.0
 70
    32
 71
     5
 42
20.00000000000005
  3
ISO-25
100
AcDbAlignedDimension
 13
228.756396305041
 23
158.0808131910003
 33
0.0
 14
248.7563963050411
 24
158.0808131910003
 34
0.0
100
AcDbRotatedDimension
  0
DIMENSION
  5
1C46
330
1F
100
AcDbEntity
  8
Bemaßung
100
AcDbDimension
  2
*D33
 10
267.3174392830956
 20
192.7808071910003
 30
0.0
 11
265.2341059497622
 21
174.9308214193636
 31
0.0
 70
    32
 71
     5
 42
35.6999715432733
  3
ISO-25
100
AcDbAlignedDimension
 13
247.7564296740756
 23
157.080835647727
 33
0.0
 14
260.215746305041
 24
192.7808071910003
 34
0.0
 50
90.0
100
AcDbRotatedDimension
  0
LINE
  5
1C69
330
1F
100
AcDbEntity
  8
Innenkanten
100
AcDbLine
 10
183.785952202991
 20
182.1445616100027
 30
0.0
 11
66.56424319582163
 21
182.1445616100027
 31
0.0
  0
ARC
  5
1C6A
330
1F
100
AcDbEntity
  8
Innenkanten
100
AcDbCircle
 10
-15.50537279700893
 20
192.7079216100027
 30
0.0
 40
197.5711499999999
100
AcDbArc
 50
357.0729699999998
 51
1.716389999999881
  0
LINE
  5
1C6B
330
1F
100
AcDbEntity
  8
Innenkanten
100
AcDbLine
 10
180.065738202991
 20
199.5958016100027
 30
0.0
 11
180.065738202991
 21
206.7957916100027
 31
0.0
  0
LINE
  5
1C6C
330
1F
100
AcDbEntity
  8
Innenkanten
100
AcDbLine
 10
182.065738202991
 20
200.4957916100027
 30
0.0
 11
182.065738202991
 21
205.8958016100027
 31
0.0
  0
LINE
  5
1C6D
330
1F
100
AcDbEntity
  8
Innenkanten
100
AcDbLine
 10
184.065738202991
 20
201.4457916100027
 30
0.0
 11
184.065738202991
 21
204.9457916100027
 31
0.0
  0
ARC
  5
1C6E
330
1F
100
AcDbEntity
  8
Innenkanten
100
AcDbCircle
 10
183.065738202991
 20
204.9457916100027
 30
0.0
 40
1.0
100
AcDbArc
 50
359.9999799999995
 51
90.00002999999978
  0
ARC
  5
1C6F
330
1F
100
AcDbEntity
  8
Innenkanten
100
AcDbCircle
 10
-15.50537279700893
 20
192.7079216100027
 30
0.0
 40
197.5711499999999
100
AcDbArc
 50
4.402069999999986
 51
5.549770000000592
  0
ARC
  5
1C70
330
1F
100
AcDbEntity
  8
Innenkanten
100
AcDbCircle
 10
181.565738202991
 20
205.8958016100027
 30
0.0
 40
0.5
100
AcDbArc
 50
359.9999799999995
 51
90.00002999999978
  0
LINE
  5
1C71
330
1F
100
AcDbEntity
  8
Innenkanten
100
AcDbLine
 10
183.065738202991
 20
205.9457916100027
 30
0.0
 11
182.065738202991
 21
205.9457916100027
 31
0.0
  0
ARC
  5
1C72
330
1F
100
AcDbEntity
  8
Innenkanten
100
AcDbCircle
 10
180.485888202991
 20
207.7957916100027
 30
0.0
 40
1.0
100
AcDbArc
 50
269.9999820000007
 51
4.40224999999968
  0
LINE
  5
1C73
330
1F
100
AcDbEntity
  8
Innenkanten
100
AcDbLine
 10
180.065738202991
 20
206.7957916100027
 30
0.0
 11
180.485888202991
 21
206.7957916100027
 31
0.0
  0
LINE
  5
1C74
330
1F
100
AcDbEntity
  8
Innenkanten
100
AcDbLine
 10
180.065738202991
 20
206.3958016100027
 30
0.0
 11
181.565738202991
 21
206.3958016100027
 31
0.0
  0
ARC
  5
1C75
330
1F
100
AcDbEntity
  8
Innenkanten
100
AcDbCircle
 10
183.065738202991
 20
201.4457916100027
 30
0.0
 40
1.0
100
AcDbArc
 50
269.9999820000007
 51
359.99996
  0
ARC
  5
1C76
330
1F
100
AcDbEntity
  8
Innenkanten
100
AcDbCircle
 10
180.977588202991
 20
198.5958016100027
 30
0.0
 40
1.0
100
AcDbArc
 50
1.716409999999401
 51
90.00001999999879
  0
ARC
  5
1C77
330
1F
100
AcDbEntity
  8
Innenkanten
100
AcDbCircle
 10
181.565738202991
 20
200.4957916100027
 30
0.0
 40
0.5
100
AcDbArc
 50
269.9999820000007
 51
359.99996
  0
LINE
  5
1C78
330
1F
100
AcDbEntity
  8
Innenkanten
100
AcDbLine
 10
183.065738202991
 20
200.4457916100027
 30
0.0
 11
182.065738202991
 21
200.4457916100027
 31
0.0
  0
LINE
  5
1C79
330
1F
100
AcDbEntity
  8
Innenkanten
100
AcDbLine
 10
180.065738202991
 20
199.5958016100027
 30
0.0
 11
180.977588202991
 21
199.5958016100027
 31
0.0
  0
LINE
  5
1C7A
330
1F
100
AcDbEntity
  8
Innenkanten
100
AcDbLine
 10
180.065738202991
 20
199.9957916100027
 30
0.0
 11
181.565738202991
 21
199.9957916100027
 31
0.0
  0
ARC
  5
1C7B
330
1F
100
AcDbEntity
  8
Innenkanten
100
AcDbCircle
 10
181.308673202991
 20
182.6445616100027
 30
0.0
 40
0.5
100
AcDbArc
 50
269.9999820000007
 51
357.0734299999995
  0
ARC
  5
1C7C
330
1F
100
AcDbEntity
  8
0
100
AcDbCircle
 10
-14.8451313832506
 20
192.7132378028239
 30
0.0
 40
198.911407313095
100
AcDbArc
 50
353.9138922561646
 51
2.357281461803774
  0
ARC
  5
1C7D
330
1F
100
AcDbEntity
  8
0
100
AcDbCircle
 10
-26.32637421042322
 20
191.8989953066868
 30
0.0
 40
210.4224061887302
100
AcDbArc
 50
3.815167164004337
 51
5.495941790730679
  0
DIMENSION
  5
1D10
102
{ACAD_XDICTIONARY
360
1D1D
102
}
102
{ACAD_REACTORS
330
1D27
330
1E89
102
}
330
1F
100
AcDbEntity
  8
Bemaßung
100
AcDbDimension
  2
*D34
 10
24.65221109603746
 20
164.7807872015924
 30
0.0
 11
22.77721109603743
 21
178.7807971962963
 31
0.0
 70
    32
 71
     5
 42
28.00001998940789
  3
ISO-25
100
AcDbAlignedDimension
 13
18.90249130504105
 23
192.7808071910003
 33
0.0
 14
-6.341843096357017
 24
164.7807872015924
 34
0.0
 50
90.0
100
AcDbRotatedDimension
  0
LINE
  5
1E11
102
{ACAD_REACTORS
330
1E89
102
}
330
1F
100
AcDbEntity
  8
0
100
AcDbLine
 10
-18.90708369495891
 20
163.516032863765
 30
0.0
 11
-18.90708369495891
 21
163.516032863765
 31
0.0
  0
LINE
  5
1E12
102
{ACAD_REACTORS
330
1E89
102
}
330
1F
100
AcDbEntity
  8
0
100
AcDbLine
 10
-18.90708369495891
 20
163.516032863765
 30
0.0
 11
-18.90708369495891
 21
163.516032863765
 31
0.0
  0
LINE
  5
1E13
102
{ACAD_REACTORS
330
1E89
102
}
330
1F
100
AcDbEntity
  8
0
100
AcDbLine
 10
-18.90708369495891
 20
163.516032863765
 30
0.0
 11
-18.90708369495891
 21
163.516032863765
 31
0.0
  0
LINE
  5
1E2C
102
{ACAD_REACTORS
330
1E89
102
}
330
1F
100
AcDbEntity
  8
Innenkanten
100
AcDbLine
 10
-18.90708369495895
 20
170.7808071910003
 30
0.0
 11
6.220089270101254
 21
170.7808071910003
 31
0.0
  0
DIMENSION
  5
1E2D
102
{ACAD_REACTORS
330
1E89
102
}
330
1F
100
AcDbEntity
  8
Bemaßung
100
AcDbDimension
  2
*D37
 10
-18.90708369495892
 20
144.805429639665
 30
0.0
 11
-6.307083694958941
 21
146.8887629729983
 31
0.0
 70
    32
 71
     5
 42
25.19999999999997
  3
ISO-25
100
AcDbAlignedDimension
 13
6.292916305041046
 23
170.7808071910003
 33
0.0
 14
-18.90708369495892
 24
165.7682983655332
 34
0.0
100
AcDbRotatedDimension
  0
LINE
  5
1E76
330
1F
100
AcDbEntity
  8
0
100
AcDbLine
 10
225.5949517660262
 20
74.89336219208803
 30
0.0
 11
250.7218611248944
 21
74.89336219208803
 31
0.0
  0
LINE
  5
1E79
330
1F
100
AcDbEntity
  8
0
100
AcDbLine
 10
218.156386305041
 20
-47.60663780791197
 30
0.0
 11
258.156356305041
 21
-47.60663780791197
 31
0.0
  0
LINE
  5
1E7A
330
1F
100
AcDbEntity
  8
Mittellinie
100
AcDbLine
 10
238.156371305041
 20
82.61744662199339
 30
0.0
 11
238.156386305041
 21
-79.98924886699592
 31
0.0
  0
LINE
  5
1E7B
330
1F
100
AcDbEntity
  8
0
100
AcDbLine
 10
218.156386305041
 20
72.89336219208803
 30
0.0
 11
218.156386305041
 21
-47.60663780791197
 31
0.0
  0
LINE
  5
1E7C
330
1F
100
AcDbEntity
  8
0
100
AcDbLine
 10
258.156356305041
 20
72.89336219208803
 30
0.0
 11
258.156356305041
 21
-47.60663780791197
 31
0.0
  0
LINE
  5
1E81
330
1F
100
AcDbEntity
  8
0
100
AcDbLine
 10
223.156386305041
 20
-50.10663780791199
 30
0.0
 11
253.156386305041
 21
-50.10663780791199
 31
0.0
  0
LINE
  5
1E82
330
1F
100
AcDbEntity
  8
0
100
AcDbLine
 10
233.156386305041
 20
-72.60663780791197
 30
0.0
 11
243.156386305041
 21
-72.60663780791194
 31
0.0
  0
LINE
  5
1E83
330
1F
100
AcDbEntity
  8
0
100
AcDbLine
 10
223.156386305041
 20
-50.10663780791199
 30
0.0
 11
223.156386305041
 21
-47.60663780791197
 31
0.0
  0
LINE
  5
1E84
330
1F
100
AcDbEntity
  8
0
100
AcDbLine
 10
253.156386305041
 20
-50.10663780791199
 30
0.0
 11
253.156386305041
 21
-47.60663780791197
 31
0.0
  0
LINE
  5
1E85
330
1F
100
AcDbEntity
  8
0
100
AcDbLine
 10
233.156386305041
 20
-72.60663780791197
 30
0.0
 11
233.156386305041
 21
-50.10663780791199
 31
0.0
  0
LINE
  5
1E86
330
1F
100
AcDbEntity
  8
0
100
AcDbLine
 10
243.156386305041
 20
-72.60663780791194
 30
0.0
 11
243.156386305041
 21
-50.10663780791199
 31
0.0
  0
LINE
  5
1E87
330
1F
100
AcDbEntity
  8
Innenkanten
100
AcDbLine
 10
218.156386305041
 20
-42.60663780791197
 30
0.0
 11
258.156356305041
 21
-42.60663780791197
 31
0.0
  0
LINE
  5
1E88
330
1F
100
AcDbEntity
  8
0
100
AcDbLine
 10
258.156356305041
 20
-47.60663780791197
 30
0.0
 11
258.156356305041
 21
-47.60663780791197
 31
0.0
  0
LINE
  5
1F49
330
1F
100
AcDbEntity
  8
Innenkanten
100
AcDbLine
 10
225.5949517660262
 20
72.89336219208803
 30
0.0
 11
225.5949517660262
 21
-42.60663780791197
 31
0.0
  0
LINE
  5
1F4C
330
1F
100
AcDbEntity
  8
0
100
AcDbLine
 10
218.156386305041
 20
72.89336219208803
 30
0.0
 11
225.5949517660262
 21
72.89336219208803
 31
0.0
  0
LINE
  5
1F4D
330
1F
100
AcDbEntity
  8
0
100
AcDbLine
 10
225.5949517660262
 20
74.89336219208803
 30
0.0
 11
225.5949517660262
 21
72.89336219208803
 31
0.0
  0
LINE
  5
1F4F
330
1F
100
AcDbEntity
  8
0
100
AcDbLine
 10
250.7218611248944
 20
74.89336219208803
 30
0.0
 11
250.7218611248944
 21
72.89336219208803
 31
0.0
  0
LINE
  5
1F50
330
1F
100
AcDbEntity
  8
0
100
AcDbLine
 10
258.156356305041
 20
72.89336219208803
 30
0.0
 11
250.7218611248944
 21
72.89336219208803
 31
0.0
  0
LINE
  5
1F6D
330
1F
100
AcDbEntity
  8
Innenkanten
100
AcDbLine
 10
219.2169351485486
 20
73.26521647922021
 30
0.0
 11
219.2169351485486
 21
72.89336219208803
 31
0.0
  0
ARC
  5
1F6E
330
1F
100
AcDbEntity
  8
Innenkanten
100
AcDbCircle
 10
220.2169351485486
 20
73.26521647922023
 30
0.0
 40
1.0
100
AcDbArc
 50
89.99997999999962
 51
180.0000299999997
  0
LINE
  5
1F6F
330
1F
100
AcDbEntity
  8
Innenkanten
100
AcDbLine
 10
223.7169351485486
 20
74.26521647922021
 30
0.0
 11
220.2169351485486
 21
74.26521647922021
 31
0.0
  0
ARC
  5
1F70
330
1F
100
AcDbEntity
  8
Innenkanten
100
AcDbCircle
 10
223.7169351485486
 20
73.26521647922023
 30
0.0
 40
1.0
100
AcDbArc
 50
359.9999820000007
 51
89.99995999999924
  0
LINE
  5
1F71
330
1F
100
AcDbEntity
  8
Innenkanten
100
AcDbLine
 10
224.7169351485486
 20
73.26521647922021
 30
0.0
 11
224.7169351485486
 21
72.89336219208803
 31
0.0
  0
LINE
  5
1F7D
330
1F
100
AcDbEntity
  8
Innenkanten
100
AcDbLine
 10
251.8000172953236
 20
73.26000599585444
 30
0.0
 11
251.8000172953236
 21
72.88815170872226
 31
0.0
  0
LINE
  5
1F7E
330
1F
100
AcDbEntity
  8
Innenkanten
100
AcDbLine
 10
257.3000172953237
 20
73.26000599585444
 30
0.0
 11
257.3000172953237
 21
72.88815170872226
 31
0.0
  0
ARC
  5
1F7F
330
1F
100
AcDbEntity
  8
Innenkanten
100
AcDbCircle
 10
252.8000172953237
 20
73.26000599585445
 30
0.0
 40
1.0
100
AcDbArc
 50
89.9999799999996
 51
180.0000299999997
  0
LINE
  5
1F80
330
1F
100
AcDbEntity
  8
Innenkanten
100
AcDbLine
 10
256.3000172953237
 20
74.26000599585444
 30
0.0
 11
252.8000172953237
 21
74.26000599585444
 31
0.0
  0
ARC
  5
1F81
330
1F
100
AcDbEntity
  8
Innenkanten
100
AcDbCircle
 10
256.3000172953237
 20
73.26000599585445
 30
0.0
 40
1.0
100
AcDbArc
 50
359.9999820000007
 51
89.99995999999923
  0
LINE
  5
1F85
330
1F
100
AcDbEntity
  8
Mittellinie
100
AcDbLine
 10
254.5500172953237
 20
74.76075947821084
 30
0.0
 11
254.5500172953237
 21
72.27933857757557
 31
0.0
  0
LINE
  5
1F86
330
1F
100
AcDbEntity
  8
0
100
AcDbLine
 10
254.5500172953237
 20
72.27933857757557
 30
0.0
 11
254.5500172953237
 21
72.64809419007054
 31
0.0
  0
LINE
  5
1F8D
330
1F
100
AcDbEntity
  8
Mittellinie
100
AcDbLine
 10
222.0326339972899
 20
74.80803012969954
 30
0.0
 11
222.0326339972899
 21
72.32660922906427
 31
0.0
  0
LINE
  5
1F9A
330
1F
100
AcDbEntity
  8
Innenkanten
100
AcDbLine
 10
218.1522413356032
 20
10.3958648677729
 30
0.0
 11
258.1522413356032
 21
10.3958648677729
 31
0.0
  0
LINE
  5
1F9B
330
1F
100
AcDbEntity
  8
Innenkanten
100
AcDbLine
 10
218.1522413356032
 20
44.8958648677729
 30
0.0
 11
258.1522413356032
 21
44.8958648677729
 31
0.0
  0
LINE
  5
1F9C
330
1F
100
AcDbEntity
  8
Innenkanten
100
AcDbLine
 10
218.1522413356032
 20
45.59586486777289
 30
0.0
 11
258.1522413356032
 21
45.59586486777289
 31
0.0
  0
VIEWPORT
  5
FF1
330
FEA
100
AcDbEntity
 67
     1
  8
0
100
AcDbViewport
 10
227.944573763241
 20
160.4941411366622
 30
0.0
 40
543.9854876532758
 41
340.6890631093411
 68
     1
 69
     1
 12
227.944573763241
 22
160.4941411366622
 13
0.0
 23
0.0
 14
10.0
 24
10.0
 15
10.0
 25
10.0
 16
0.0
 26
0.0
 36
1.0
 17
0.0
 27
0.0
 37
0.0
 42
50.0
 43
0.0
 44
0.0
 45
340.6890631093411
 50
0.0
 51
0.0
 72
   100
 90
    32800
  1

281
     0
 71
     1
 74
     0
110
0.0
120
0.0
130
0.0
111
1.0
121
0.0
131
0.0
112
0.0
122
1.0
132
0.0
 79
     0
146
0.0
  0
VIEWPORT
  5
FF3
330
FEA
100
AcDbEntity
 67
     1
  8
0
100
AcDbViewport
 10
144.7270812988279
 20
101.5933663914631
 30
0.0
 40
296.2546461044554
 41
209.0554971327303
 68
     2
 69
     2
 12
203.1282534378307
 22
126.0400189425975
 13
0.0
 23
0.0
 14
10.0
 24
10.0
 15
10.0
 25
10.0
 16
0.0
 26
0.0
 36
1.0
 17
0.0
 27
0.0
 37
0.0
 42
50.0
 43
0.0
 44
0.0
 45
382.825506506762
 50
0.0
 51
0.0
 72
   100
 90
    32864
  1

281
     0
 71
     1
 74
     0
110
-53.08748352590964
120
3.820899076262548
130
0.0
111
1.0
121
0.0
131
0.0
112
0.0
122
1.0
132
0.0
 79
     0
146
0.0
  0
ENDSEC
  0
SECTION
  2
OBJECTS
  0
DICTIONARY
  5
C
330
0
100
AcDbDictionary
281
     1
  3
ACAD_GROUP
350
D
  3
ACAD_LAYOUT
350
1A
  3
ACAD_MLINESTYLE
350
17
  3
ACAD_PLOTSETTINGS
350
19
  3
ACAD_PLOTSTYLENAME
350
E
  3
AcadDim
350
118B
  3
AcDbVariableDictionary
350
50
  3
DWGPROPS
350
A6A
  0
DICTIONARY
  5
17CF
330
17C2
100
AcDbDictionary
280
     1
281
     1
  3
ACAD_DIMASSOC
360
17D9
  0
DICTIONARY
  5
1A41
330
1A32
100
AcDbDictionary
280
     1
281
     1
  3
ACAD_DIMASSOC
360
1A4D
  0
DICTIONARY
  5
1ABB
330
1AAE
100
AcDbDictionary
280
     1
281
     1
  3
ACAD_DIMASSOC
360
1AC5
  0
DICTIONARY
  5
1ADF
330
1AD0
100
AcDbDictionary
280
     1
281
     1
  3
ACAD_DIMASSOC
360
1AEB
  0
DICTIONARY
  5
1B85
330
1B78
100
AcDbDictionary
280
     1
281
     1
  3
ACAD_DIMASSOC
360
1B8F
  0
DICTIONARY
  5
1BA8
330
1B9B
100
AcDbDictionary
280
     1
281
     1
  3
ACAD_DIMASSOC
360
1BB2
  0
DICTIONARY
  5
1BC9
330
1BBC
100
AcDbDictionary
280
     1
281
     1
  3
ACAD_DIMASSOC
360
1BD3
  0
DICTIONARY
  5
1BEB
330
1BDD
100
AcDbDictionary
280
     1
281
     1
  3
ACAD_DIMASSOC
360
1BF6
  0
DICTIONARY
  5
1C0A
330
1C01
100
AcDbDictionary
280
     1
281
     1
  3
ACAD_DIMASSOC
360
1C10
  0
DICTIONARY
  5
1C1F
330
1C1D
100
AcDbDictionary
280
     1
281
     1
  3
ACAD_DIMASSOC
360
1C20
  0
DICTIONARY
  5
1C31
330
1C24
100
AcDbDictionary
280
     1
281
     1
  3
ACAD_DIMASSOC
360
1C3B
  0
DICTIONARY
  5
1D1D
330
1D10
100
AcDbDictionary
280
     1
281
     1
  3
ACAD_DIMASSOC
360
1D27
  0
DICTIONARY
  5
D
102
{ACAD_REACTORS
330
C
102
}
330
C
100
AcDbDictionary
281
     1
  3
*A1
350
2A6
  3
*A10
350
8F6
  3
*A11
350
905
  3
*A12
350
93F
  3
*A13
350
90F
  3
*A14
350
91E
  3
*A15
350
92D
  3
*A16
350
936
  3
*A17
350
1578
  3
*A18
350
1C68
  3
*A19
350
1E89
  3
*A2
350
85A
  3
*A20
350
1F44
  3
*A21
350
94E
  3
*A22
350
3BE
  3
*A23
350
331
  3
*A24
350
369
  3
*A25
350
A72
  3
*A26
350
10FD
  3
*A27
350
413
  3
*A3
350
869
  3
*A4
350
8E4
  3
*A5
350
885
  3
*A6
350
886
  3
*A7
350
8D4
  3
*A8
350
8E3
  3
*A9
350
8ED
  0
DICTIONARY
  5
1A
102
{ACAD_REACTORS
330
C
102
}
330
C
100
AcDbDictionary
281
     1
  3
Layout1
350
FEB
  3
Model
350
22
  0
DICTIONARY
  5
17
102
{ACAD_REACTORS
330
C
102
}
330
C
100
AcDbDictionary
281
     1
  3
Standard
350
18
  0
DICTIONARY
  5
19
102
{ACAD_REACTORS
330
C
102
}
330
C
100
AcDbDictionary
281
     1
  0
ACDBDICTIONARYWDFLT
  5
E
102
{ACAD_REACTORS
330
C
102
}
330
C
100
AcDbDictionary
281
     1
  3
Normal
350
F
100
AcDbDictionaryWithDefault
340
F
  0
XRECORD
  5
118B
102
{ACAD_REACTORS
330
C
102
}
330
C
100
AcDbXrecord
280
     1
 90
   990106
  3

 60
     0
 61
     0
 62
     1
 63
     3
 64
     0
 65
     0
 66
     0
 67
     3
 68
     1
 69
     0
 70
     0
 71
     0
 72
     0
 40
2.0
170
     0
340
1C1E
  0
DICTIONARY
  5
50
102
{ACAD_REACTORS
330
C
102
}
330
C
100
AcDbDictionary
281
     1
  3
DIMASSOC
350
52
  3
HIDETEXT
350
51
  0
XRECORD
  5
A6A
102
{ACAD_REACTORS
330
C
102
}
330
C
100
AcDbXrecord
280
     1
  1
DWGPROPS COOKIE
  2

  3

  4

  6

  7

  8

  9

300
=
301
=
302
=
303
=
304
=
305
=
306
=
307
=
308
=
309
=
 40
0.587026388888889
 41
2452181.498615972
 42
2452184.61255463
  1

 90
        0
  0
DIMASSOC
  5
17D9
102
{ACAD_REACTORS
330
17CF
102
}
330
17CF
100
AcDbDimAssoc
330
17C2
 90
        1
 70
     0
 71
     0
  1
AcDbOsnapPointRef
 72
    11
331
169F
 73
     2
 91
        0
 40
0.9126781362644985
 10
301.0517731034484
 20
192.7808071910003
 30
0.0
332
1711
 74
     2
 92
        0
 75
     0
  0
DIMASSOC
  5
1A4D
102
{ACAD_REACTORS
330
1A41
102
}
330
1A41
100
AcDbDimAssoc
330
1A32
 90
        1
 70
     0
 71
     0
  1
AcDbOsnapPointRef
 72
    13
331
175C
 73
     2
 91
        0
 40
0.0
 10
418.55181280664
 20
212.7808071910003
 30
0.0
 75
     0
  0
DIMASSOC
  5
1AC5
102
{ACAD_REACTORS
330
1ABB
102
}
330
1ABB
100
AcDbDimAssoc
330
1AAE
 90
        2
 70
     0
 71
     0
  1
AcDbOsnapPointRef
 72
     1
331
1780
 73
     2
 91
        0
 40
1.0
 10
448.55181280664
 20
196.7808071910003
 30
0.0
 75
     0
  0
DIMASSOC
  5
1AEB
102
{ACAD_REACTORS
330
1ADF
102
}
330
1ADF
100
AcDbDimAssoc
330
1AD0
 90
        2
 70
     0
 71
     0
  1
AcDbOsnapPointRef
 72
     1
331
175A
 73
     2
 91
        0
 40
1.0
 10
426.0518128066399
 20
177.7808071910003
 30
0.0
 75
     0
  0
DIMASSOC
  5
1B8F
102
{ACAD_REACTORS
330
1B85
102
}
330
1B85
100
AcDbDimAssoc
330
1B78
 90
        3
 70
     0
 71
     0
  1
AcDbOsnapPointRef
 72
    13
331
175A
 73
     2
 91
        0
 40
0.0
 10
426.0518128066399
 20
207.7808071910003
 30
0.0
 75
     0
  1
AcDbOsnapPointRef
 72
     1
331
175A
 73
     2
 91
        0
 40
1.0
 10
426.0518128066399
 20
177.7808071910003
 30
0.0
 75
     0
  0
DIMASSOC
  5
1BB2
102
{ACAD_REACTORS
330
1BA8
102
}
330
1BA8
100
AcDbDimAssoc
330
1B9B
 90
        3
 70
     0
 71
     0
  1
AcDbOsnapPointRef
 72
    13
331
1785
 73
     2
 91
        0
 40
0.0
 10
218.156386305041
 20
210.2808071910003
 30
0.0
 75
     0
  1
AcDbOsnapPointRef
 72
     1
331
1784
 73
     2
 91
        0
 40
1.0
 10
258.156356305041
 20
210.2808071910003
 30
0.0
 75
     0
  0
DIMASSOC
  5
1BD3
102
{ACAD_REACTORS
330
1BC9
102
}
330
1BC9
100
AcDbDimAssoc
330
1BBC
 90
        3
 70
     0
 71
     0
  1
AcDbOsnapPointRef
 72
    13
331
17BD
 73
     2
 91
        0
 40
1.570796012635621
 10
220.6563870904392
 20
212.7808071910002
 30
0.0
 75
     0
  1
AcDbOsnapPointRef
 72
     1
331
1790
 73
     2
 91
        0
 40
4.712389503983449
 10
220.6563876140379
 20
172.7808071910006
 30
0.0
 75
     0
  0
DIMASSOC
  5
1BF6
102
{ACAD_REACTORS
330
1BEB
102
}
330
1BEB
100
AcDbDimAssoc
330
1BDD
 90
       15
 70
     0
 71
     0
  1
AcDbOsnapPointRef
 72
    13
331
1787
 73
     2
 91
        0
 40
0.0
 10
238.156386305041
 20
216.2522289888243
 30
0.0
 75
     0
  1
AcDbOsnapPointRef
 72
     1
331
1787
 73
     2
 91
        0
 40
1.0
 10
238.156386305041
 20
111.9966015058912
 30
0.0
 75
     0
  1
AcDbOsnapPointRef
 72
    13
331
17BC
 73
     2
 91
        0
 40
0.0
 10
219.592516305041
 20
211.3446971910003
 30
0.0
 75
     0
  1
AcDbOsnapPointRef
 72
     1
331
17BC
 73
     2
 91
        0
 40
1.0
 10
224.342196305041
 20
206.5950071910003
 30
0.0
 75
     0
  0
DIMASSOC
  5
1C10
102
{ACAD_REACTORS
330
1C0A
102
}
330
1C0A
100
AcDbDimAssoc
330
1C01
 90
        2
 70
     0
 71
     0
  1
AcDbOsnapPointRef
 72
     3
331
17BB
 73
     2
 91
        0
 40
0.0
 10
0.0
 20
0.0
 30
0.0
 75
     0
  0
DIMASSOC
  5
1C20
102
{ACAD_REACTORS
330
1C1F
102
}
330
1C1F
100
AcDbDimAssoc
330
1C1D
 90
        1
 70
     0
 71
     0
  1
AcDbOsnapPointRef
 72
     2
331
17BC
 73
     2
 91
        0
 40
0.5000000000000001
 10
221.967356305041
 20
208.9698521910003
 30
0.0
 75
     0
  0
DIMASSOC
  5
1C3B
102
{ACAD_REACTORS
330
1C31
102
}
330
1C31
100
AcDbDimAssoc
330
1C24
 90
        3
 70
     0
 71
     0
  1
AcDbOsnapPointRef
 72
     1
331
1796
 73
     2
 91
        0
 40
1.0
 10
228.756396305041
 20
158.0808131910003
 30
0.0
 75
     0
  1
AcDbOsnapPointRef
 72
     8
331
1792
 73
     2
 91
        0
 40
0.0
 10
248.7563963050411
 20
158.0808131910003
 30
0.0
 75
     1
  1
AcDbOsnapPointRef
 72
     1
331
1796
 73
     2
 91
        0
 40
1.0
 10
228.756396305041
 20
158.0808131910003
 30
0.0
 75
     0
  0
DIMASSOC
  5
1D27
102
{ACAD_REACTORS
330
1D1D
102
}
330
1D1D
100
AcDbDimAssoc
330
1D10
 90
        1
 70
     0
 71
     0
  1
AcDbOsnapPointRef
 72
     1
331
16E8
 73
     2
 91
        0
 40
1.0
 10
18.90249130504104
 20
192.7808071910003
 30
0.0
 75
     0
  0
GROUP
  5
2A6
102
{ACAD_REACTORS
330
D
102
}
330
D
100
AcDbGroup
300

 70
     1
 71
     1
  0
GROUP
  5
8F6
102
{ACAD_REACTORS
330
D
102
}
330
D
100
AcDbGroup
300

 70
     1
 71
     1
  0
GROUP
  5
905
102
{ACAD_REACTORS
330
D
102
}
330
D
100
AcDbGroup
300

 70
     1
 71
     1
  0
GROUP
  5
93F
102
{ACAD_REACTORS
330
D
102
}
330
D
100
AcDbGroup
300

 70
     1
 71
     1
  0
GROUP
  5
90F
102
{ACAD_REACTORS
330
D
102
}
330
D
100
AcDbGroup
300

 70
     1
 71
     1
  0
GROUP
  5
91E
102
{ACAD_REACTORS
330
D
102
}
330
D
100
AcDbGroup
300

 70
     1
 71
     1
  0
GROUP
  5
92D
102
{ACAD_REACTORS
330
D
102
}
330
D
100
AcDbGroup
300

 70
     1
 71
     1
  0
GROUP
  5
936
102
{ACAD_REACTORS
330
D
102
}
330
D
100
AcDbGroup
300

 70
     1
 71
     1
  0
GROUP
  5
1578
102
{ACAD_REACTORS
330
D
102
}
330
D
100
AcDbGroup
300

 70
     1
 71
     1
  0
GROUP
  5
1C68
102
{ACAD_REACTORS
330
D
102
}
330
D
100
AcDbGroup
300

 70
     1
 71
     1
  0
GROUP
  5
1E89
102
{ACAD_REACTORS
330
D
102
}
330
D
100
AcDbGroup
300

 70
     1
 71
     1
340
1E2D
340
1E2C
340
16EF
340
1704
340
16E8
340
16DB
340
16DD
340
17C0
340
1E13
340
1E12
340
1E11
340
16F6
340
16EB
340
16E7
340
16E3
340
16E6
340
16EA
340
16E4
340
16EC
340
16EE
340
16E9
340
16E0
340
16DE
340
16E5
340
16DF
340
16E1
340
16ED
340
1703
340
1706
340
1705
340
16E2
340
1702
340
16DA
340
16DC
340
1D10
340
17C1
340
16F1
340
16F2
340
16F5
340
16F4
340
16F3
340
16F8
340
16FB
340
16FA
340
16FD
340
16FE
340
16F9
340
16FC
340
16F7
340
16FF
340
1701
340
1700
340
170B
340
1707
340
16D9
340
170D
340
170C
340
1708
340
1709
340
170A
  0
GROUP
  5
85A
102
{ACAD_REACTORS
330
D
102
}
330
D
100
AcDbGroup
300

 70
     1
 71
     1
  0
GROUP
  5
1F44
102
{ACAD_REACTORS
330
D
102
}
330
D
100
AcDbGroup
300

 70
     1
 71
     1
  0
GROUP
  5
94E
102
{ACAD_REACTORS
330
D
102
}
330
D
100
AcDbGroup
300

 70
     1
 71
     1
  0
GROUP
  5
3BE
102
{ACAD_REACTORS
330
D
102
}
330
D
100
AcDbGroup
300

 70
     1
 71
     1
  0
GROUP
  5
331
102
{ACAD_REACTORS
330
D
102
}
330
D
100
AcDbGroup
300

 70
     1
 71
     1
  0
GROUP
  5
369
102
{ACAD_REACTORS
330
D
102
}
330
D
100
AcDbGroup
300

 70
     1
 71
     1
  0
GROUP
  5
A72
102
{ACAD_REACTORS
330
D
102
}
330
D
100
AcDbGroup
300

 70
     1
 71
     1
  0
GROUP
  5
10FD
102
{ACAD_REACTORS
330
D
102
}
330
D
100
AcDbGroup
300

 70
     1
 71
     1
  0
GROUP
  5
413
102
{ACAD_REACTORS
330
D
102
}
330
D
100
AcDbGroup
300

 70
     1
 71
     1
  0
GROUP
  5
869
102
{ACAD_REACTORS
330
D
102
}
330
D
100
AcDbGroup
300

 70
     1
 71
     1
  0
GROUP
  5
8E4
102
{ACAD_REACTORS
330
D
102
}
330
D
100
AcDbGroup
300

 70
     1
 71
     1
  0
GROUP
  5
885
102
{ACAD_REACTORS
330
D
102
}
330
D
100
AcDbGroup
300

 70
     1
 71
     1
  0
GROUP
  5
886
102
{ACAD_REACTORS
330
D
102
}
330
D
100
AcDbGroup
300

 70
     1
 71
     1
  0
GROUP
  5
8D4
102
{ACAD_REACTORS
330
D
102
}
330
D
100
AcDbGroup
300

 70
     1
 71
     1
  0
GROUP
  5
8E3
102
{ACAD_REACTORS
330
D
102
}
330
D
100
AcDbGroup
300

 70
     1
 71
     1
  0
GROUP
  5
8ED
102
{ACAD_REACTORS
330
D
102
}
330
D
100
AcDbGroup
300

 70
     1
 71
     1
  0
LAYOUT
  5
FEB
102
{ACAD_REACTORS
330
1A
102
}
330
1A
100
AcDbPlotSettings
  1

  2
EPSON Stylus COLOR 1520
  4
A4
  6

 40
3.757083177566528
 41
14.7637300491333
 42
3.757080078125
 43
3.757080078125
 44
209.9733276367187
 45
296.9683227539062
 46
0.0
 47
0.0
 48
0.0
 49
0.0
140
0.0
141
0.0
142
1.0
143
1.0
 70
   688
 72
     1
 73
     1
 74
     5
  7

 75
    16
147
1.0
148
0.0
149
0.0
100
AcDbLayout
  1
Layout1
 70
     1
 71
     1
 10
-3.757080078125
 20
-3.757083177566528
 11
293.2112426757812
 21
206.2162444591522
 12
0.0
 22
0.0
 32
0.0
 14
-3.400241753399768
 24
-2.934382174902054
 34
0.0
 15
292.8544043510557
 25
206.1211149578283
 35
0.0
146
0.0
 13
0.0
 23
0.0
 33
0.0
 16
1.0
 26
0.0
 36
0.0
 17
0.0
 27
1.0
 37
0.0
 76
     0
330
FEA
331
FF1
  0
LAYOUT
  5
22
102
{ACAD_REACTORS
330
1A
102
}
330
1A
100
AcDbPlotSettings
  1

  2
EPSON Stylus COLOR 1520
  4
A4
  6

 40
3.757083177566528
 41
14.7637300491333
 42
3.757080078125
 43
3.757080078125
 44
209.9733276367187
 45
296.9683227539062
 46
0.0
 47
0.0
 48
0.0
 49
0.0
140
0.0
141
0.0
142
1.0
143
1.0
 70
 11952
 72
     1
 73
     1
 74
     0
  7

 75
     0
147
1.0
148
-89.73529411764705
149
0.0
100
AcDbLayout
  1
Model
 70
     1
 71
     0
 10
0.0
 20
0.0
 11
12.0
 21
9.0
 12
0.0
 22
0.0
 32
0.0
 14
0.0
 24
0.0
 34
0.0
 15
0.0
 25
0.0
 35
0.0
146
0.0
 13
0.0
 23
0.0
 33
0.0
 16
1.0
 26
0.0
 36
0.0
 17
0.0
 27
1.0
 37
0.0
 76
     0
330
1F
  0
MLINESTYLE
  5
18
102
{ACAD_REACTORS
330
17
102
}
330
17
100
AcDbMlineStyle
  2
STANDARD
 70
     0
  3

 62
   256
 51
90.0
 52
90.0
 71
     2
 49
0.5
 62
   256
  6
BYLAYER
 49
-0.5
 62
   256
  6
BYLAYER
  0
ACDBPLACEHOLDER
  5
F
102
{ACAD_REACTORS
330
E
102
}
330
E
  0
DICTIONARYVAR
  5
52
102
{ACAD_REACTORS
330
50
102
}
330
50
100
DictionaryVariables
280
     0
  1
2
  0
DICTIONARYVAR
  5
51
102
{ACAD_REACTORS
330
50
102
}
330
50
100
DictionaryVariables
280
     0
  1
1
  0
ENDSEC
  0
EOF
