  0
SECTION
  2
HEADER
  9
$ACADVER
  1
AC1015
  9
$ACADMAINTVER
 70
    13
  9
$DWGCODEPAGE
  3
ANSI_1252
  9
$INSBASE
 10
0.0
 20
0.0
 30
0.0
  9
$EXTMIN
 10
-269.1780522807897
 20
-223.2634763809318
 30
0.0
  9
$EXTMAX
 10
616.3839046001078
 20
265.7564167334196
 30
0.0
  9
$LIMMIN
 10
0.0
 20
0.0
  9
$LIMMAX
 10
420.0
 20
297.0
  9
$ORTHOMODE
 70
     1
  9
$REGENMODE
 70
     1
  9
$FILLMODE
 70
     1
  9
$QTEXTMODE
 70
     0
  9
$MIRRTEXT
 70
     1
  9
$LTSCALE
 40
1.0
  9
$ATTMODE
 70
     1
  9
$TEXTSIZE
 40
26.5350450929028
  9
$TRACEWID
 40
1.0
  9
$TEXTSTYLE
  7
Standard
  9
$CLAYER
  8
0
  9
$CELTYPE
  6
ByLayer
  9
$CECOLOR
 62
   256
  9
$CELTSCALE
 40
1.0
  9
$DISPSILH
 70
     0
  9
$DIMSCALE
 40
1.0
  9
$DIMASZ
 40
2.5
  9
$DIMEXO
 40
0.625
  9
$DIMDLI
 40
3.75
  9
$DIMRND
 40
0.0
  9
$DIMDLE
 40
0.0
  9
$DIMEXE
 40
1.25
  9
$DIMTP
 40
0.0
  9
$DIMTM
 40
0.0
  9
$DIMTXT
 40
2.5
  9
$DIMCEN
 40
2.5
  9
$DIMTSZ
 40
0.0
  9
$DIMTOL
 70
     0
  9
$DIMLIM
 70
     0
  9
$DIMTIH
 70
     0
  9
$DIMTOH
 70
     0
  9
$DIMSE1
 70
     0
  9
$DIMSE2
 70
     0
  9
$DIMTAD
 70
     1
  9
$DIMZIN
 70
     8
  9
$DIMBLK
  1

  9
$DIMASO
 70
     1
  9
$DIMSHO
 70
     1
  9
$DIMPOST
  1

  9
$DIMAPOST
  1

  9
$DIMALT
 70
     0
  9
$DIMALTD
 70
     3
  9
$DIMALTF
 40
0.03937007874016
  9
$DIMLFAC
 40
1.0
  9
$DIMTOFL
 70
     1
  9
$DIMTVP
 40
0.0
  9
$DIMTIX
 70
     0
  9
$DIMSOXD
 70
     0
  9
$DIMSAH
 70
     0
  9
$DIMBLK1
  1

  9
$DIMBLK2
  1

  9
$DIMSTYLE
  2
ISO-25
  9
$DIMCLRD
 70
     0
  9
$DIMCLRE
 70
     0
  9
$DIMCLRT
 70
     0
  9
$DIMTFAC
 40
1.0
  9
$DIMGAP
 40
0.625
  9
$DIMJUST
 70
     0
  9
$DIMSD1
 70
     0
  9
$DIMSD2
 70
     0
  9
$DIMTOLJ
 70
     0
  9
$DIMTZIN
 70
     8
  9
$DIMALTZ
 70
     0
  9
$DIMALTTZ
 70
     0
  9
$DIMUPT
 70
     0
  9
$DIMDEC
 70
     2
  9
$DIMTDEC
 70
     2
  9
$DIMALTU
 70
     2
  9
$DIMALTTD
 70
     3
  9
$DIMTXSTY
  7
Standard
  9
$DIMAUNIT
 70
     0
  9
$DIMADEC
 70
     0
  9
$DIMALTRND
 40
0.0
  9
$DIMAZIN
 70
     0
  9
$DIMDSEP
 70
    44
  9
$DIMATFIT
 70
     3
  9
$DIMFRAC
 70
     0
  9
$DIMLDRBLK
  1

  9
$DIMLUNIT
 70
     2
  9
$DIMLWD
 70
    -2
  9
$DIMLWE
 70
    -2
  9
$DIMTMOVE
 70
     0
  9
$LUNITS
 70
     2
  9
$LUPREC
 70
     4
  9
$SKETCHINC
 40
1.0
  9
$FILLETRAD
 40
3.0
  9
$AUNITS
 70
     0
  9
$AUPREC
 70
     0
  9
$MENU
  1
.
  9
$ELEVATION
 40
0.0
  9
$PELEVATION
 40
0.0
  9
$THICKNESS
 40
0.0
  9
$LIMCHECK
 70
     0
  9
$CHAMFERA
 40
10.0
  9
$CHAMFERB
 40
10.0
  9
$CHAMFERC
 40
20.0
  9
$CHAMFERD
 40
0.0
  9
$SKPOLY
 70
     0
  9
$TDCREATE
 40
2452181.456949305
  9
$TDUCREATE
 40
2452181.415282638
  9
$TDUPDATE
 40
2452321.500704977
  9
$TDUUPDATE
 40
2452321.459038310
  9
$TDINDWG
 40
0.9026579861
  9
$TDUSRTIMER
 40
0.9026484954
  9
$USRTIMER
 70
     1
  9
$ANGBASE
 50
0.0
  9
$ANGDIR
 70
     0
  9
$PDMODE
 70
     0
  9
$PDSIZE
 40
0.0
  9
$PLINEWID
 40
0.0
  9
$SPLFRAME
 70
     0
  9
$SPLINETYPE
 70
     6
  9
$SPLINESEGS
 70
     8
  9
$HANDSEED
  5
22BE
  9
$SURFTAB1
 70
     6
  9
$SURFTAB2
 70
     6
  9
$SURFTYPE
 70
     6
  9
$SURFU
 70
     6
  9
$SURFV
 70
     6
  9
$UCSBASE
  2

  9
$UCSNAME
  2

  9
$UCSORG
 10
-53.08748352590964
 20
3.820899076262548
 30
0.0
  9
$UCSXDIR
 10
1.0
 20
0.0
 30
0.0
  9
$UCSYDIR
 10
0.0
 20
1.0
 30
0.0
  9
$UCSORTHOREF
  2

  9
$UCSORTHOVIEW
 70
     0
  9
$UCSORGTOP
 10
0.0
 20
0.0
 30
0.0
  9
$UCSORGBOTTOM
 10
0.0
 20
0.0
 30
0.0
  9
$UCSORGLEFT
 10
0.0
 20
0.0
 30
0.0
  9
$UCSORGRIGHT
 10
0.0
 20
0.0
 30
0.0
  9
$UCSORGFRONT
 10
0.0
 20
0.0
 30
0.0
  9
$UCSORGBACK
 10
0.0
 20
0.0
 30
0.0
  9
$PUCSBASE
  2

  9
$PUCSNAME
  2

  9
$PUCSORG
 10
0.0
 20
0.0
 30
0.0
  9
$PUCSXDIR
 10
1.0
 20
0.0
 30
0.0
  9
$PUCSYDIR
 10
0.0
 20
1.0
 30
0.0
  9
$PUCSORTHOREF
  2

  9
$PUCSORTHOVIEW
 70
     0
  9
$PUCSORGTOP
 10
0.0
 20
0.0
 30
0.0
  9
$PUCSORGBOTTOM
 10
0.0
 20
0.0
 30
0.0
  9
$PUCSORGLEFT
 10
0.0
 20
0.0
 30
0.0
  9
$PUCSORGRIGHT
 10
0.0
 20
0.0
 30
0.0
  9
$PUCSORGFRONT
 10
0.0
 20
0.0
 30
0.0
  9
$PUCSORGBACK
 10
0.0
 20
0.0
 30
0.0
  9
$USERI1
 70
     0
  9
$USERI2
 70
     0
  9
$USERI3
 70
     0
  9
$USERI4
 70
     0
  9
$USERI5
 70
     0
  9
$USERR1
 40
0.0
  9
$USERR2
 40
0.0
  9
$USERR3
 40
0.0
  9
$USERR4
 40
0.0
  9
$USERR5
 40
0.0
  9
$WORLDVIEW
 70
     1
  9
$SHADEDGE
 70
     3
  9
$SHADEDIF
 70
    70
  9
$TILEMODE
 70
     1
  9
$MAXACTVP
 70
    64
  9
$PINSBASE
 10
0.0
 20
0.0
 30
0.0
  9
$PLIMCHECK
 70
     0
  9
$PEXTMIN
 10
-3.400241753399768
 20
-2.934382174902054
 30
0.0
  9
$PEXTMAX
 10
292.8544043510557
 20
206.1211149578283
 30
0.0
  9
$PLIMMIN
 10
-3.757080078125
 20
-3.757083177566528
  9
$PLIMMAX
 10
293.2112426757812
 20
206.2162444591522
  9
$UNITMODE
 70
     0
  9
$VISRETAIN
 70
     1
  9
$PLINEGEN
 70
     0
  9
$PSLTSCALE
 70
     1
  9
$TREEDEPTH
 70
  3020
  9
$CMLSTYLE
  2
Standard
  9
$CMLJUST
 70
     0
  9
$CMLSCALE
 40
20.0
  9
$PROXYGRAPHICS
 70
     1
  9
$MEASUREMENT
 70
     1
  9
$CELWEIGHT
370
    -1
  9
$ENDCAPS
280
     0
  9
$JOINSTYLE
280
     0
  9
$LWDISPLAY
290
     0
  9
$INSUNITS
 70
     4
  9
$HYPERLINKBASE
  1

  9
$STYLESHEET
  1

  9
$XEDIT
290
     1
  9
$CEPSNTYPE
380
     0
  9
$PSTYLEMODE
290
     1
  9
$FINGERPRINTGUID
  2
{F84AA5D3-2765-4D6B-8594-ABD9F52FB735}
  9
$VERSIONGUID
  2
{EA7C2ED8-F73C-4CBB-A757-E4E4467246A5}
  9
$EXTNAMES
290
     1
  9
$PSVPSCALE
 40
0.0
  9
$OLESTARTUP
290
     0
  0
ENDSEC
  0
SECTION
  2
CLASSES
  0
CLASS
  1
ACDBDICTIONARYWDFLT
  2
AcDbDictionaryWithDefault
  3
AutoCAD 2000
 90
        0
280
     0
281
     0
  0
CLASS
  1
ACDBPLACEHOLDER
  2
AcDbPlaceHolder
  3
AutoCAD 2000
 90
        0
280
     0
281
     0
  0
CLASS
  1
LAYOUT
  2
AcDbLayout
  3
AutoCAD 2000
 90
        0
280
     0
281
     0
  0
CLASS
  1
DICTIONARYVAR
  2
AcDbDictionaryVar
  3
AutoCAD 2000
 90
        0
280
     0
281
     0
  0
CLASS
  1
DIMASSOC
  2
AcDbDimAssoc
  3
"AcDbDimAssoc|Product Desc:     AcDim ARX App For Dimension|Company:          Autodesk, Inc.|WEB Address:      www.autodesk.com"
 90
        0
280
     0
281
     0
  0
ENDSEC
  0
SECTION
  2
TABLES
  0
TABLE
  2
VPORT
  5
8
330
0
100
AcDbSymbolTable
 70
     2
  0
VPORT
  5
22BD
330
8
100
AcDbSymbolTableRecord
100
AcDbViewportTableRecord
  2
*Active
 70
     0
 10
0.0
 20
0.0
 11
1.0
 21
1.0
 12
272.1505443247618
 22
36.86146067202134
 13
0.0
 23
0.0
 14
10.0
 24
10.0
 15
10.0
 25
10.0
 16
0.0
 26
0.0
 36
1.0
 17
0.0
 27
0.0
 37
0.0
 40
639.6184305282377
 41
1.699453551912568
 42
50.0
 43
0.0
 44
0.0
 50
0.0
 51
0.0
 71
     0
 72
   100
 73
     1
 74
     3
 75
     1
 76
     0
 77
     0
 78
     0
281
     0
 65
     1
110
-53.08748352590964
120
3.820899076262548
130
0.0
111
1.0
121
0.0
131
0.0
112
0.0
122
1.0
132
0.0
 79
     0
146
0.0
  0
ENDTAB
  0
TABLE
  2
LTYPE
  5
5
330
0
100
AcDbSymbolTable
 70
     4
  0
LTYPE
  5
14
330
5
100
AcDbSymbolTableRecord
100
AcDbLinetypeTableRecord
  2
ByBlock
 70
     0
  3

 72
    65
 73
     0
 40
0.0
  0
LTYPE
  5
15
330
5
100
AcDbSymbolTableRecord
100
AcDbLinetypeTableRecord
  2
ByLayer
 70
     0
  3

 72
    65
 73
     0
 40
0.0
  0
LTYPE
  5
16
330
5
100
AcDbSymbolTableRecord
100
AcDbLinetypeTableRecord
  2
Continuous
 70
     0
  3
Solid line
 72
    65
 73
     0
 40
0.0
  0
LTYPE
  5
2D
330
5
100
AcDbSymbolTableRecord
100
AcDbLinetypeTableRecord
  2
MITTE
 70
     0
  3
Mitte ____ _ ____ _ ____ _ ____ _ ____ _ ____
 72
    65
 73
     4
 40
50.8
 49
31.75
 74
     0
 49
-6.349999999999999
 74
     0
 49
6.349999999999999
 74
     0
 49
-6.349999999999999
 74
     0
  0
LTYPE
  5
39
330
5
100
AcDbSymbolTableRecord
100
AcDbLinetypeTableRecord
  2
VERDECKT
 70
     0
  3
Verdeckt __ __ __ __ __ __ __ __ __ __ __ __ __
 72
    65
 73
     2
 40
9.524999999999998
 49
6.349999999999999
 74
     0
 49
-3.174999999999999
 74
     0
  0
LTYPE
  5
AE7
330
5
100
AcDbSymbolTableRecord
100
AcDbLinetypeTableRecord
  2
CENTER
 70
     0
  3
____ _ ____ _ ____ _ ____ _ ____ _ ____ _ ____
 72
    65
 73
     4
 40
17.5
 49
13.0
 74
     0
 49
-1.5
 74
     0
 49
1.5
 74
     0
 49
-1.5
 74
     0
  0
ENDTAB
  0
TABLE
  2
LAYER
  5
2
330
0
100
AcDbSymbolTable
 70
     6
  0
LAYER
  5
10
330
2
100
AcDbSymbolTableRecord
100
AcDbLayerTableRecord
  2
0
 70
     0
 62
     7
  6
Continuous
370
    35
390
F
  0
LAYER
  5
2E
330
2
100
AcDbSymbolTableRecord
100
AcDbLayerTableRecord
  2
Mittellinie
 70
     0
 62
     3
  6
MITTE
370
    18
390
F
  0
LAYER
  5
3A
330
2
100
AcDbSymbolTableRecord
100
AcDbLayerTableRecord
  2
Unsichtbar
 70
     0
 62
     5
  6
Continuous
370
    18
390
F
  0
LAYER
  5
87
330
2
100
AcDbSymbolTableRecord
100
AcDbLayerTableRecord
  2
Innenkanten
 70
     0
 62
     1
  6
Continuous
370
    25
390
F
  0
LAYER
  5
46F
330
2
100
AcDbSymbolTableRecord
100
AcDbLayerTableRecord
  2
Defpoints
 70
     0
 62
     6
  6
Continuous
290
     0
370
    15
390
F
  0
LAYER
  5
9F1
330
2
100
AcDbSymbolTableRecord
100
AcDbLayerTableRecord
  2
Bemaßung
 70
     0
 62
     6
  6
Continuous
370
    15
390
F
  0
ENDTAB
  0
TABLE
  2
STYLE
  5
3
330
0
100
AcDbSymbolTable
 70
     2
  0
STYLE
  5
11
330
3
100
AcDbSymbolTableRecord
100
AcDbTextStyleTableRecord
  2
Standard
 70
     0
 40
0.0
 41
1.0
 50
0.0
 71
     0
 42
26.5350450929028
  3
txt
  4

  0
STYLE
  5
2C
330
3
100
AcDbSymbolTableRecord
100
AcDbTextStyleTableRecord
  2

 70
     1
 40
0.0
 41
1.0
 50
0.0
 71
     0
 42
2.5
  3
ltypeshp.shx
  4

  0
ENDTAB
  0
TABLE
  2
VIEW
  5
6
330
0
100
AcDbSymbolTable
 70
     1
  0
VIEW
  5
81C
330
6
100
AcDbSymbolTableRecord
100
AcDbViewTableRecord
  2
tom
 70
     0
 40
127.2859585283894
 10
166.2856675397948
 20
206.2562233711272
 41
204.2020725054376
 11
0.0
 21
0.0
 31
1.0
 12
0.0
 22
0.0
 32
0.0
 42
50.0
 43
0.0
 44
0.0
 50
0.0
 71
     0
281
     0
 72
     1
110
-53.08748352590964
120
3.820899076262548
130
0.0
111
1.0
121
0.0
131
0.0
112
0.0
122
1.0
132
0.0
 79
     0
146
0.0
  0
ENDTAB
  0
TABLE
  2
UCS
  5
7
330
0
100
AcDbSymbolTable
 70
     0
  0
ENDTAB
  0
TABLE
  2
APPID
  5
9
330
0
100
AcDbSymbolTable
 70
     1
  0
APPID
  5
12
330
9
100
AcDbSymbolTableRecord
100
AcDbRegAppTableRecord
  2
ACAD
 70
     0
  0
ENDTAB
  0
TABLE
  2
DIMSTYLE
  5
A
330
0
100
AcDbSymbolTable
 70
     2
100
AcDbDimStyleTable
 71
     1
340
27
  0
DIMSTYLE
105
27
102
{ACAD_REACTORS
330
19D1
330
19F2
330
1A19
330
1A3A
330
1A5B
330
1A7C
330
1A9D
330
1ABE
330
1B01
330
1B22
330
1B5D
330
1B84
330
1B99
330
1BB3
330
2297
102
}
330
A
100
AcDbSymbolTableRecord
100
AcDbDimStyleTableRecord
  2
ISO-25
 70
     0
 41
2.5
 42
0.625
 43
3.75
 44
1.25
 73
     0
 74
     0
 77
     1
 78
     8
140
2.5
141
2.5
143
0.03937007874016
147
0.625
171
     3
172
     1
271
     2
272
     2
274
     3
278
    44
283
     0
284
     8
340
11
  0
DIMSTYLE
105
AE8
330
A
100
AcDbSymbolTableRecord
100
AcDbDimStyleTableRecord
  2
STANDARD
 70
     0
 41
2.5
 73
     0
 77
     1
140
2.5
141
-0.09
147
0.2
176
     6
178
     6
271
     0
272
     0
279
     1
289
     2
340
11
371
    15
  0
ENDTAB
  0
TABLE
  2
BLOCK_RECORD
  5
1
330
0
100
AcDbSymbolTable
 70
    48
  0
BLOCK_RECORD
  5
1F
330
1
100
AcDbSymbolTableRecord
100
AcDbBlockTableRecord
  2
*Model_Space
340
22
  0
BLOCK_RECORD
  5
FEA
330
1
100
AcDbSymbolTableRecord
100
AcDbBlockTableRecord
  2
*Paper_Space
340
FEB
  0
BLOCK_RECORD
  5
19D2
330
1
100
AcDbSymbolTableRecord
100
AcDbBlockTableRecord
  2
*D15
340
0
  0
BLOCK_RECORD
  5
19F3
330
1
100
AcDbSymbolTableRecord
100
AcDbBlockTableRecord
  2
*D16
340
0
  0
BLOCK_RECORD
  5
1A1A
330
1
100
AcDbSymbolTableRecord
100
AcDbBlockTableRecord
  2
*D17
340
0
  0
BLOCK_RECORD
  5
1A3B
330
1
100
AcDbSymbolTableRecord
100
AcDbBlockTableRecord
  2
*D18
340
0
  0
BLOCK_RECORD
  5
1A5C
330
1
100
AcDbSymbolTableRecord
100
AcDbBlockTableRecord
  2
*D19
340
0
  0
BLOCK_RECORD
  5
1A7D
330
1
100
AcDbSymbolTableRecord
100
AcDbBlockTableRecord
  2
*D20
340
0
  0
BLOCK_RECORD
  5
1A9E
330
1
100
AcDbSymbolTableRecord
100
AcDbBlockTableRecord
  2
*D21
340
0
  0
BLOCK_RECORD
  5
1ABF
330
1
100
AcDbSymbolTableRecord
100
AcDbBlockTableRecord
  2
*D22
340
0
  0
BLOCK_RECORD
  5
1B02
330
1
100
AcDbSymbolTableRecord
100
AcDbBlockTableRecord
  2
*D24
340
0
  0
BLOCK_RECORD
  5
1B23
330
1
100
AcDbSymbolTableRecord
100
AcDbBlockTableRecord
  2
*D25
340
0
  0
BLOCK_RECORD
  5
1B5E
330
1
100
AcDbSymbolTableRecord
100
AcDbBlockTableRecord
  2
*D27
340
0
  0
BLOCK_RECORD
  5
1B85
330
1
100
AcDbSymbolTableRecord
100
AcDbBlockTableRecord
  2
*D28
340
0
  0
BLOCK_RECORD
  5
1B9A
330
1
100
AcDbSymbolTableRecord
100
AcDbBlockTableRecord
  2
*D29
340
0
  0
BLOCK_RECORD
  5
1BB4
330
1
100
AcDbSymbolTableRecord
100
AcDbBlockTableRecord
  2
*D30
340
0
  0
BLOCK_RECORD
  5
2298
330
1
100
AcDbSymbolTableRecord
100
AcDbBlockTableRecord
  2
*D47
340
0
  0
ENDTAB
  0
ENDSEC
  0
SECTION
  2
BLOCKS
  0
BLOCK
  5
20
330
1F
100
AcDbEntity
  8
0
100
AcDbBlockBegin
  2
*Model_Space
 70
     0
 10
0.0
 20
0.0
 30
0.0
  3
*Model_Space
  1

  0
ENDBLK
  5
21
330
1F
100
AcDbEntity
  8
0
100
AcDbBlockEnd
  0
BLOCK
  5
FEC
330
FEA
100
AcDbEntity
 67
     1
  8
0
100
AcDbBlockBegin
  2
*Paper_Space
 70
     0
 10
0.0
 20
0.0
 30
0.0
  3
*Paper_Space
  1

  0
ENDBLK
  5
FED
330
FEA
100
AcDbEntity
 67
     1
  8
0
100
AcDbBlockEnd
  0
BLOCK
  5
19DC
330
19D2
100
AcDbEntity
  8
0
100
AcDbBlockBegin
  2
*D15
 70
     1
 10
0.0
 20
0.0
 30
0.0
  3
*D15
  1

  0
LINE
  5
1FF4
330
19D2
100
AcDbEntity
  8
Bemaßung
 62
     0
370
    -2
100
AcDbLine
 10
537.6445714442029
 20
243.1142271507332
 30
0.0
 11
537.6445714442029
 21
254.6612456814574
 31
0.0
  0
LINE
  5
1FF5
330
19D2
100
AcDbEntity
  8
Bemaßung
 62
     0
370
    -2
100
AcDbLine
 10
527.6445714442029
 20
243.1142271507332
 30
0.0
 11
527.6445714442029
 21
254.6612456814574
 31
0.0
  0
LINE
  5
1FF6
330
19D2
100
AcDbEntity
  8
Bemaßung
 62
     0
370
    -2
100
AcDbLine
 10
535.1445714442029
 20
253.4112456814574
 30
0.0
 11
530.1445714442029
 21
253.4112456814574
 31
0.0
  0
SOLID
  5
1FF7
330
19D2
100
AcDbEntity
  8
Bemaßung
 62
     0
100
AcDbTrace
 10
535.1445714442029
 20
253.827912348124
 30
0.0
 11
535.1445714442029
 21
252.9945790147908
 31
0.0
 12
537.6445714442029
 22
253.4112456814574
 32
0.0
 13
537.6445714442029
 23
253.4112456814574
 33
0.0
  0
SOLID
  5
1FF8
330
19D2
100
AcDbEntity
  8
Bemaßung
 62
     0
100
AcDbTrace
 10
530.1445714442029
 20
253.827912348124
 30
0.0
 11
530.1445714442029
 21
252.9945790147908
 31
0.0
 12
527.6445714442029
 22
253.4112456814574
 32
0.0
 13
527.6445714442029
 23
253.4112456814574
 33
0.0
  0
MTEXT
  5
1FF9
330
19D2
100
AcDbEntity
  8
Bemaßung
 62
     0
100
AcDbMText
 10
532.6445714442029
 20
255.2862456814574
 30
0.0
 40
2.5
 41
0.0
 71
     5
 72
     1
  1
10
 73
     1
 44
1.0
  0
POINT
  5
1FFA
330
19D2
100
AcDbEntity
  8
Defpoints
 62
     0
100
AcDbPoint
 10
537.6445714442029
 20
242.4892271507332
 30
0.0
  0
POINT
  5
1FFB
330
19D2
100
AcDbEntity
  8
Defpoints
 62
     0
100
AcDbPoint
 10
527.6445714442029
 20
242.4892271507332
 30
0.0
  0
POINT
  5
1FFC
330
19D2
100
AcDbEntity
  8
Defpoints
 62
     0
100
AcDbPoint
 10
527.6445714442029
 20
253.4112456814574
 30
0.0
  0
ENDBLK
  5
19DD
330
19D2
100
AcDbEntity
  8
0
100
AcDbBlockEnd
  0
BLOCK
  5
19FF
330
19F3
100
AcDbEntity
  8
0
100
AcDbBlockBegin
  2
*D16
 70
     1
 10
0.0
 20
0.0
 30
0.0
  3
*D16
  1

  0
LINE
  5
1FE9
330
19F3
100
AcDbEntity
  8
Bemaßung
 62
     0
370
    -2
100
AcDbLine
 10
540.6445714442029
 20
240.6142271507332
 30
0.0
 11
540.6445714442029
 21
254.6612456814574
 31
0.0
  0
LINE
  5
1FEA
330
19F3
100
AcDbEntity
  8
Bemaßung
 62
     0
370
    -2
100
AcDbLine
 10
537.6445714442029
 20
243.1142271507332
 30
0.0
 11
537.6445714442029
 21
254.6612456814574
 31
0.0
  0
LINE
  5
1FEB
330
19F3
100
AcDbEntity
  8
Bemaßung
 62
     0
370
    -2
100
AcDbLine
 10
543.1445714442029
 20
253.4112456814574
 30
0.0
 11
545.6445714442029
 21
253.4112456814574
 31
0.0
  0
LINE
  5
1FEC
330
19F3
100
AcDbEntity
  8
Bemaßung
 62
     0
370
    -2
100
AcDbLine
 10
535.1445714442029
 20
253.4112456814574
 30
0.0
 11
532.6445714442029
 21
253.4112456814574
 31
0.0
  0
LINE
  5
1FED
330
19F3
100
AcDbEntity
  8
Bemaßung
 62
     0
370
    -2
100
AcDbLine
 10
540.6445714442029
 20
253.4112456814574
 30
0.0
 11
537.6445714442029
 21
253.4112456814574
 31
0.0
  0
SOLID
  5
1FEE
330
19F3
100
AcDbEntity
  8
Bemaßung
 62
     0
100
AcDbTrace
 10
543.1445714442029
 20
253.827912348124
 30
0.0
 11
543.1445714442029
 21
252.9945790147908
 31
0.0
 12
540.6445714442029
 22
253.4112456814574
 32
0.0
 13
540.6445714442029
 23
253.4112456814574
 33
0.0
  0
SOLID
  5
1FEF
330
19F3
100
AcDbEntity
  8
Bemaßung
 62
     0
100
AcDbTrace
 10
535.1445714442029
 20
253.827912348124
 30
0.0
 11
535.1445714442029
 21
252.9945790147908
 31
0.0
 12
537.6445714442029
 22
253.4112456814574
 32
0.0
 13
537.6445714442029
 23
253.4112456814574
 33
0.0
  0
MTEXT
  5
1FF0
330
19F3
100
AcDbEntity
  8
Bemaßung
 62
     0
100
AcDbMText
 10
539.1445714442029
 20
255.2862456814574
 30
0.0
 40
2.5
 41
0.0
 71
     5
 72
     1
  1
3
 73
     1
 44
1.0
  0
POINT
  5
1FF1
330
19F3
100
AcDbEntity
  8
Defpoints
 62
     0
100
AcDbPoint
 10
540.6445714442029
 20
239.9892271507332
 30
0.0
  0
POINT
  5
1FF2
330
19F3
100
AcDbEntity
  8
Defpoints
 62
     0
100
AcDbPoint
 10
537.6445714442029
 20
242.4892271507332
 30
0.0
  0
POINT
  5
1FF3
330
19F3
100
AcDbEntity
  8
Defpoints
 62
     0
100
AcDbPoint
 10
537.6445714442029
 20
253.4112456814574
 30
0.0
  0
ENDBLK
  5
1A00
330
19F3
100
AcDbEntity
  8
0
100
AcDbBlockEnd
  0
BLOCK
  5
1A24
330
1A1A
100
AcDbEntity
  8
0
100
AcDbBlockBegin
  2
*D17
 70
     1
 10
0.0
 20
0.0
 30
0.0
  3
*D17
  1

  0
LINE
  5
1FD7
330
1A1A
100
AcDbEntity
  8
Bemaßung
 62
     0
370
    -2
100
AcDbLine
 10
582.6445714442029
 20
205.1142271507332
 30
0.0
 11
582.6445714442029
 21
243.7646800321265
 31
0.0
  0
LINE
  5
1FD8
330
1A1A
100
AcDbEntity
  8
Bemaßung
 62
     0
370
    -2
100
AcDbLine
 10
542.6445714442029
 20
208.1142271507332
 30
0.0
 11
542.6445714442029
 21
243.7646800321265
 31
0.0
  0
LINE
  5
1FD9
330
1A1A
100
AcDbEntity
  8
Bemaßung
 62
     0
370
    -2
100
AcDbLine
 10
580.1445714442029
 20
242.5146800321265
 30
0.0
 11
545.1445714442029
 21
242.5146800321265
 31
0.0
  0
SOLID
  5
1FDA
330
1A1A
100
AcDbEntity
  8
Bemaßung
 62
     0
100
AcDbTrace
 10
580.1445714442029
 20
242.9313466987931
 30
0.0
 11
580.1445714442029
 21
242.0980133654598
 31
0.0
 12
582.6445714442029
 22
242.5146800321265
 32
0.0
 13
582.6445714442029
 23
242.5146800321265
 33
0.0
  0
SOLID
  5
1FDB
330
1A1A
100
AcDbEntity
  8
Bemaßung
 62
     0
100
AcDbTrace
 10
545.1445714442029
 20
242.9313466987931
 30
0.0
 11
545.1445714442029
 21
242.0980133654598
 31
0.0
 12
542.6445714442029
 22
242.5146800321265
 32
0.0
 13
542.6445714442029
 23
242.5146800321265
 33
0.0
  0
MTEXT
  5
1FDC
330
1A1A
100
AcDbEntity
  8
Bemaßung
 62
     0
100
AcDbMText
 10
562.6445714442029
 20
244.3896800321265
 30
0.0
 40
2.5
 41
0.0
 71
     5
 72
     1
  1
40
 73
     1
 44
1.0
  0
POINT
  5
1FDD
330
1A1A
100
AcDbEntity
  8
Defpoints
 62
     0
100
AcDbPoint
 10
582.6445714442029
 20
204.4892271507332
 30
0.0
  0
POINT
  5
1FDE
330
1A1A
100
AcDbEntity
  8
Defpoints
 62
     0
100
AcDbPoint
 10
542.6445714442029
 20
207.4892271507332
 30
0.0
  0
POINT
  5
1FDF
330
1A1A
100
AcDbEntity
  8
Defpoints
 62
     0
100
AcDbPoint
 10
542.6445714442029
 20
242.5146800321265
 30
0.0
  0
ENDBLK
  5
1A25
330
1A1A
100
AcDbEntity
  8
0
100
AcDbBlockEnd
  0
BLOCK
  5
1A45
330
1A3B
100
AcDbEntity
  8
0
100
AcDbBlockBegin
  2
*D18
 70
     1
 10
0.0
 20
0.0
 30
0.0
  3
*D18
  1

  0
LINE
  5
1FCE
330
1A3B
100
AcDbEntity
  8
Bemaßung
 62
     0
370
    -2
100
AcDbLine
 10
582.6445714442029
 20
205.1142271507332
 30
0.0
 11
582.6445714442029
 21
263.8814167334195
 31
0.0
  0
LINE
  5
1FCF
330
1A3B
100
AcDbEntity
  8
Bemaßung
 62
     0
370
    -2
100
AcDbLine
 10
537.6445714442029
 20
243.1142271507332
 30
0.0
 11
537.6445714442029
 21
263.8814167334195
 31
0.0
  0
LINE
  5
1FD0
330
1A3B
100
AcDbEntity
  8
Bemaßung
 62
     0
370
    -2
100
AcDbLine
 10
580.1445714442029
 20
262.6314167334195
 30
0.0
 11
540.1445714442029
 21
262.6314167334195
 31
0.0
  0
SOLID
  5
1FD1
330
1A3B
100
AcDbEntity
  8
Bemaßung
 62
     0
100
AcDbTrace
 10
580.1445714442029
 20
263.0480834000862
 30
0.0
 11
580.1445714442029
 21
262.2147500667528
 31
0.0
 12
582.6445714442029
 22
262.6314167334195
 32
0.0
 13
582.6445714442029
 23
262.6314167334195
 33
0.0
  0
SOLID
  5
1FD2
330
1A3B
100
AcDbEntity
  8
Bemaßung
 62
     0
100
AcDbTrace
 10
540.1445714442029
 20
263.0480834000862
 30
0.0
 11
540.1445714442029
 21
262.2147500667528
 31
0.0
 12
537.6445714442029
 22
262.6314167334195
 32
0.0
 13
537.6445714442029
 23
262.6314167334195
 33
0.0
  0
MTEXT
  5
1FD3
330
1A3B
100
AcDbEntity
  8
Bemaßung
 62
     0
100
AcDbMText
 10
560.1445714442029
 20
264.5064167334195
 30
0.0
 40
2.5
 41
0.0
 71
     5
 72
     1
  1
45
 73
     1
 44
1.0
  0
POINT
  5
1FD4
330
1A3B
100
AcDbEntity
  8
Defpoints
 62
     0
100
AcDbPoint
 10
582.6445714442029
 20
204.4892271507332
 30
0.0
  0
POINT
  5
1FD5
330
1A3B
100
AcDbEntity
  8
Defpoints
 62
     0
100
AcDbPoint
 10
537.6445714442029
 20
242.4892271507332
 30
0.0
  0
POINT
  5
1FD6
330
1A3B
100
AcDbEntity
  8
Defpoints
 62
     0
100
AcDbPoint
 10
537.6445714442029
 20
262.6314167334195
 30
0.0
  0
ENDBLK
  5
1A46
330
1A3B
100
AcDbEntity
  8
0
100
AcDbBlockEnd
  0
BLOCK
  5
1A66
330
1A5C
100
AcDbEntity
  8
0
100
AcDbBlockBegin
  2
*D19
 70
     1
 10
0.0
 20
0.0
 30
0.0
  3
*D19
  1

  0
LINE
  5
1FBC
330
1A5C
100
AcDbEntity
  8
Bemaßung
 62
     0
370
    -2
100
AcDbLine
 10
352.6445714442029
 20
193.1142271507332
 30
0.0
 11
352.6445714442029
 21
263.8814167334195
 31
0.0
  0
LINE
  5
1FBD
330
1A5C
100
AcDbEntity
  8
Bemaßung
 62
     0
370
    -2
100
AcDbLine
 10
537.6445714442029
 20
243.1142271507332
 30
0.0
 11
537.6445714442029
 21
263.8814167334195
 31
0.0
  0
LINE
  5
1FBE
330
1A5C
100
AcDbEntity
  8
Bemaßung
 62
     0
370
    -2
100
AcDbLine
 10
355.1445714442029
 20
262.6314167334195
 30
0.0
 11
535.1445714442029
 21
262.6314167334195
 31
0.0
  0
SOLID
  5
1FBF
330
1A5C
100
AcDbEntity
  8
Bemaßung
 62
     0
100
AcDbTrace
 10
355.1445714442029
 20
263.0480834000862
 30
0.0
 11
355.1445714442029
 21
262.2147500667528
 31
0.0
 12
352.6445714442029
 22
262.6314167334195
 32
0.0
 13
352.6445714442029
 23
262.6314167334195
 33
0.0
  0
SOLID
  5
1FC0
330
1A5C
100
AcDbEntity
  8
Bemaßung
 62
     0
100
AcDbTrace
 10
535.1445714442029
 20
263.0480834000862
 30
0.0
 11
535.1445714442029
 21
262.2147500667528
 31
0.0
 12
537.6445714442029
 22
262.6314167334195
 32
0.0
 13
537.6445714442029
 23
262.6314167334195
 33
0.0
  0
MTEXT
  5
1FC1
330
1A5C
100
AcDbEntity
  8
Bemaßung
 62
     0
100
AcDbMText
 10
445.1445714442029
 20
264.5064167334195
 30
0.0
 40
2.5
 41
0.0
 71
     5
 72
     1
  1
185
 73
     1
 44
1.0
  0
POINT
  5
1FC2
330
1A5C
100
AcDbEntity
  8
Defpoints
 62
     0
100
AcDbPoint
 10
352.6445714442029
 20
192.4892271507332
 30
0.0
  0
POINT
  5
1FC3
330
1A5C
100
AcDbEntity
  8
Defpoints
 62
     0
100
AcDbPoint
 10
537.6445714442029
 20
242.4892271507332
 30
0.0
  0
POINT
  5
1FC4
330
1A5C
100
AcDbEntity
  8
Defpoints
 62
     0
100
AcDbPoint
 10
537.6445714442029
 20
262.6314167334195
 30
0.0
  0
ENDBLK
  5
1A67
330
1A5C
100
AcDbEntity
  8
0
100
AcDbBlockEnd
  0
BLOCK
  5
1A87
330
1A7D
100
AcDbEntity
  8
0
100
AcDbBlockBegin
  2
*D20
 70
     1
 10
0.0
 20
0.0
 30
0.0
  3
*D20
  1

  0
LINE
  5
1FE0
330
1A7D
100
AcDbEntity
  8
Bemaßung
 62
     0
370
    -2
100
AcDbLine
 10
583.2695714442029
 20
204.4892271507332
 30
0.0
 11
605.8178696569448
 21
204.4892271507332
 31
0.0
  0
LINE
  5
1FE1
330
1A7D
100
AcDbEntity
  8
Bemaßung
 62
     0
370
    -2
100
AcDbLine
 10
583.2695714442029
 20
180.4892271507333
 30
0.0
 11
605.8178696569448
 21
180.4892271507333
 31
0.0
  0
LINE
  5
1FE2
330
1A7D
100
AcDbEntity
  8
Bemaßung
 62
     0
370
    -2
100
AcDbLine
 10
604.5678696569448
 20
201.9892271507332
 30
0.0
 11
604.5678696569448
 21
182.9892271507333
 31
0.0
  0
SOLID
  5
1FE3
330
1A7D
100
AcDbEntity
  8
Bemaßung
 62
     0
100
AcDbTrace
 10
604.1512029902782
 20
201.9892271507332
 30
0.0
 11
604.9845363236114
 21
201.9892271507332
 31
0.0
 12
604.5678696569448
 22
204.4892271507332
 32
0.0
 13
604.5678696569448
 23
204.4892271507332
 33
0.0
  0
SOLID
  5
1FE4
330
1A7D
100
AcDbEntity
  8
Bemaßung
 62
     0
100
AcDbTrace
 10
604.1512029902782
 20
182.9892271507333
 30
0.0
 11
604.9845363236114
 21
182.9892271507333
 31
0.0
 12
604.5678696569448
 22
180.4892271507333
 32
0.0
 13
604.5678696569448
 23
180.4892271507333
 33
0.0
  0
MTEXT
  5
1FE5
330
1A7D
100
AcDbEntity
  8
Bemaßung
 62
     0
100
AcDbMText
 10
602.6928696569448
 20
192.4892271507333
 30
0.0
 40
2.5
 41
0.0
 71
     5
 72
     1
  1
24
 11
0.0000000000000001
 21
1.0
 31
0.0
 73
     1
 44
1.0
  0
POINT
  5
1FE6
330
1A7D
100
AcDbEntity
  8
Defpoints
 62
     0
100
AcDbPoint
 10
582.6445714442029
 20
204.4892271507332
 30
0.0
  0
POINT
  5
1FE7
330
1A7D
100
AcDbEntity
  8
Defpoints
 62
     0
100
AcDbPoint
 10
582.6445714442029
 20
180.4892271507333
 30
0.0
  0
POINT
  5
1FE8
330
1A7D
100
AcDbEntity
  8
Defpoints
 62
     0
100
AcDbPoint
 10
604.5678696569448
 20
180.4892271507333
 30
0.0
  0
ENDBLK
  5
1A88
330
1A7D
100
AcDbEntity
  8
0
100
AcDbBlockEnd
  0
BLOCK
  5
1AA8
330
1A9E
100
AcDbEntity
  8
0
100
AcDbBlockBegin
  2
*D21
 70
     1
 10
0.0
 20
0.0
 30
0.0
  3
*D21
  1

  0
LINE
  5
1FC5
330
1A9E
100
AcDbEntity
  8
Bemaßung
 62
     0
370
    -2
100
AcDbLine
 10
541.2695714442029
 20
239.9892271507332
 30
0.0
 11
616.3839046001078
 21
239.9892271507332
 31
0.0
  0
LINE
  5
1FC6
330
1A9E
100
AcDbEntity
  8
Bemaßung
 62
     0
370
    -2
100
AcDbLine
 10
541.2695714442029
 20
144.9892271507333
 30
0.0
 11
616.3839046001078
 21
144.9892271507332
 31
0.0
  0
LINE
  5
1FC7
330
1A9E
100
AcDbEntity
  8
Bemaßung
 62
     0
370
    -2
100
AcDbLine
 10
615.1339046001078
 20
237.4892271507332
 30
0.0
 11
615.1339046001078
 21
147.4892271507332
 31
0.0
  0
SOLID
  5
1FC8
330
1A9E
100
AcDbEntity
  8
Bemaßung
 62
     0
100
AcDbTrace
 10
614.7172379334412
 20
237.4892271507332
 30
0.0
 11
615.5505712667745
 21
237.4892271507332
 31
0.0
 12
615.1339046001078
 22
239.9892271507332
 32
0.0
 13
615.1339046001078
 23
239.9892271507332
 33
0.0
  0
SOLID
  5
1FC9
330
1A9E
100
AcDbEntity
  8
Bemaßung
 62
     0
100
AcDbTrace
 10
614.7172379334412
 20
147.4892271507332
 30
0.0
 11
615.5505712667745
 21
147.4892271507332
 31
0.0
 12
615.1339046001078
 22
144.9892271507332
 32
0.0
 13
615.1339046001078
 23
144.9892271507332
 33
0.0
  0
MTEXT
  5
1FCA
330
1A9E
100
AcDbEntity
  8
Bemaßung
 62
     0
100
AcDbMText
 10
613.2589046001078
 20
192.4892271507333
 30
0.0
 40
2.5
 41
0.0
 71
     5
 72
     1
  1
95
 11
0.0000000000000001
 21
1.0
 31
0.0
 73
     1
 44
1.0
  0
POINT
  5
1FCB
330
1A9E
100
AcDbEntity
  8
Defpoints
 62
     0
100
AcDbPoint
 10
540.6445714442029
 20
239.9892271507332
 30
0.0
  0
POINT
  5
1FCC
330
1A9E
100
AcDbEntity
  8
Defpoints
 62
     0
100
AcDbPoint
 10
540.6445714442029
 20
144.9892271507333
 30
0.0
  0
POINT
  5
1FCD
330
1A9E
100
AcDbEntity
  8
Defpoints
 62
     0
100
AcDbPoint
 10
615.1339046001078
 20
144.9892271507332
 30
0.0
  0
ENDBLK
  5
1AA9
330
1A9E
100
AcDbEntity
  8
0
100
AcDbBlockEnd
  0
BLOCK
  5
1AC9
330
1ABF
100
AcDbEntity
  8
0
100
AcDbBlockBegin
  2
*D22
 70
     1
 10
0.0
 20
0.0
 30
0.0
  3
*D22
  1

  0
LINE
  5
1FB3
330
1ABF
100
AcDbEntity
  8
Bemaßung
 62
     0
370
    -2
100
AcDbLine
 10
537.6445714442029
 20
141.8642271507332
 30
0.0
 11
537.6445714442029
 21
78.40448611948261
 31
0.0
  0
LINE
  5
1FB4
330
1ABF
100
AcDbEntity
  8
Bemaßung
 62
     0
370
    -2
100
AcDbLine
 10
466.6445714442029
 20
89.20566715073325
 30
0.0
 11
466.6445714442029
 21
78.40448611948261
 31
0.0
  0
LINE
  5
1FB5
330
1ABF
100
AcDbEntity
  8
Bemaßung
 62
     0
370
    -2
100
AcDbLine
 10
535.1445714442029
 20
79.65448611948261
 30
0.0
 11
469.1445714442029
 21
79.65448611948261
 31
0.0
  0
SOLID
  5
1FB6
330
1ABF
100
AcDbEntity
  8
Bemaßung
 62
     0
100
AcDbTrace
 10
535.1445714442029
 20
80.07115278614929
 30
0.0
 11
535.1445714442029
 21
79.23781945281594
 31
0.0
 12
537.6445714442029
 22
79.65448611948261
 32
0.0
 13
537.6445714442029
 23
79.65448611948261
 33
0.0
  0
SOLID
  5
1FB7
330
1ABF
100
AcDbEntity
  8
Bemaßung
 62
     0
100
AcDbTrace
 10
469.1445714442029
 20
80.07115278614929
 30
0.0
 11
469.1445714442029
 21
79.23781945281594
 31
0.0
 12
466.6445714442029
 22
79.65448611948261
 32
0.0
 13
466.6445714442029
 23
79.65448611948261
 33
0.0
  0
MTEXT
  5
1FB8
330
1ABF
100
AcDbEntity
  8
Bemaßung
 62
     0
100
AcDbMText
 10
502.1445714442029
 20
81.52948611948261
 30
0.0
 40
2.5
 41
0.0
 71
     5
 72
     1
  1
71
 73
     1
 44
1.0
  0
POINT
  5
1FB9
330
1ABF
100
AcDbEntity
  8
Defpoints
 62
     0
100
AcDbPoint
 10
537.6445714442029
 20
142.4892271507332
 30
0.0
  0
POINT
  5
1FBA
330
1ABF
100
AcDbEntity
  8
Defpoints
 62
     0
100
AcDbPoint
 10
466.6445714442029
 20
89.83066715073325
 30
0.0
  0
POINT
  5
1FBB
330
1ABF
100
AcDbEntity
  8
Defpoints
 62
     0
100
AcDbPoint
 10
466.6445714442029
 20
79.65448611948261
 30
0.0
  0
ENDBLK
  5
1ACA
330
1ABF
100
AcDbEntity
  8
0
100
AcDbBlockEnd
  0
BLOCK
  5
1B0C
330
1B02
100
AcDbEntity
  8
0
100
AcDbBlockBegin
  2
*D24
 70
     1
 10
0.0
 20
0.0
 30
0.0
  3
*D24
  1

  0
LINE
  5
1B19
330
1B02
100
AcDbEntity
  8
Bemaßung
 62
     0
370
    -2
100
AcDbLine
 10
288.2663804130439
 20
238.4453008232231
 30
0.0
 11
288.2663804130439
 21
263.8814167334195
 31
0.0
  0
LINE
  5
1B1A
330
1B02
100
AcDbEntity
  8
Bemaßung
 62
     0
370
    -2
100
AcDbLine
 10
188.2663777192102
 20
238.4453009254979
 30
0.0
 11
188.2663777192102
 21
263.8814167334195
 31
0.0
  0
LINE
  5
1B1B
330
1B02
100
AcDbEntity
  8
Bemaßung
 62
     0
370
    -2
100
AcDbLine
 10
285.7663804130439
 20
262.6314167334195
 30
0.0
 11
190.7663777192102
 21
262.6314167334195
 31
0.0
  0
SOLID
  5
1B1C
330
1B02
100
AcDbEntity
  8
Bemaßung
 62
     0
100
AcDbTrace
 10
285.7663804130439
 20
263.0480834000862
 30
0.0
 11
285.7663804130439
 21
262.2147500667528
 31
0.0
 12
288.2663804130439
 22
262.6314167334195
 32
0.0
 13
288.2663804130439
 23
262.6314167334195
 33
0.0
  0
SOLID
  5
1B1D
330
1B02
100
AcDbEntity
  8
Bemaßung
 62
     0
100
AcDbTrace
 10
190.7663777192102
 20
263.0480834000862
 30
0.0
 11
190.7663777192102
 21
262.2147500667528
 31
0.0
 12
188.2663777192102
 22
262.6314167334195
 32
0.0
 13
188.2663777192102
 23
262.6314167334195
 33
0.0
  0
MTEXT
  5
1B1E
330
1B02
100
AcDbEntity
  8
Bemaßung
 62
     0
100
AcDbMText
 10
238.2663790661271
 20
264.5064167334195
 30
0.0
 40
2.5
 41
0.0
 71
     5
 72
     1
  1
100
 73
     1
 44
1.0
  0
POINT
  5
1B1F
330
1B02
100
AcDbEntity
  8
Defpoints
 62
     0
100
AcDbPoint
 10
288.2663804130439
 20
237.8203008232231
 30
0.0
  0
POINT
  5
1B20
330
1B02
100
AcDbEntity
  8
Defpoints
 62
     0
100
AcDbPoint
 10
188.2663777192102
 20
237.8203009254979
 30
0.0
  0
POINT
  5
1B21
330
1B02
100
AcDbEntity
  8
Defpoints
 62
     0
100
AcDbPoint
 10
188.2663777192102
 20
262.6314167334195
 30
0.0
  0
ENDBLK
  5
1B0D
330
1B02
100
AcDbEntity
  8
0
100
AcDbBlockEnd
  0
BLOCK
  5
1B2D
330
1B23
100
AcDbEntity
  8
0
100
AcDbBlockBegin
  2
*D25
 70
     1
 10
0.0
 20
0.0
 30
0.0
  3
*D25
  1

  0
LINE
  5
1B3A
330
1B23
100
AcDbEntity
  8
Bemaßung
 62
     0
370
    -2
100
AcDbLine
 10
192.2954977192102
 20
242.4744109254979
 30
0.0
 11
164.9135082053815
 21
242.4744109254979
 31
0.0
  0
LINE
  5
1B3B
330
1B23
100
AcDbEntity
  8
Bemaßung
 62
     0
370
    -2
100
AcDbLine
 10
192.2955577192102
 20
142.4744109254979
 30
0.0
 11
164.9135082053815
 21
142.4744109254979
 31
0.0
  0
LINE
  5
1B3C
330
1B23
100
AcDbEntity
  8
Bemaßung
 62
     0
370
    -2
100
AcDbLine
 10
166.1635082053815
 20
239.9744109254979
 30
0.0
 11
166.1635082053815
 21
144.9744109254979
 31
0.0
  0
SOLID
  5
1B3D
330
1B23
100
AcDbEntity
  8
Bemaßung
 62
     0
100
AcDbTrace
 10
165.7468415387148
 20
239.9744109254979
 30
0.0
 11
166.5801748720481
 21
239.9744109254979
 31
0.0
 12
166.1635082053815
 22
242.4744109254979
 32
0.0
 13
166.1635082053815
 23
242.4744109254979
 33
0.0
  0
SOLID
  5
1B3E
330
1B23
100
AcDbEntity
  8
Bemaßung
 62
     0
100
AcDbTrace
 10
165.7468415387148
 20
144.9744109254979
 30
0.0
 11
166.5801748720481
 21
144.9744109254979
 31
0.0
 12
166.1635082053815
 22
142.4744109254979
 32
0.0
 13
166.1635082053815
 23
142.4744109254979
 33
0.0
  0
MTEXT
  5
1B3F
330
1B23
100
AcDbEntity
  8
Bemaßung
 62
     0
100
AcDbMText
 10
164.2885082053814
 20
192.4744109254979
 30
0.0
 40
2.5
 41
0.0
 71
     5
 72
     1
  1
100
 11
0.0000000000000001
 21
1.0
 31
0.0
 73
     1
 44
1.0
  0
POINT
  5
1B40
330
1B23
100
AcDbEntity
  8
Defpoints
 62
     0
100
AcDbPoint
 10
192.9204977192102
 20
242.4744109254979
 30
0.0
  0
POINT
  5
1B41
330
1B23
100
AcDbEntity
  8
Defpoints
 62
     0
100
AcDbPoint
 10
192.9205577192102
 20
142.4744109254979
 30
0.0
  0
POINT
  5
1B42
330
1B23
100
AcDbEntity
  8
Defpoints
 62
     0
100
AcDbPoint
 10
166.1635082053815
 20
142.4744109254979
 30
0.0
  0
ENDBLK
  5
1B2E
330
1B23
100
AcDbEntity
  8
0
100
AcDbBlockEnd
  0
BLOCK
  5
1B6A
330
1B5E
100
AcDbEntity
  8
0
100
AcDbBlockBegin
  2
*D27
 70
     1
 10
0.0
 20
0.0
 30
0.0
  3
*D27
  1

  0
LINE
  5
1B79
330
1B5E
100
AcDbEntity
  8
Bemaßung
 62
     0
370
    -2
100
AcDbLine
 10
238.2663777192103
 20
255.1406409254979
 30
0.0
 11
238.2663777192103
 21
257.7607942048398
 31
0.0
  0
LINE
  5
1B7A
330
1B5E
100
AcDbEntity
  8
Bemaßung
 62
     0
370
    -2
100
AcDbLine
 10
193.1562235110753
 20
237.5845901938323
 30
0.0
 11
192.1020496391968
 21
238.6387522827555
 31
0.0
  0
ARC
  5
1B7B
330
1B5E
100
AcDbEntity
  8
Bemaßung
 62
     0
370
    -2
100
AcDbCircle
 10
238.2663777192103
 20
192.4749402013119
 30
0.0
 40
64.03585400352781
100
AcDbArc
 50
92.23700533545947
 51
132.7633148761275
  0
SOLID
  5
1B7C
330
1B5E
100
AcDbEntity
  8
Bemaßung
 62
     0
100
AcDbTrace
 10
235.7587206036188
 20
256.8785806941707
 30
0.0
 11
235.774987532246
 21
256.0454061437448
 31
0.0
 12
238.2663777192103
 22
256.5107942048397
 32
0.0
 13
238.2663777192103
 23
256.5107942048397
 33
0.0
  0
SOLID
  5
1B7D
330
1B5E
100
AcDbEntity
  8
Bemaßung
 62
     0
100
AcDbTrace
 10
195.0766879986645
 20
239.187485272681
 30
0.0
 11
194.4990437228394
 21
239.7881278744427
 31
0.0
 12
192.9859380554669
 22
237.7548737460868
 32
0.0
 13
192.9859380554669
 23
237.7548737460868
 33
0.0
  0
MTEXT
  5
1B7E
330
1B5E
100
AcDbEntity
  8
Bemaßung
 62
     0
100
AcDbMText
 10
213.0432157194289
 20
253.3685587028195
 30
0.0
 40
2.5
 41
0.0
 71
     5
 72
     1
  1
45°
 11
0.9238784631473338
 21
0.3826860140278458
 31
0.0
 73
     1
 44
1.0
  0
POINT
  5
1B7F
330
1B5E
100
AcDbEntity
  8
Defpoints
 62
     0
100
AcDbPoint
 10
221.6925639051601
 20
254.3287945162884
 30
0.0
  0
POINT
  5
1B80
330
1B5E
100
AcDbEntity
  8
Defpoints
 62
     0
100
AcDbPoint
 10
193.5981677192103
 20
237.1426509254979
 30
0.0
  0
POINT
  5
1B81
330
1B5E
100
AcDbEntity
  8
Defpoints
 62
     0
100
AcDbPoint
 10
238.2663777192102
 20
254.5156409254979
 30
0.0
  0
POINT
  5
1B82
330
1B5E
100
AcDbEntity
  8
Defpoints
 62
     0
100
AcDbPoint
 10
238.2663777192103
 20
85.81332092549793
 30
0.0
  0
POINT
  5
1B83
330
1B5E
100
AcDbEntity
  8
Defpoints
 62
     0
100
AcDbPoint
 10
201.6501077192102
 20
229.0908009254979
 30
0.0
  0
ENDBLK
  5
1B6B
330
1B5E
100
AcDbEntity
  8
0
100
AcDbBlockEnd
  0
BLOCK
  5
1B8B
330
1B85
100
AcDbEntity
  8
0
100
AcDbBlockBegin
  2
*D28
 70
     1
 10
0.0
 20
0.0
 30
0.0
  3
*D28
  1

  0
LINE
  5
1B94
330
1B85
100
AcDbEntity
  8
Bemaßung
 62
     0
370
    -2
100
AcDbLine
 10
268.7295250417849
 20
166.8167687863414
 30
0.0
 11
196.1993002090839
 21
227.9054847133049
 31
0.0
  0
MTEXT
  5
1B95
330
1B85
100
AcDbEntity
  8
Bemaßung
 62
     0
100
AcDbMText
 10
266.5911577553365
 20
171.069254570944
 30
0.0
 40
2.5
 41
0.0
 71
     5
 72
     1
  1
\U+2205115
 11
0.764855954729569
 21
-0.6442013415964916
 31
0.0
 73
     1
 44
1.0
  0
SOLID
  5
1B96
330
1B85
100
AcDbEntity
  8
Bemaßung
 62
     0
100
AcDbTrace
 10
196.4677174347491
 20
228.2241746944423
 30
0.0
 11
195.9308829834187
 21
227.5867947321676
 31
0.0
 12
194.28716032226
 22
229.5159880672962
 32
0.0
 13
194.28716032226
 23
229.5159880672962
 33
0.0
  0
POINT
  5
1B97
330
1B85
100
AcDbEntity
  8
Defpoints
 62
     0
100
AcDbPoint
 10
194.28716032226
 20
229.5159880672962
 30
0.0
  0
POINT
  5
1B98
330
1B85
100
AcDbEntity
  8
Defpoints
 62
     0
100
AcDbPoint
 10
282.2455951161604
 20
155.4328337836996
 30
0.0
  0
ENDBLK
  5
1B8C
330
1B85
100
AcDbEntity
  8
0
100
AcDbBlockEnd
  0
BLOCK
  5
1BA0
330
1B9A
100
AcDbEntity
  8
0
100
AcDbBlockBegin
  2
*D29
 70
     1
 10
0.0
 20
0.0
 30
0.0
  3
*D29
  1

  0
LINE
  5
1BAE
330
1B9A
100
AcDbEntity
  8
Bemaßung
 62
     0
370
    -2
100
AcDbLine
 10
213.9897617277041
 20
165.7061453751458
 30
0.0
 11
281.9327910536608
 21
240.6225609055845
 31
0.0
  0
MTEXT
  5
1BAF
330
1B9A
100
AcDbEntity
  8
Bemaßung
 62
     0
100
AcDbMText
 10
215.8198712048566
 20
170.5151363031972
 30
0.0
 40
2.5
 41
0.0
 71
     5
 72
     1
  1
\U+2205135
 11
0.6717909743761631
 21
0.7407407689244096
 31
0.0
 73
     1
 44
1.0
  0
SOLID
  5
1BB0
330
1B9A
100
AcDbEntity
  8
Bemaßung
 62
     0
100
AcDbTrace
 10
281.624149066609
 20
240.9024738115745
 30
0.0
 11
282.2414330407127
 21
240.3426479995944
 31
0.0
 12
283.6122684896012
 22
242.4744128278955
 32
0.0
 13
283.6122684896012
 23
242.4744128278955
 33
0.0
  0
POINT
  5
1BB1
330
1B9A
100
AcDbEntity
  8
Defpoints
 62
     0
100
AcDbPoint
 10
283.6122684896012
 20
242.4744128278955
 30
0.0
  0
POINT
  5
1BB2
330
1B9A
100
AcDbEntity
  8
Defpoints
 62
     0
100
AcDbPoint
 10
192.9204869488192
 20
142.4744090231002
 30
0.0
  0
ENDBLK
  5
1BA1
330
1B9A
100
AcDbEntity
  8
0
100
AcDbBlockEnd
  0
BLOCK
  5
1BBE
330
1BB4
100
AcDbEntity
  8
0
100
AcDbBlockBegin
  2
*D30
 70
     1
 10
0.0
 20
0.0
 30
0.0
  3
*D30
  1

  0
LINE
  5
1BCB
330
1BB4
100
AcDbEntity
  8
Bemaßung
 62
     0
370
    -2
100
AcDbLine
 10
298.6159877192102
 20
192.4744109254979
 30
0.0
 11
305.5315457190234
 21
192.4744109254979
 31
0.0
  0
LINE
  5
1BCC
330
1BB4
100
AcDbEntity
  8
Bemaßung
 62
     0
370
    -2
100
AcDbLine
 10
255.2914077192102
 20
96.47442092549793
 30
0.0
 11
305.5315457190233
 21
96.47442092549791
 31
0.0
  0
LINE
  5
1BCD
330
1BB4
100
AcDbEntity
  8
Bemaßung
 62
     0
370
    -2
100
AcDbLine
 10
304.2815457190234
 20
189.9744109254979
 30
0.0
 11
304.2815457190233
 21
98.97442092549791
 31
0.0
  0
SOLID
  5
1BCE
330
1BB4
100
AcDbEntity
  8
Bemaßung
 62
     0
100
AcDbTrace
 10
303.8648790523567
 20
189.9744109254979
 30
0.0
 11
304.6982123856901
 21
189.9744109254979
 31
0.0
 12
304.2815457190234
 22
192.4744109254979
 32
0.0
 13
304.2815457190234
 23
192.4744109254979
 33
0.0
  0
SOLID
  5
1BCF
330
1BB4
100
AcDbEntity
  8
Bemaßung
 62
     0
100
AcDbTrace
 10
303.8648790523566
 20
98.97442092549791
 30
0.0
 11
304.69821238569
 21
98.97442092549791
 31
0.0
 12
304.2815457190233
 22
96.47442092549791
 32
0.0
 13
304.2815457190233
 23
96.47442092549791
 33
0.0
  0
MTEXT
  5
1BD0
330
1BB4
100
AcDbEntity
  8
Bemaßung
 62
     0
100
AcDbMText
 10
302.4065457190233
 20
144.4744159254979
 30
0.0
 40
2.5
 41
0.0
 71
     5
 72
     1
  1
96
 11
0.0000000000000001
 21
1.0
 31
0.0
 73
     1
 44
1.0
  0
POINT
  5
1BD1
330
1BB4
100
AcDbEntity
  8
Defpoints
 62
     0
100
AcDbPoint
 10
297.9909877192102
 20
192.4744109254979
 30
0.0
  0
POINT
  5
1BD2
330
1BB4
100
AcDbEntity
  8
Defpoints
 62
     0
100
AcDbPoint
 10
254.6664077192102
 20
96.47442092549793
 30
0.0
  0
POINT
  5
1BD3
330
1BB4
100
AcDbEntity
  8
Defpoints
 62
     0
100
AcDbPoint
 10
304.2815457190233
 20
96.47442092549791
 30
0.0
  0
ENDBLK
  5
1BBF
330
1BB4
100
AcDbEntity
  8
0
100
AcDbBlockEnd
  0
BLOCK
  5
22A2
330
2298
100
AcDbEntity
  8
0
100
AcDbBlockBegin
  2
*D47
 70
     1
 10
0.0
 20
0.0
 30
0.0
  3
*D47
  1

  0
LINE
  5
22AF
330
2298
100
AcDbEntity
  8
Bemaßung
 62
     0
370
    -2
100
AcDbLine
 10
357.7195814442029
 20
110.9892371507332
 30
0.0
 11
331.2335374349269
 21
110.9892371507332
 31
0.0
  0
LINE
  5
22B0
330
2298
100
AcDbEntity
  8
Bemaßung
 62
     0
370
    -2
100
AcDbLine
 10
343.7310903152924
 20
192.4892271507332
 30
0.0
 11
331.233537434927
 21
192.4892271507332
 31
0.0
  0
LINE
  5
22B1
330
2298
100
AcDbEntity
  8
Bemaßung
 62
     0
370
    -2
100
AcDbLine
 10
332.483537434927
 20
113.4892371507333
 30
0.0
 11
332.483537434927
 21
189.9892271507332
 31
0.0
  0
SOLID
  5
22B2
330
2298
100
AcDbEntity
  8
Bemaßung
 62
     0
100
AcDbTrace
 10
332.0668707682603
 20
113.4892371507333
 30
0.0
 11
332.9002041015936
 21
113.4892371507333
 31
0.0
 12
332.483537434927
 22
110.9892371507332
 32
0.0
 13
332.483537434927
 23
110.9892371507332
 33
0.0
  0
SOLID
  5
22B3
330
2298
100
AcDbEntity
  8
Bemaßung
 62
     0
100
AcDbTrace
 10
332.0668707682603
 20
189.9892271507332
 30
0.0
 11
332.9002041015937
 21
189.9892271507332
 31
0.0
 12
332.483537434927
 22
192.4892271507332
 32
0.0
 13
332.483537434927
 23
192.4892271507332
 33
0.0
  0
MTEXT
  5
22B4
330
2298
100
AcDbEntity
  8
Bemaßung
 62
     0
100
AcDbMText
 10
330.4002041015936
 20
151.7392321507333
 30
0.0
 40
2.5
 41
0.0
 71
     5
 72
     1
  1
81,5
 11
0.0000000000000001
 21
1.0
 31
0.0
 73
     1
 44
1.0
  0
POINT
  5
22B5
330
2298
100
AcDbEntity
  8
Defpoints
 62
     0
100
AcDbPoint
 10
358.3445814442029
 20
110.9892371507332
 30
0.0
  0
POINT
  5
22B6
330
2298
100
AcDbEntity
  8
Defpoints
 62
     0
100
AcDbPoint
 10
344.3560903152924
 20
192.4892271507332
 30
0.0
  0
POINT
  5
22B7
330
2298
100
AcDbEntity
  8
Defpoints
 62
     0
100
AcDbPoint
 10
332.483537434927
 20
192.4892271507332
 30
0.0
  0
ENDBLK
  5
22A3
330
2298
100
AcDbEntity
  8
0
100
AcDbBlockEnd
  0
ENDSEC
  0
SECTION
  2
ENTITIES
  0
LINE
  5
16D2
330
1F
100
AcDbEntity
  8
0
100
AcDbLine
 10
-185.2018622807897
 20
115.4649209254979
 30
0.0
 11
-185.2018622807897
 21
158.1269209254978
 31
0.0
  0
LINE
  5
16D3
330
1F
100
AcDbEntity
  8
Innenkanten
100
AcDbLine
 10
-191.9018822807897
 20
110.9649209254979
 30
0.0
 11
-191.9018822807897
 21
127.2649209254979
 31
0.0
  0
LINE
  5
16D4
330
1F
100
AcDbEntity
  8
Innenkanten
100
AcDbLine
 10
-219.5018722807897
 20
110.9649209254979
 30
0.0
 11
-219.5018722807897
 21
127.2649209254979
 31
0.0
  0
LINE
  5
16D5
330
1F
100
AcDbEntity
  8
0
100
AcDbLine
 10
-220.5018722807897
 20
130.2649209254979
 30
0.0
 11
-220.5018722807897
 21
111.9649209254979
 31
0.0
  0
LINE
  5
16D6
330
1F
100
AcDbEntity
  8
0
100
AcDbLine
 10
-190.9018822807897
 20
130.2649209254979
 30
0.0
 11
-190.9018822807897
 21
111.9649209254979
 31
0.0
  0
LINE
  5
16D7
330
1F
100
AcDbEntity
  8
0
100
AcDbLine
 10
-226.2018822807897
 20
115.4649209254979
 30
0.0
 11
-226.2018822807897
 21
158.1269109254979
 31
0.0
  0
LINE
  5
16D8
330
1F
100
AcDbEntity
  8
Mittellinie
100
AcDbLine
 10
-205.7018822807897
 20
252.8847509254979
 30
0.0
 11
-205.7018822807897
 21
84.91856092549793
 31
0.0
  0
LINE
  5
16D9
330
1F
100
AcDbEntity
  8
Innenkanten
100
AcDbLine
 10
-220.5018722807897
 20
119.2649209254978
 30
0.0
 11
-226.2018822807897
 21
119.2649209254978
 31
0.0
  0
LINE
  5
16DA
330
1F
100
AcDbEntity
  8
Innenkanten
100
AcDbLine
 10
-220.5018722807897
 20
118.2649209254978
 30
0.0
 11
-226.2018822807897
 21
118.2649209254978
 31
0.0
  0
LINE
  5
16DB
330
1F
100
AcDbEntity
  8
Innenkanten
100
AcDbLine
 10
-223.1018722807897
 20
97.46492092549793
 30
0.0
 11
-188.3018722807897
 21
97.46492092549793
 31
0.0
  0
LINE
  5
16DC
330
1F
100
AcDbEntity
  8
Innenkanten
100
AcDbLine
 10
-220.5018722807897
 20
112.4649209254979
 30
0.0
 11
-223.1018722807897
 21
112.4649209254979
 31
0.0
  0
LINE
  5
16DD
330
1F
100
AcDbEntity
  8
0
100
AcDbLine
 10
-189.3018722807897
 20
96.46492092549792
 30
0.0
 11
-222.1018722807897
 21
96.46492092549792
 31
0.0
  0
LINE
  5
16DE
330
1F
100
AcDbEntity
  8
0
100
AcDbLine
 10
-220.5018722807897
 20
115.4649209254979
 30
0.0
 11
-226.2018822807897
 21
115.4649209254979
 31
0.0
  0
LINE
  5
16DF
330
1F
100
AcDbEntity
  8
Innenkanten
100
AcDbLine
 10
-222.1018722807897
 20
112.4649209254979
 30
0.0
 11
-222.1018722807897
 21
96.46492092549792
 31
0.0
  0
LINE
  5
16E0
330
1F
100
AcDbEntity
  8
0
100
AcDbLine
 10
-223.1018722807897
 20
97.46492092549793
 30
0.0
 11
-223.1018722807897
 21
115.4649209254979
 31
0.0
  0
LINE
  5
16E1
330
1F
100
AcDbEntity
  8
0
100
AcDbLine
 10
-222.1018722807897
 20
96.46492092549792
 30
0.0
 11
-223.1018722807897
 21
97.46492092549793
 31
0.0
  0
LINE
  5
16E2
330
1F
100
AcDbEntity
  8
Innenkanten
100
AcDbLine
 10
-190.9018822807897
 20
111.9649209254979
 30
0.0
 11
-220.5018722807897
 21
111.9649209254979
 31
0.0
  0
LINE
  5
16E3
330
1F
100
AcDbEntity
  8
0
100
AcDbLine
 10
-191.9018822807897
 20
110.9649209254979
 30
0.0
 11
-219.5018722807897
 21
110.9649209254979
 31
0.0
  0
LINE
  5
16E4
330
1F
100
AcDbEntity
  8
0
100
AcDbLine
 10
-219.5018822807897
 20
110.9649009254979
 30
0.0
 11
-220.5018822807897
 21
111.9649009254979
 31
0.0
  0
LINE
  5
16E5
330
1F
100
AcDbEntity
  8
Innenkanten
100
AcDbLine
 10
-189.3018722807897
 20
96.46492092549792
 30
0.0
 11
-189.3018722807897
 21
112.4649209254979
 31
0.0
  0
LINE
  5
16E6
330
1F
100
AcDbEntity
  8
0
100
AcDbLine
 10
-188.3018722807897
 20
115.4649209254979
 30
0.0
 11
-188.3018722807897
 21
97.46492092549793
 31
0.0
  0
LINE
  5
16E7
330
1F
100
AcDbEntity
  8
0
100
AcDbLine
 10
-188.3018722807897
 20
97.46492092549793
 30
0.0
 11
-189.3018722807897
 21
96.46492092549792
 31
0.0
  0
LINE
  5
16E8
330
1F
100
AcDbEntity
  8
0
100
AcDbLine
 10
-185.2018622807897
 20
115.4649209254979
 30
0.0
 11
-190.9018822807897
 21
115.4649209254979
 31
0.0
  0
LINE
  5
16E9
330
1F
100
AcDbEntity
  8
Innenkanten
100
AcDbLine
 10
-190.9018822807897
 20
118.2649209254978
 30
0.0
 11
-185.2018622807897
 21
118.2649209254978
 31
0.0
  0
LINE
  5
16EA
330
1F
100
AcDbEntity
  8
0
100
AcDbLine
 10
-190.9018922807897
 20
111.9649209254979
 30
0.0
 11
-191.9018922807897
 21
110.9649209254979
 31
0.0
  0
LINE
  5
16EB
330
1F
100
AcDbEntity
  8
Innenkanten
100
AcDbLine
 10
-188.3018722807897
 20
112.4649209254979
 30
0.0
 11
-190.9018822807897
 21
112.4649209254979
 31
0.0
  0
LINE
  5
16EC
330
1F
100
AcDbEntity
  8
Innenkanten
100
AcDbLine
 10
-190.9018822807897
 20
119.2649209254978
 30
0.0
 11
-185.2018622807897
 21
119.2649209254978
 31
0.0
  0
ARC
  5
16EE
330
1F
100
AcDbEntity
  8
Innenkanten
100
AcDbCircle
 10
-165.2018622807897
 20
151.9743609254979
 30
0.0
 40
8.0
100
AcDbArc
 50
89.9999820000008
 51
179.9999599999992
  0
ARC
  5
16EF
330
1F
100
AcDbEntity
  8
Innenkanten
100
AcDbCircle
 10
-165.2018622807897
 20
232.9743809254979
 30
0.0
 40
8.0
100
AcDbArc
 50
179.9999799999996
 51
212.0729376181956
  0
CIRCLE
  5
16F0
330
1F
100
AcDbEntity
  8
Innenkanten
100
AcDbCircle
 10
-165.0432622807896
 20
151.8157309254979
 30
0.0
 40
4.5
  0
CIRCLE
  5
16F1
330
1F
100
AcDbEntity
  8
Innenkanten
100
AcDbCircle
 10
-165.0432322807897
 20
233.1330109254979
 30
0.0
 40
4.5
  0
ARC
  5
16F2
330
1F
100
AcDbEntity
  8
Mittellinie
100
AcDbCircle
 10
-205.7018822807897
 20
192.4743809254979
 30
0.0
 40
57.499989
100
AcDbArc
 50
40.05499600000116
 51
50.01940500000158
  0
ARC
  5
16F3
330
1F
100
AcDbEntity
  8
Mittellinie
100
AcDbCircle
 10
-205.7018822807897
 20
192.4743809254979
 30
0.0
 40
57.499989
100
AcDbArc
 50
309.322019999999
 51
320.8244500000001
  0
ARC
  5
16F4
330
1F
100
AcDbEntity
  8
0
100
AcDbCircle
 10
-205.7018822807897
 20
192.4743809254979
 30
0.0
 40
39.99998499999999
100
AcDbArc
 50
300.8305400000011
 51
239.1694599999989
  0
LINE
  5
16F5
330
1F
100
AcDbEntity
  8
0
100
AcDbLine
 10
-185.2018822807897
 20
142.4743609254979
 30
0.0
 11
-160.3559922807897
 21
142.4743609254979
 31
0.0
  0
LINE
  5
16F6
330
1F
100
AcDbEntity
  8
Innenkanten
100
AcDbLine
 10
-167.2857122807897
 20
218.8652209254978
 30
0.0
 11
-164.6874322807897
 21
221.4635109254979
 31
0.0
  0
LINE
  5
16F7
330
1F
100
AcDbEntity
  8
Mittellinie
100
AcDbLine
 10
-160.6184122807897
 20
237.5578109254979
 30
0.0
 11
-168.5258722807897
 21
229.6503709254979
 31
0.0
  0
LINE
  5
16F8
330
1F
100
AcDbEntity
  8
0
100
AcDbLine
 10
-178.1888522807897
 20
234.9649209254978
 30
0.0
 11
-163.2018622807897
 21
219.9779209254979
 31
0.0
  0
LINE
  5
16F9
330
1F
100
AcDbEntity
  8
0
100
AcDbLine
 10
-178.2077722807897
 20
149.9649009254979
 30
0.0
 11
-163.2018622807897
 21
164.9707909254979
 31
0.0
  0
LINE
  5
16FA
330
1F
100
AcDbEntity
  8
Mittellinie
100
AcDbLine
 10
-161.2157322807897
 20
147.9882009254979
 30
0.0
 11
-168.9226122807897
 21
155.6950809254979
 31
0.0
  0
LINE
  5
16FB
330
1F
100
AcDbEntity
  8
Mittellinie
100
AcDbLine
 10
-269.1780522807897
 20
192.4743809254979
 30
0.0
 11
-142.4941822807897
 21
192.4743809254979
 31
0.0
  0
LINE
  5
16FC
330
1F
100
AcDbEntity
  8
0
100
AcDbLine
 10
-251.0477822807897
 20
242.4743809254979
 30
0.0
 11
-160.3559822807897
 21
242.4743809254979
 31
0.0
  0
ARC
  5
16FD
330
1F
100
AcDbEntity
  8
Innenkanten
100
AcDbCircle
 10
-115.7089022807897
 20
192.4751109254979
 30
0.0
 40
139.9929999999999
100
AcDbArc
 50
166.5763700000005
 51
193.4242199999991
  0
ARC
  5
16FE
330
1F
100
AcDbEntity
  8
0
100
AcDbCircle
 10
-205.7018822807897
 20
192.4743809254979
 30
0.0
 40
38.49998499999999
100
AcDbArc
 50
299.5713399999978
 51
240.4286100000009
  0
LINE
  5
16FF
330
1F
100
AcDbEntity
  8
0
100
AcDbLine
 10
-248.2018622807897
 20
219.9779209254979
 30
0.0
 11
-248.2019022807896
 21
164.9707809254979
 31
0.0
  0
LINE
  5
1700
330
1F
100
AcDbEntity
  8
0
100
AcDbLine
 10
-255.7018822807897
 20
237.8202609254979
 30
0.0
 11
-255.7018822807897
 21
147.1284809254979
 31
0.0
  0
CIRCLE
  5
1701
330
1F
100
AcDbEntity
  8
Innenkanten
100
AcDbCircle
 10
-220.4018822807897
 20
146.9649209254979
 30
0.0
 40
2.0
  0
LINE
  5
1702
330
1F
100
AcDbEntity
  8
Mittellinie
100
AcDbLine
 10
-217.3536022807896
 20
146.9649209254979
 30
0.0
 11
-223.0710122807897
 21
146.9649209254979
 31
0.0
  0
LINE
  5
1703
330
1F
100
AcDbEntity
  8
Innenkanten
100
AcDbLine
 10
-186.7018822807897
 20
133.0649209254979
 30
0.0
 11
-224.7018822807897
 21
133.0649209254979
 31
0.0
  0
LINE
  5
1704
330
1F
100
AcDbEntity
  8
Innenkanten
100
AcDbLine
 10
-226.2018822807897
 20
134.0649209254979
 30
0.0
 11
-185.2018622807897
 21
134.0649209254979
 31
0.0
  0
LINE
  5
1705
330
1F
100
AcDbEntity
  8
0
100
AcDbLine
 10
-224.7018822807897
 20
130.2649209254979
 30
0.0
 11
-186.6518822807897
 21
130.2649209254979
 31
0.0
  0
ARC
  5
1706
330
1F
100
AcDbEntity
  8
Innenkanten
100
AcDbCircle
 10
-246.2018822807897
 20
151.9743609254979
 30
0.0
 40
8.0
100
AcDbArc
 50
0.0
 51
89.9999820000008
  0
CIRCLE
  5
1707
330
1F
100
AcDbEntity
  8
Innenkanten
100
AcDbCircle
 10
-246.3605022807896
 20
151.8157309254979
 30
0.0
 40
4.5
  0
ARC
  5
1708
330
1F
100
AcDbEntity
  8
Mittellinie
100
AcDbCircle
 10
-205.7018822807897
 20
192.4743809254979
 30
0.0
 40
57.499989
100
AcDbArc
 50
218.2239700000002
 51
231.2814100000014
  0
LINE
  5
1709
330
1F
100
AcDbEntity
  8
0
100
AcDbLine
 10
-224.7018822807897
 20
158.5893409254979
 30
0.0
 11
-224.7018822807897
 21
130.2649209254979
 31
0.0
  0
LINE
  5
170A
330
1F
100
AcDbEntity
  8
0
100
AcDbLine
 10
-233.1959422807897
 20
149.9649509254979
 30
0.0
 11
-248.2019022807896
 21
164.9707809254979
 31
0.0
  0
LINE
  5
170B
330
1F
100
AcDbEntity
  8
Mittellinie
100
AcDbLine
 10
-242.1624522807896
 20
156.0137909254979
 30
0.0
 11
-250.4986322807897
 21
147.6775909254979
 31
0.0
  0
LINE
  5
170C
330
1F
100
AcDbEntity
  8
0
100
AcDbLine
 10
-251.0477722807897
 20
142.4743609254979
 30
0.0
 11
-226.2019022807897
 21
142.4743609254979
 31
0.0
  0
ARC
  5
170D
330
1F
100
AcDbEntity
  8
0
100
AcDbCircle
 10
-205.7018822807897
 20
192.4743809254979
 30
0.0
 40
67.50000799999999
100
AcDbArc
 50
222.2054300000004
 51
227.7945399999992
  0
CIRCLE
  5
170E
330
1F
100
AcDbEntity
  8
Innenkanten
100
AcDbCircle
 10
-234.2018622807897
 20
147.9743909254979
 30
0.0
 40
2.25
  0
LINE
  5
170F
330
1F
100
AcDbEntity
  8
Mittellinie
100
AcDbLine
 10
-237.0847822807897
 20
147.9743609254979
 30
0.0
 11
-230.7652022807896
 21
147.9743609254979
 31
0.0
  0
LINE
  5
1710
330
1F
100
AcDbEntity
  8
Innenkanten
100
AcDbLine
 10
-238.2018822807897
 20
143.9743609254979
 30
0.0
 11
-238.2018822807897
 21
151.9743609254979
 31
0.0
  0
ARC
  5
1711
330
1F
100
AcDbEntity
  8
Innenkanten
100
AcDbCircle
 10
-236.7018822807897
 20
143.9743609254979
 30
0.0
 40
1.5
100
AcDbArc
 50
179.9999799999996
 51
270.0000299999997
  0
LINE
  5
1712
330
1F
100
AcDbEntity
  8
Innenkanten
100
AcDbLine
 10
-232.9290822807897
 20
146.7016109254979
 30
0.0
 11
-235.4746822807896
 21
149.2471909254979
 31
0.0
  0
LINE
  5
1713
330
1F
100
AcDbEntity
  8
Innenkanten
100
AcDbLine
 10
-235.4746922807897
 20
146.7016009254979
 30
0.0
 11
-232.9290822807897
 21
149.2471609254979
 31
0.0
  0
LINE
  5
1714
330
1F
100
AcDbEntity
  8
Mittellinie
100
AcDbLine
 10
-234.2018822807897
 20
144.9114809254979
 30
0.0
 11
-234.2018822807897
 21
150.9995909254979
 31
0.0
  0
LINE
  5
1715
330
1F
100
AcDbEntity
  8
0
100
AcDbLine
 10
-226.2018822807897
 20
149.9649209254979
 30
0.0
 11
-233.1959422807897
 21
149.9649509254979
 31
0.0
  0
LINE
  5
1716
330
1F
100
AcDbEntity
  8
Innenkanten
100
AcDbLine
 10
-246.2018822807897
 20
159.9743609254979
 30
0.0
 11
-251.8773022807897
 21
159.9743609254979
 31
0.0
  0
ARC
  5
1717
330
1F
100
AcDbEntity
  8
Innenkanten
100
AcDbCircle
 10
-240.9360422807897
 20
162.9015009254979
 30
0.0
 40
4.5
100
AcDbArc
 50
315.0000099999988
 51
134.9999600000001
  0
CIRCLE
  5
1718
330
1F
100
AcDbEntity
  8
Innenkanten
100
AcDbCircle
 10
-240.9360422807897
 20
162.9015009254979
 30
0.0
 40
2.399999999999999
  0
ARC
  5
1719
330
1F
100
AcDbEntity
  8
Mittellinie
100
AcDbCircle
 10
-205.7018822807897
 20
192.4743809254979
 30
0.0
 40
46.0
100
AcDbArc
 50
215.7681799999993
 51
224.1878899999991
  0
LINE
  5
171A
330
1F
100
AcDbEntity
  8
Mittellinie
100
AcDbLine
 10
-238.4886222807897
 20
164.9552009254979
 30
0.0
 11
-243.4621622807897
 21
160.7818609254979
 31
0.0
  0
LINE
  5
171B
330
1F
100
AcDbEntity
  8
Innenkanten
100
AcDbLine
 10
-241.1104022807896
 20
160.9091309254979
 30
0.0
 11
-240.7617722807897
 21
164.8939209254979
 31
0.0
  0
LINE
  5
171C
330
1F
100
AcDbEntity
  8
Innenkanten
100
AcDbLine
 10
-242.9283422807896
 20
163.0758209254979
 30
0.0
 11
-238.9435922807897
 21
162.7271909254979
 31
0.0
  0
LINE
  5
171D
330
1F
100
AcDbEntity
  8
Innenkanten
100
AcDbLine
 10
-237.7540722807897
 20
159.7195109254979
 30
0.0
 11
-240.3523622807897
 21
157.1212309254979
 31
0.0
  0
LINE
  5
171E
330
1F
100
AcDbEntity
  8
Innenkanten
100
AcDbLine
 10
-244.1180622807896
 20
166.0835409254979
 30
0.0
 11
-246.7163322807897
 21
163.4852709254978
 31
0.0
  0
CIRCLE
  5
171F
330
1F
100
AcDbEntity
  8
Innenkanten
100
AcDbCircle
 10
-176.1290022807898
 20
157.2402309254979
 30
0.0
 40
2.399999999999999
  0
ARC
  5
1720
330
1F
100
AcDbEntity
  8
Mittellinie
100
AcDbCircle
 10
-205.7018822807897
 20
192.4743809254979
 30
0.0
 40
46.0
100
AcDbArc
 50
305.7681700000019
 51
314.1878600000001
  0
ARC
  5
1721
330
1F
100
AcDbEntity
  8
Innenkanten
100
AcDbCircle
 10
-176.1290022807898
 20
157.2402309254979
 30
0.0
 40
4.5
100
AcDbArc
 50
45.00000099999919
 51
224.9999700000012
  0
LINE
  5
1722
330
1F
100
AcDbEntity
  8
0
100
AcDbLine
 10
-186.7018822807897
 20
158.5893409254979
 30
0.0
 11
-186.7018822807897
 21
130.2649209254979
 31
0.0
  0
LINE
  5
1723
330
1F
100
AcDbEntity
  8
Mittellinie
100
AcDbLine
 10
-178.1826522807897
 20
159.6876509254979
 30
0.0
 11
-174.0093122807896
 21
154.7141109254979
 31
0.0
  0
LINE
  5
1724
330
1F
100
AcDbEntity
  8
Innenkanten
100
AcDbLine
 10
-176.3033122807897
 20
155.2479209254979
 30
0.0
 11
-175.9546722807897
 21
159.2326809254979
 31
0.0
  0
LINE
  5
1725
330
1F
100
AcDbEntity
  8
Mittellinie
100
AcDbLine
 10
-194.2966122807897
 20
146.9649209254979
 30
0.0
 11
-187.7220722807896
 21
146.9649209254979
 31
0.0
  0
LINE
  5
1726
330
1F
100
AcDbEntity
  8
Innenkanten
100
AcDbLine
 10
-190.9018822807897
 20
127.2649209254979
 30
0.0
 11
-220.5018722807897
 21
127.2649209254979
 31
0.0
  0
LINE
  5
1727
330
1F
100
AcDbEntity
  8
Mittellinie
100
AcDbLine
 10
-220.4018822807897
 20
143.6278109254979
 30
0.0
 11
-220.4018822807897
 21
149.8903509254979
 31
0.0
  0
LINE
  5
1728
330
1F
100
AcDbEntity
  8
0
100
AcDbLine
 10
-178.2077722807897
 20
149.9649009254979
 30
0.0
 11
-185.2018622807897
 21
149.9649209254979
 31
0.0
  0
CIRCLE
  5
1729
330
1F
100
AcDbEntity
  8
Innenkanten
100
AcDbCircle
 10
-191.0018722807897
 20
146.9649209254979
 30
0.0
 40
2.0
  0
LINE
  5
172A
330
1F
100
AcDbEntity
  8
Mittellinie
100
AcDbLine
 10
-191.0018722807897
 20
144.1148809254979
 30
0.0
 11
-191.0018722807897
 21
150.0827009254979
 31
0.0
  0
CIRCLE
  5
172B
330
1F
100
AcDbEntity
  8
Innenkanten
100
AcDbCircle
 10
-177.2018522807897
 20
147.9743909254979
 30
0.0
 40
2.25
  0
LINE
  5
172C
330
1F
100
AcDbEntity
  8
Innenkanten
100
AcDbLine
 10
-173.2018622807897
 20
151.9743609254979
 30
0.0
 11
-173.2018622807897
 21
143.9743609254979
 31
0.0
  0
LINE
  5
172D
330
1F
100
AcDbEntity
  8
Innenkanten
100
AcDbLine
 10
-178.4746622807897
 20
146.7015809254979
 30
0.0
 11
-175.9291122807896
 21
149.2471309254979
 31
0.0
  0
LINE
  5
172E
330
1F
100
AcDbEntity
  8
Innenkanten
100
AcDbLine
 10
-178.4746522807897
 20
149.2471709254979
 30
0.0
 11
-175.9290722807896
 21
146.7016009254979
 31
0.0
  0
LINE
  5
172F
330
1F
100
AcDbEntity
  8
Mittellinie
100
AcDbLine
 10
-177.2018622807897
 20
146.1743609254979
 30
0.0
 11
-177.2018622807897
 21
150.5582409254978
 31
0.0
  0
ARC
  5
1730
330
1F
100
AcDbEntity
  8
Innenkanten
100
AcDbCircle
 10
-174.7018622807897
 20
143.9743609254979
 30
0.0
 40
1.5
100
AcDbArc
 50
270.0000199999987
 51
0.0
  0
LINE
  5
1731
330
1F
100
AcDbEntity
  8
Mittellinie
100
AcDbLine
 10
-179.7081722807897
 20
147.9743609254979
 30
0.0
 11
-174.9789222807897
 21
147.9743609254979
 31
0.0
  0
LINE
  5
1732
330
1F
100
AcDbEntity
  8
Innenkanten
100
AcDbLine
 10
-179.3110122807897
 20
154.0582309254979
 30
0.0
 11
-176.7127322807897
 21
151.4599409254979
 31
0.0
  0
LINE
  5
1733
330
1F
100
AcDbEntity
  8
Innenkanten
100
AcDbLine
 10
-174.1366522807897
 20
157.0659209254979
 30
0.0
 11
-178.1214222807897
 21
157.4145309254979
 31
0.0
  0
LINE
  5
1734
330
1F
100
AcDbEntity
  8
Innenkanten
100
AcDbLine
 10
-172.9470322807896
 20
160.4222109254979
 30
0.0
 11
-170.3487522807897
 21
157.8239109254979
 31
0.0
  0
LINE
  5
1735
330
1F
100
AcDbEntity
  8
0
100
AcDbLine
 10
-178.1888522807897
 20
234.9649209254978
 30
0.0
 11
-233.2148822807897
 21
234.9649209254978
 31
0.0
  0
CIRCLE
  5
1736
330
1F
100
AcDbEntity
  8
Innenkanten
100
AcDbCircle
 10
-246.3604822807897
 20
233.1330409254979
 30
0.0
 40
4.5
  0
ARC
  5
1737
330
1F
100
AcDbEntity
  8
Mittellinie
100
AcDbCircle
 10
-205.7018822807897
 20
192.4743809254979
 30
0.0
 40
57.499989
100
AcDbArc
 50
129.0540200000001
 51
140.9744400000005
  0
LINE
  5
1738
330
1F
100
AcDbEntity
  8
Innenkanten
100
AcDbLine
 10
-246.2018822807897
 20
224.9743809254979
 30
0.0
 11
-251.8773022807897
 21
224.9743809254979
 31
0.0
  0
LINE
  5
1739
330
1F
100
AcDbEntity
  8
Mittellinie
100
AcDbLine
 10
-242.3088422807897
 20
229.0814009254979
 30
0.0
 11
-250.4830422807897
 21
237.2555409254979
 31
0.0
  0
LINE
  5
173A
330
1F
100
AcDbEntity
  8
0
100
AcDbLine
 10
-251.8773022807897
 20
224.9743809254979
 30
0.0
 11
-246.2018822807897
 21
224.9743809254979
 31
0.0
  0
ARC
  5
173B
330
1F
100
AcDbEntity
  8
0
100
AcDbCircle
 10
-205.7018822807897
 20
192.4743809254979
 30
0.0
 40
67.50000799999999
100
AcDbArc
 50
132.2054700000002
 51
137.7945599999996
  0
ARC
  5
173C
330
1F
100
AcDbEntity
  8
Innenkanten
100
AcDbCircle
 10
-246.2018822807897
 20
232.9743809254979
 30
0.0
 40
8.0
100
AcDbArc
 50
270.0000199999987
 51
301.3994953318828
  0
LINE
  5
173D
330
1F
100
AcDbEntity
  8
Innenkanten
100
AcDbLine
 10
-232.0927222807897
 20
230.8905509254979
 30
0.0
 11
-234.6909922807897
 21
233.4888109254979
 31
0.0
  0
LINE
  5
173E
330
1F
100
AcDbEntity
  8
0
100
AcDbLine
 10
-233.2148822807897
 20
234.9649209254978
 30
0.0
 11
-248.2018822807897
 21
219.9779209254979
 31
0.0
  0
CIRCLE
  5
173F
330
1F
100
AcDbEntity
  8
Innenkanten
100
AcDbCircle
 10
-235.2747622807897
 20
227.7085409254979
 30
0.0
 40
2.399999999999999
  0
ARC
  5
1740
330
1F
100
AcDbEntity
  8
Mittellinie
100
AcDbCircle
 10
-205.7018822807897
 20
192.4743809254979
 30
0.0
 40
46.0
100
AcDbArc
 50
125.7681700000019
 51
134.1878799999987
  0
ARC
  5
1741
330
1F
100
AcDbEntity
  8
Innenkanten
100
AcDbCircle
 10
-235.2747622807897
 20
227.7085409254979
 30
0.0
 40
4.5
100
AcDbArc
 50
225.0000099999999
 51
44.99996399999917
  0
LINE
  5
1742
330
1F
100
AcDbEntity
  8
Mittellinie
100
AcDbLine
 10
-233.2210822807897
 20
225.2611209254979
 30
0.0
 11
-237.3944222807897
 21
230.2346609254979
 31
0.0
  0
LINE
  5
1743
330
1F
100
AcDbEntity
  8
Innenkanten
100
AcDbLine
 10
-237.2671322807897
 20
227.8828909254979
 30
0.0
 11
-233.2823522807897
 21
227.5342809254979
 31
0.0
  0
LINE
  5
1744
330
1F
100
AcDbEntity
  8
Innenkanten
100
AcDbLine
 10
-238.4567522807897
 20
224.5265609254979
 30
0.0
 11
-241.0550322807897
 21
227.1248609254979
 31
0.0
  0
LINE
  5
1745
330
1F
100
AcDbEntity
  8
Innenkanten
100
AcDbLine
 10
-235.1004722807897
 20
229.7008509254979
 30
0.0
 11
-235.4491022807897
 21
225.7161109254979
 31
0.0
  0
CIRCLE
  5
1746
330
1F
100
AcDbEntity
  8
Innenkanten
100
AcDbCircle
 10
-234.2018822807897
 20
236.9743809254979
 30
0.0
 40
2.25
  0
LINE
  5
1747
330
1F
100
AcDbEntity
  8
Mittellinie
100
AcDbLine
 10
-237.0847822807897
 20
236.9743809254979
 30
0.0
 11
-230.7652022807896
 21
236.9743809254979
 31
0.0
  0
LINE
  5
1748
330
1F
100
AcDbEntity
  8
Innenkanten
100
AcDbLine
 10
-238.2018822807897
 20
232.9743809254979
 30
0.0
 11
-238.2018822807897
 21
240.9743809254979
 31
0.0
  0
LINE
  5
1749
330
1F
100
AcDbEntity
  8
0
100
AcDbLine
 10
-238.2018822807897
 20
232.9743809254979
 30
0.0
 11
-238.2018822807897
 21
240.9743809254979
 31
0.0
  0
ARC
  5
174A
330
1F
100
AcDbEntity
  8
Innenkanten
100
AcDbCircle
 10
-236.7018822807897
 20
240.9743809254979
 30
0.0
 40
1.5
100
AcDbArc
 50
89.9999820000008
 51
179.9999599999992
  0
LINE
  5
174B
330
1F
100
AcDbEntity
  8
Mittellinie
100
AcDbLine
 10
-234.2018822807897
 20
239.7584109254979
 30
0.0
 11
-234.2018822807897
 21
234.7584109254979
 31
0.0
  0
LINE
  5
174C
330
1F
100
AcDbEntity
  8
Innenkanten
100
AcDbLine
 10
-232.9290822807897
 20
235.7015809254979
 30
0.0
 11
-235.4746822807896
 21
238.2471409254979
 31
0.0
  0
LINE
  5
174D
330
1F
100
AcDbEntity
  8
Innenkanten
100
AcDbLine
 10
-235.4746822807896
 20
235.7015809254979
 30
0.0
 11
-232.9291022807897
 21
238.2471409254979
 31
0.0
  0
ARC
  5
174E
330
1F
100
AcDbEntity
  8
Innenkanten
100
AcDbCircle
 10
-170.4677322807897
 20
222.0472509254979
 30
0.0
 40
4.5
100
AcDbArc
 50
135.0
 51
314.9999600000001
  0
CIRCLE
  5
174F
330
1F
100
AcDbEntity
  8
Innenkanten
100
AcDbCircle
 10
-170.4677322807897
 20
222.0472509254979
 30
0.0
 40
2.399999999999999
  0
ARC
  5
1750
330
1F
100
AcDbEntity
  8
Mittellinie
100
AcDbCircle
 10
-205.7018822807897
 20
192.4743809254979
 30
0.0
 40
46.0
100
AcDbArc
 50
35.76817099999967
 51
44.18788199999997
  0
LINE
  5
1751
330
1F
100
AcDbEntity
  8
Mittellinie
100
AcDbLine
 10
-172.9151522807897
 20
219.9936009254979
 30
0.0
 11
-167.9416122807897
 21
224.1669409254979
 31
0.0
  0
LINE
  5
1752
330
1F
100
AcDbEntity
  8
Innenkanten
100
AcDbLine
 10
-170.2934022807897
 20
224.0396209254979
 30
0.0
 11
-170.6420222807897
 21
220.0548509254979
 31
0.0
  0
LINE
  5
1753
330
1F
100
AcDbEntity
  8
Innenkanten
100
AcDbLine
 10
-168.4754122807897
 20
221.8729709254978
 30
0.0
 11
-172.4601722807897
 21
222.2216009254978
 31
0.0
  0
LINE
  5
1754
330
1F
100
AcDbEntity
  8
Innenkanten
100
AcDbLine
 10
-173.6496922807897
 20
225.2292009254979
 30
0.0
 11
-171.0514122807897
 21
227.8275009254979
 31
0.0
  0
CIRCLE
  5
1755
330
1F
100
AcDbEntity
  8
Innenkanten
100
AcDbCircle
 10
-177.2018522807897
 20
236.9743809254979
 30
0.0
 40
2.0
  0
LINE
  5
1756
330
1F
100
AcDbEntity
  8
Mittellinie
100
AcDbLine
 10
-177.2018622807897
 20
233.3240509254979
 30
0.0
 11
-177.2018622807897
 21
239.7584109254979
 31
0.0
  0
LINE
  5
1757
330
1F
100
AcDbEntity
  8
Innenkanten
100
AcDbLine
 10
-173.2018622807897
 20
232.9743809254979
 30
0.0
 11
-173.2018622807897
 21
240.9743809254979
 31
0.0
  0
LINE
  5
1758
330
1F
100
AcDbEntity
  8
Innenkanten
100
AcDbLine
 10
-175.9290422807897
 20
235.7015809254979
 30
0.0
 11
-178.4746222807897
 21
238.2471409254979
 31
0.0
  0
LINE
  5
1759
330
1F
100
AcDbEntity
  8
Innenkanten
100
AcDbLine
 10
-178.4746522807897
 20
235.7016109254979
 30
0.0
 11
-175.9290722807896
 21
238.2471409254979
 31
0.0
  0
LINE
  5
175A
330
1F
100
AcDbEntity
  8
Mittellinie
100
AcDbLine
 10
-179.9447822807896
 20
236.9743809254979
 30
0.0
 11
-174.6074622807897
 21
236.9743809254979
 31
0.0
  0
ARC
  5
175B
330
1F
100
AcDbEntity
  8
Innenkanten
100
AcDbCircle
 10
-174.7018622807897
 20
240.9743809254979
 30
0.0
 40
1.5
100
AcDbArc
 50
0.0
 51
89.9999820000008
  0
ARC
  5
175C
330
1F
100
AcDbEntity
  8
Innenkanten
100
AcDbCircle
 10
-295.6948622807897
 20
192.4751109254979
 30
0.0
 40
139.9929999999999
100
AcDbArc
 50
346.5757399999992
 51
13.42358899999995
  0
LINE
  5
175F
330
1F
100
AcDbEntity
  8
0
100
AcDbLine
 10
-163.2018622807897
 20
164.9707909254979
 30
0.0
 11
-163.2018622807897
 21
219.9779209254979
 31
0.0
  0
LINE
  5
1760
330
1F
100
AcDbEntity
  8
0
100
AcDbLine
 10
-155.7018622807897
 20
147.1284809254979
 30
0.0
 11
-155.7018622807897
 21
237.8202609254979
 31
0.0
  0
ARC
  5
1761
330
1F
100
AcDbEntity
  8
0
100
AcDbCircle
 10
-205.7018822807897
 20
192.4743809254979
 30
0.0
 40
67.50000799999999
100
AcDbArc
 50
312.2054299999981
 51
317.7945699999995
  0
LINE
  5
1762
330
1F
100
AcDbEntity
  8
Innenkanten
100
AcDbLine
 10
-165.2018622807897
 20
159.9743609254979
 30
0.0
 11
-159.5264322807897
 21
159.9743609254979
 31
0.0
  0
LINE
  5
1765
330
1F
100
AcDbEntity
  8
Innenkanten
100
AcDbLine
 10
-165.2018622807897
 20
224.9743809254979
 30
0.0
 11
-159.5264322807897
 21
224.9743809254979
 31
0.0
  0
ARC
  5
1766
330
1F
100
AcDbEntity
  8
0
100
AcDbCircle
 10
-205.7018822807897
 20
192.4743809254979
 30
0.0
 40
67.50000799999999
100
AcDbArc
 50
42.20543300000082
 51
47.79454899999996
  0
LINE
  5
176A
102
{ACAD_REACTORS
330
1B78
102
}
330
1F
100
AcDbEntity
  8
Mittellinie
100
AcDbLine
 10
238.2663777192102
 20
254.5156409254979
 30
0.0
 11
238.2663777192102
 21
85.81332092549791
 31
0.0
  0
LINE
  5
176B
330
1F
100
AcDbEntity
  8
0
100
AcDbLine
 10
258.7663777192102
 20
115.4744209254979
 30
0.0
 11
258.7663777192102
 21
142.4744109254979
 31
0.0
  0
LINE
  5
176C
330
1F
100
AcDbEntity
  8
0
100
AcDbLine
 10
217.7663777192102
 20
142.4744109254979
 30
0.0
 11
217.7663777192102
 21
115.4744209254979
 31
0.0
  0
LINE
  5
1780
330
1F
100
AcDbEntity
  8
0
100
AcDbLine
 10
258.7663777192102
 20
115.4744209254979
 30
0.0
 11
217.7663777192102
 21
115.4744209254979
 31
0.0
  0
LINE
  5
1781
330
1F
100
AcDbEntity
  8
Innenkanten
100
AcDbLine
 10
258.7663777192102
 20
118.2744109254979
 30
0.0
 11
217.7663777192102
 21
118.2744109254979
 31
0.0
  0
LINE
  5
1782
330
1F
100
AcDbEntity
  8
Innenkanten
100
AcDbLine
 10
258.7663777192102
 20
119.2744109254979
 30
0.0
 11
217.7663777192102
 21
119.2744109254979
 31
0.0
  0
LINE
  5
1783
330
1F
100
AcDbEntity
  8
Innenkanten
100
AcDbLine
 10
255.6664077192102
 20
97.47442092549793
 30
0.0
 11
220.8664177192102
 21
97.47442092549793
 31
0.0
  0
LINE
  5
1784
330
1F
100
AcDbEntity
  8
Innenkanten
100
AcDbLine
 10
220.8664177192102
 20
112.4744209254979
 30
0.0
 11
255.6664077192102
 21
112.4744209254979
 31
0.0
  0
LINE
  5
1785
102
{ACAD_REACTORS
330
1BCA
102
}
330
1F
100
AcDbEntity
  8
0
100
AcDbLine
 10
254.6664077192102
 20
96.47442092549793
 30
0.0
 11
221.8664177192102
 21
96.47442092549793
 31
0.0
  0
LINE
  5
1786
330
1F
100
AcDbEntity
  8
Innenkanten
100
AcDbLine
 10
221.8664177192102
 20
96.47442092549793
 30
0.0
 11
221.8664177192102
 21
112.4744209254979
 31
0.0
  0
LINE
  5
1787
330
1F
100
AcDbEntity
  8
0
100
AcDbLine
 10
220.8664177192102
 20
97.47442092549793
 30
0.0
 11
220.8664177192102
 21
115.4744209254979
 31
0.0
  0
LINE
  5
1788
330
1F
100
AcDbEntity
  8
0
100
AcDbLine
 10
221.8664177192102
 20
96.47441092549792
 30
0.0
 11
220.8664177192102
 21
97.47441092549792
 31
0.0
  0
LINE
  5
1789
330
1F
100
AcDbEntity
  8
Innenkanten
100
AcDbLine
 10
254.6664077192102
 20
112.4744209254979
 30
0.0
 11
254.6664077192102
 21
96.47442092549793
 31
0.0
  0
LINE
  5
178A
330
1F
100
AcDbEntity
  8
0
100
AcDbLine
 10
255.6664077192102
 20
115.4744209254979
 30
0.0
 11
255.6664077192102
 21
97.47442092549793
 31
0.0
  0
LINE
  5
178B
330
1F
100
AcDbEntity
  8
0
100
AcDbLine
 10
255.6663477192102
 20
97.47441092549792
 30
0.0
 11
254.6664077192102
 21
96.47444092549793
 31
0.0
  0
CIRCLE
  5
17CE
330
1F
100
AcDbEntity
  8
Innenkanten
100
AcDbCircle
 10
278.9250077192102
 20
151.8157309254979
 30
0.0
 40
4.5
  0
CIRCLE
  5
17CF
330
1F
100
AcDbEntity
  8
Innenkanten
100
AcDbCircle
 10
278.9250677192102
 20
233.1330109254979
 30
0.0
 40
4.5
  0
ARC
  5
17D0
330
1F
100
AcDbEntity
  8
Mittellinie
100
AcDbCircle
 10
238.2663777192102
 20
192.4744109254979
 30
0.0
 40
57.5
100
AcDbArc
 50
38.72303000000035
 51
51.41240799999922
  0
ARC
  5
17D1
330
1F
100
AcDbEntity
  8
Mittellinie
100
AcDbCircle
 10
238.2663777192102
 20
192.4744109254979
 30
0.0
 40
57.5
100
AcDbArc
 50
308.7650499999999
 51
320.8394099999994
  0
CIRCLE
  5
17D2
330
1F
100
AcDbEntity
  8
Innenkanten
100
AcDbCircle
 10
238.2663777192102
 20
192.4744109254979
 30
0.0
 40
44.0
  0
CIRCLE
  5
17D3
330
1F
100
AcDbEntity
  8
Innenkanten
100
AcDbCircle
 10
238.2663777192102
 20
192.4744109254979
 30
0.0
 40
47.5
  0
LINE
  5
17D4
102
{ACAD_REACTORS
330
1BCA
102
}
330
1F
100
AcDbEntity
  8
Mittellinie
100
AcDbLine
 10
297.9909877192102
 20
192.4744109254979
 30
0.0
 11
177.8231377192103
 21
192.4744109254979
 31
0.0
  0
LINE
  5
17D5
330
1F
100
AcDbEntity
  8
Mittellinie
100
AcDbLine
 10
283.2404977192102
 20
237.4485309254978
 30
0.0
 11
274.6529777192102
 21
228.8609109254979
 31
0.0
  0
LINE
  5
17D6
102
{ACAD_REACTORS
330
1B39
102
}
330
1F
100
AcDbEntity
  8
0
100
AcDbLine
 10
283.6123277192102
 20
242.4744109254979
 30
0.0
 11
192.9204977192102
 21
242.4744109254979
 31
0.0
  0
LINE
  5
17D7
330
1F
100
AcDbEntity
  8
Mittellinie
100
AcDbLine
 10
283.0041077192102
 20
147.7365909254979
 30
0.0
 11
274.6844677192102
 21
156.0563209254979
 31
0.0
  0
LINE
  5
17D8
102
{ACAD_REACTORS
330
1B39
102
}
330
1F
100
AcDbEntity
  8
0
100
AcDbLine
 10
192.9205577192102
 20
142.4744109254979
 30
0.0
 11
283.6123277192102
 21
142.4744109254979
 31
0.0
  0
CIRCLE
  5
17D9
330
1F
100
AcDbEntity
  8
Innenkanten
100
AcDbCircle
 10
238.2663777192102
 20
192.4744109254979
 30
0.0
 40
12.0
  0
CIRCLE
  5
17DA
330
1F
100
AcDbEntity
  8
Innenkanten
100
AcDbCircle
 10
238.2663777192102
 20
192.4744109254979
 30
0.0
 40
15.0
  0
CIRCLE
  5
17DB
330
1F
100
AcDbEntity
  8
Innenkanten
100
AcDbCircle
 10
238.2663777192102
 20
192.4744109254979
 30
0.0
 40
22.5
  0
LINE
  5
17DC
102
{ACAD_REACTORS
330
1B18
102
}
330
1F
100
AcDbEntity
  8
0
100
AcDbLine
 10
188.2663777192102
 20
237.8203009254979
 30
0.0
 11
188.2663777192102
 21
147.1285209254979
 31
0.0
  0
LINE
  5
17DD
330
1F
100
AcDbEntity
  8
Innenkanten
100
AcDbLine
 10
258.7663777192102
 20
141.4744109254979
 30
0.0
 11
217.7663777192102
 21
141.4744109254979
 31
0.0
  0
CIRCLE
  5
17DE
330
1F
100
AcDbEntity
  8
Innenkanten
100
AcDbCircle
 10
197.6077477192102
 20
151.8157609254979
 30
0.0
 40
4.5
  0
ARC
  5
17DF
330
1F
100
AcDbEntity
  8
Mittellinie
100
AcDbCircle
 10
238.2663777192102
 20
192.4744109254979
 30
0.0
 40
57.5
100
AcDbArc
 50
218.8959600000004
 51
230.9043799999999
  0
ARC
  5
17E0
330
1F
100
AcDbEntity
  8
0
100
AcDbCircle
 10
238.2663777192102
 20
192.4744109254979
 30
0.0
 40
67.5
100
AcDbArc
 50
222.2054099999984
 51
227.7945299999997
  0
CIRCLE
  5
17E1
330
1F
100
AcDbEntity
  8
Innenkanten
100
AcDbCircle
 10
209.7664977192102
 20
147.9744409254978
 30
0.0
 40
4.5
  0
LINE
  5
17E2
330
1F
100
AcDbEntity
  8
Mittellinie
100
AcDbLine
 10
204.5809577192103
 20
147.9744109254979
 30
0.0
 11
214.7229177192102
 21
147.9744109254979
 31
0.0
  0
LINE
  5
17E3
330
1F
100
AcDbEntity
  8
Mittellinie
100
AcDbLine
 10
193.6558477192102
 20
147.8639009254979
 30
0.0
 11
201.7077277192102
 21
155.9157109254979
 31
0.0
  0
CIRCLE
  5
17E4
330
1F
100
AcDbEntity
  8
Innenkanten
100
AcDbCircle
 10
209.7664977192102
 20
147.9744409254978
 30
0.0
 40
2.25
  0
LINE
  5
17E5
330
1F
100
AcDbEntity
  8
Innenkanten
100
AcDbLine
 10
208.4019977192102
 20
146.6099709254979
 30
0.0
 11
211.1342977192102
 21
149.3423009254979
 31
0.0
  0
LINE
  5
17E6
330
1F
100
AcDbEntity
  8
Innenkanten
100
AcDbLine
 10
208.4013877192103
 20
149.3394609254979
 30
0.0
 11
211.1452877192102
 21
146.5956109254979
 31
0.0
  0
LINE
  5
17E7
330
1F
100
AcDbEntity
  8
Mittellinie
100
AcDbLine
 10
209.7663777192102
 20
143.0479009254979
 30
0.0
 11
209.7663777192102
 21
152.5893409254979
 31
0.0
  0
CIRCLE
  5
17E8
330
1F
100
AcDbEntity
  8
Innenkanten
100
AcDbCircle
 10
238.2663777192102
 20
157.4743809254979
 30
0.0
 40
2.1
  0
LINE
  5
17E9
330
1F
100
AcDbEntity
  8
Mittellinie
100
AcDbLine
 10
261.7063177192102
 20
147.9744109254979
 30
0.0
 11
271.8945577192103
 21
147.9744109254979
 31
0.0
  0
CIRCLE
  5
17EA
330
1F
100
AcDbEntity
  8
Innenkanten
100
AcDbCircle
 10
266.7663777192102
 20
147.9744109254979
 30
0.0
 40
4.5
  0
CIRCLE
  5
17EB
330
1F
100
AcDbEntity
  8
Innenkanten
100
AcDbCircle
 10
266.7663777192102
 20
147.9744109254979
 30
0.0
 40
2.25
  0
LINE
  5
17EC
330
1F
100
AcDbEntity
  8
Mittellinie
100
AcDbLine
 10
266.7663777192102
 20
142.9157509254979
 30
0.0
 11
266.7663777192102
 21
153.1040609254979
 31
0.0
  0
ARC
  5
17ED
330
1F
100
AcDbEntity
  8
Mittellinie
100
AcDbCircle
 10
238.2663777192102
 20
192.4744109254979
 30
0.0
 40
35.000038
100
AcDbArc
 50
261.2280100000008
 51
278.7020099999975
  0
LINE
  5
17EE
330
1F
100
AcDbEntity
  8
Innenkanten
100
AcDbLine
 10
236.9936777192102
 20
156.2015809254979
 30
0.0
 11
239.5392077192102
 21
158.7471709254979
 31
0.0
  0
LINE
  5
17EF
330
1F
100
AcDbEntity
  8
Innenkanten
100
AcDbLine
 10
236.9937377192102
 20
158.7472709254979
 30
0.0
 11
239.5392677192102
 21
156.2016709254978
 31
0.0
  0
CIRCLE
  5
17F0
330
1F
100
AcDbEntity
  8
0
100
AcDbCircle
 10
207.9555277192101
 20
209.9744709254979
 30
0.0
 40
2.1
  0
ARC
  5
17F1
330
1F
100
AcDbEntity
  8
Mittellinie
100
AcDbCircle
 10
238.2663777192102
 20
192.4744109254979
 30
0.0
 40
35.000038
100
AcDbArc
 50
141.0030399999993
 51
158.8820799999992
  0
LINE
  5
17F2
330
1F
100
AcDbEntity
  8
0
100
AcDbLine
 10
209.6942977192102
 20
210.4403209254979
 30
0.0
 11
206.2168777192101
 21
209.5085909254978
 31
0.0
  0
LINE
  5
17F3
330
1F
100
AcDbEntity
  8
Mittellinie
100
AcDbLine
 10
203.5594677192102
 20
212.5124309254979
 30
0.0
 11
212.1056177192102
 21
207.5783809254979
 31
0.0
  0
LINE
  5
17F4
330
1F
100
AcDbEntity
  8
0
100
AcDbLine
 10
208.4214077192102
 20
208.2357009254979
 30
0.0
 11
207.4896477192102
 21
211.7130609254979
 31
0.0
  0
ARC
  5
17F5
330
1F
100
AcDbEntity
  8
0
100
AcDbCircle
 10
238.2663777192102
 20
192.4744109254979
 30
0.0
 40
67.5
100
AcDbArc
 50
132.2054600000007
 51
137.7945699999995
  0
CIRCLE
  5
17F6
330
1F
100
AcDbEntity
  8
Innenkanten
100
AcDbCircle
 10
197.6077477192102
 20
233.1330709254979
 30
0.0
 40
4.5
  0
ARC
  5
17F7
102
{ACAD_REACTORS
330
1B93
102
}
330
1F
100
AcDbEntity
  8
Mittellinie
100
AcDbCircle
 10
238.2663777192102
 20
192.4744109254979
 30
0.0
 40
57.5
100
AcDbArc
 50
128.9630000000004
 51
140.622450000001
  0
LINE
  5
17F8
102
{ACAD_REACTORS
330
1B78
102
}
330
1F
100
AcDbEntity
  8
Mittellinie
100
AcDbLine
 10
193.5981677192103
 20
237.1426509254979
 30
0.0
 11
201.6501077192102
 21
229.0908009254979
 31
0.0
  0
CIRCLE
  5
17F9
330
1F
100
AcDbEntity
  8
Innenkanten
100
AcDbCircle
 10
209.7665577192102
 20
236.9745909254979
 30
0.0
 40
4.5
  0
LINE
  5
17FA
330
1F
100
AcDbEntity
  8
Mittellinie
100
AcDbLine
 10
204.5765577192103
 20
236.9744109254979
 30
0.0
 11
215.0938977192103
 21
236.9744109254979
 31
0.0
  0
CIRCLE
  5
17FB
330
1F
100
AcDbEntity
  8
Innenkanten
100
AcDbCircle
 10
209.7665577192102
 20
236.9745909254979
 30
0.0
 40
2.25
  0
LINE
  5
17FC
330
1F
100
AcDbEntity
  8
Mittellinie
100
AcDbLine
 10
209.7663777192102
 20
242.0394409254979
 30
0.0
 11
209.7663777192102
 21
232.0240909254979
 31
0.0
  0
LINE
  5
17FD
330
1F
100
AcDbEntity
  8
0
100
AcDbLine
 10
211.1094577192103
 20
235.6317309254979
 30
0.0
 11
208.4370977192102
 21
238.3040309254979
 31
0.0
  0
LINE
  5
17FE
330
1F
100
AcDbEntity
  8
Innenkanten
100
AcDbLine
 10
208.4433177192102
 20
235.6513209254978
 30
0.0
 11
211.1048177192102
 21
238.3128209254979
 31
0.0
  0
CIRCLE
  5
17FF
330
1F
100
AcDbEntity
  8
Innenkanten
100
AcDbCircle
 10
268.5772877192103
 20
209.9742909254979
 30
0.0
 40
2.1
  0
ARC
  5
1800
330
1F
100
AcDbEntity
  8
Mittellinie
100
AcDbCircle
 10
238.2663777192102
 20
192.4744109254979
 30
0.0
 40
35.000038
100
AcDbArc
 50
21.22800099999931
 51
38.70202399999939
  0
LINE
  5
1801
330
1F
100
AcDbEntity
  8
Innenkanten
100
AcDbLine
 10
268.1114677192102
 20
208.2357609254979
 30
0.0
 11
269.0432377192103
 21
211.7131209254978
 31
0.0
  0
LINE
  5
1802
330
1F
100
AcDbEntity
  8
Mittellinie
100
AcDbLine
 10
264.2048577192102
 20
207.4499609254979
 30
0.0
 11
273.2258477192102
 21
212.6583409254979
 31
0.0
  0
LINE
  5
1803
330
1F
100
AcDbEntity
  8
Innenkanten
100
AcDbLine
 10
270.3159377192103
 20
209.5084409254979
 30
0.0
 11
266.8385877192103
 21
210.4401709254978
 31
0.0
  0
LINE
  5
1804
330
1F
100
AcDbEntity
  8
Mittellinie
100
AcDbLine
 10
261.6408877192102
 20
236.9744109254979
 30
0.0
 11
272.0882777192102
 21
236.9744109254979
 31
0.0
  0
CIRCLE
  5
1805
330
1F
100
AcDbEntity
  8
Innenkanten
100
AcDbCircle
 10
266.7664377192103
 20
236.9744409254979
 30
0.0
 40
2.25
  0
CIRCLE
  5
1806
330
1F
100
AcDbEntity
  8
Innenkanten
100
AcDbCircle
 10
266.7664377192103
 20
236.9744409254979
 30
0.0
 40
4.5
  0
LINE
  5
1807
330
1F
100
AcDbEntity
  8
Mittellinie
100
AcDbLine
 10
266.7663777192102
 20
232.1399109254979
 30
0.0
 11
266.7663777192102
 21
241.7790009254979
 31
0.0
  0
LINE
  5
1808
330
1F
100
AcDbEntity
  8
Innenkanten
100
AcDbLine
 10
268.1236777192102
 20
235.6171409254979
 30
0.0
 11
265.4131077192102
 21
238.3277409254979
 31
0.0
  0
LINE
  5
1809
330
1F
100
AcDbEntity
  8
Innenkanten
100
AcDbLine
 10
268.1197777192102
 20
238.3278009254979
 30
0.0
 11
265.4091977192102
 21
235.6171709254979
 31
0.0
  0
LINE
  5
180A
330
1F
100
AcDbEntity
  8
0
100
AcDbLine
 10
288.2663777192102
 20
147.1285209254979
 30
0.0
 11
288.2663777192102
 21
237.8203009254979
 31
0.0
  0
ARC
  5
180B
330
1F
100
AcDbEntity
  8
0
100
AcDbCircle
 10
238.2663777192102
 20
192.4744109254979
 30
0.0
 40
67.5
100
AcDbArc
 50
312.2054499999999
 51
317.7945599999997
  0
ARC
  5
180C
102
{ACAD_REACTORS
330
1B18
330
1BA8
102
}
330
1F
100
AcDbEntity
  8
0
100
AcDbCircle
 10
238.2663777192102
 20
192.4744109254979
 30
0.0
 40
67.5
100
AcDbArc
 50
42.20544299999942
 51
47.79455599999933
  0
ARC
  5
1812
330
1F
100
AcDbEntity
  8
Innenkanten
100
AcDbCircle
 10
-246.2018822807897
 20
232.9743809254979
 30
0.0
 40
8.0
100
AcDbArc
 50
328.6005046681172
 51
0.0
  0
ARC
  5
1814
330
1F
100
AcDbEntity
  8
Innenkanten
100
AcDbCircle
 10
-165.2018622807897
 20
232.9743809254979
 30
0.0
 40
8.0
100
AcDbArc
 50
238.6005933021318
 51
270.0000299999997
  0
ARC
  5
195E
330
1F
100
AcDbEntity
  8
0
100
AcDbCircle
 10
440.0587514442029
 20
153.0587171507332
 30
0.0
 40
60.0
100
AcDbArc
 50
326.2607200000019
 51
348.8819800000003
  0
LINE
  5
1960
330
1F
100
AcDbEntity
  8
0
100
AcDbLine
 10
444.1445714442029
 20
142.4892271507332
 30
0.0
 11
444.1445714442029
 21
119.2892271507332
 31
0.0
  0
LINE
  5
196D
330
1F
100
AcDbEntity
  8
Innenkanten
100
AcDbLine
 10
449.2445514442029
 20
97.48923715073326
 30
0.0
 11
484.044561444203
 21
97.48923715073326
 31
0.0
  0
LINE
  5
196E
330
1F
100
AcDbEntity
  8
Innenkanten
100
AcDbLine
 10
487.1445714442029
 20
118.2892271507332
 30
0.0
 11
446.1445714442029
 21
118.2892271507332
 31
0.0
  0
LINE
  5
196F
330
1F
100
AcDbEntity
  8
Innenkanten
100
AcDbLine
 10
484.044561444203
 20
112.4892371507332
 30
0.0
 11
449.2445514442029
 21
112.4892371507332
 31
0.0
  0
LINE
  5
1970
330
1F
100
AcDbEntity
  8
0
100
AcDbLine
 10
489.1215914442029
 20
119.2892271507332
 30
0.0
 11
444.1445714442029
 21
119.2892271507332
 31
0.0
  0
LINE
  5
1971
330
1F
100
AcDbEntity
  8
0
100
AcDbLine
 10
450.2445514442029
 20
96.48923715073326
 30
0.0
 11
483.0445614442029
 21
96.48923715073326
 31
0.0
  0
LINE
  5
1972
330
1F
100
AcDbEntity
  8
0
100
AcDbLine
 10
446.1445714442029
 20
115.4892371507332
 30
0.0
 11
487.1445714442029
 21
115.4892371507332
 31
0.0
  0
LINE
  5
1977
330
1F
100
AcDbEntity
  8
Innenkanten
100
AcDbLine
 10
450.2445514442029
 20
112.4892371507332
 30
0.0
 11
450.2445514442029
 21
96.48923715073326
 31
0.0
  0
LINE
  5
1978
102
{ACAD_REACTORS
330
1AD5
102
}
330
1F
100
AcDbEntity
  8
Mittellinie
100
AcDbLine
 10
466.6445714442029
 20
89.83066715073325
 30
0.0
 11
466.6445714442029
 21
126.6236871507333
 31
0.0
  0
LINE
  5
1979
330
1F
100
AcDbEntity
  8
0
100
AcDbLine
 10
449.2445514442029
 20
115.4892371507332
 30
0.0
 11
449.2445514442029
 21
97.48923715073326
 31
0.0
  0
LINE
  5
197A
330
1F
100
AcDbEntity
  8
0
100
AcDbLine
 10
450.2445214442029
 20
96.48925715073326
 30
0.0
 11
449.2445214442029
 21
97.48925715073326
 31
0.0
  0
LINE
  5
197B
330
1F
100
AcDbEntity
  8
0
100
AcDbLine
 10
446.1445714442029
 20
119.2892271507332
 30
0.0
 11
446.1445714442029
 21
115.4892371507332
 31
0.0
  0
LINE
  5
197C
330
1F
100
AcDbEntity
  8
Innenkanten
100
AcDbLine
 10
483.0445614442029
 20
96.48923715073326
 30
0.0
 11
483.0445614442029
 21
112.4892371507332
 31
0.0
  0
LINE
  5
197D
330
1F
100
AcDbEntity
  8
0
100
AcDbLine
 10
484.044561444203
 20
97.48923715073326
 30
0.0
 11
484.044561444203
 21
115.4892371507332
 31
0.0
  0
LINE
  5
197E
330
1F
100
AcDbEntity
  8
0
100
AcDbLine
 10
484.044561444203
 20
97.48923715073326
 30
0.0
 11
483.0445614442029
 21
96.48923715073326
 31
0.0
  0
LINE
  5
197F
330
1F
100
AcDbEntity
  8
0
100
AcDbLine
 10
487.1445714442029
 20
115.4892371507332
 30
0.0
 11
487.1445714442029
 21
119.2892271507332
 31
0.0
  0
ARC
  5
1980
330
1F
100
AcDbEntity
  8
0
100
AcDbCircle
 10
489.1215914442029
 20
120.2892271507332
 30
0.0
 40
1.0
100
AcDbArc
 50
270.0000199999987
 51
326.1714800000008
  0
LINE
  5
1983
102
{ACAD_REACTORS
330
22AE
102
}
330
1F
100
AcDbEntity
  8
Mittellinie
100
AcDbLine
 10
593.7777514442029
 20
192.4892271507332
 30
0.0
 11
344.3560903152924
 21
192.4892271507332
 31
0.0
  0
LINE
  5
1986
330
1F
100
AcDbEntity
  8
Innenkanten
100
AcDbLine
 10
537.6445714442029
 20
237.8351171507332
 30
0.0
 11
527.6445714442029
 21
237.8351171507332
 31
0.0
  0
LINE
  5
1987
330
1F
100
AcDbEntity
  8
Innenkanten
100
AcDbLine
 10
537.6445714442029
 20
147.1433371507332
 30
0.0
 11
527.6445714442029
 21
147.1433371507332
 31
0.0
  0
LINE
  5
1988
102
{ACAD_REACTORS
330
19E8
330
1A0D
330
1A51
330
1A72
102
}
330
1F
100
AcDbEntity
  8
0
100
AcDbLine
 10
537.6445714442029
 20
242.4892271507332
 30
0.0
 11
392.6445716012825
 21
242.4891971507332
 31
0.0
  0
LINE
  5
1989
102
{ACAD_REACTORS
330
1AD5
102
}
330
1F
100
AcDbEntity
  8
0
100
AcDbLine
 10
392.6445717060023
 20
142.4892271507333
 30
0.0
 11
537.6445714442029
 21
142.4892271507332
 31
0.0
  0
LINE
  5
198A
102
{ACAD_REACTORS
330
19E8
102
}
330
1F
100
AcDbEntity
  8
Innenkanten
100
AcDbLine
 10
527.6445714442029
 20
142.4892271507332
 30
0.0
 11
527.6445714442029
 21
242.4892271507332
 31
0.0
  0
LINE
  5
198B
330
1F
100
AcDbEntity
  8
Innenkanten
100
AcDbLine
 10
519.6445714442029
 20
242.4892271507332
 30
0.0
 11
519.6445714442029
 21
142.4892271507332
 31
0.0
  0
LINE
  5
198F
330
1F
100
AcDbEntity
  8
Innenkanten
100
AcDbLine
 10
498.9326614442029
 20
141.4888771507332
 30
0.0
 11
444.1445714442029
 21
141.4888771507332
 31
0.0
  0
LINE
  5
1990
330
1F
100
AcDbEntity
  8
Innenkanten
100
AcDbLine
 10
443.6445714442029
 20
222.0892271507332
 30
0.0
 11
519.6445714442029
 21
222.0892271507332
 31
0.0
  0
LINE
  5
1991
330
1F
100
AcDbEntity
  8
Innenkanten
100
AcDbLine
 10
443.6445714442029
 20
220.0892271507332
 30
0.0
 11
519.6445714442029
 21
220.0892271507332
 31
0.0
  0
LINE
  5
1992
330
1F
100
AcDbEntity
  8
Innenkanten
100
AcDbLine
 10
443.6445714442029
 20
217.7892471507332
 30
0.0
 11
519.6445714442029
 21
217.7892471507332
 31
0.0
  0
LINE
  5
1993
330
1F
100
AcDbEntity
  8
Innenkanten
100
AcDbLine
 10
443.6445714442029
 20
215.7892471507332
 30
0.0
 11
519.6445714442029
 21
215.7892471507332
 31
0.0
  0
LINE
  5
1994
330
1F
100
AcDbEntity
  8
Innenkanten
100
AcDbLine
 10
443.6445714442029
 20
213.4892271507332
 30
0.0
 11
519.6445714442029
 21
213.4892271507332
 31
0.0
  0
LINE
  5
1995
330
1F
100
AcDbEntity
  8
Innenkanten
100
AcDbLine
 10
443.6445714442029
 20
211.4892271507332
 30
0.0
 11
519.6445714442029
 21
211.4892271507332
 31
0.0
  0
LINE
  5
1996
330
1F
100
AcDbEntity
  8
Innenkanten
100
AcDbLine
 10
443.6445714442029
 20
173.4892271507333
 30
0.0
 11
519.6445714442029
 21
173.4892271507333
 31
0.0
  0
LINE
  5
1997
330
1F
100
AcDbEntity
  8
Innenkanten
100
AcDbLine
 10
443.6445714442029
 20
171.4892271507333
 30
0.0
 11
519.6445714442029
 21
171.4892271507333
 31
0.0
  0
LINE
  5
1998
330
1F
100
AcDbEntity
  8
Innenkanten
100
AcDbLine
 10
443.6445714442029
 20
169.1892371507332
 30
0.0
 11
519.6445714442029
 21
169.1892371507332
 31
0.0
  0
LINE
  5
1999
330
1F
100
AcDbEntity
  8
Innenkanten
100
AcDbLine
 10
443.6445714442029
 20
167.1892371507332
 30
0.0
 11
519.6445714442029
 21
167.1892371507332
 31
0.0
  0
LINE
  5
199A
330
1F
100
AcDbEntity
  8
Innenkanten
100
AcDbLine
 10
443.6445714442029
 20
164.8892371507332
 30
0.0
 11
519.6445714442029
 21
164.8892371507332
 31
0.0
  0
LINE
  5
199B
330
1F
100
AcDbEntity
  8
Innenkanten
100
AcDbLine
 10
443.6445714442029
 20
162.8892371507332
 30
0.0
 11
519.6445714442029
 21
162.8892371507332
 31
0.0
  0
LINE
  5
199C
330
1F
100
AcDbEntity
  8
0
100
AcDbLine
 10
392.1445714442029
 20
224.9892271507332
 30
0.0
 11
527.6445714442029
 21
224.9892271507332
 31
0.0
  0
LINE
  5
199D
330
1F
100
AcDbEntity
  8
0
100
AcDbLine
 10
527.6445714442029
 20
159.9892271507333
 30
0.0
 11
392.1445714442029
 21
159.9892271507333
 31
0.0
  0
LINE
  5
19B9
330
1F
100
AcDbEntity
  8
0
100
AcDbLine
 10
498.9326914442029
 20
142.4892271507332
 30
0.0
 11
498.9326914442029
 21
141.4888771507332
 31
0.0
  0
LINE
  5
19BC
102
{ACAD_REACTORS
330
1A0D
330
1AB4
102
}
330
1F
100
AcDbEntity
  8
0
100
AcDbLine
 10
540.6445714442029
 20
144.9892271507333
 30
0.0
 11
540.6445714442029
 21
239.9892271507332
 31
0.0
  0
LINE
  5
19BD
330
1F
100
AcDbEntity
  8
0
100
AcDbLine
 10
537.6445714442029
 20
242.4892271507332
 30
0.0
 11
537.6445714442029
 21
142.4892271507332
 31
0.0
  0
LINE
  5
19BE
102
{ACAD_REACTORS
330
1A30
330
1A93
102
}
330
1F
100
AcDbEntity
  8
0
100
AcDbLine
 10
582.6445714442029
 20
204.4892271507332
 30
0.0
 11
582.6445714442029
 21
180.4892271507333
 31
0.0
  0
LINE
  5
19BF
102
{ACAD_REACTORS
330
1A30
102
}
330
1F
100
AcDbEntity
  8
0
100
AcDbLine
 10
542.6445714442029
 20
207.4892271507332
 30
0.0
 11
542.6445714442029
 21
177.4892271507333
 31
0.0
  0
LINE
  5
19C0
330
1F
100
AcDbEntity
  8
0
100
AcDbLine
 10
542.6445714442029
 20
180.4892271507333
 30
0.0
 11
582.6445714442029
 21
180.4892271507333
 31
0.0
  0
LINE
  5
19C1
330
1F
100
AcDbEntity
  8
0
100
AcDbLine
 10
537.6445714442029
 20
144.9892271507333
 30
0.0
 11
540.6445714442029
 21
144.9892271507333
 31
0.0
  0
LINE
  5
19C2
330
1F
100
AcDbEntity
  8
0
100
AcDbLine
 10
542.6445714442029
 20
177.4892271507333
 30
0.0
 11
540.6445714442029
 21
177.4892271507333
 31
0.0
  0
LINE
  5
19C3
330
1F
100
AcDbEntity
  8
0
100
AcDbLine
 10
542.6445714442029
 20
204.4892271507332
 30
0.0
 11
582.6445714442029
 21
204.4892271507332
 31
0.0
  0
LINE
  5
19C4
330
1F
100
AcDbEntity
  8
0
100
AcDbLine
 10
540.6445714442029
 20
207.4892271507332
 30
0.0
 11
542.6445714442029
 21
207.4892271507332
 31
0.0
  0
LINE
  5
19C5
330
1F
100
AcDbEntity
  8
0
100
AcDbLine
 10
540.6445714442029
 20
239.9892271507332
 30
0.0
 11
537.6445714442029
 21
239.9892271507332
 31
0.0
  0
DIMENSION
  5
19D1
102
{ACAD_XDICTIONARY
360
19DE
102
}
102
{ACAD_REACTORS
330
19E8
102
}
330
1F
100
AcDbEntity
  8
Bemaßung
100
AcDbDimension
  2
*D15
 10
527.6445714442029
 20
253.4112456814574
 30
0.0
 11
532.6445714442029
 21
255.2862456814574
 31
0.0
 70
    32
 71
     5
 42
10.0
  3
ISO-25
100
AcDbAlignedDimension
 13
537.6445714442029
 23
242.4892271507332
 33
0.0
 14
527.6445714442029
 24
242.4892271507332
 34
0.0
100
AcDbRotatedDimension
  0
DIMENSION
  5
19F2
102
{ACAD_XDICTIONARY
360
1A01
102
}
102
{ACAD_REACTORS
330
1A0D
102
}
330
1F
100
AcDbEntity
  8
Bemaßung
100
AcDbDimension
  2
*D16
 10
537.6445714442029
 20
253.4112456814574
 30
0.0
 11
539.1445714442029
 21
255.2862456814574
 31
0.0
 70
    32
 71
     5
 42
3.0
  3
ISO-25
100
AcDbAlignedDimension
 13
540.6445714442029
 23
239.9892271507332
 33
0.0
 14
537.6445714442029
 24
242.4892271507332
 34
0.0
100
AcDbRotatedDimension
  0
DIMENSION
  5
1A19
102
{ACAD_XDICTIONARY
360
1A26
102
}
102
{ACAD_REACTORS
330
1A30
102
}
330
1F
100
AcDbEntity
  8
Bemaßung
100
AcDbDimension
  2
*D17
 10
542.6445714442029
 20
242.5146800321265
 30
0.0
 11
562.6445714442029
 21
244.3896800321265
 31
0.0
 70
    32
 71
     5
 42
40.0
  3
ISO-25
100
AcDbAlignedDimension
 13
582.6445714442029
 23
204.4892271507332
 33
0.0
 14
542.6445714442029
 24
207.4892271507332
 34
0.0
100
AcDbRotatedDimension
  0
DIMENSION
  5
1A3A
102
{ACAD_XDICTIONARY
360
1A47
102
}
102
{ACAD_REACTORS
330
1A51
102
}
330
1F
100
AcDbEntity
  8
Bemaßung
100
AcDbDimension
  2
*D18
 10
537.6445714442029
 20
262.6314167334195
 30
0.0
 11
560.1445714442029
 21
264.5064167334195
 31
0.0
 70
    32
 71
     5
 42
45.0
  3
ISO-25
100
AcDbAlignedDimension
 13
582.6445714442029
 23
204.4892271507332
 33
0.0
 14
537.6445714442029
 24
242.4892271507332
 34
0.0
100
AcDbRotatedDimension
  0
DIMENSION
  5
1A5B
102
{ACAD_XDICTIONARY
360
1A68
102
}
102
{ACAD_REACTORS
330
1A72
102
}
330
1F
100
AcDbEntity
  8
Bemaßung
100
AcDbDimension
  2
*D19
 10
537.6445714442029
 20
262.6314167334195
 30
0.0
 11
445.1445714442029
 21
264.5064167334195
 31
0.0
 70
    32
 71
     5
 42
185.0
  3
ISO-25
100
AcDbAlignedDimension
 13
352.6445714442029
 23
192.4892271507332
 33
0.0
 14
537.6445714442029
 24
242.4892271507332
 34
0.0
100
AcDbRotatedDimension
  0
DIMENSION
  5
1A7C
102
{ACAD_XDICTIONARY
360
1A89
102
}
102
{ACAD_REACTORS
330
1A93
102
}
330
1F
100
AcDbEntity
  8
Bemaßung
100
AcDbDimension
  2
*D20
 10
604.5678696569448
 20
180.4892271507333
 30
0.0
 11
602.6928696569448
 21
192.4892271507333
 31
0.0
 70
    32
 71
     5
 42
23.99999999999994
  3
ISO-25
100
AcDbAlignedDimension
 13
582.6445714442029
 23
204.4892271507332
 33
0.0
 14
582.6445714442029
 24
180.4892271507333
 34
0.0
 50
90.0
100
AcDbRotatedDimension
  0
DIMENSION
  5
1A9D
102
{ACAD_XDICTIONARY
360
1AAA
102
}
102
{ACAD_REACTORS
330
1AB4
102
}
330
1F
100
AcDbEntity
  8
Bemaßung
100
AcDbDimension
  2
*D21
 10
615.1339046001078
 20
144.9892271507332
 30
0.0
 11
613.2589046001078
 21
192.4892271507333
 31
0.0
 70
    32
 71
     5
 42
94.99999999999994
  3
ISO-25
100
AcDbAlignedDimension
 13
540.6445714442029
 23
239.9892271507332
 33
0.0
 14
540.6445714442029
 24
144.9892271507333
 34
0.0
 50
90.0
100
AcDbRotatedDimension
  0
DIMENSION
  5
1ABE
102
{ACAD_XDICTIONARY
360
1ACB
102
}
102
{ACAD_REACTORS
330
1AD5
102
}
330
1F
100
AcDbEntity
  8
Bemaßung
100
AcDbDimension
  2
*D22
 10
466.6445714442029
 20
79.65448611948261
 30
0.0
 11
502.1445714442029
 21
81.52948611948261
 31
0.0
 70
    32
 71
     5
 42
71.0
  3
ISO-25
100
AcDbAlignedDimension
 13
537.6445714442029
 23
142.4892271507332
 33
0.0
 14
466.6445714442029
 24
89.83066715073325
 34
0.0
100
AcDbRotatedDimension
  0
DIMENSION
  5
1B01
102
{ACAD_XDICTIONARY
360
1B0E
102
}
102
{ACAD_REACTORS
330
1B18
102
}
330
1F
100
AcDbEntity
  8
Bemaßung
100
AcDbDimension
  2
*D24
 10
188.2663777192102
 20
262.6314167334195
 30
0.0
 11
238.2663790661271
 21
264.5064167334195
 31
0.0
 70
    32
 71
     5
 42
100.0000026938336
  3
ISO-25
100
AcDbAlignedDimension
 13
288.2663804130439
 23
237.8203008232231
 33
0.0
 14
188.2663777192102
 24
237.8203009254979
 34
0.0
100
AcDbRotatedDimension
  0
DIMENSION
  5
1B22
102
{ACAD_XDICTIONARY
360
1B2F
102
}
102
{ACAD_REACTORS
330
1B39
102
}
330
1F
100
AcDbEntity
  8
Bemaßung
100
AcDbDimension
  2
*D25
 10
166.1635082053815
 20
142.4744109254979
 30
0.0
 11
164.2885082053814
 21
192.4744109254979
 31
0.0
 70
    32
 71
     5
 42
100.0
  3
ISO-25
100
AcDbAlignedDimension
 13
192.9204977192102
 23
242.4744109254979
 33
0.0
 14
192.9205577192102
 24
142.4744109254979
 34
0.0
 50
90.0
100
AcDbRotatedDimension
  0
DIMENSION
  5
1B5D
102
{ACAD_XDICTIONARY
360
1B6C
102
}
102
{ACAD_REACTORS
330
1B78
102
}
330
1F
100
AcDbEntity
  8
Bemaßung
100
AcDbDimension
  2
*D27
 10
201.6501077192102
 20
229.0908009254979
 30
0.0
 11
213.0432157194289
 21
253.3685587028195
 31
0.0
 70
    34
 71
     5
 42
0.7854037521439446
  3
ISO-25
100
AcDb2LineAngularDimension
 13
238.2663777192102
 23
254.5156409254979
 33
0.0
 14
238.2663777192102
 24
85.81332092549791
 34
0.0
 15
193.5981677192103
 25
237.1426509254979
 35
0.0
 16
221.6925639051601
 26
254.3287945162884
 36
0.0
  0
DIMENSION
  5
1B84
102
{ACAD_XDICTIONARY
360
1B8D
102
}
102
{ACAD_REACTORS
330
1B93
102
}
330
1F
100
AcDbEntity
  8
Bemaßung
100
AcDbDimension
  2
*D28
 10
282.2455951161604
 20
155.4328337836996
 30
0.0
 11
265.383280239843
 21
169.635149655826
 31
0.0
 70
   163
 71
     5
 42
115.0
  3
ISO-25
100
AcDbDiametricDimension
 15
194.28716032226
 25
229.5159880672962
 35
0.0
 40
0.0
1001
ACAD
1000
DSTYLE
1002
{
1070
   279
1070
     1
1070
   288
1070
     1
1002
}
  0
DIMENSION
  5
1B99
102
{ACAD_XDICTIONARY
360
1BA2
102
}
102
{ACAD_REACTORS
330
1BA8
102
}
330
1F
100
AcDbEntity
  8
Bemaßung
100
AcDbDimension
  2
*D29
 10
192.9204869488192
 20
142.4744090231002
 30
0.0
 11
217.2087601465899
 21
169.2555282262419
 31
0.0
 70
   163
 71
     5
 42
135.0
  3
ISO-25
100
AcDbDiametricDimension
 15
283.6122684896012
 25
242.4744128278955
 35
0.0
 40
0.0
1001
ACAD
1000
DSTYLE
1002
{
1070
   279
1070
     1
1070
   288
1070
     1
1002
}
  0
DIMENSION
  5
1BB3
102
{ACAD_XDICTIONARY
360
1BC0
102
}
102
{ACAD_REACTORS
330
1BCA
102
}
330
1F
100
AcDbEntity
  8
Bemaßung
100
AcDbDimension
  2
*D30
 10
304.2815457190233
 20
96.47442092549791
 30
0.0
 11
302.4065457190233
 21
144.4744159254979
 31
0.0
 70
    32
 71
     5
 42
95.99999
  3
ISO-25
100
AcDbAlignedDimension
 13
297.9909877192102
 23
192.4744109254979
 33
0.0
 14
254.6664077192102
 24
96.47442092549793
 34
0.0
 50
90.0
100
AcDbRotatedDimension
  0
LINE
  5
1BFF
330
1F
100
AcDbEntity
  8
0
100
AcDbLine
 10
226.27362519322
 20
-173.6757790145878
 30
0.0
 11
226.27362519322
 21
-213.6757790145878
 31
0.0
  0
LINE
  5
1C00
330
1F
100
AcDbEntity
  8
0
100
AcDbLine
 10
250.2736251932199
 20
-173.6757790145878
 30
0.0
 11
250.2736251932199
 21
-213.6757790145878
 31
0.0
  0
LINE
  5
1C01
330
1F
100
AcDbEntity
  8
0
100
AcDbLine
 10
226.27362519322
 20
-213.6757790145878
 30
0.0
 11
250.2736251932199
 21
-213.6757790145878
 31
0.0
  0
LINE
  5
1C02
330
1F
100
AcDbEntity
  8
0
100
AcDbLine
 10
188.27362519322
 20
-168.6757790145878
 30
0.0
 11
288.27362519322
 21
-168.6757790145878
 31
0.0
  0
LINE
  5
1C03
330
1F
100
AcDbEntity
  8
0
100
AcDbLine
 10
285.7736251932199
 20
-171.6757790145878
 30
0.0
 11
190.77362519322
 21
-171.6757790145878
 31
0.0
  0
LINE
  5
1C04
330
1F
100
AcDbEntity
  8
Innenkanten
100
AcDbLine
 10
188.27362519322
 20
-74.67577901458781
 30
0.0
 11
288.27362519322
 21
-74.67577901458781
 31
0.0
  0
LINE
  5
1C05
330
1F
100
AcDbEntity
  8
Innenkanten
100
AcDbLine
 10
188.27362519322
 20
-150.6757790145878
 30
0.0
 11
288.27362519322
 21
-150.6757790145878
 31
0.0
  0
LINE
  5
1C06
330
1F
100
AcDbEntity
  8
Innenkanten
100
AcDbLine
 10
288.27362519322
 20
-158.6757790145878
 30
0.0
 11
188.27362519322
 21
-158.6757790145878
 31
0.0
  0
LINE
  5
1C07
330
1F
100
AcDbEntity
  8
Innenkanten
100
AcDbLine
 10
267.87361519322
 20
-74.67577901458781
 30
0.0
 11
267.87361519322
 21
-150.6757790145878
 31
0.0
  0
LINE
  5
1C08
330
1F
100
AcDbEntity
  8
Innenkanten
100
AcDbLine
 10
265.87361519322
 20
-74.67577901458781
 30
0.0
 11
265.87361519322
 21
-150.6757790145878
 31
0.0
  0
LINE
  5
1C09
330
1F
100
AcDbEntity
  8
Innenkanten
100
AcDbLine
 10
263.57361519322
 20
-74.67577901458781
 30
0.0
 11
263.57361519322
 21
-150.6757790145878
 31
0.0
  0
LINE
  5
1C0A
330
1F
100
AcDbEntity
  8
Innenkanten
100
AcDbLine
 10
261.57361519322
 20
-74.67577901458781
 30
0.0
 11
261.57361519322
 21
-150.6757790145878
 31
0.0
  0
LINE
  5
1C0B
330
1F
100
AcDbEntity
  8
Innenkanten
100
AcDbLine
 10
259.2736251932199
 20
-74.67577901458781
 30
0.0
 11
259.2736251932199
 21
-150.6757790145878
 31
0.0
  0
LINE
  5
1C0C
330
1F
100
AcDbEntity
  8
Innenkanten
100
AcDbLine
 10
257.2736251932199
 20
-74.67577901458781
 30
0.0
 11
257.2736251932199
 21
-150.6757790145878
 31
0.0
  0
LINE
  5
1C0D
330
1F
100
AcDbEntity
  8
Innenkanten
100
AcDbLine
 10
219.27362519322
 20
-74.67577901458781
 30
0.0
 11
219.27362519322
 21
-150.6757790145878
 31
0.0
  0
LINE
  5
1C0E
330
1F
100
AcDbEntity
  8
Innenkanten
100
AcDbLine
 10
217.27362519322
 20
-74.67577901458781
 30
0.0
 11
217.27362519322
 21
-150.6757790145878
 31
0.0
  0
LINE
  5
1C0F
330
1F
100
AcDbEntity
  8
Innenkanten
100
AcDbLine
 10
214.97360519322
 20
-74.67577901458781
 30
0.0
 11
214.97360519322
 21
-150.6757790145878
 31
0.0
  0
LINE
  5
1C10
330
1F
100
AcDbEntity
  8
Innenkanten
100
AcDbLine
 10
212.97360519322
 20
-74.67577901458781
 30
0.0
 11
212.97360519322
 21
-150.6757790145878
 31
0.0
  0
LINE
  5
1C11
330
1F
100
AcDbEntity
  8
Innenkanten
100
AcDbLine
 10
210.67362519322
 20
-74.67577901458781
 30
0.0
 11
210.67362519322
 21
-150.6757790145878
 31
0.0
  0
LINE
  5
1C12
330
1F
100
AcDbEntity
  8
Innenkanten
100
AcDbLine
 10
208.67362519322
 20
-74.67577901458781
 30
0.0
 11
208.67362519322
 21
-150.6757790145878
 31
0.0
  0
LINE
  5
1C14
330
1F
100
AcDbEntity
  8
0
100
AcDbLine
 10
223.27362519322
 20
-173.6757790145878
 30
0.0
 11
253.2736251932199
 21
-173.6757790145878
 31
0.0
  0
LINE
  5
1C15
330
1F
100
AcDbEntity
  8
0
100
AcDbLine
 10
285.7736251932199
 20
-168.6757790145878
 30
0.0
 11
285.7736251932199
 21
-171.6757790145878
 31
0.0
  0
LINE
  5
1C16
330
1F
100
AcDbEntity
  8
Innenkanten
100
AcDbLine
 10
283.61951519322
 20
-168.6757790145878
 30
0.0
 11
283.61951519322
 21
-158.6757790145878
 31
0.0
  0
LINE
  5
1C17
330
1F
100
AcDbEntity
  8
0
100
AcDbLine
 10
253.2736251932199
 20
-173.6757790145878
 30
0.0
 11
253.2736251932199
 21
-171.6757790145878
 31
0.0
  0
LINE
  5
1C19
330
1F
100
AcDbEntity
  8
0
100
AcDbLine
 10
223.27362519322
 20
-171.6757790145878
 30
0.0
 11
223.27362519322
 21
-173.6757790145878
 31
0.0
  0
LINE
  5
1C1A
330
1F
100
AcDbEntity
  8
0
100
AcDbLine
 10
190.77362519322
 20
-171.6757790145878
 30
0.0
 11
190.77362519322
 21
-168.6757790145878
 31
0.0
  0
LINE
  5
1C1B
330
1F
100
AcDbEntity
  8
Innenkanten
100
AcDbLine
 10
192.92773519322
 20
-168.6757790145878
 30
0.0
 11
192.92773519322
 21
-158.6757790145878
 31
0.0
  0
LINE
  5
1C1E
330
1F
100
AcDbEntity
  8
0
100
AcDbLine
 10
188.27362519322
 20
-168.6757790145878
 30
0.0
 11
188.27362519322
 21
-23.67577927638717
 31
0.0
  0
LINE
  5
1C1F
330
1F
100
AcDbEntity
  8
0
100
AcDbLine
 10
288.27362519322
 20
-168.6757790145878
 30
0.0
 11
288.27359519322
 21
-23.67577917166742
 31
0.0
  0
LINE
  5
1C20
330
1F
100
AcDbEntity
  8
Innenkanten
100
AcDbLine
 10
188.27362519322
 20
-74.17577901458781
 30
0.0
 11
288.2736251932201
 21
-74.17577901458781
 31
0.0
  0
LINE
  5
1D69
330
1F
100
AcDbEntity
  8
Innenkanten
100
AcDbLine
 10
195.8019135687341
 20
-16.17577901458781
 30
0.0
 11
280.801913568734
 21
-16.17577901458781
 31
0.0
  0
LINE
  5
1D6A
330
1F
100
AcDbEntity
  8
0
100
AcDbLine
 10
280.801913568734
 20
-10.17577901458781
 30
0.0
 11
195.8019135687341
 21
-10.17577901458781
 31
0.0
  0
LINE
  5
1D6B
330
1F
100
AcDbEntity
  8
0
100
AcDbLine
 10
195.8019135687341
 20
-10.17577901458781
 30
0.0
 11
195.8019135687341
 21
-23.17577901458781
 31
0.0
  0
LINE
  5
1D6C
330
1F
100
AcDbEntity
  8
Mittellinie
100
AcDbLine
 10
203.1268335687339
 20
-11.8466190145878
 30
0.0
 11
203.1268335687339
 21
-18.66790901458779
 31
0.0
  0
ARC
  5
1D6D
330
1F
100
AcDbEntity
  8
0
100
AcDbCircle
 10
201.626833568734
 20
-15.17577901458776
 30
0.0
 40
1.0
100
AcDbArc
 50
89.9999799999996
 51
180.0000299999997
  0
LINE
  5
1D6E
330
1F
100
AcDbEntity
  8
Innenkanten
100
AcDbLine
 10
197.2785835687339
 20
-10.17577901458781
 30
0.0
 11
197.2785835687339
 21
-16.17577901458781
 31
0.0
  0
LINE
  5
1D6F
330
1F
100
AcDbEntity
  8
0
100
AcDbLine
 10
200.626833568734
 20
-16.17577901458781
 30
0.0
 11
200.626833568734
 21
-15.17577901458781
 31
0.0
  0
LINE
  5
1D70
330
1F
100
AcDbEntity
  8
Innenkanten
100
AcDbLine
 10
203.642553568734
 20
-16.17577901458781
 30
0.0
 11
203.642553568734
 21
-10.17577901458781
 31
0.0
  0
LINE
  5
1D71
330
1F
100
AcDbEntity
  8
0
100
AcDbLine
 10
201.626833568734
 20
-14.17577901458781
 30
0.0
 11
203.642553568734
 21
-14.17577901458781
 31
0.0
  0
LINE
  5
1D72
330
1F
100
AcDbEntity
  8
Innenkanten
100
AcDbLine
 10
210.798293568734
 20
-10.17577901458781
 30
0.0
 11
210.798293568734
 21
-23.17577901458781
 31
0.0
  0
ARC
  5
1D73
330
1F
100
AcDbEntity
  8
0
100
AcDbCircle
 10
269.414403568734
 20
-15.17562901458776
 30
0.0
 40
1.0
100
AcDbArc
 50
359.9999820000007
 51
89.99995999999923
  0
LINE
  5
1D74
330
1F
100
AcDbEntity
  8
Innenkanten
100
AcDbLine
 10
265.805423568734
 20
-23.17577901458781
 30
0.0
 11
265.805423568734
 21
-10.17577901458781
 31
0.0
  0
LINE
  5
1D75
330
1F
100
AcDbEntity
  8
Mittellinie
100
AcDbLine
 10
267.9144035687341
 20
-18.66790901458779
 30
0.0
 11
267.9144035687341
 21
-11.8466190145878
 31
0.0
  0
LINE
  5
1D76
330
1F
100
AcDbEntity
  8
Innenkanten
100
AcDbLine
 10
267.282163568734
 20
-16.17577901458781
 30
0.0
 11
267.282163568734
 21
-10.17577901458781
 31
0.0
  0
LINE
  5
1D77
330
1F
100
AcDbEntity
  8
0
100
AcDbLine
 10
269.414403568734
 20
-14.17577901458781
 30
0.0
 11
267.282163568734
 21
-14.17577901458781
 31
0.0
  0
LINE
  5
1D78
330
1F
100
AcDbEntity
  8
Innenkanten
100
AcDbLine
 10
273.646123568734
 20
-10.17577901458781
 30
0.0
 11
273.646123568734
 21
-16.17577901458781
 31
0.0
  0
LINE
  5
1D79
330
1F
100
AcDbEntity
  8
0
100
AcDbLine
 10
270.414403568734
 20
-16.17577901458781
 30
0.0
 11
270.414403568734
 21
-15.17577901458781
 31
0.0
  0
LINE
  5
1D7C
330
1F
100
AcDbEntity
  8
0
100
AcDbLine
 10
280.801913568734
 20
-10.17577901458781
 30
0.0
 11
280.801913568734
 21
-23.17577901458781
 31
0.0
  0
LINE
  5
1D7E
330
1F
100
AcDbEntity
  8
0
100
AcDbLine
 10
198.301948568734
 20
-10.17577901458781
 30
0.0
 11
198.301948568734
 21
16.32422098541218
 31
0.0
  0
LINE
  5
1D7F
330
1F
100
AcDbEntity
  8
0
100
AcDbLine
 10
278.301918568734
 20
-10.17577901458786
 30
0.0
 11
278.301918568734
 21
16.32422098541212
 31
0.0
  0
LINE
  5
1D80
330
1F
100
AcDbEntity
  8
0
100
AcDbLine
 10
278.301918568734
 20
16.32422098541212
 30
0.0
 11
198.301948568734
 21
16.32422098541218
 31
0.0
  0
LINE
  5
1D81
330
1F
100
AcDbEntity
  8
Mittellinie
100
AcDbLine
 10
238.3007442008507
 20
23.3778261985868
 30
0.0
 11
238.27362519322
 21
-223.2634763809318
 31
0.0
  0
LINE
  5
1E92
330
1F
100
AcDbEntity
  8
Mittellinie
100
AcDbLine
 10
372.1445714442029
 20
104.2464871507332
 30
0.0
 11
372.1445714442029
 21
137.5484271507332
 31
0.0
  0
LINE
  5
1E93
330
1F
100
AcDbEntity
  8
Innenkanten
100
AcDbLine
 10
358.3445814442029
 20
110.9892371507332
 30
0.0
 11
358.3445814442029
 21
127.2892371507332
 31
0.0
  0
LINE
  5
1E94
330
1F
100
AcDbEntity
  8
Innenkanten
100
AcDbLine
 10
385.9445914442029
 20
110.9892371507332
 30
0.0
 11
385.9445914442029
 21
127.2892371507332
 31
0.0
  0
LINE
  5
1E95
330
1F
100
AcDbEntity
  8
0
100
AcDbLine
 10
385.9445914442029
 20
110.9892571507332
 30
0.0
 11
386.9445914442029
 21
111.9892571507332
 31
0.0
  0
LINE
  5
1E96
330
1F
100
AcDbEntity
  8
0
100
AcDbLine
 10
357.3445814442029
 20
111.9892571507332
 30
0.0
 11
358.3445814442029
 21
110.9892571507332
 31
0.0
  0
LINE
  5
1EA5
102
{ACAD_REACTORS
330
22AE
102
}
330
1F
100
AcDbEntity
  8
0
100
AcDbLine
 10
358.3445814442029
 20
110.9892371507332
 30
0.0
 11
385.9445914442029
 21
110.9892371507332
 31
0.0
  0
LINE
  5
1F56
330
1F
100
AcDbEntity
  8
0
100
AcDbLine
 10
392.1445714442029
 20
241.9891971507332
 30
0.0
 11
392.1445714442029
 21
142.9892271507332
 31
0.0
  0
LINE
  5
1F57
330
1F
100
AcDbEntity
  8
0
100
AcDbLine
 10
352.6445714442029
 20
134.0892271507332
 30
0.0
 11
352.6445714442029
 21
222.4892271507332
 31
0.0
  0
LINE
  5
1F58
330
1F
100
AcDbEntity
  8
Innenkanten
100
AcDbLine
 10
354.1996638574662
 20
231.4284448986275
 30
0.0
 11
354.1445714442029
 21
134.0892271507332
 31
0.0
  0
LINE
  5
1F59
330
1F
100
AcDbEntity
  8
Innenkanten
100
AcDbLine
 10
385.1445714442029
 20
234.9892271507332
 30
0.0
 11
385.1445714442029
 21
149.9892271507332
 31
0.0
  0
LINE
  5
1F5A
330
1F
100
AcDbEntity
  8
0
100
AcDbLine
 10
379.1445714442029
 20
149.9892271507332
 30
0.0
 11
379.1445714442029
 21
234.9892271507332
 31
0.0
  0
LINE
  5
1F5B
330
1F
100
AcDbEntity
  8
0
100
AcDbLine
 10
391.6445714442029
 20
149.9892271507332
 30
0.0
 11
391.6445714442029
 21
134.0892271507332
 31
0.0
  0
LINE
  5
1F5C
330
1F
100
AcDbEntity
  8
0
100
AcDbLine
 10
352.6445714442029
 20
134.0892271507332
 30
0.0
 11
391.6445714442029
 21
134.0892271507332
 31
0.0
  0
LINE
  5
1F5D
330
1F
100
AcDbEntity
  8
Innenkanten
100
AcDbLine
 10
391.1945914442029
 20
133.0892271507332
 30
0.0
 11
353.0945814442029
 21
133.0892271507332
 31
0.0
  0
LINE
  5
1F5E
330
1F
100
AcDbEntity
  8
0
100
AcDbLine
 10
353.0945814442029
 20
130.2892371507332
 30
0.0
 11
391.1945914442029
 21
130.2892371507332
 31
0.0
  0
LINE
  5
1F5F
330
1F
100
AcDbEntity
  8
Innenkanten
100
AcDbLine
 10
357.3445814442029
 20
127.2892371507332
 30
0.0
 11
386.9445914442029
 21
127.2892371507332
 31
0.0
  0
LINE
  5
1F60
330
1F
100
AcDbEntity
  8
Innenkanten
100
AcDbLine
 10
386.9445914442029
 20
111.9892371507333
 30
0.0
 11
357.3445814442029
 21
111.9892371507333
 31
0.0
  0
LINE
  5
1F61
330
1F
100
AcDbEntity
  8
0
100
AcDbLine
 10
357.3445814442029
 20
111.9892371507333
 30
0.0
 11
357.3445814442029
 21
130.2892371507332
 31
0.0
  0
LINE
  5
1F62
330
1F
100
AcDbEntity
  8
0
100
AcDbLine
 10
353.0945814442029
 20
134.0892271507332
 30
0.0
 11
353.0945814442029
 21
130.2892371507332
 31
0.0
  0
LINE
  5
1F63
330
1F
100
AcDbEntity
  8
0
100
AcDbLine
 10
386.9445914442029
 20
130.2892371507332
 30
0.0
 11
386.9445914442029
 21
111.9892371507333
 31
0.0
  0
ARC
  5
1F64
330
1F
100
AcDbEntity
  8
0
100
AcDbCircle
 10
392.6445714442029
 20
142.9892271507332
 30
0.0
 40
0.5
100
AcDbArc
 50
179.9999799999979
 51
270.0000299999997
  0
LINE
  5
1F65
330
1F
100
AcDbEntity
  8
0
100
AcDbLine
 10
391.1945914442029
 20
134.0892271507332
 30
0.0
 11
391.1945914442029
 21
130.2892371507332
 31
0.0
  0
LINE
  5
1F66
330
1F
100
AcDbEntity
  8
Innenkanten
100
AcDbLine
 10
385.1445714442029
 20
151.4658971507332
 30
0.0
 11
379.1445714442029
 21
151.4658971507332
 31
0.0
  0
LINE
  5
1F67
330
1F
100
AcDbEntity
  8
0
100
AcDbLine
 10
385.1445714442029
 20
157.8298571507333
 30
0.0
 11
379.1445714442029
 21
157.8298571507333
 31
0.0
  0
LINE
  5
1F68
330
1F
100
AcDbEntity
  8
Innenkanten
100
AcDbLine
 10
392.1445714442029
 20
164.9856271507332
 30
0.0
 11
379.1445714442029
 21
164.9856271507332
 31
0.0
  0
LINE
  5
1F69
330
1F
100
AcDbEntity
  8
0
100
AcDbLine
 10
392.1445714442029
 20
149.9892271507332
 30
0.0
 11
379.1445714442029
 21
149.9892271507332
 31
0.0
  0
LINE
  5
1F6A
330
1F
100
AcDbEntity
  8
Innenkanten
100
AcDbLine
 10
354.1445714442029
 20
158.1416871507332
 30
0.0
 11
379.1445714442029
 21
158.1416871507332
 31
0.0
  0
LINE
  5
1F6B
330
1F
100
AcDbEntity
  8
Innenkanten
100
AcDbLine
 10
354.1445714442029
 20
158.1416871507332
 30
0.0
 11
352.6445714442029
 21
159.0041171507332
 31
0.0
  0
LINE
  5
1F6C
330
1F
100
AcDbEntity
  8
0
100
AcDbLine
 10
399.1445714442029
 20
159.9892271507332
 30
0.0
 11
399.1445714442029
 21
169.9892271507332
 31
0.0
  0
LINE
  5
1F6D
330
1F
100
AcDbEntity
  8
Mittellinie
100
AcDbLine
 10
387.6367014442029
 20
157.3141471507332
 30
0.0
 11
380.8153814442029
 21
157.3141471507332
 31
0.0
  0
ARC
  5
1F6E
330
1F
100
AcDbEntity
  8
0
100
AcDbCircle
 10
384.1445714442029
 20
155.8141471507332
 30
0.0
 40
1.0
100
AcDbArc
 50
179.9999799999979
 51
270.0000299999997
  0
LINE
  5
1F6F
330
1F
100
AcDbEntity
  8
0
100
AcDbLine
 10
383.1445714442029
 20
155.8141471507332
 30
0.0
 11
383.1445714442029
 21
157.8298571507333
 31
0.0
  0
LINE
  5
1F70
330
1F
100
AcDbEntity
  8
0
100
AcDbLine
 10
384.1445714442029
 20
154.8141471507332
 30
0.0
 11
385.1445714442029
 21
154.8141471507332
 31
0.0
  0
LINE
  5
1F71
330
1F
100
AcDbEntity
  8
0
100
AcDbLine
 10
399.1445714442029
 20
169.9892271507332
 30
0.0
 11
392.1445714442029
 21
169.9892271507332
 31
0.0
  0
LINE
  5
1F72
330
1F
100
AcDbEntity
  8
Mittellinie
100
AcDbLine
 10
394.243841444203
 20
165.4892271507332
 30
0.0
 11
401.5663814442029
 21
165.4892271507332
 31
0.0
  0
LINE
  5
1F73
330
1F
100
AcDbEntity
  8
0
100
AcDbLine
 10
394.1445714442029
 20
161.9892271507332
 30
0.0
 11
399.1445714442029
 21
161.9892271507332
 31
0.0
  0
LINE
  5
1F74
330
1F
100
AcDbEntity
  8
0
100
AcDbLine
 10
394.1445714442029
 20
168.9892271507332
 30
0.0
 11
394.1445714442029
 21
161.9892271507332
 31
0.0
  0
LINE
  5
1F75
330
1F
100
AcDbEntity
  8
0
100
AcDbLine
 10
399.1445714442029
 20
168.9892271507332
 30
0.0
 11
394.1445714442029
 21
168.9892271507332
 31
0.0
  0
LINE
  5
1F76
330
1F
100
AcDbEntity
  8
0
100
AcDbLine
 10
398.1445714442029
 20
168.9892271507332
 30
0.0
 11
398.1445714442029
 21
161.9892271507332
 31
0.0
  0
LINE
  5
1F77
330
1F
100
AcDbEntity
  8
Innenkanten
100
AcDbLine
 10
385.1445714442029
 20
221.4694471507332
 30
0.0
 11
379.1445714442029
 21
221.4694471507332
 31
0.0
  0
LINE
  5
1F78
330
1F
100
AcDbEntity
  8
Innenkanten
100
AcDbLine
 10
392.1445714442029
 20
219.9927671507332
 30
0.0
 11
379.1445714442029
 21
219.9927671507332
 31
0.0
  0
LINE
  5
1F79
330
1F
100
AcDbEntity
  8
Innenkanten
100
AcDbLine
 10
385.1445714442029
 20
227.8334271507332
 30
0.0
 11
379.1445714442029
 21
227.8334271507332
 31
0.0
  0
LINE
  5
1F7A
330
1F
100
AcDbEntity
  8
0
100
AcDbLine
 10
392.1445714442029
 20
234.9892271507332
 30
0.0
 11
379.1445714442029
 21
234.9892271507332
 31
0.0
  0
ARC
  5
1F7B
330
1F
100
AcDbEntity
  8
0
100
AcDbCircle
 10
382.6934614442029
 20
222.4822371507332
 30
0.0
 40
30.04887599999999
100
AcDbArc
 50
163.692810000001
 51
179.9866700000005
  0
LINE
  5
1F7C
330
1F
100
AcDbEntity
  8
0
100
AcDbLine
 10
379.1445390050493
 20
232.4890375257081
 30
0.0
 11
354.7782990050492
 21
231.638177525708
 31
0.0
  0
ARC
  5
1F7D
330
1F
100
AcDbEntity
  8
0
100
AcDbCircle
 10
354.8132114442029
 20
230.6387871507332
 30
0.0
 40
1.0
100
AcDbArc
 50
92.00074200000026
 51
163.6921799999992
  0
LINE
  5
1F7E
330
1F
100
AcDbEntity
  8
Innenkanten
100
AcDbLine
 10
392.1445714442029
 20
214.9892271507332
 30
0.0
 11
399.1445714442029
 21
214.9892271507332
 31
0.0
  0
LINE
  5
1F7F
330
1F
100
AcDbEntity
  8
Mittellinie
100
AcDbLine
 10
387.6367014442029
 20
222.1017071507332
 30
0.0
 11
380.8153814442029
 21
222.1017071507332
 31
0.0
  0
ARC
  5
1F80
330
1F
100
AcDbEntity
  8
0
100
AcDbCircle
 10
384.1445714442029
 20
223.6017071507332
 30
0.0
 40
1.0
100
AcDbArc
 50
89.99998199999998
 51
179.9999599999992
  0
LINE
  5
1F81
330
1F
100
AcDbEntity
  8
0
100
AcDbLine
 10
385.1445714442029
 20
224.6017071507332
 30
0.0
 11
384.1445714442029
 21
224.6017071507332
 31
0.0
  0
LINE
  5
1F82
330
1F
100
AcDbEntity
  8
0
100
AcDbLine
 10
383.1445714442029
 20
221.4694471507332
 30
0.0
 11
383.1445714442029
 21
223.6017071507332
 31
0.0
  0
LINE
  5
1F83
330
1F
100
AcDbEntity
  8
Innenkanten
100
AcDbLine
 10
399.1445714442029
 20
214.9892271507332
 30
0.0
 11
399.1445714442029
 21
224.9892271507332
 31
0.0
  0
LINE
  5
1F84
330
1F
100
AcDbEntity
  8
0
100
AcDbLine
 10
398.1445714442029
 20
222.9892271507332
 30
0.0
 11
398.1445714442029
 21
215.9892271507332
 31
0.0
  0
LINE
  5
1F85
330
1F
100
AcDbEntity
  8
0
100
AcDbLine
 10
394.1445714442029
 20
215.9892271507332
 30
0.0
 11
394.1445714442029
 21
222.9892271507332
 31
0.0
  0
LINE
  5
1F86
330
1F
100
AcDbEntity
  8
0
100
AcDbLine
 10
399.1445714442029
 20
215.9892271507332
 30
0.0
 11
394.1445714442029
 21
215.9892271507332
 31
0.0
  0
LINE
  5
1F87
330
1F
100
AcDbEntity
  8
Mittellinie
100
AcDbLine
 10
393.3994814442029
 20
219.4892271507332
 30
0.0
 11
401.5663814442029
 21
219.4892271507332
 31
0.0
  0
LINE
  5
1F88
330
1F
100
AcDbEntity
  8
0
100
AcDbLine
 10
394.1445714442029
 20
222.9892271507332
 30
0.0
 11
399.1445714442029
 21
222.9892271507332
 31
0.0
  0
ARC
  5
1F89
330
1F
100
AcDbEntity
  8
0
100
AcDbCircle
 10
392.6445714442029
 20
241.9891971507332
 30
0.0
 40
0.5
100
AcDbArc
 50
89.99998199999998
 51
179.9999599999992
  0
LINE
  5
1F8A
330
1F
100
AcDbEntity
  8
Innenkanten
100
AcDbLine
 10
443.1445714442029
 20
242.4892271507332
 30
0.0
 11
443.1445714442029
 21
142.4892271507332
 31
0.0
  0
LINE
  5
1F8B
330
1F
100
AcDbEntity
  8
Innenkanten
100
AcDbLine
 10
430.1445714442029
 20
142.4892271507332
 30
0.0
 11
430.1445714442029
 21
242.4892271507332
 31
0.0
  0
LINE
  5
1F8C
330
1F
100
AcDbEntity
  8
Innenkanten
100
AcDbLine
 10
443.6445714442029
 20
242.4891971507332
 30
0.0
 11
443.6445714442029
 21
142.4892271507332
 31
0.0
  0
LINE
  5
1F8D
330
1F
100
AcDbEntity
  8
Innenkanten
100
AcDbLine
 10
423.1445714442029
 20
142.4892271507332
 30
0.0
 11
423.1445714442029
 21
152.4892271507332
 31
0.0
  0
LINE
  5
1F90
330
1F
100
AcDbEntity
  8
Mittellinie
100
AcDbLine
 10
437.4855114442029
 20
147.9892271507332
 30
0.0
 11
423.5355914442029
 21
147.9892271507332
 31
0.0
  0
LINE
  5
1F91
330
1F
100
AcDbEntity
  8
0
100
AcDbLine
 10
425.1445714442029
 20
144.4892271507332
 30
0.0
 11
430.1445714442029
 21
144.4892271507332
 31
0.0
  0
LINE
  5
1F92
330
1F
100
AcDbEntity
  8
0
100
AcDbLine
 10
430.1445714442029
 20
151.4892271507332
 30
0.0
 11
425.1445714442029
 21
151.4892271507332
 31
0.0
  0
LINE
  5
1F93
330
1F
100
AcDbEntity
  8
Innenkanten
100
AcDbLine
 10
423.1445714442029
 20
152.4892271507332
 30
0.0
 11
430.1445714442029
 21
152.4892271507332
 31
0.0
  0
LINE
  5
1F94
330
1F
100
AcDbEntity
  8
0
100
AcDbLine
 10
425.1445714442029
 20
151.4892271507332
 30
0.0
 11
425.1445714442029
 21
144.4892271507332
 31
0.0
  0
LINE
  5
1F95
330
1F
100
AcDbEntity
  8
0
100
AcDbLine
 10
429.1445714442029
 20
144.4892271507332
 30
0.0
 11
429.1445714442029
 21
151.4892271507332
 31
0.0
  0
LINE
  5
1F96
330
1F
100
AcDbEntity
  8
Mittellinie
100
AcDbLine
 10
423.5355914442029
 20
236.9892271507332
 30
0.0
 11
437.4855114442029
 21
236.9892271507332
 31
0.0
  0
LINE
  5
1F97
330
1F
100
AcDbEntity
  8
0
100
AcDbLine
 10
429.1445714442029
 20
240.4892271507332
 30
0.0
 11
429.1445714442029
 21
233.4892271507332
 31
0.0
  0
LINE
  5
1F98
330
1F
100
AcDbEntity
  8
0
100
AcDbLine
 10
425.1445714442029
 20
233.4892271507332
 30
0.0
 11
425.1445714442029
 21
240.4892271507332
 31
0.0
  0
LINE
  5
1F99
330
1F
100
AcDbEntity
  8
Innenkanten
100
AcDbLine
 10
423.1445714442029
 20
242.4892271507332
 30
0.0
 11
423.1445714442029
 21
232.4892271507332
 31
0.0
  0
LINE
  5
1F9A
330
1F
100
AcDbEntity
  8
0
100
AcDbLine
 10
430.1445714442029
 20
233.4892271507332
 30
0.0
 11
425.1445714442029
 21
233.4892271507332
 31
0.0
  0
LINE
  5
1F9B
330
1F
100
AcDbEntity
  8
Innenkanten
100
AcDbLine
 10
423.1445714442029
 20
232.4892271507332
 30
0.0
 11
430.1445714442029
 21
232.4892271507332
 31
0.0
  0
LINE
  5
1F9C
330
1F
100
AcDbEntity
  8
0
100
AcDbLine
 10
425.1445714442029
 20
240.4892271507332
 30
0.0
 11
430.1445714442029
 21
240.4892271507332
 31
0.0
  0
LINE
  5
2027
330
1F
100
AcDbEntity
  8
Innenkanten
100
AcDbLine
 10
-247.5261822807896
 20
162.7461409254979
 30
0.0
 11
-248.7017722807896
 21
162.0674009254979
 31
0.0
  0
LINE
  5
2028
330
1F
100
AcDbEntity
  8
Innenkanten
100
AcDbLine
 10
-248.7017622807896
 20
216.0674009254979
 30
0.0
 11
-250.2173122807896
 21
216.9424009254979
 31
0.0
  0
LINE
  5
2029
330
1F
100
AcDbEntity
  8
Innenkanten
100
AcDbLine
 10
-248.2018922807896
 20
216.3560009254979
 30
0.0
 11
-248.7017722807896
 21
216.0674009254979
 31
0.0
  0
LINE
  5
202A
330
1F
100
AcDbEntity
  8
Innenkanten
100
AcDbLine
 10
-248.2018627892168
 20
219.2787429062858
 30
0.0
 11
-248.7017722807896
 21
219.5673609254979
 31
0.0
  0
LINE
  5
202B
330
1F
100
AcDbEntity
  8
Innenkanten
100
AcDbLine
 10
-248.7017722807896
 20
219.5674009254978
 30
0.0
 11
-250.2173122807896
 21
218.6924009254979
 31
0.0
  0
LINE
  5
202C
330
1F
100
AcDbEntity
  8
Innenkanten
100
AcDbLine
 10
-250.2173222807896
 20
218.6924009254979
 30
0.0
 11
-250.2173222807896
 21
216.9424009254979
 31
0.0
  0
ARC
  5
202D
330
1F
100
AcDbEntity
  8
Innenkanten
100
AcDbCircle
 10
-248.7017822807896
 20
217.8174009254979
 30
0.0
 40
3.5
100
AcDbArc
 50
64.60269640655216
 51
278.2111399999999
  0
LINE
  5
202E
330
1F
100
AcDbEntity
  8
Mittellinie
100
AcDbLine
 10
-248.7017822807896
 20
213.2912409254979
 30
0.0
 11
-248.7017822807896
 21
223.1039909254979
 31
0.0
  0
LINE
  5
202F
330
1F
100
AcDbEntity
  8
Mittellinie
100
AcDbLine
 10
-247.7744722807896
 20
217.8174009254979
 30
0.0
 11
-253.4874322807896
 21
217.8174009254979
 31
0.0
  0
LINE
  5
2030
330
1F
100
AcDbEntity
  8
Mittellinie
100
AcDbLine
 10
-162.7017522807896
 20
213.2912409254979
 30
0.0
 11
-162.7017522807896
 21
223.1039909254979
 31
0.0
  0
ARC
  5
2031
330
1F
100
AcDbEntity
  8
Innenkanten
100
AcDbCircle
 10
-162.7017522807896
 20
217.8174009254979
 30
0.0
 40
3.5
100
AcDbArc
 50
261.78882
 51
115.3998757748601
  0
LINE
  5
2032
330
1F
100
AcDbEntity
  8
Innenkanten
100
AcDbLine
 10
-161.1862222807896
 20
218.6924009254979
 30
0.0
 11
-161.1862222807896
 21
216.9424009254979
 31
0.0
  0
LINE
  5
2033
330
1F
100
AcDbEntity
  8
Innenkanten
100
AcDbLine
 10
-163.2016322807896
 20
216.3560609254978
 30
0.0
 11
-162.7017522807896
 21
216.0674609254979
 31
0.0
  0
LINE
  5
2034
330
1F
100
AcDbEntity
  8
Innenkanten
100
AcDbLine
 10
-162.7017822807896
 20
216.0674309254979
 30
0.0
 11
-161.1862322807896
 21
216.9424309254979
 31
0.0
  0
LINE
  5
2035
330
1F
100
AcDbEntity
  8
Innenkanten
100
AcDbLine
 10
-163.2895422807896
 20
219.2280259254979
 30
0.0
 11
-162.7017322807896
 21
219.5674009254978
 31
0.0
  0
LINE
  5
2036
330
1F
100
AcDbEntity
  8
Innenkanten
100
AcDbLine
 10
-162.7017722807896
 20
219.5674309254979
 30
0.0
 11
-161.1862222807896
 21
218.6924309254979
 31
0.0
  0
LINE
  5
2037
330
1F
100
AcDbEntity
  8
Mittellinie
100
AcDbLine
 10
-163.6290622807896
 20
217.8174009254979
 30
0.0
 11
-157.9161122807896
 21
217.8174009254979
 31
0.0
  0
ARC
  5
2038
330
1F
100
AcDbEntity
  8
Innenkanten
100
AcDbCircle
 10
-162.7017522807896
 20
163.8174009254979
 30
0.0
 40
3.5
100
AcDbArc
 50
225.0417499999986
 51
98.21118100000019
  0
LINE
  5
2039
330
1F
100
AcDbEntity
  8
Innenkanten
100
AcDbLine
 10
-162.7017522807896
 20
162.0674009254979
 30
0.0
 11
-161.1862222807896
 21
162.9424009254979
 31
0.0
  0
LINE
  5
203A
330
1F
100
AcDbEntity
  8
Innenkanten
100
AcDbLine
 10
-163.8773522807896
 20
162.7461409254979
 30
0.0
 11
-162.7017722807896
 21
162.0674009254979
 31
0.0
  0
LINE
  5
203B
330
1F
100
AcDbEntity
  8
Innenkanten
100
AcDbLine
 10
-163.2016422807896
 20
165.2788209254979
 30
0.0
 11
-162.7017722807896
 21
165.5674309254979
 31
0.0
  0
LINE
  5
203C
330
1F
100
AcDbEntity
  8
Innenkanten
100
AcDbLine
 10
-162.7017722807896
 20
165.5674309254979
 30
0.0
 11
-161.1862222807896
 21
164.6924309254979
 31
0.0
  0
LINE
  5
203D
330
1F
100
AcDbEntity
  8
Innenkanten
100
AcDbLine
 10
-161.1862222807896
 20
162.9424009254979
 30
0.0
 11
-161.1862222807896
 21
164.6924009254979
 31
0.0
  0
LINE
  5
203E
330
1F
100
AcDbEntity
  8
Mittellinie
100
AcDbLine
 10
-163.6290622807896
 20
163.8174009254979
 30
0.0
 11
-157.9161122807896
 21
163.8174009254979
 31
0.0
  0
LINE
  5
203F
330
1F
100
AcDbEntity
  8
Mittellinie
100
AcDbLine
 10
-162.7017522807896
 20
168.3435509254979
 30
0.0
 11
-162.7017522807896
 21
158.5308009254978
 31
0.0
  0
ARC
  5
2040
330
1F
100
AcDbEntity
  8
Innenkanten
100
AcDbCircle
 10
-248.7017822807896
 20
163.8174009254979
 30
0.0
 40
3.5
100
AcDbArc
 50
81.78879
 51
314.9582200000004
  0
LINE
  5
2041
330
1F
100
AcDbEntity
  8
Innenkanten
100
AcDbLine
 10
-248.7017822807896
 20
162.0674009254979
 30
0.0
 11
-250.2173222807896
 21
162.9424009254979
 31
0.0
  0
LINE
  5
2042
330
1F
100
AcDbEntity
  8
Innenkanten
100
AcDbLine
 10
-248.7017722807896
 20
165.5674009254979
 30
0.0
 11
-250.2173122807896
 21
164.6924009254979
 31
0.0
  0
LINE
  5
2043
330
1F
100
AcDbEntity
  8
Innenkanten
100
AcDbLine
 10
-250.2173222807896
 20
162.9424009254979
 30
0.0
 11
-250.2173222807896
 21
164.6924009254979
 31
0.0
  0
LINE
  5
2044
330
1F
100
AcDbEntity
  8
Innenkanten
100
AcDbLine
 10
-248.2019022807896
 20
165.2787909254979
 30
0.0
 11
-248.7017822807896
 21
165.5674009254979
 31
0.0
  0
LINE
  5
2045
330
1F
100
AcDbEntity
  8
Mittellinie
100
AcDbLine
 10
-248.7017822807896
 20
168.3435509254979
 30
0.0
 11
-248.7017822807896
 21
158.5308009254978
 31
0.0
  0
LINE
  5
2046
330
1F
100
AcDbEntity
  8
Mittellinie
100
AcDbLine
 10
-247.7744722807896
 20
163.8174009254979
 30
0.0
 11
-253.4874322807896
 21
163.8174009254979
 31
0.0
  0
LINE
  5
2074
330
1F
100
AcDbEntity
  8
Innenkanten
100
AcDbLine
 10
188.27362519322
 20
-61.17577901458782
 30
0.0
 11
288.27362519322
 21
-61.17577901458782
 31
0.0
  0
LINE
  5
2075
330
1F
100
AcDbEntity
  8
Innenkanten
100
AcDbLine
 10
288.27362519322
 20
-54.17577901458781
 30
0.0
 11
278.27362519322
 21
-54.17577901458781
 31
0.0
  0
LINE
  5
2076
330
1F
100
AcDbEntity
  8
0
100
AcDbLine
 10
286.27362519322
 20
-60.17577901458782
 30
0.0
 11
279.27362519322
 21
-60.17577901458782
 31
0.0
  0
LINE
  5
2077
330
1F
100
AcDbEntity
  8
0
100
AcDbLine
 10
279.27362519322
 20
-56.17577901458782
 30
0.0
 11
286.27362519322
 21
-56.17577901458782
 31
0.0
  0
LINE
  5
2078
330
1F
100
AcDbEntity
  8
0
100
AcDbLine
 10
287.77359519322
 20
-23.17577901458781
 30
0.0
 11
188.77362519322
 21
-23.17577901458781
 31
0.0
  0
LINE
  5
2079
330
1F
100
AcDbEntity
  8
Innenkanten
100
AcDbLine
 10
205.77362519322
 20
-30.17577901458782
 30
0.0
 11
215.77362519322
 21
-30.17577901458782
 31
0.0
  0
ARC
  5
207A
330
1F
100
AcDbEntity
  8
0
100
AcDbCircle
 10
188.77362519322
 20
-23.67577901458778
 30
0.0
 40
0.5
100
AcDbArc
 50
89.99997999999797
 51
180.0000299999997
  0
LINE
  5
207B
330
1F
100
AcDbEntity
  8
Mittellinie
100
AcDbLine
 10
211.27362519322
 20
-25.27504901458786
 30
0.0
 11
211.27362519322
 21
-32.59758901458781
 31
0.0
  0
LINE
  5
207C
330
1F
100
AcDbEntity
  8
0
100
AcDbLine
 10
214.77362519322
 20
-29.17577901458781
 30
0.0
 11
207.77362519322
 21
-29.17577901458781
 31
0.0
  0
LINE
  5
207D
330
1F
100
AcDbEntity
  8
0
100
AcDbLine
 10
214.77362519322
 20
-25.17577901458782
 30
0.0
 11
207.77362519322
 21
-25.17577901458782
 31
0.0
  0
LINE
  5
207E
330
1F
100
AcDbEntity
  8
0
100
AcDbLine
 10
207.77362519322
 20
-25.17577901458782
 30
0.0
 11
207.77362519322
 21
-30.17577901458782
 31
0.0
  0
LINE
  5
207F
330
1F
100
AcDbEntity
  8
0
100
AcDbLine
 10
214.77362519322
 20
-30.17577901458782
 30
0.0
 11
214.77362519322
 21
-25.17577901458782
 31
0.0
  0
LINE
  5
2080
330
1F
100
AcDbEntity
  8
Innenkanten
100
AcDbLine
 10
215.77362519322
 20
-30.17577901458782
 30
0.0
 11
215.77362519322
 21
-23.17577901458781
 31
0.0
  0
LINE
  5
2081
330
1F
100
AcDbEntity
  8
Innenkanten
100
AcDbLine
 10
260.77362519322
 20
-30.17577901458782
 30
0.0
 11
270.7736251932201
 21
-30.17577901458782
 31
0.0
  0
LINE
  5
2082
330
1F
100
AcDbEntity
  8
Mittellinie
100
AcDbLine
 10
265.27362519322
 20
-24.43068901458781
 30
0.0
 11
265.27362519322
 21
-32.59758901458781
 31
0.0
  0
LINE
  5
2083
330
1F
100
AcDbEntity
  8
0
100
AcDbLine
 10
261.77362519322
 20
-25.17577901458782
 30
0.0
 11
268.7736251932201
 21
-25.17577901458782
 31
0.0
  0
LINE
  5
2084
330
1F
100
AcDbEntity
  8
0
100
AcDbLine
 10
268.7736251932201
 20
-29.17577901458781
 30
0.0
 11
261.77362519322
 21
-29.17577901458781
 31
0.0
  0
LINE
  5
2085
330
1F
100
AcDbEntity
  8
Innenkanten
100
AcDbLine
 10
260.77362519322
 20
-23.17577901458781
 30
0.0
 11
260.77362519322
 21
-30.17577901458782
 31
0.0
  0
LINE
  5
2086
330
1F
100
AcDbEntity
  8
0
100
AcDbLine
 10
261.77362519322
 20
-30.17577901458782
 30
0.0
 11
261.77362519322
 21
-25.17577901458782
 31
0.0
  0
LINE
  5
2087
330
1F
100
AcDbEntity
  8
0
100
AcDbLine
 10
268.7736251932201
 20
-25.17577901458782
 30
0.0
 11
268.7736251932201
 21
-30.17577901458782
 31
0.0
  0
LINE
  5
2088
330
1F
100
AcDbEntity
  8
Innenkanten
100
AcDbLine
 10
198.27362519322
 20
-54.17577901458781
 30
0.0
 11
198.27362519322
 21
-61.17577901458782
 31
0.0
  0
LINE
  5
2089
330
1F
100
AcDbEntity
  8
Mittellinie
100
AcDbLine
 10
193.77362519322
 20
-68.51671901458781
 30
0.0
 11
193.77362519322
 21
-54.56679901458784
 31
0.0
  0
LINE
  5
208A
330
1F
100
AcDbEntity
  8
0
100
AcDbLine
 10
197.27362519322
 20
-61.17577901458782
 30
0.0
 11
197.27362519322
 21
-56.17577901458782
 31
0.0
  0
LINE
  5
208B
330
1F
100
AcDbEntity
  8
0
100
AcDbLine
 10
190.27362519322
 20
-56.17577901458782
 30
0.0
 11
190.27362519322
 21
-61.17577901458782
 31
0.0
  0
LINE
  5
208C
330
1F
100
AcDbEntity
  8
Innenkanten
100
AcDbLine
 10
188.27362519322
 20
-54.17577901458781
 30
0.0
 11
198.27362519322
 21
-54.17577901458781
 31
0.0
  0
LINE
  5
208D
330
1F
100
AcDbEntity
  8
0
100
AcDbLine
 10
197.27362519322
 20
-56.17577901458782
 30
0.0
 11
190.27362519322
 21
-56.17577901458782
 31
0.0
  0
LINE
  5
208E
330
1F
100
AcDbEntity
  8
0
100
AcDbLine
 10
190.27362519322
 20
-60.17577901458782
 30
0.0
 11
197.27362519322
 21
-60.17577901458782
 31
0.0
  0
LINE
  5
208F
330
1F
100
AcDbEntity
  8
Innenkanten
100
AcDbLine
 10
278.27362519322
 20
-54.17577901458781
 30
0.0
 11
278.27362519322
 21
-61.17577901458782
 31
0.0
  0
LINE
  5
2090
330
1F
100
AcDbEntity
  8
0
100
AcDbLine
 10
279.27362519322
 20
-61.17577901458782
 30
0.0
 11
279.27362519322
 21
-56.17577901458782
 31
0.0
  0
ARC
  5
2091
330
1F
100
AcDbEntity
  8
0
100
AcDbCircle
 10
287.77359519322
 20
-23.6757790145878
 30
0.0
 40
0.5
100
AcDbArc
 50
359.9999820000007
 51
89.99995999999923
  0
LINE
  5
2092
330
1F
100
AcDbEntity
  8
Mittellinie
100
AcDbLine
 10
282.77362519322
 20
-54.56679901458784
 30
0.0
 11
282.77362519322
 21
-68.51671901458781
 31
0.0
  0
LINE
  5
2093
330
1F
100
AcDbEntity
  8
0
100
AcDbLine
 10
286.27362519322
 20
-56.17577901458782
 30
0.0
 11
286.27362519322
 21
-61.17577901458782
 31
0.0
  0
LINE
  5
2098
330
1F
100
AcDbEntity
  8
Innenkanten
100
AcDbLine
 10
205.77362519322
 20
-23.17577901458781
 30
0.0
 11
205.77362519322
 21
-158.6757790145878
 31
0.0
  0
LINE
  5
2099
330
1F
100
AcDbEntity
  8
Innenkanten
100
AcDbLine
 10
270.77362519322
 20
-23.17577901458781
 30
0.0
 11
270.77362519322
 21
-158.6757790145878
 31
0.0
  0
LINE
  5
209A
330
1F
100
AcDbEntity
  8
0
100
AcDbLine
 10
270.77362519322
 20
-158.6757790145878
 30
0.0
 11
270.77362519322
 21
-158.6757790145878
 31
0.0
  0
LINE
  5
219B
330
1F
100
AcDbEntity
  8
Innenkanten
100
AcDbLine
 10
122.4101179065547
 20
231.4498034028007
 30
0.0
 11
122.4652103198179
 21
134.1105856549063
 31
0.0
  0
LINE
  5
219C
330
1F
100
AcDbEntity
  8
Mittellinie
100
AcDbLine
 10
104.4652103198179
 20
104.2678456549064
 30
0.0
 11
104.4652103198179
 21
137.5697856549063
 31
0.0
  0
LINE
  5
219D
330
1F
100
AcDbEntity
  8
0
100
AcDbLine
 10
84.96521031981798
 20
150.0105856549063
 30
0.0
 11
84.96521031981798
 21
134.1105856549063
 31
0.0
  0
LINE
  5
219E
330
1F
100
AcDbEntity
  8
0
100
AcDbLine
 10
123.9652103198179
 20
134.1105856549063
 30
0.0
 11
123.9652103198179
 21
222.5105856549063
 31
0.0
  0
LINE
  5
219F
330
1F
100
AcDbEntity
  8
0
100
AcDbLine
 10
32.46521031981797
 20
142.5105856549063
 30
0.0
 11
32.46521031981797
 21
119.3105856549063
 31
0.0
  0
ARC
  5
21A0
330
1F
100
AcDbEntity
  8
0
100
AcDbCircle
 10
36.55103031981798
 20
153.0800756549064
 30
0.0
 40
60.0
100
AcDbArc
 50
191.1180200000011
 51
213.7392799999973
  0
LINE
  5
21A4
330
1F
100
AcDbEntity
  8
0
100
AcDbLine
 10
26.36523031981801
 20
96.51059565490641
 30
0.0
 11
-6.434779680182145
 21
96.51059565490641
 31
0.0
  0
LINE
  5
21A5
330
1F
100
AcDbEntity
  8
Innenkanten
100
AcDbLine
 10
-7.434779680182145
 20
112.5105956549064
 30
0.0
 11
27.36523031981801
 21
112.5105956549064
 31
0.0
  0
LINE
  5
21A6
330
1F
100
AcDbEntity
  8
Innenkanten
100
AcDbLine
 10
27.36523031981801
 20
97.51059565490642
 30
0.0
 11
-7.434779680182145
 21
97.51059565490642
 31
0.0
  0
LINE
  5
21A7
330
1F
100
AcDbEntity
  8
0
100
AcDbLine
 10
30.46521031981797
 20
115.5105956549064
 30
0.0
 11
-10.53478968018203
 21
115.5105956549064
 31
0.0
  0
LINE
  5
21A8
330
1F
100
AcDbEntity
  8
0
100
AcDbLine
 10
-12.51180968018206
 20
119.3105856549063
 30
0.0
 11
32.46521031981797
 21
119.3105856549063
 31
0.0
  0
LINE
  5
21A9
330
1F
100
AcDbEntity
  8
Innenkanten
100
AcDbLine
 10
-10.53478968018203
 20
118.3105856549063
 30
0.0
 11
30.46521031981797
 21
118.3105856549063
 31
0.0
  0
LINE
  5
21AA
330
1F
100
AcDbEntity
  8
Innenkanten
100
AcDbLine
 10
89.66519031981794
 20
112.0105956549064
 30
0.0
 11
119.2652003198179
 21
112.0105956549064
 31
0.0
  0
LINE
  5
21AB
330
1F
100
AcDbEntity
  8
Innenkanten
100
AcDbLine
 10
119.2652003198179
 20
127.3105956549063
 30
0.0
 11
89.66519031981794
 21
127.3105956549063
 31
0.0
  0
LINE
  5
21AC
330
1F
100
AcDbEntity
  8
Innenkanten
100
AcDbLine
 10
85.41519031981795
 20
133.1105856549063
 30
0.0
 11
123.5152003198179
 21
133.1105856549063
 31
0.0
  0
LINE
  5
21AD
330
1F
100
AcDbEntity
  8
0
100
AcDbLine
 10
123.5152003198179
 20
130.3105956549063
 30
0.0
 11
85.41519031981795
 21
130.3105956549063
 31
0.0
  0
LINE
  5
21AE
330
1F
100
AcDbEntity
  8
0
100
AcDbLine
 10
123.9652103198179
 20
134.1105856549063
 30
0.0
 11
84.96521031981798
 21
134.1105856549063
 31
0.0
  0
LINE
  5
21AF
330
1F
100
AcDbEntity
  8
0
100
AcDbLine
 10
118.2652003198179
 20
111.0105956549064
 30
0.0
 11
90.66519031981796
 21
111.0105956549064
 31
0.0
  0
LINE
  5
21B0
330
1F
100
AcDbEntity
  8
Innenkanten
100
AcDbLine
 10
118.2652003198179
 20
111.0105956549064
 30
0.0
 11
118.2652003198179
 21
127.3105956549063
 31
0.0
  0
LINE
  5
21B1
330
1F
100
AcDbEntity
  8
0
100
AcDbLine
 10
119.2652003198179
 20
112.0106156549063
 30
0.0
 11
118.2652003198179
 21
111.0106156549063
 31
0.0
  0
LINE
  5
21B2
330
1F
100
AcDbEntity
  8
0
100
AcDbLine
 10
119.2652003198179
 20
112.0105956549064
 30
0.0
 11
119.2652003198179
 21
130.3105956549063
 31
0.0
  0
LINE
  5
21B3
330
1F
100
AcDbEntity
  8
0
100
AcDbLine
 10
123.5152003198179
 20
134.1105856549063
 30
0.0
 11
123.5152003198179
 21
130.3105956549063
 31
0.0
  0
LINE
  5
21B4
330
1F
100
AcDbEntity
  8
Innenkanten
100
AcDbLine
 10
90.66519031981796
 20
111.0105956549064
 30
0.0
 11
90.66519031981796
 21
127.3105956549063
 31
0.0
  0
LINE
  5
21B5
330
1F
100
AcDbEntity
  8
0
100
AcDbLine
 10
90.66519031981796
 20
111.0106156549063
 30
0.0
 11
89.66519031981794
 21
112.0106156549063
 31
0.0
  0
LINE
  5
21B6
330
1F
100
AcDbEntity
  8
0
100
AcDbLine
 10
89.66519031981794
 20
130.3105956549063
 30
0.0
 11
89.66519031981794
 21
112.0105956549064
 31
0.0
  0
LINE
  5
21B7
330
1F
100
AcDbEntity
  8
0
100
AcDbLine
 10
85.41519031981795
 20
134.1105856549063
 30
0.0
 11
85.41519031981795
 21
130.3105956549063
 31
0.0
  0
LINE
  5
21B8
330
1F
100
AcDbEntity
  8
0
100
AcDbLine
 10
27.36523031981801
 20
115.5105956549064
 30
0.0
 11
27.36523031981801
 21
97.51059565490642
 31
0.0
  0
LINE
  5
21B9
330
1F
100
AcDbEntity
  8
Mittellinie
100
AcDbLine
 10
9.96521031981797
 20
89.85202565490636
 30
0.0
 11
9.96521031981797
 21
126.6450456549064
 31
0.0
  0
LINE
  5
21BA
330
1F
100
AcDbEntity
  8
Innenkanten
100
AcDbLine
 10
26.36523031981801
 20
112.5105956549064
 30
0.0
 11
26.36523031981801
 21
96.51059565490641
 31
0.0
  0
LINE
  5
21BB
330
1F
100
AcDbEntity
  8
0
100
AcDbLine
 10
26.36526031981799
 20
96.51061565490635
 30
0.0
 11
27.36526031981799
 21
97.51061565490637
 31
0.0
  0
LINE
  5
21BC
330
1F
100
AcDbEntity
  8
0
100
AcDbLine
 10
30.46521031981797
 20
119.3105856549063
 30
0.0
 11
30.46521031981797
 21
115.5105956549064
 31
0.0
  0
LINE
  5
21BD
330
1F
100
AcDbEntity
  8
0
100
AcDbLine
 10
-7.434779680182145
 20
97.51059565490642
 30
0.0
 11
-7.434779680182145
 21
115.5105956549064
 31
0.0
  0
LINE
  5
21BE
330
1F
100
AcDbEntity
  8
Innenkanten
100
AcDbLine
 10
-6.434779680182145
 20
96.51059565490641
 30
0.0
 11
-6.434779680182145
 21
112.5105956549064
 31
0.0
  0
LINE
  5
21BF
330
1F
100
AcDbEntity
  8
0
100
AcDbLine
 10
-7.434779680182145
 20
97.51059565490642
 30
0.0
 11
-6.434779680182145
 21
96.51059565490641
 31
0.0
  0
LINE
  5
21C0
330
1F
100
AcDbEntity
  8
0
100
AcDbLine
 10
-10.53478968018203
 20
115.5105956549064
 30
0.0
 11
-10.53478968018203
 21
119.3105856549063
 31
0.0
  0
ARC
  5
21C1
330
1F
100
AcDbEntity
  8
0
100
AcDbCircle
 10
-12.51180968018206
 20
120.3105856549063
 30
0.0
 40
1.0
100
AcDbArc
 50
213.8285199999984
 51
269.9999800000012
  0
LINE
  5
21C2
330
1F
100
AcDbEntity
  8
0
100
AcDbLine
 10
-51.03478968018203
 20
160.0105856549064
 30
0.0
 11
84.46521031981797
 21
160.0105856549064
 31
0.0
  0
LINE
  5
21C3
330
1F
100
AcDbEntity
  8
0
100
AcDbLine
 10
84.46521031981797
 20
225.0105856549063
 30
0.0
 11
-51.03478968018203
 21
225.0105856549063
 31
0.0
  0
LINE
  5
21C4
330
1F
100
AcDbEntity
  8
0
100
AcDbLine
 10
83.96521005801862
 20
142.5105856549064
 30
0.0
 11
-61.03478968018203
 21
142.5105856549063
 31
0.0
  0
LINE
  5
21C5
330
1F
100
AcDbEntity
  8
0
100
AcDbLine
 10
-61.03478968018203
 20
242.5105856549063
 30
0.0
 11
83.96521016273835
 21
242.5105556549064
 31
0.0
  0
LINE
  5
21C6
330
1F
100
AcDbEntity
  8
Innenkanten
100
AcDbLine
 10
-22.32287968018204
 20
141.5102356549064
 30
0.0
 11
32.46521031981797
 21
141.5102356549064
 31
0.0
  0
LINE
  5
21C7
330
1F
100
AcDbEntity
  8
Innenkanten
100
AcDbLine
 10
32.96521031981797
 20
162.9105956549063
 30
0.0
 11
-43.03478968018203
 21
162.9105956549063
 31
0.0
  0
LINE
  5
21C8
330
1F
100
AcDbEntity
  8
Innenkanten
100
AcDbLine
 10
32.96521031981797
 20
164.9105956549064
 30
0.0
 11
-43.03478968018203
 21
164.9105956549064
 31
0.0
  0
LINE
  5
21C9
330
1F
100
AcDbEntity
  8
Innenkanten
100
AcDbLine
 10
32.96521031981797
 20
167.2105956549063
 30
0.0
 11
-43.03478968018203
 21
167.2105956549063
 31
0.0
  0
LINE
  5
21CA
330
1F
100
AcDbEntity
  8
Innenkanten
100
AcDbLine
 10
32.96521031981797
 20
169.2105956549063
 30
0.0
 11
-43.03478968018203
 21
169.2105956549063
 31
0.0
  0
LINE
  5
21CB
330
1F
100
AcDbEntity
  8
Innenkanten
100
AcDbLine
 10
32.96521031981797
 20
171.5105856549064
 30
0.0
 11
-43.03478968018203
 21
171.5105856549064
 31
0.0
  0
LINE
  5
21CC
330
1F
100
AcDbEntity
  8
Innenkanten
100
AcDbLine
 10
32.96521031981797
 20
173.5105856549064
 30
0.0
 11
-43.03478968018203
 21
173.5105856549064
 31
0.0
  0
LINE
  5
21CD
330
1F
100
AcDbEntity
  8
Innenkanten
100
AcDbLine
 10
32.96521031981797
 20
211.5105856549063
 30
0.0
 11
-43.03478968018203
 21
211.5105856549063
 31
0.0
  0
LINE
  5
21CE
330
1F
100
AcDbEntity
  8
Innenkanten
100
AcDbLine
 10
32.96521031981797
 20
213.5105856549063
 30
0.0
 11
-43.03478968018203
 21
213.5105856549063
 31
0.0
  0
LINE
  5
21CF
330
1F
100
AcDbEntity
  8
Innenkanten
100
AcDbLine
 10
32.96521031981797
 20
215.8106056549064
 30
0.0
 11
-43.03478968018203
 21
215.8106056549064
 31
0.0
  0
LINE
  5
21D0
330
1F
100
AcDbEntity
  8
Innenkanten
100
AcDbLine
 10
32.96521031981797
 20
217.8106056549064
 30
0.0
 11
-43.03478968018203
 21
217.8106056549064
 31
0.0
  0
LINE
  5
21D1
330
1F
100
AcDbEntity
  8
Innenkanten
100
AcDbLine
 10
32.96521031981797
 20
220.1105856549064
 30
0.0
 11
-43.03478968018203
 21
220.1105856549064
 31
0.0
  0
LINE
  5
21D2
330
1F
100
AcDbEntity
  8
Innenkanten
100
AcDbLine
 10
32.96521031981797
 20
222.1105856549064
 30
0.0
 11
-43.03478968018203
 21
222.1105856549064
 31
0.0
  0
LINE
  5
21D3
330
1F
100
AcDbEntity
  8
Mittellinie
100
AcDbLine
 10
-117.1679696801819
 20
192.5105856549063
 30
0.0
 11
136.9355927387105
 21
192.5105856549063
 31
0.0
  0
LINE
  5
21D7
330
1F
100
AcDbEntity
  8
Innenkanten
100
AcDbLine
 10
32.96521031981797
 20
242.5105556549064
 30
0.0
 11
32.96521031981797
 21
142.5105856549063
 31
0.0
  0
LINE
  5
21D8
330
1F
100
AcDbEntity
  8
Innenkanten
100
AcDbLine
 10
33.46521031981797
 20
242.5105856549063
 30
0.0
 11
33.46521031981797
 21
142.5105856549063
 31
0.0
  0
LINE
  5
21D9
330
1F
100
AcDbEntity
  8
Innenkanten
100
AcDbLine
 10
46.46521031981797
 20
142.5105856549063
 30
0.0
 11
46.46521031981797
 21
242.5105856549063
 31
0.0
  0
LINE
  5
21DA
330
1F
100
AcDbEntity
  8
Innenkanten
100
AcDbLine
 10
53.46521031981797
 20
242.5105856549063
 30
0.0
 11
53.46521031981797
 21
232.5105856549063
 31
0.0
  0
LINE
  5
21DB
330
1F
100
AcDbEntity
  8
0
100
AcDbLine
 10
47.46521031981797
 20
240.5105856549063
 30
0.0
 11
47.46521031981797
 21
233.5105856549063
 31
0.0
  0
LINE
  5
21DC
330
1F
100
AcDbEntity
  8
0
100
AcDbLine
 10
51.46521031981797
 20
233.5105856549063
 30
0.0
 11
51.46521031981797
 21
240.5105856549063
 31
0.0
  0
LINE
  5
21DD
330
1F
100
AcDbEntity
  8
0
100
AcDbLine
 10
84.46521031981797
 20
242.0105556549064
 30
0.0
 11
84.46521031981797
 21
143.0105856549063
 31
0.0
  0
LINE
  5
21DE
330
1F
100
AcDbEntity
  8
Innenkanten
100
AcDbLine
 10
91.46521031981796
 20
235.0105856549063
 30
0.0
 11
91.46521031981796
 21
150.0105856549063
 31
0.0
  0
LINE
  5
21DF
330
1F
100
AcDbEntity
  8
0
100
AcDbLine
 10
97.46521031981798
 20
150.0105856549063
 30
0.0
 11
97.46521031981798
 21
235.0105856549063
 31
0.0
  0
LINE
  5
21E0
330
1F
100
AcDbEntity
  8
Innenkanten
100
AcDbLine
 10
122.4652103198179
 20
158.1630456549063
 30
0.0
 11
97.46521031981798
 21
158.1630456549063
 31
0.0
  0
LINE
  5
21E1
330
1F
100
AcDbEntity
  8
Innenkanten
100
AcDbLine
 10
122.4652103198179
 20
158.1630456549063
 30
0.0
 11
123.9652103198179
 21
159.0254756549063
 31
0.0
  0
LINE
  5
21E2
330
1F
100
AcDbEntity
  8
0
100
AcDbLine
 10
77.46521031981797
 20
160.0105856549063
 30
0.0
 11
77.46521031981797
 21
170.0105856549063
 31
0.0
  0
LINE
  5
21E3
330
1F
100
AcDbEntity
  8
0
100
AcDbLine
 10
84.46521031981797
 20
150.0105856549063
 30
0.0
 11
97.46521031981798
 21
150.0105856549063
 31
0.0
  0
LINE
  5
21E4
330
1F
100
AcDbEntity
  8
Mittellinie
100
AcDbLine
 10
88.97308031981799
 20
157.3355056549063
 30
0.0
 11
95.79440031981794
 21
157.3355056549063
 31
0.0
  0
LINE
  5
21E5
330
1F
100
AcDbEntity
  8
Innenkanten
100
AcDbLine
 10
91.46521031981796
 20
151.4872556549063
 30
0.0
 11
97.46521031981798
 21
151.4872556549063
 31
0.0
  0
LINE
  5
21E6
330
1F
100
AcDbEntity
  8
0
100
AcDbLine
 10
91.46521031981796
 20
157.8512156549064
 30
0.0
 11
97.46521031981798
 21
157.8512156549064
 31
0.0
  0
ARC
  5
21E7
330
1F
100
AcDbEntity
  8
0
100
AcDbCircle
 10
92.46521031981798
 20
155.8355056549063
 30
0.0
 40
1.0
100
AcDbArc
 50
269.9999700000002
 51
0.0000200000020199
  0
LINE
  5
21E8
330
1F
100
AcDbEntity
  8
0
100
AcDbLine
 10
93.46521031981797
 20
155.8355056549063
 30
0.0
 11
93.46521031981797
 21
157.8512156549064
 31
0.0
  0
LINE
  5
21E9
330
1F
100
AcDbEntity
  8
0
100
AcDbLine
 10
92.46521031981798
 20
154.8355056549064
 30
0.0
 11
91.46521031981796
 21
154.8355056549064
 31
0.0
  0
ARC
  5
21EA
330
1F
100
AcDbEntity
  8
0
100
AcDbCircle
 10
83.96521031981796
 20
143.0105856549063
 30
0.0
 40
0.5
100
AcDbArc
 50
269.9999700000002
 51
0.0000200000020199
  0
LINE
  5
21EB
330
1F
100
AcDbEntity
  8
Innenkanten
100
AcDbLine
 10
84.46521031981797
 20
165.0069856549063
 30
0.0
 11
97.46521031981798
 21
165.0069856549063
 31
0.0
  0
LINE
  5
21EC
330
1F
100
AcDbEntity
  8
Mittellinie
100
AcDbLine
 10
82.36594031981793
 20
165.5105856549063
 30
0.0
 11
75.04340031981797
 21
165.5105856549063
 31
0.0
  0
LINE
  5
21ED
330
1F
100
AcDbEntity
  8
0
100
AcDbLine
 10
78.46521031981797
 20
169.0105856549063
 30
0.0
 11
78.46521031981797
 21
162.0105856549063
 31
0.0
  0
LINE
  5
21EE
330
1F
100
AcDbEntity
  8
0
100
AcDbLine
 10
82.46521031981798
 20
169.0105856549063
 30
0.0
 11
82.46521031981798
 21
162.0105856549063
 31
0.0
  0
LINE
  5
21EF
330
1F
100
AcDbEntity
  8
0
100
AcDbLine
 10
82.46521031981798
 20
162.0105856549063
 30
0.0
 11
77.46521031981797
 21
162.0105856549063
 31
0.0
  0
LINE
  5
21F0
330
1F
100
AcDbEntity
  8
0
100
AcDbLine
 10
77.46521031981797
 20
169.0105856549063
 30
0.0
 11
82.46521031981798
 21
169.0105856549063
 31
0.0
  0
LINE
  5
21F1
330
1F
100
AcDbEntity
  8
0
100
AcDbLine
 10
77.46521031981797
 20
170.0105856549063
 30
0.0
 11
84.46521031981797
 21
170.0105856549063
 31
0.0
  0
LINE
  5
21F2
330
1F
100
AcDbEntity
  8
0
100
AcDbLine
 10
97.46524275897161
 20
232.5103960298812
 30
0.0
 11
121.8314827589716
 21
231.6595360298812
 31
0.0
  0
ARC
  5
21F3
330
1F
100
AcDbEntity
  8
0
100
AcDbCircle
 10
93.91632031981799
 20
222.5035956549064
 30
0.0
 40
30.04887599999999
100
AcDbArc
 50
0.0133299999994841
 51
16.30718999999895
  0
ARC
  5
21F4
330
1F
100
AcDbEntity
  8
0
100
AcDbCircle
 10
121.7965703198179
 20
230.6601456549064
 30
0.0
 40
1.0
100
AcDbArc
 50
16.30782000000095
 51
87.99925799999975
  0
LINE
  5
21F5
330
1F
100
AcDbEntity
  8
Innenkanten
100
AcDbLine
 10
84.46521031981797
 20
220.0141256549063
 30
0.0
 11
97.46521031981798
 21
220.0141256549063
 31
0.0
  0
LINE
  5
21F6
330
1F
100
AcDbEntity
  8
0
100
AcDbLine
 10
84.46521031981797
 20
235.0105856549063
 30
0.0
 11
97.46521031981798
 21
235.0105856549063
 31
0.0
  0
ARC
  5
21F7
330
1F
100
AcDbEntity
  8
0
100
AcDbCircle
 10
92.46521031981798
 20
223.6230656549063
 30
0.0
 40
1.0
100
AcDbArc
 50
0.0000400000007758
 51
90.00001799999919
  0
LINE
  5
21F8
330
1F
100
AcDbEntity
  8
Innenkanten
100
AcDbLine
 10
91.46521031981796
 20
221.4908056549063
 30
0.0
 11
97.46521031981798
 21
221.4908056549063
 31
0.0
  0
LINE
  5
21F9
330
1F
100
AcDbEntity
  8
Mittellinie
100
AcDbLine
 10
88.97308031981799
 20
222.1230656549063
 30
0.0
 11
95.79440031981794
 21
222.1230656549063
 31
0.0
  0
LINE
  5
21FA
330
1F
100
AcDbEntity
  8
0
100
AcDbLine
 10
93.46521031981797
 20
221.4908056549063
 30
0.0
 11
93.46521031981797
 21
223.6230656549063
 31
0.0
  0
LINE
  5
21FB
330
1F
100
AcDbEntity
  8
Innenkanten
100
AcDbLine
 10
91.46521031981796
 20
227.8547856549063
 30
0.0
 11
97.46521031981798
 21
227.8547856549063
 31
0.0
  0
LINE
  5
21FC
330
1F
100
AcDbEntity
  8
0
100
AcDbLine
 10
91.46521031981796
 20
224.6230656549063
 30
0.0
 11
92.46521031981798
 21
224.6230656549063
 31
0.0
  0
LINE
  5
21FD
330
1F
100
AcDbEntity
  8
Innenkanten
100
AcDbLine
 10
77.46521031981797
 20
215.0105856549064
 30
0.0
 11
77.46521031981797
 21
225.0105856549063
 31
0.0
  0
LINE
  5
21FE
330
1F
100
AcDbEntity
  8
Mittellinie
100
AcDbLine
 10
83.21030031981797
 20
219.5105856549063
 30
0.0
 11
75.04340031981797
 21
219.5105856549063
 31
0.0
  0
LINE
  5
21FF
330
1F
100
AcDbEntity
  8
0
100
AcDbLine
 10
82.46521031981798
 20
216.0105856549063
 30
0.0
 11
82.46521031981798
 21
223.0105856549063
 31
0.0
  0
LINE
  5
2200
330
1F
100
AcDbEntity
  8
0
100
AcDbLine
 10
78.46521031981797
 20
223.0105856549063
 30
0.0
 11
78.46521031981797
 21
216.0105856549063
 31
0.0
  0
LINE
  5
2201
330
1F
100
AcDbEntity
  8
Innenkanten
100
AcDbLine
 10
84.46521031981797
 20
215.0105856549064
 30
0.0
 11
77.46521031981797
 21
215.0105856549064
 31
0.0
  0
LINE
  5
2202
330
1F
100
AcDbEntity
  8
0
100
AcDbLine
 10
77.46521031981797
 20
216.0105856549063
 30
0.0
 11
82.46521031981798
 21
216.0105856549063
 31
0.0
  0
LINE
  5
2203
330
1F
100
AcDbEntity
  8
0
100
AcDbLine
 10
82.46521031981798
 20
223.0105856549063
 30
0.0
 11
77.46521031981797
 21
223.0105856549063
 31
0.0
  0
LINE
  5
2204
330
1F
100
AcDbEntity
  8
Innenkanten
100
AcDbLine
 10
53.46521031981797
 20
152.5105856549063
 30
0.0
 11
46.46521031981797
 21
152.5105856549063
 31
0.0
  0
LINE
  5
2205
330
1F
100
AcDbEntity
  8
Mittellinie
100
AcDbLine
 10
39.12427031981798
 20
148.0105856549063
 30
0.0
 11
53.07419031981794
 21
148.0105856549063
 31
0.0
  0
LINE
  5
2206
330
1F
100
AcDbEntity
  8
0
100
AcDbLine
 10
46.46521031981797
 20
151.5105856549063
 30
0.0
 11
51.46521031981797
 21
151.5105856549063
 31
0.0
  0
LINE
  5
2207
330
1F
100
AcDbEntity
  8
0
100
AcDbLine
 10
51.46521031981797
 20
144.5105856549063
 30
0.0
 11
46.46521031981797
 21
144.5105856549063
 31
0.0
  0
LINE
  5
2208
330
1F
100
AcDbEntity
  8
Innenkanten
100
AcDbLine
 10
53.46521031981797
 20
142.5105856549063
 30
0.0
 11
53.46521031981797
 21
152.5105856549063
 31
0.0
  0
LINE
  5
2209
330
1F
100
AcDbEntity
  8
0
100
AcDbLine
 10
51.46521031981797
 20
151.5105856549063
 30
0.0
 11
51.46521031981797
 21
144.5105856549063
 31
0.0
  0
LINE
  5
220A
330
1F
100
AcDbEntity
  8
0
100
AcDbLine
 10
47.46521031981797
 20
144.5105856549063
 30
0.0
 11
47.46521031981797
 21
151.5105856549063
 31
0.0
  0
LINE
  5
220B
330
1F
100
AcDbEntity
  8
Innenkanten
100
AcDbLine
 10
53.46521031981797
 20
232.5105856549063
 30
0.0
 11
46.46521031981797
 21
232.5105856549063
 31
0.0
  0
LINE
  5
220C
330
1F
100
AcDbEntity
  8
0
100
AcDbLine
 10
46.46521031981797
 20
233.5105856549063
 30
0.0
 11
51.46521031981797
 21
233.5105856549063
 31
0.0
  0
ARC
  5
220D
330
1F
100
AcDbEntity
  8
0
100
AcDbCircle
 10
83.96521031981796
 20
242.0105556549064
 30
0.0
 40
0.5
100
AcDbArc
 50
0.0000400000007758
 51
90.00001799999919
  0
LINE
  5
220E
330
1F
100
AcDbEntity
  8
Mittellinie
100
AcDbLine
 10
53.07419031981794
 20
237.0105856549063
 30
0.0
 11
39.12427031981798
 21
237.0105856549063
 31
0.0
  0
LINE
  5
220F
330
1F
100
AcDbEntity
  8
0
100
AcDbLine
 10
51.46521031981797
 20
240.5105856549063
 30
0.0
 11
46.46521031981797
 21
240.5105856549063
 31
0.0
  0
LINE
  5
2213
330
1F
100
AcDbEntity
  8
0
100
AcDbLine
 10
-61.03478968018203
 20
242.5105856549063
 30
0.0
 11
-61.03478968018203
 21
142.5105856549063
 31
0.0
  0
LINE
  5
2214
330
1F
100
AcDbEntity
  8
0
100
AcDbLine
 10
-64.03478968018203
 20
145.0105856549064
 30
0.0
 11
-64.03478968018203
 21
240.0105856549064
 31
0.0
  0
LINE
  5
2215
330
1F
100
AcDbEntity
  8
Innenkanten
100
AcDbLine
 10
-43.03478968018203
 20
242.5105856549063
 30
0.0
 11
-43.03478968018203
 21
142.5105856549063
 31
0.0
  0
LINE
  5
2216
330
1F
100
AcDbEntity
  8
Innenkanten
100
AcDbLine
 10
-51.03478968018203
 20
142.5105856549063
 30
0.0
 11
-51.03478968018203
 21
242.5105856549063
 31
0.0
  0
LINE
  5
221D
330
1F
100
AcDbEntity
  8
0
100
AcDbLine
 10
-66.03478968018203
 20
204.5105856549063
 30
0.0
 11
-106.034789680182
 21
204.5105856549063
 31
0.0
  0
LINE
  5
221E
330
1F
100
AcDbEntity
  8
0
100
AcDbLine
 10
-66.03478968018203
 20
180.5105856549064
 30
0.0
 11
-106.034789680182
 21
180.5105856549064
 31
0.0
  0
LINE
  5
221F
330
1F
100
AcDbEntity
  8
0
100
AcDbLine
 10
-66.03478968018203
 20
207.5105856549063
 30
0.0
 11
-66.03478968018203
 21
177.5105856549064
 31
0.0
  0
LINE
  5
2220
330
1F
100
AcDbEntity
  8
0
100
AcDbLine
 10
-22.32290968018196
 20
142.5105856549063
 30
0.0
 11
-22.32290968018196
 21
141.5102356549064
 31
0.0
  0
LINE
  5
2221
330
1F
100
AcDbEntity
  8
Innenkanten
100
AcDbLine
 10
-61.03478968018203
 20
147.1646956549063
 30
0.0
 11
-51.03478968018203
 21
147.1646956549063
 31
0.0
  0
LINE
  5
2222
330
1F
100
AcDbEntity
  8
0
100
AcDbLine
 10
-61.03478968018203
 20
145.0105856549064
 30
0.0
 11
-64.03478968018203
 21
145.0105856549064
 31
0.0
  0
LINE
  5
2223
330
1F
100
AcDbEntity
  8
0
100
AcDbLine
 10
-66.03478968018203
 20
177.5105856549064
 30
0.0
 11
-64.03478968018203
 21
177.5105856549064
 31
0.0
  0
LINE
  5
2224
330
1F
100
AcDbEntity
  8
0
100
AcDbLine
 10
-64.03478968018203
 20
207.5105856549063
 30
0.0
 11
-66.03478968018203
 21
207.5105856549063
 31
0.0
  0
LINE
  5
2225
330
1F
100
AcDbEntity
  8
0
100
AcDbLine
 10
-106.034789680182
 20
204.5105856549063
 30
0.0
 11
-106.034789680182
 21
180.5105856549064
 31
0.0
  0
LINE
  5
222F
330
1F
100
AcDbEntity
  8
Innenkanten
100
AcDbLine
 10
-61.03478968018203
 20
237.8564756549063
 30
0.0
 11
-51.03478968018203
 21
237.8564756549063
 31
0.0
  0
LINE
  5
2230
330
1F
100
AcDbEntity
  8
0
100
AcDbLine
 10
-64.03478968018203
 20
240.0105856549064
 30
0.0
 11
-61.03478968018203
 21
240.0105856549064
 31
0.0
  0
DIMENSION
  5
2297
102
{ACAD_XDICTIONARY
360
22A4
102
}
102
{ACAD_REACTORS
330
22AE
102
}
330
1F
100
AcDbEntity
  8
Bemaßung
100
AcDbDimension
  2
*D47
 10
332.483537434927
 20
192.4892271507332
 30
0.0
 11
330.4002041015936
 21
151.7392321507333
 31
0.0
 70
    32
 71
     5
 42
81.49998999999997
  3
ISO-25
100
AcDbAlignedDimension
 13
358.3445814442029
 23
110.9892371507332
 33
0.0
 14
344.3560903152924
 24
192.4892271507332
 34
0.0
 50
90.0
100
AcDbRotatedDimension
  0
VIEWPORT
  5
FF1
330
FEA
100
AcDbEntity
 67
     1
  8
0
100
AcDbViewport
 10
144.7270812988281
 20
101.2295806407928
 30
0.0
 40
377.5505027244501
 41
222.1599421176024
 68
     1
 69
     1
 12
144.7270812988281
 22
101.2295806407928
 13
0.0
 23
0.0
 14
10.0
 24
10.0
 15
10.0
 25
10.0
 16
0.0
 26
0.0
 36
1.0
 17
0.0
 27
0.0
 37
0.0
 42
50.0
 43
0.0
 44
0.0
 45
222.1599421176024
 50
0.0
 51
0.0
 72
   100
 90
    32800
  1

281
     0
 71
     1
 74
     0
110
0.0
120
0.0
130
0.0
111
1.0
121
0.0
131
0.0
112
0.0
122
1.0
132
0.0
 79
     0
146
0.0
  0
VIEWPORT
  5
FF3
330
FEA
100
AcDbEntity
 67
     1
  8
0
100
AcDbViewport
 10
144.7270812988279
 20
101.5933663914631
 30
0.0
 40
296.2546461044554
 41
209.0554971327303
 68
     2
 69
     2
 12
203.1282534378307
 22
126.0400189425975
 13
0.0
 23
0.0
 14
10.0
 24
10.0
 15
10.0
 25
10.0
 16
0.0
 26
0.0
 36
1.0
 17
0.0
 27
0.0
 37
0.0
 42
50.0
 43
0.0
 44
0.0
 45
382.825506506762
 50
0.0
 51
0.0
 72
   100
 90
    32864
  1

281
     0
 71
     1
 74
     0
110
-53.08748352590964
120
3.820899076262548
130
0.0
111
1.0
121
0.0
131
0.0
112
0.0
122
1.0
132
0.0
 79
     0
146
0.0
  0
ENDSEC
  0
SECTION
  2
OBJECTS
  0
DICTIONARY
  5
C
330
0
100
AcDbDictionary
281
     1
  3
ACAD_GROUP
350
D
  3
ACAD_LAYOUT
350
1A
  3
ACAD_MLINESTYLE
350
17
  3
ACAD_PLOTSETTINGS
350
19
  3
ACAD_PLOTSTYLENAME
350
E
  3
AcadDim
350
118B
  3
AcDbVariableDictionary
350
50
  3
DWGPROPS
350
A6A
  0
DICTIONARY
  5
19DE
330
19D1
100
AcDbDictionary
280
     1
281
     1
  3
ACAD_DIMASSOC
360
19E8
  0
DICTIONARY
  5
1A01
330
19F2
100
AcDbDictionary
280
     1
281
     1
  3
ACAD_DIMASSOC
360
1A0D
  0
DICTIONARY
  5
1A26
330
1A19
100
AcDbDictionary
280
     1
281
     1
  3
ACAD_DIMASSOC
360
1A30
  0
DICTIONARY
  5
1A47
330
1A3A
100
AcDbDictionary
280
     1
281
     1
  3
ACAD_DIMASSOC
360
1A51
  0
DICTIONARY
  5
1A68
330
1A5B
100
AcDbDictionary
280
     1
281
     1
  3
ACAD_DIMASSOC
360
1A72
  0
DICTIONARY
  5
1A89
330
1A7C
100
AcDbDictionary
280
     1
281
     1
  3
ACAD_DIMASSOC
360
1A93
  0
DICTIONARY
  5
1AAA
330
1A9D
100
AcDbDictionary
280
     1
281
     1
  3
ACAD_DIMASSOC
360
1AB4
  0
DICTIONARY
  5
1ACB
330
1ABE
100
AcDbDictionary
280
     1
281
     1
  3
ACAD_DIMASSOC
360
1AD5
  0
DICTIONARY
  5
1B0E
330
1B01
100
AcDbDictionary
280
     1
281
     1
  3
ACAD_DIMASSOC
360
1B18
  0
DICTIONARY
  5
1B2F
330
1B22
100
AcDbDictionary
280
     1
281
     1
  3
ACAD_DIMASSOC
360
1B39
  0
DICTIONARY
  5
1B6C
330
1B5D
100
AcDbDictionary
280
     1
281
     1
  3
ACAD_DIMASSOC
360
1B78
  0
DICTIONARY
  5
1B8D
330
1B84
100
AcDbDictionary
280
     1
281
     1
  3
ACAD_DIMASSOC
360
1B93
  0
DICTIONARY
  5
1BA2
330
1B99
100
AcDbDictionary
280
     1
281
     1
  3
ACAD_DIMASSOC
360
1BA8
  0
DICTIONARY
  5
1BC0
330
1BB3
100
AcDbDictionary
280
     1
281
     1
  3
ACAD_DIMASSOC
360
1BCA
  0
DICTIONARY
  5
22A4
330
2297
100
AcDbDictionary
280
     1
281
     1
  3
ACAD_DIMASSOC
360
22AE
  0
DICTIONARY
  5
D
102
{ACAD_REACTORS
330
C
102
}
330
C
100
AcDbDictionary
281
     1
  3
*A1
350
2A6
  3
*A10
350
8F6
  3
*A11
350
905
  3
*A12
350
93F
  3
*A13
350
90F
  3
*A14
350
91E
  3
*A15
350
92D
  3
*A16
350
936
  3
*A17
350
1578
  3
*A18
350
1D4A
  3
*A19
350
94E
  3
*A2
350
85A
  3
*A20
350
2000
  3
*A21
350
3BE
  3
*A22
350
331
  3
*A23
350
369
  3
*A24
350
A72
  3
*A25
350
10FD
  3
*A26
350
413
  3
*A3
350
869
  3
*A4
350
8E4
  3
*A5
350
885
  3
*A6
350
886
  3
*A7
350
8D4
  3
*A8
350
8E3
  3
*A9
350
8ED
  0
DICTIONARY
  5
1A
102
{ACAD_REACTORS
330
C
102
}
330
C
100
AcDbDictionary
281
     1
  3
Layout1
350
FEB
  3
Model
350
22
  0
DICTIONARY
  5
17
102
{ACAD_REACTORS
330
C
102
}
330
C
100
AcDbDictionary
281
     1
  3
Standard
350
18
  0
DICTIONARY
  5
19
102
{ACAD_REACTORS
330
C
102
}
330
C
100
AcDbDictionary
281
     1
  0
ACDBDICTIONARYWDFLT
  5
E
102
{ACAD_REACTORS
330
C
102
}
330
C
100
AcDbDictionary
281
     1
  3
Normal
350
F
100
AcDbDictionaryWithDefault
340
F
  0
XRECORD
  5
118B
102
{ACAD_REACTORS
330
C
102
}
330
C
100
AcDbXrecord
280
     1
 90
   990106
  3

 60
     0
 61
     0
 62
     1
 63
     3
 64
     0
 65
     0
 66
     0
 67
     3
 68
     1
 69
     0
 70
     0
 71
     0
 72
     0
 40
2.0
170
     0
340
0
  0
DICTIONARY
  5
50
102
{ACAD_REACTORS
330
C
102
}
330
C
100
AcDbDictionary
281
     1
  3
DIMASSOC
350
52
  3
HIDETEXT
350
51
  0
XRECORD
  5
A6A
102
{ACAD_REACTORS
330
C
102
}
330
C
100
AcDbXrecord
280
     1
  1
DWGPROPS COOKIE
  2

  3

  4

  6

  7

  8

  9

300
=
301
=
302
=
303
=
304
=
305
=
306
=
307
=
308
=
309
=
 40
0.587026388888889
 41
2452181.498615972
 42
2452184.61255463
  1

 90
        0
  0
DIMASSOC
  5
19E8
102
{ACAD_REACTORS
330
19DE
102
}
330
19DE
100
AcDbDimAssoc
330
19D1
 90
        3
 70
     0
 71
     0
  1
AcDbOsnapPointRef
 72
    13
331
1988
 73
     2
 91
        0
 40
0.0
 10
537.6445714442029
 20
242.4892271507332
 30
0.0
 75
     0
  1
AcDbOsnapPointRef
 72
     1
331
198A
 73
     2
 91
        0
 40
1.0
 10
527.6445714442029
 20
242.4892271507332
 30
0.0
 75
     0
  0
DIMASSOC
  5
1A0D
102
{ACAD_REACTORS
330
1A01
102
}
330
1A01
100
AcDbDimAssoc
330
19F2
 90
        3
 70
     0
 71
     0
  1
AcDbOsnapPointRef
 72
     1
331
19BC
 73
     2
 91
        0
 40
1.0
 10
540.6445714442029
 20
239.9892271507332
 30
0.0
 75
     0
  1
AcDbOsnapPointRef
 72
    13
331
1988
 73
     2
 91
        0
 40
0.0
 10
537.6445714442029
 20
242.4892271507332
 30
0.0
 75
     0
  0
DIMASSOC
  5
1A30
102
{ACAD_REACTORS
330
1A26
102
}
330
1A26
100
AcDbDimAssoc
330
1A19
 90
        3
 70
     0
 71
     0
  1
AcDbOsnapPointRef
 72
    13
331
19BE
 73
     2
 91
        0
 40
0.0
 10
582.6445714442029
 20
204.4892271507332
 30
0.0
 75
     0
  1
AcDbOsnapPointRef
 72
    13
331
19BF
 73
     2
 91
        0
 40
0.0
 10
542.6445714442029
 20
207.4892271507332
 30
0.0
 75
     0
  0
DIMASSOC
  5
1A51
102
{ACAD_REACTORS
330
1A47
102
}
330
1A47
100
AcDbDimAssoc
330
1A3A
 90
        2
 70
     0
 71
     0
  1
AcDbOsnapPointRef
 72
    13
331
1988
 73
     2
 91
        0
 40
0.0
 10
537.6445714442029
 20
242.4892271507332
 30
0.0
 75
     0
  0
DIMASSOC
  5
1A72
102
{ACAD_REACTORS
330
1A68
102
}
330
1A68
100
AcDbDimAssoc
330
1A5B
 90
        2
 70
     0
 71
     0
  1
AcDbOsnapPointRef
 72
    13
331
1988
 73
     2
 91
        0
 40
0.0
 10
537.6445714442029
 20
242.4892271507332
 30
0.0
 75
     0
  0
DIMASSOC
  5
1A93
102
{ACAD_REACTORS
330
1A89
102
}
330
1A89
100
AcDbDimAssoc
330
1A7C
 90
        2
 70
     0
 71
     0
  1
AcDbOsnapPointRef
 72
     1
331
19BE
 73
     2
 91
        0
 40
1.0
 10
582.6445714442029
 20
180.4892271507333
 30
0.0
 75
     0
  0
DIMASSOC
  5
1AB4
102
{ACAD_REACTORS
330
1AAA
102
}
330
1AAA
100
AcDbDimAssoc
330
1A9D
 90
        3
 70
     0
 71
     0
  1
AcDbOsnapPointRef
 72
     1
331
19BC
 73
     2
 91
        0
 40
1.0
 10
540.6445714442029
 20
239.9892271507332
 30
0.0
 75
     0
  1
AcDbOsnapPointRef
 72
    13
331
19BC
 73
     2
 91
        0
 40
0.0
 10
540.6445714442029
 20
144.9892271507333
 30
0.0
 75
     0
  0
DIMASSOC
  5
1AD5
102
{ACAD_REACTORS
330
1ACB
102
}
330
1ACB
100
AcDbDimAssoc
330
1ABE
 90
        3
 70
     0
 71
     0
  1
AcDbOsnapPointRef
 72
     1
331
1989
 73
     2
 91
        0
 40
1.0
 10
537.6445714442029
 20
142.4892271507332
 30
0.0
 75
     0
  1
AcDbOsnapPointRef
 72
    13
331
1978
 73
     2
 91
        0
 40
0.0
 10
466.6445714442029
 20
89.83066715073325
 30
0.0
 75
     0
  0
DIMASSOC
  5
1B18
102
{ACAD_REACTORS
330
1B0E
102
}
330
1B0E
100
AcDbDimAssoc
330
1B01
 90
        3
 70
     0
 71
     0
  1
AcDbOsnapPointRef
 72
    13
331
180C
 73
     2
 91
        0
 40
0.7366239426127832
 10
288.2663804130439
 20
237.8203008232231
 30
0.0
 75
     0
  1
AcDbOsnapPointRef
 72
    13
331
17DC
 73
     2
 91
        0
 40
0.0
 10
188.2663777192102
 20
237.8203009254979
 30
0.0
 75
     0
  0
DIMASSOC
  5
1B39
102
{ACAD_REACTORS
330
1B2F
102
}
330
1B2F
100
AcDbDimAssoc
330
1B22
 90
        3
 70
     0
 71
     0
  1
AcDbOsnapPointRef
 72
     1
331
17D6
 73
     2
 91
        0
 40
1.0
 10
192.9204977192102
 20
242.4744109254979
 30
0.0
 75
     0
  1
AcDbOsnapPointRef
 72
    13
331
17D8
 73
     2
 91
        0
 40
0.0
 10
192.9205577192102
 20
142.4744109254979
 30
0.0
 75
     0
  0
DIMASSOC
  5
1B78
102
{ACAD_REACTORS
330
1B6C
102
}
330
1B6C
100
AcDbDimAssoc
330
1B5D
 90
       15
 70
     0
 71
     0
  1
AcDbOsnapPointRef
 72
    13
331
176A
 73
     2
 91
        0
 40
0.0
 10
238.2663777192102
 20
254.5156409254979
 30
0.0
 75
     0
  1
AcDbOsnapPointRef
 72
     1
331
176A
 73
     2
 91
        0
 40
1.0
 10
238.2663777192102
 20
85.81332092549791
 30
0.0
 75
     0
  1
AcDbOsnapPointRef
 72
    13
331
17F8
 73
     2
 91
        0
 40
0.0
 10
193.5981677192103
 20
237.1426509254979
 30
0.0
 75
     0
  1
AcDbOsnapPointRef
 72
     1
331
17F8
 73
     2
 91
        0
 40
1.0
 10
201.6501077192102
 20
229.0908009254979
 30
0.0
 75
     0
  0
DIMASSOC
  5
1B93
102
{ACAD_REACTORS
330
1B8D
102
}
330
1B8D
100
AcDbDimAssoc
330
1B84
 90
        2
 70
     0
 71
     0
  1
AcDbOsnapPointRef
 72
     3
331
17F7
 73
     2
 91
        0
 40
0.0
 10
0.0
 20
0.0
 30
0.0
 75
     0
  0
DIMASSOC
  5
1BA8
102
{ACAD_REACTORS
330
1BA2
102
}
330
1BA2
100
AcDbDimAssoc
330
1B99
 90
        2
 70
     0
 71
     0
  1
AcDbOsnapPointRef
 72
     3
331
180C
 73
     2
 91
        0
 40
0.0
 10
238.2663777192102
 20
192.4744109254979
 30
0.0
 75
     0
  0
DIMASSOC
  5
1BCA
102
{ACAD_REACTORS
330
1BC0
102
}
330
1BC0
100
AcDbDimAssoc
330
1BB3
 90
        3
 70
     0
 71
     0
  1
AcDbOsnapPointRef
 72
    13
331
17D4
 73
     2
 91
        0
 40
0.0
 10
297.9909877192102
 20
192.4744109254979
 30
0.0
 75
     0
  1
AcDbOsnapPointRef
 72
    13
331
1785
 73
     2
 91
        0
 40
0.0
 10
254.6664077192102
 20
96.47442092549793
 30
0.0
 75
     0
  0
DIMASSOC
  5
22AE
102
{ACAD_REACTORS
330
22A4
102
}
330
22A4
100
AcDbDimAssoc
330
2297
 90
        3
 70
     0
 71
     0
  1
AcDbOsnapPointRef
 72
    13
331
1EA5
 73
     2
 91
        0
 40
0.0
 10
358.3445814442029
 20
110.9892371507332
 30
0.0
 75
     0
  1
AcDbOsnapPointRef
 72
     1
331
1983
 73
     2
 91
        0
 40
1.0
 10
344.3560903152924
 20
192.4892271507332
 30
0.0
 75
     0
  0
GROUP
  5
2A6
102
{ACAD_REACTORS
330
D
102
}
330
D
100
AcDbGroup
300

 70
     1
 71
     1
  0
GROUP
  5
8F6
102
{ACAD_REACTORS
330
D
102
}
330
D
100
AcDbGroup
300

 70
     1
 71
     1
  0
GROUP
  5
905
102
{ACAD_REACTORS
330
D
102
}
330
D
100
AcDbGroup
300

 70
     1
 71
     1
  0
GROUP
  5
93F
102
{ACAD_REACTORS
330
D
102
}
330
D
100
AcDbGroup
300

 70
     1
 71
     1
  0
GROUP
  5
90F
102
{ACAD_REACTORS
330
D
102
}
330
D
100
AcDbGroup
300

 70
     1
 71
     1
  0
GROUP
  5
91E
102
{ACAD_REACTORS
330
D
102
}
330
D
100
AcDbGroup
300

 70
     1
 71
     1
  0
GROUP
  5
92D
102
{ACAD_REACTORS
330
D
102
}
330
D
100
AcDbGroup
300

 70
     1
 71
     1
  0
GROUP
  5
936
102
{ACAD_REACTORS
330
D
102
}
330
D
100
AcDbGroup
300

 70
     1
 71
     1
  0
GROUP
  5
1578
102
{ACAD_REACTORS
330
D
102
}
330
D
100
AcDbGroup
300

 70
     1
 71
     1
  0
GROUP
  5
1D4A
102
{ACAD_REACTORS
330
D
102
}
330
D
100
AcDbGroup
300

 70
     1
 71
     1
  0
GROUP
  5
94E
102
{ACAD_REACTORS
330
D
102
}
330
D
100
AcDbGroup
300

 70
     1
 71
     1
  0
GROUP
  5
85A
102
{ACAD_REACTORS
330
D
102
}
330
D
100
AcDbGroup
300

 70
     1
 71
     1
  0
GROUP
  5
2000
102
{ACAD_REACTORS
330
D
102
}
330
D
100
AcDbGroup
300

 70
     1
 71
     1
  0
GROUP
  5
3BE
102
{ACAD_REACTORS
330
D
102
}
330
D
100
AcDbGroup
300

 70
     1
 71
     1
  0
GROUP
  5
331
102
{ACAD_REACTORS
330
D
102
}
330
D
100
AcDbGroup
300

 70
     1
 71
     1
  0
GROUP
  5
369
102
{ACAD_REACTORS
330
D
102
}
330
D
100
AcDbGroup
300

 70
     1
 71
     1
  0
GROUP
  5
A72
102
{ACAD_REACTORS
330
D
102
}
330
D
100
AcDbGroup
300

 70
     1
 71
     1
  0
GROUP
  5
10FD
102
{ACAD_REACTORS
330
D
102
}
330
D
100
AcDbGroup
300

 70
     1
 71
     1
  0
GROUP
  5
413
102
{ACAD_REACTORS
330
D
102
}
330
D
100
AcDbGroup
300

 70
     1
 71
     1
  0
GROUP
  5
869
102
{ACAD_REACTORS
330
D
102
}
330
D
100
AcDbGroup
300

 70
     1
 71
     1
  0
GROUP
  5
8E4
102
{ACAD_REACTORS
330
D
102
}
330
D
100
AcDbGroup
300

 70
     1
 71
     1
  0
GROUP
  5
885
102
{ACAD_REACTORS
330
D
102
}
330
D
100
AcDbGroup
300

 70
     1
 71
     1
  0
GROUP
  5
886
102
{ACAD_REACTORS
330
D
102
}
330
D
100
AcDbGroup
300

 70
     1
 71
     1
  0
GROUP
  5
8D4
102
{ACAD_REACTORS
330
D
102
}
330
D
100
AcDbGroup
300

 70
     1
 71
     1
  0
GROUP
  5
8E3
102
{ACAD_REACTORS
330
D
102
}
330
D
100
AcDbGroup
300

 70
     1
 71
     1
  0
GROUP
  5
8ED
102
{ACAD_REACTORS
330
D
102
}
330
D
100
AcDbGroup
300

 70
     1
 71
     1
  0
LAYOUT
  5
FEB
102
{ACAD_REACTORS
330
1A
102
}
330
1A
100
AcDbPlotSettings
  1

  2
EPSON Stylus COLOR 1520
  4
A4
  6

 40
3.757083177566528
 41
14.7637300491333
 42
3.757080078125
 43
3.757080078125
 44
209.9733276367187
 45
296.9683227539062
 46
0.0
 47
0.0
 48
0.0
 49
0.0
140
0.0
141
0.0
142
1.0
143
1.0
 70
   688
 72
     1
 73
     1
 74
     5
  7

 75
    16
147
1.0
148
0.0
149
0.0
100
AcDbLayout
  1
Layout1
 70
     1
 71
     1
 10
-3.757080078125
 20
-3.757083177566528
 11
293.2112426757812
 21
206.2162444591522
 12
0.0
 22
0.0
 32
0.0
 14
-3.400241753399768
 24
-2.934382174902054
 34
0.0
 15
292.8544043510557
 25
206.1211149578283
 35
0.0
146
0.0
 13
0.0
 23
0.0
 33
0.0
 16
1.0
 26
0.0
 36
0.0
 17
0.0
 27
1.0
 37
0.0
 76
     0
330
FEA
331
FF1
  0
LAYOUT
  5
22
102
{ACAD_REACTORS
330
1A
102
}
330
1A
100
AcDbPlotSettings
  1

  2
EPSON Stylus COLOR 1520
  4
A4
  6

 40
3.757083177566528
 41
14.7637300491333
 42
3.757080078125
 43
3.757080078125
 44
209.9733276367187
 45
296.9683227539062
 46
0.0
 47
0.0
 48
0.0
 49
0.0
140
0.0
141
0.0
142
1.0
143
1.0
 70
 11952
 72
     1
 73
     1
 74
     0
  7

 75
     0
147
1.0
148
-89.73529411764705
149
0.0
100
AcDbLayout
  1
Model
 70
     1
 71
     0
 10
0.0
 20
0.0
 11
12.0
 21
9.0
 12
0.0
 22
0.0
 32
0.0
 14
0.0
 24
0.0
 34
0.0
 15
0.0
 25
0.0
 35
0.0
146
0.0
 13
0.0
 23
0.0
 33
0.0
 16
1.0
 26
0.0
 36
0.0
 17
0.0
 27
1.0
 37
0.0
 76
     0
330
1F
  0
MLINESTYLE
  5
18
102
{ACAD_REACTORS
330
17
102
}
330
17
100
AcDbMlineStyle
  2
STANDARD
 70
     0
  3

 62
   256
 51
90.0
 52
90.0
 71
     2
 49
0.5
 62
   256
  6
BYLAYER
 49
-0.5
 62
   256
  6
BYLAYER
  0
ACDBPLACEHOLDER
  5
F
102
{ACAD_REACTORS
330
E
102
}
330
E
  0
DICTIONARYVAR
  5
52
102
{ACAD_REACTORS
330
50
102
}
330
50
100
DictionaryVariables
280
     0
  1
2
  0
DICTIONARYVAR
  5
51
102
{ACAD_REACTORS
330
50
102
}
330
50
100
DictionaryVariables
280
     0
  1
1
  0
ENDSEC
  0
EOF
