  0
SECTION
  2
HEADER
  9
$ACADVER
  1
AC1015
  9
$ACADMAINTVER
 70
    13
  9
$DWGCODEPAGE
  3
ANSI_1252
  9
$INSBASE
 10
0.0
 20
0.0
 30
0.0
  9
$EXTMIN
 10
-361.557575219017
 20
-282.6366092714636
 30
0.0
  9
$EXTMAX
 10
672.5794714869343
 20
283.3442065026734
 30
0.0
  9
$LIMMIN
 10
0.0
 20
0.0
  9
$LIMMAX
 10
420.0
 20
297.0
  9
$ORTHOMODE
 70
     1
  9
$REGENMODE
 70
     1
  9
$FILLMODE
 70
     1
  9
$QTEXTMODE
 70
     0
  9
$MIRRTEXT
 70
     1
  9
$LTSCALE
 40
1.0
  9
$ATTMODE
 70
     1
  9
$TEXTSIZE
 40
26.5350450929028
  9
$TRACEWID
 40
1.0
  9
$TEXTSTYLE
  7
Standard
  9
$CLAYER
  8
0
  9
$CELTYPE
  6
ByLayer
  9
$CECOLOR
 62
   256
  9
$CELTSCALE
 40
1.0
  9
$DISPSILH
 70
     0
  9
$DIMSCALE
 40
1.0
  9
$DIMASZ
 40
2.5
  9
$DIMEXO
 40
0.625
  9
$DIMDLI
 40
3.75
  9
$DIMRND
 40
0.0
  9
$DIMDLE
 40
0.0
  9
$DIMEXE
 40
1.25
  9
$DIMTP
 40
0.0
  9
$DIMTM
 40
0.0
  9
$DIMTXT
 40
2.5
  9
$DIMCEN
 40
2.5
  9
$DIMTSZ
 40
0.0
  9
$DIMTOL
 70
     0
  9
$DIMLIM
 70
     0
  9
$DIMTIH
 70
     0
  9
$DIMTOH
 70
     0
  9
$DIMSE1
 70
     0
  9
$DIMSE2
 70
     0
  9
$DIMTAD
 70
     1
  9
$DIMZIN
 70
     8
  9
$DIMBLK
  1

  9
$DIMASO
 70
     1
  9
$DIMSHO
 70
     1
  9
$DIMPOST
  1

  9
$DIMAPOST
  1

  9
$DIMALT
 70
     0
  9
$DIMALTD
 70
     3
  9
$DIMALTF
 40
0.03937007874016
  9
$DIMLFAC
 40
1.0
  9
$DIMTOFL
 70
     1
  9
$DIMTVP
 40
0.0
  9
$DIMTIX
 70
     0
  9
$DIMSOXD
 70
     0
  9
$DIMSAH
 70
     0
  9
$DIMBLK1
  1

  9
$DIMBLK2
  1

  9
$DIMSTYLE
  2
ISO-25
  9
$DIMCLRD
 70
     0
  9
$DIMCLRE
 70
     0
  9
$DIMCLRT
 70
     0
  9
$DIMTFAC
 40
1.0
  9
$DIMGAP
 40
0.625
  9
$DIMJUST
 70
     0
  9
$DIMSD1
 70
     0
  9
$DIMSD2
 70
     0
  9
$DIMTOLJ
 70
     0
  9
$DIMTZIN
 70
     8
  9
$DIMALTZ
 70
     0
  9
$DIMALTTZ
 70
     0
  9
$DIMUPT
 70
     0
  9
$DIMDEC
 70
     2
  9
$DIMTDEC
 70
     2
  9
$DIMALTU
 70
     2
  9
$DIMALTTD
 70
     3
  9
$DIMTXSTY
  7
Standard
  9
$DIMAUNIT
 70
     0
  9
$DIMADEC
 70
     0
  9
$DIMALTRND
 40
0.0
  9
$DIMAZIN
 70
     0
  9
$DIMDSEP
 70
    44
  9
$DIMATFIT
 70
     3
  9
$DIMFRAC
 70
     0
  9
$DIMLDRBLK
  1

  9
$DIMLUNIT
 70
     2
  9
$DIMLWD
 70
    -2
  9
$DIMLWE
 70
    -2
  9
$DIMTMOVE
 70
     0
  9
$LUNITS
 70
     2
  9
$LUPREC
 70
     4
  9
$SKETCHINC
 40
1.0
  9
$FILLETRAD
 40
3.0
  9
$AUNITS
 70
     0
  9
$AUPREC
 70
     0
  9
$MENU
  1
.
  9
$ELEVATION
 40
0.0
  9
$PELEVATION
 40
0.0
  9
$THICKNESS
 40
0.0
  9
$LIMCHECK
 70
     0
  9
$CHAMFERA
 40
10.0
  9
$CHAMFERB
 40
10.0
  9
$CHAMFERC
 40
20.0
  9
$CHAMFERD
 40
0.0
  9
$SKPOLY
 70
     0
  9
$TDCREATE
 40
2452181.456949305
  9
$TDUCREATE
 40
2452181.415282638
  9
$TDUPDATE
 40
2452321.503145486
  9
$TDUUPDATE
 40
2452321.461478819
  9
$TDINDWG
 40
1.0676447917
  9
$TDUSRTIMER
 40
1.0676353009
  9
$USRTIMER
 70
     1
  9
$ANGBASE
 50
0.0
  9
$ANGDIR
 70
     0
  9
$PDMODE
 70
     0
  9
$PDSIZE
 40
0.0
  9
$PLINEWID
 40
0.0
  9
$SPLFRAME
 70
     0
  9
$SPLINETYPE
 70
     6
  9
$SPLINESEGS
 70
     8
  9
$HANDSEED
  5
2F63
  9
$SURFTAB1
 70
     6
  9
$SURFTAB2
 70
     6
  9
$SURFTYPE
 70
     6
  9
$SURFU
 70
     6
  9
$SURFV
 70
     6
  9
$UCSBASE
  2

  9
$UCSNAME
  2

  9
$UCSORG
 10
-53.08748352590964
 20
3.820899076262548
 30
0.0
  9
$UCSXDIR
 10
1.0
 20
0.0
 30
0.0
  9
$UCSYDIR
 10
0.0
 20
1.0
 30
0.0
  9
$UCSORTHOREF
  2

  9
$UCSORTHOVIEW
 70
     0
  9
$UCSORGTOP
 10
0.0
 20
0.0
 30
0.0
  9
$UCSORGBOTTOM
 10
0.0
 20
0.0
 30
0.0
  9
$UCSORGLEFT
 10
0.0
 20
0.0
 30
0.0
  9
$UCSORGRIGHT
 10
0.0
 20
0.0
 30
0.0
  9
$UCSORGFRONT
 10
0.0
 20
0.0
 30
0.0
  9
$UCSORGBACK
 10
0.0
 20
0.0
 30
0.0
  9
$PUCSBASE
  2

  9
$PUCSNAME
  2

  9
$PUCSORG
 10
0.0
 20
0.0
 30
0.0
  9
$PUCSXDIR
 10
1.0
 20
0.0
 30
0.0
  9
$PUCSYDIR
 10
0.0
 20
1.0
 30
0.0
  9
$PUCSORTHOREF
  2

  9
$PUCSORTHOVIEW
 70
     0
  9
$PUCSORGTOP
 10
0.0
 20
0.0
 30
0.0
  9
$PUCSORGBOTTOM
 10
0.0
 20
0.0
 30
0.0
  9
$PUCSORGLEFT
 10
0.0
 20
0.0
 30
0.0
  9
$PUCSORGRIGHT
 10
0.0
 20
0.0
 30
0.0
  9
$PUCSORGFRONT
 10
0.0
 20
0.0
 30
0.0
  9
$PUCSORGBACK
 10
0.0
 20
0.0
 30
0.0
  9
$USERI1
 70
     0
  9
$USERI2
 70
     0
  9
$USERI3
 70
     0
  9
$USERI4
 70
     0
  9
$USERI5
 70
     0
  9
$USERR1
 40
0.0
  9
$USERR2
 40
0.0
  9
$USERR3
 40
0.0
  9
$USERR4
 40
0.0
  9
$USERR5
 40
0.0
  9
$WORLDVIEW
 70
     1
  9
$SHADEDGE
 70
     3
  9
$SHADEDIF
 70
    70
  9
$TILEMODE
 70
     1
  9
$MAXACTVP
 70
    64
  9
$PINSBASE
 10
0.0
 20
0.0
 30
0.0
  9
$PLIMCHECK
 70
     0
  9
$PEXTMIN
 10
-3.400241753399768
 20
-2.934382174902054
 30
0.0
  9
$PEXTMAX
 10
292.8544043510557
 20
206.1211149578283
 30
0.0
  9
$PLIMMIN
 10
-3.757080078125
 20
-3.757083177566528
  9
$PLIMMAX
 10
293.2112426757812
 20
206.2162444591522
  9
$UNITMODE
 70
     0
  9
$VISRETAIN
 70
     1
  9
$PLINEGEN
 70
     0
  9
$PSLTSCALE
 70
     1
  9
$TREEDEPTH
 70
  3020
  9
$CMLSTYLE
  2
Standard
  9
$CMLJUST
 70
     0
  9
$CMLSCALE
 40
20.0
  9
$PROXYGRAPHICS
 70
     1
  9
$MEASUREMENT
 70
     1
  9
$CELWEIGHT
370
    -1
  9
$ENDCAPS
280
     0
  9
$JOINSTYLE
280
     0
  9
$LWDISPLAY
290
     0
  9
$INSUNITS
 70
     4
  9
$HYPERLINKBASE
  1

  9
$STYLESHEET
  1

  9
$XEDIT
290
     1
  9
$CEPSNTYPE
380
     0
  9
$PSTYLEMODE
290
     1
  9
$FINGERPRINTGUID
  2
{F84AA5D3-2765-4D6B-8594-ABD9F52FB735}
  9
$VERSIONGUID
  2
{791D8625-896D-475E-8898-DB446028B030}
  9
$EXTNAMES
290
     1
  9
$PSVPSCALE
 40
0.0
  9
$OLESTARTUP
290
     0
  0
ENDSEC
  0
SECTION
  2
CLASSES
  0
CLASS
  1
ACDBDICTIONARYWDFLT
  2
AcDbDictionaryWithDefault
  3
AutoCAD 2000
 90
        0
280
     0
281
     0
  0
CLASS
  1
ACDBPLACEHOLDER
  2
AcDbPlaceHolder
  3
AutoCAD 2000
 90
        0
280
     0
281
     0
  0
CLASS
  1
LAYOUT
  2
AcDbLayout
  3
AutoCAD 2000
 90
        0
280
     0
281
     0
  0
CLASS
  1
DICTIONARYVAR
  2
AcDbDictionaryVar
  3
AutoCAD 2000
 90
        0
280
     0
281
     0
  0
CLASS
  1
DIMASSOC
  2
AcDbDimAssoc
  3
"AcDbDimAssoc|Product Desc:     AcDim ARX App For Dimension|Company:          Autodesk, Inc.|WEB Address:      www.autodesk.com"
 90
        0
280
     0
281
     0
  0
ENDSEC
  0
SECTION
  2
TABLES
  0
TABLE
  2
VPORT
  5
8
330
0
100
AcDbSymbolTable
 70
     2
  0
VPORT
  5
2F62
330
8
100
AcDbSymbolTableRecord
100
AcDbViewportTableRecord
  2
*Active
 70
     0
 10
0.0
 20
0.0
 11
1.0
 21
1.0
 12
270.6120484303121
 22
12.94498410056428
 13
0.0
 23
0.0
 14
10.0
 24
10.0
 15
10.0
 25
10.0
 16
0.0
 26
0.0
 36
1.0
 17
0.0
 27
0.0
 37
0.0
 40
746.9769948921978
 41
1.699453551912568
 42
50.0
 43
0.0
 44
0.0
 50
0.0
 51
0.0
 71
     0
 72
   100
 73
     1
 74
     3
 75
     1
 76
     0
 77
     0
 78
     0
281
     0
 65
     1
110
-53.08748352590964
120
3.820899076262548
130
0.0
111
1.0
121
0.0
131
0.0
112
0.0
122
1.0
132
0.0
 79
     0
146
0.0
  0
ENDTAB
  0
TABLE
  2
LTYPE
  5
5
330
0
100
AcDbSymbolTable
 70
     4
  0
LTYPE
  5
14
330
5
100
AcDbSymbolTableRecord
100
AcDbLinetypeTableRecord
  2
ByBlock
 70
     0
  3

 72
    65
 73
     0
 40
0.0
  0
LTYPE
  5
15
330
5
100
AcDbSymbolTableRecord
100
AcDbLinetypeTableRecord
  2
ByLayer
 70
     0
  3

 72
    65
 73
     0
 40
0.0
  0
LTYPE
  5
16
330
5
100
AcDbSymbolTableRecord
100
AcDbLinetypeTableRecord
  2
Continuous
 70
     0
  3
Solid line
 72
    65
 73
     0
 40
0.0
  0
LTYPE
  5
2D
330
5
100
AcDbSymbolTableRecord
100
AcDbLinetypeTableRecord
  2
MITTE
 70
     0
  3
Mitte ____ _ ____ _ ____ _ ____ _ ____ _ ____
 72
    65
 73
     4
 40
50.8
 49
31.75
 74
     0
 49
-6.349999999999999
 74
     0
 49
6.349999999999999
 74
     0
 49
-6.349999999999999
 74
     0
  0
LTYPE
  5
39
330
5
100
AcDbSymbolTableRecord
100
AcDbLinetypeTableRecord
  2
VERDECKT
 70
     0
  3
Verdeckt __ __ __ __ __ __ __ __ __ __ __ __ __
 72
    65
 73
     2
 40
9.524999999999998
 49
6.349999999999999
 74
     0
 49
-3.174999999999999
 74
     0
  0
LTYPE
  5
AE7
330
5
100
AcDbSymbolTableRecord
100
AcDbLinetypeTableRecord
  2
CENTER
 70
     0
  3
____ _ ____ _ ____ _ ____ _ ____ _ ____ _ ____
 72
    65
 73
     4
 40
17.5
 49
13.0
 74
     0
 49
-1.5
 74
     0
 49
1.5
 74
     0
 49
-1.5
 74
     0
  0
ENDTAB
  0
TABLE
  2
LAYER
  5
2
330
0
100
AcDbSymbolTable
 70
     6
  0
LAYER
  5
10
330
2
100
AcDbSymbolTableRecord
100
AcDbLayerTableRecord
  2
0
 70
     0
 62
     7
  6
Continuous
370
    35
390
F
  0
LAYER
  5
2E
330
2
100
AcDbSymbolTableRecord
100
AcDbLayerTableRecord
  2
Mittellinie
 70
     0
 62
     3
  6
MITTE
370
    18
390
F
  0
LAYER
  5
3A
330
2
100
AcDbSymbolTableRecord
100
AcDbLayerTableRecord
  2
Unsichtbar
 70
     0
 62
     5
  6
Continuous
370
    18
390
F
  0
LAYER
  5
87
330
2
100
AcDbSymbolTableRecord
100
AcDbLayerTableRecord
  2
Innenkanten
 70
     0
 62
     1
  6
Continuous
370
    25
390
F
  0
LAYER
  5
46F
330
2
100
AcDbSymbolTableRecord
100
AcDbLayerTableRecord
  2
Defpoints
 70
     0
 62
     6
  6
Continuous
290
     0
370
    15
390
F
  0
LAYER
  5
9F1
330
2
100
AcDbSymbolTableRecord
100
AcDbLayerTableRecord
  2
Bemaßung
 70
     0
 62
     6
  6
Continuous
370
    15
390
F
  0
ENDTAB
  0
TABLE
  2
STYLE
  5
3
330
0
100
AcDbSymbolTable
 70
     2
  0
STYLE
  5
11
330
3
100
AcDbSymbolTableRecord
100
AcDbTextStyleTableRecord
  2
Standard
 70
     0
 40
0.0
 41
1.0
 50
0.0
 71
     0
 42
26.5350450929028
  3
txt
  4

  0
STYLE
  5
2C
330
3
100
AcDbSymbolTableRecord
100
AcDbTextStyleTableRecord
  2

 70
     1
 40
0.0
 41
1.0
 50
0.0
 71
     0
 42
2.5
  3
ltypeshp.shx
  4

  0
ENDTAB
  0
TABLE
  2
VIEW
  5
6
330
0
100
AcDbSymbolTable
 70
     1
  0
VIEW
  5
81C
330
6
100
AcDbSymbolTableRecord
100
AcDbViewTableRecord
  2
tom
 70
     0
 40
127.2859585283894
 10
166.2856675397948
 20
206.2562233711272
 41
204.2020725054376
 11
0.0
 21
0.0
 31
1.0
 12
0.0
 22
0.0
 32
0.0
 42
50.0
 43
0.0
 44
0.0
 50
0.0
 71
     0
281
     0
 72
     1
110
-53.08748352590964
120
3.820899076262548
130
0.0
111
1.0
121
0.0
131
0.0
112
0.0
122
1.0
132
0.0
 79
     0
146
0.0
  0
ENDTAB
  0
TABLE
  2
UCS
  5
7
330
0
100
AcDbSymbolTable
 70
     0
  0
ENDTAB
  0
TABLE
  2
APPID
  5
9
330
0
100
AcDbSymbolTable
 70
     1
  0
APPID
  5
12
330
9
100
AcDbSymbolTableRecord
100
AcDbRegAppTableRecord
  2
ACAD
 70
     0
  0
ENDTAB
  0
TABLE
  2
DIMSTYLE
  5
A
330
0
100
AcDbSymbolTable
 70
     2
100
AcDbDimStyleTable
 71
     1
340
27
  0
DIMSTYLE
105
27
102
{ACAD_REACTORS
330
2602
330
2623
330
264A
330
266B
330
268C
330
26AD
330
26CE
330
26EF
330
2733
330
2754
330
2775
330
2796
330
27C9
330
27E3
330
281C
102
}
330
A
100
AcDbSymbolTableRecord
100
AcDbDimStyleTableRecord
  2
ISO-25
 70
     0
 41
2.5
 42
0.625
 43
3.75
 44
1.25
 73
     0
 74
     0
 77
     1
 78
     8
140
2.5
141
2.5
143
0.03937007874016
147
0.625
171
     3
172
     1
271
     2
272
     2
274
     3
278
    44
283
     0
284
     8
340
11
  0
DIMSTYLE
105
AE8
330
A
100
AcDbSymbolTableRecord
100
AcDbDimStyleTableRecord
  2
STANDARD
 70
     0
 41
2.5
 73
     0
 77
     1
140
2.5
141
-0.09
147
0.2
176
     6
178
     6
271
     0
272
     0
279
     1
289
     2
340
11
371
    15
  0
ENDTAB
  0
TABLE
  2
BLOCK_RECORD
  5
1
330
0
100
AcDbSymbolTable
 70
    32
  0
BLOCK_RECORD
  5
1F
330
1
100
AcDbSymbolTableRecord
100
AcDbBlockTableRecord
  2
*Model_Space
340
22
  0
BLOCK_RECORD
  5
FEA
330
1
100
AcDbSymbolTableRecord
100
AcDbBlockTableRecord
  2
*Paper_Space
340
FEB
  0
BLOCK_RECORD
  5
2603
330
1
100
AcDbSymbolTableRecord
100
AcDbBlockTableRecord
  2
*D0
340
0
  0
BLOCK_RECORD
  5
2624
330
1
100
AcDbSymbolTableRecord
100
AcDbBlockTableRecord
  2
*D1
340
0
  0
BLOCK_RECORD
  5
264B
330
1
100
AcDbSymbolTableRecord
100
AcDbBlockTableRecord
  2
*D2
340
0
  0
BLOCK_RECORD
  5
266C
330
1
100
AcDbSymbolTableRecord
100
AcDbBlockTableRecord
  2
*D3
340
0
  0
BLOCK_RECORD
  5
268D
330
1
100
AcDbSymbolTableRecord
100
AcDbBlockTableRecord
  2
*D4
340
0
  0
BLOCK_RECORD
  5
26AE
330
1
100
AcDbSymbolTableRecord
100
AcDbBlockTableRecord
  2
*D5
340
0
  0
BLOCK_RECORD
  5
26CF
330
1
100
AcDbSymbolTableRecord
100
AcDbBlockTableRecord
  2
*D6
340
0
  0
BLOCK_RECORD
  5
26F0
330
1
100
AcDbSymbolTableRecord
100
AcDbBlockTableRecord
  2
*D7
340
0
  0
BLOCK_RECORD
  5
2734
330
1
100
AcDbSymbolTableRecord
100
AcDbBlockTableRecord
  2
*D9
340
0
  0
BLOCK_RECORD
  5
2755
330
1
100
AcDbSymbolTableRecord
100
AcDbBlockTableRecord
  2
*D10
340
0
  0
BLOCK_RECORD
  5
2776
330
1
100
AcDbSymbolTableRecord
100
AcDbBlockTableRecord
  2
*D11
340
0
  0
BLOCK_RECORD
  5
2797
330
1
100
AcDbSymbolTableRecord
100
AcDbBlockTableRecord
  2
*D12
340
0
  0
BLOCK_RECORD
  5
27CA
330
1
100
AcDbSymbolTableRecord
100
AcDbBlockTableRecord
  2
*D13
340
0
  0
BLOCK_RECORD
  5
27E4
330
1
100
AcDbSymbolTableRecord
100
AcDbBlockTableRecord
  2
*D14
340
0
  0
BLOCK_RECORD
  5
281D
330
1
100
AcDbSymbolTableRecord
100
AcDbBlockTableRecord
  2
*D15
340
0
  0
ENDTAB
  0
ENDSEC
  0
SECTION
  2
BLOCKS
  0
BLOCK
  5
20
330
1F
100
AcDbEntity
  8
0
100
AcDbBlockBegin
  2
*Model_Space
 70
     0
 10
0.0
 20
0.0
 30
0.0
  3
*Model_Space
  1

  0
ENDBLK
  5
21
330
1F
100
AcDbEntity
  8
0
100
AcDbBlockEnd
  0
BLOCK
  5
FEC
330
FEA
100
AcDbEntity
 67
     1
  8
0
100
AcDbBlockBegin
  2
*Paper_Space
 70
     0
 10
0.0
 20
0.0
 30
0.0
  3
*Paper_Space
  1

  0
ENDBLK
  5
FED
330
FEA
100
AcDbEntity
 67
     1
  8
0
100
AcDbBlockEnd
  0
BLOCK
  5
260D
330
2603
100
AcDbEntity
  8
0
100
AcDbBlockBegin
  2
*D0
 70
     1
 10
0.0
 20
0.0
 30
0.0
  3
*D0
  1

  0
LINE
  5
2F2D
330
2603
100
AcDbEntity
  8
Bemaßung
 62
     0
370
    -2
100
AcDbLine
 10
570.9775978189485
 20
258.3594138730005
 30
0.0
 11
570.9775978189485
 21
272.2149375038884
 31
0.0
  0
LINE
  5
2F2E
330
2603
100
AcDbEntity
  8
Bemaßung
 62
     0
370
    -2
100
AcDbLine
 10
582.9775978189485
 20
258.3594138730005
 30
0.0
 11
582.9775978189485
 21
272.2149375038884
 31
0.0
  0
LINE
  5
2F2F
330
2603
100
AcDbEntity
  8
Bemaßung
 62
     0
370
    -2
100
AcDbLine
 10
573.4775978189485
 20
270.9649375038884
 30
0.0
 11
580.4775978189485
 21
270.9649375038884
 31
0.0
  0
SOLID
  5
2F30
330
2603
100
AcDbEntity
  8
Bemaßung
 62
     0
100
AcDbTrace
 10
573.4775978189485
 20
271.3816041705551
 30
0.0
 11
573.4775978189485
 21
270.5482708372217
 31
0.0
 12
570.9775978189485
 22
270.9649375038884
 32
0.0
 13
570.9775978189485
 23
270.9649375038884
 33
0.0
  0
SOLID
  5
2F31
330
2603
100
AcDbEntity
  8
Bemaßung
 62
     0
100
AcDbTrace
 10
580.4775978189485
 20
271.3816041705551
 30
0.0
 11
580.4775978189485
 21
270.5482708372217
 31
0.0
 12
582.9775978189485
 22
270.9649375038884
 32
0.0
 13
582.9775978189485
 23
270.9649375038884
 33
0.0
  0
MTEXT
  5
2F32
330
2603
100
AcDbEntity
  8
Bemaßung
 62
     0
100
AcDbMText
 10
576.9775978189485
 20
272.8399375038884
 30
0.0
 40
2.5
 41
0.0
 71
     5
 72
     1
  1
12
 73
     1
 44
1.0
  0
POINT
  5
2F33
330
2603
100
AcDbEntity
  8
Defpoints
 62
     0
100
AcDbPoint
 10
570.9775978189485
 20
257.7344138730005
 30
0.0
  0
POINT
  5
2F34
330
2603
100
AcDbEntity
  8
Defpoints
 62
     0
100
AcDbPoint
 10
582.9775978189485
 20
257.7344138730005
 30
0.0
  0
POINT
  5
2F35
330
2603
100
AcDbEntity
  8
Defpoints
 62
     0
100
AcDbPoint
 10
582.9775978189485
 20
270.9649375038884
 30
0.0
  0
ENDBLK
  5
260E
330
2603
100
AcDbEntity
  8
0
100
AcDbBlockEnd
  0
BLOCK
  5
2630
330
2624
100
AcDbEntity
  8
0
100
AcDbBlockBegin
  2
*D1
 70
     1
 10
0.0
 20
0.0
 30
0.0
  3
*D1
  1

  0
LINE
  5
2F36
330
2624
100
AcDbEntity
  8
Bemaßung
 62
     0
370
    -2
100
AcDbLine
 10
585.9775978189485
 20
248.3594138730005
 30
0.0
 11
585.9775978189485
 21
272.2149375038884
 31
0.0
  0
LINE
  5
2F37
330
2624
100
AcDbEntity
  8
Bemaßung
 62
     0
370
    -2
100
AcDbLine
 10
582.9775978189485
 20
258.3594138730005
 30
0.0
 11
582.9775978189485
 21
272.2149375038884
 31
0.0
  0
LINE
  5
2F38
330
2624
100
AcDbEntity
  8
Bemaßung
 62
     0
370
    -2
100
AcDbLine
 10
588.4775978189485
 20
270.9649375038884
 30
0.0
 11
590.9775978189485
 21
270.9649375038884
 31
0.0
  0
LINE
  5
2F39
330
2624
100
AcDbEntity
  8
Bemaßung
 62
     0
370
    -2
100
AcDbLine
 10
580.4775978189485
 20
270.9649375038884
 30
0.0
 11
577.9775978189485
 21
270.9649375038884
 31
0.0
  0
LINE
  5
2F3A
330
2624
100
AcDbEntity
  8
Bemaßung
 62
     0
370
    -2
100
AcDbLine
 10
585.9775978189485
 20
270.9649375038884
 30
0.0
 11
582.9775978189485
 21
270.9649375038884
 31
0.0
  0
SOLID
  5
2F3B
330
2624
100
AcDbEntity
  8
Bemaßung
 62
     0
100
AcDbTrace
 10
588.4775978189485
 20
271.3816041705551
 30
0.0
 11
588.4775978189485
 21
270.5482708372217
 31
0.0
 12
585.9775978189485
 22
270.9649375038884
 32
0.0
 13
585.9775978189485
 23
270.9649375038884
 33
0.0
  0
SOLID
  5
2F3C
330
2624
100
AcDbEntity
  8
Bemaßung
 62
     0
100
AcDbTrace
 10
580.4775978189485
 20
271.3816041705551
 30
0.0
 11
580.4775978189485
 21
270.5482708372217
 31
0.0
 12
582.9775978189485
 22
270.9649375038884
 32
0.0
 13
582.9775978189485
 23
270.9649375038884
 33
0.0
  0
MTEXT
  5
2F3D
330
2624
100
AcDbEntity
  8
Bemaßung
 62
     0
100
AcDbMText
 10
584.4775978189485
 20
272.8399375038884
 30
0.0
 40
2.5
 41
0.0
 71
     5
 72
     1
  1
3
 73
     1
 44
1.0
  0
POINT
  5
2F3E
330
2624
100
AcDbEntity
  8
Defpoints
 62
     0
100
AcDbPoint
 10
585.9775978189485
 20
247.7344138730005
 30
0.0
  0
POINT
  5
2F3F
330
2624
100
AcDbEntity
  8
Defpoints
 62
     0
100
AcDbPoint
 10
582.9775978189485
 20
257.7344138730005
 30
0.0
  0
POINT
  5
2F40
330
2624
100
AcDbEntity
  8
Defpoints
 62
     0
100
AcDbPoint
 10
582.9775978189485
 20
270.9649375038884
 30
0.0
  0
ENDBLK
  5
2631
330
2624
100
AcDbEntity
  8
0
100
AcDbBlockEnd
  0
BLOCK
  5
2655
330
264B
100
AcDbEntity
  8
0
100
AcDbBlockBegin
  2
*D2
 70
     1
 10
0.0
 20
0.0
 30
0.0
  3
*D2
  1

  0
LINE
  5
2F24
330
264B
100
AcDbEntity
  8
Bemaßung
 62
     0
370
    -2
100
AcDbLine
 10
582.9775978189485
 20
258.3594138730005
 30
0.0
 11
582.9775978189485
 21
281.4692065026733
 31
0.0
  0
LINE
  5
2F25
330
264B
100
AcDbEntity
  8
Bemaßung
 62
     0
370
    -2
100
AcDbLine
 10
637.9776278189486
 20
205.3594138730005
 30
0.0
 11
637.9776278189486
 21
281.4692065026733
 31
0.0
  0
LINE
  5
2F26
330
264B
100
AcDbEntity
  8
Bemaßung
 62
     0
370
    -2
100
AcDbLine
 10
585.4775978189485
 20
280.2192065026734
 30
0.0
 11
635.4776278189485
 21
280.2192065026734
 31
0.0
  0
SOLID
  5
2F27
330
264B
100
AcDbEntity
  8
Bemaßung
 62
     0
100
AcDbTrace
 10
585.4775978189485
 20
280.63587316934
 30
0.0
 11
585.4775978189485
 21
279.8025398360067
 31
0.0
 12
582.9775978189485
 22
280.2192065026734
 32
0.0
 13
582.9775978189485
 23
280.2192065026734
 33
0.0
  0
SOLID
  5
2F28
330
264B
100
AcDbEntity
  8
Bemaßung
 62
     0
100
AcDbTrace
 10
635.4776278189485
 20
280.63587316934
 30
0.0
 11
635.4776278189485
 21
279.8025398360067
 31
0.0
 12
637.9776278189486
 22
280.2192065026734
 32
0.0
 13
637.9776278189486
 23
280.2192065026734
 33
0.0
  0
MTEXT
  5
2F29
330
264B
100
AcDbEntity
  8
Bemaßung
 62
     0
100
AcDbMText
 10
610.4776128189485
 20
282.0942065026733
 30
0.0
 40
2.5
 41
0.0
 71
     5
 72
     1
  1
55
 73
     1
 44
1.0
  0
POINT
  5
2F2A
330
264B
100
AcDbEntity
  8
Defpoints
 62
     0
100
AcDbPoint
 10
582.9775978189485
 20
257.7344138730005
 30
0.0
  0
POINT
  5
2F2B
330
264B
100
AcDbEntity
  8
Defpoints
 62
     0
100
AcDbPoint
 10
637.9776278189486
 20
204.7344138730005
 30
0.0
  0
POINT
  5
2F2C
330
264B
100
AcDbEntity
  8
Defpoints
 62
     0
100
AcDbPoint
 10
637.9776278189486
 20
280.2192065026734
 30
0.0
  0
ENDBLK
  5
2656
330
264B
100
AcDbEntity
  8
0
100
AcDbBlockEnd
  0
BLOCK
  5
2676
330
266C
100
AcDbEntity
  8
0
100
AcDbBlockBegin
  2
*D3
 70
     1
 10
0.0
 20
0.0
 30
0.0
  3
*D3
  1

  0
LINE
  5
2F1B
330
266C
100
AcDbEntity
  8
Bemaßung
 62
     0
370
    -2
100
AcDbLine
 10
587.9775978189485
 20
208.3594138730005
 30
0.0
 11
587.9775978189485
 21
257.8708204305703
 31
0.0
  0
LINE
  5
2F1C
330
266C
100
AcDbEntity
  8
Bemaßung
 62
     0
370
    -2
100
AcDbLine
 10
637.9776278189486
 20
205.3594138730005
 30
0.0
 11
637.9776278189486
 21
257.8708204305703
 31
0.0
  0
LINE
  5
2F1D
330
266C
100
AcDbEntity
  8
Bemaßung
 62
     0
370
    -2
100
AcDbLine
 10
590.4775978189485
 20
256.6208204305703
 30
0.0
 11
635.4776278189485
 21
256.6208204305703
 31
0.0
  0
SOLID
  5
2F1E
330
266C
100
AcDbEntity
  8
Bemaßung
 62
     0
100
AcDbTrace
 10
590.4775978189485
 20
257.037487097237
 30
0.0
 11
590.4775978189485
 21
256.2041537639036
 31
0.0
 12
587.9775978189485
 22
256.6208204305703
 32
0.0
 13
587.9775978189485
 23
256.6208204305703
 33
0.0
  0
SOLID
  5
2F1F
330
266C
100
AcDbEntity
  8
Bemaßung
 62
     0
100
AcDbTrace
 10
635.4776278189485
 20
257.037487097237
 30
0.0
 11
635.4776278189485
 21
256.2041537639036
 31
0.0
 12
637.9776278189486
 22
256.6208204305703
 32
0.0
 13
637.9776278189486
 23
256.6208204305703
 33
0.0
  0
MTEXT
  5
2F20
330
266C
100
AcDbEntity
  8
Bemaßung
 62
     0
100
AcDbMText
 10
612.9776128189485
 20
258.4958204305703
 30
0.0
 40
2.5
 41
0.0
 71
     5
 72
     1
  1
50
 73
     1
 44
1.0
  0
POINT
  5
2F21
330
266C
100
AcDbEntity
  8
Defpoints
 62
     0
100
AcDbPoint
 10
587.9775978189485
 20
207.7344138730005
 30
0.0
  0
POINT
  5
2F22
330
266C
100
AcDbEntity
  8
Defpoints
 62
     0
100
AcDbPoint
 10
637.9776278189486
 20
204.7344138730005
 30
0.0
  0
POINT
  5
2F23
330
266C
100
AcDbEntity
  8
Defpoints
 62
     0
100
AcDbPoint
 10
637.9776278189486
 20
256.6208204305703
 30
0.0
  0
ENDBLK
  5
2677
330
266C
100
AcDbEntity
  8
0
100
AcDbBlockEnd
  0
BLOCK
  5
2697
330
268D
100
AcDbEntity
  8
0
100
AcDbBlockBegin
  2
*D4
 70
     1
 10
0.0
 20
0.0
 30
0.0
  3
*D4
  1

  0
LINE
  5
2F53
330
268D
100
AcDbEntity
  8
Bemaßung
 62
     0
370
    -2
100
AcDbLine
 10
582.9775978189485
 20
258.3594138730005
 30
0.0
 11
582.9775978189485
 21
281.4692065026733
 31
0.0
  0
LINE
  5
2F54
330
268D
100
AcDbEntity
  8
Bemaßung
 62
     0
370
    -2
100
AcDbLine
 10
379.9776178189485
 20
193.3594138730005
 30
0.0
 11
379.9776178189485
 21
281.4692065026733
 31
0.0
  0
LINE
  5
2F55
330
268D
100
AcDbEntity
  8
Bemaßung
 62
     0
370
    -2
100
AcDbLine
 10
580.4775978189485
 20
280.2192065026734
 30
0.0
 11
382.4776178189485
 21
280.2192065026734
 31
0.0
  0
SOLID
  5
2F56
330
268D
100
AcDbEntity
  8
Bemaßung
 62
     0
100
AcDbTrace
 10
580.4775978189485
 20
280.63587316934
 30
0.0
 11
580.4775978189485
 21
279.8025398360067
 31
0.0
 12
582.9775978189485
 22
280.2192065026734
 32
0.0
 13
582.9775978189485
 23
280.2192065026734
 33
0.0
  0
SOLID
  5
2F57
330
268D
100
AcDbEntity
  8
Bemaßung
 62
     0
100
AcDbTrace
 10
382.4776178189485
 20
280.63587316934
 30
0.0
 11
382.4776178189485
 21
279.8025398360067
 31
0.0
 12
379.9776178189485
 22
280.2192065026734
 32
0.0
 13
379.9776178189485
 23
280.2192065026734
 33
0.0
  0
MTEXT
  5
2F58
330
268D
100
AcDbEntity
  8
Bemaßung
 62
     0
100
AcDbMText
 10
481.4776078189485
 20
282.0942065026733
 30
0.0
 40
2.5
 41
0.0
 71
     5
 72
     1
  1
203
 73
     1
 44
1.0
  0
POINT
  5
2F59
330
268D
100
AcDbEntity
  8
Defpoints
 62
     0
100
AcDbPoint
 10
582.9775978189485
 20
257.7344138730005
 30
0.0
  0
POINT
  5
2F5A
330
268D
100
AcDbEntity
  8
Defpoints
 62
     0
100
AcDbPoint
 10
379.9776178189485
 20
192.7344138730005
 30
0.0
  0
POINT
  5
2F5B
330
268D
100
AcDbEntity
  8
Defpoints
 62
     0
100
AcDbPoint
 10
379.9776178189485
 20
280.2192065026734
 30
0.0
  0
ENDBLK
  5
2698
330
268D
100
AcDbEntity
  8
0
100
AcDbBlockEnd
  0
BLOCK
  5
26B8
330
26AE
100
AcDbEntity
  8
0
100
AcDbBlockBegin
  2
*D5
 70
     1
 10
0.0
 20
0.0
 30
0.0
  3
*D5
  1

  0
LINE
  5
2F41
330
26AE
100
AcDbEntity
  8
Bemaßung
 62
     0
370
    -2
100
AcDbLine
 10
638.6026278189485
 20
204.7344138730005
 30
0.0
 11
660.5442015433009
 21
204.7344138730005
 31
0.0
  0
LINE
  5
2F42
330
26AE
100
AcDbEntity
  8
Bemaßung
 62
     0
370
    -2
100
AcDbLine
 10
638.6026278189485
 20
180.7344138730005
 30
0.0
 11
660.5442015433009
 21
180.7344138730005
 31
0.0
  0
LINE
  5
2F43
330
26AE
100
AcDbEntity
  8
Bemaßung
 62
     0
370
    -2
100
AcDbLine
 10
659.2942015433009
 20
202.2344138730005
 30
0.0
 11
659.2942015433009
 21
183.2344138730005
 31
0.0
  0
SOLID
  5
2F44
330
26AE
100
AcDbEntity
  8
Bemaßung
 62
     0
100
AcDbTrace
 10
658.8775348766342
 20
202.2344138730005
 30
0.0
 11
659.7108682099675
 21
202.2344138730005
 31
0.0
 12
659.2942015433009
 22
204.7344138730005
 32
0.0
 13
659.2942015433009
 23
204.7344138730005
 33
0.0
  0
SOLID
  5
2F45
330
26AE
100
AcDbEntity
  8
Bemaßung
 62
     0
100
AcDbTrace
 10
658.8775348766342
 20
183.2344138730005
 30
0.0
 11
659.7108682099675
 21
183.2344138730005
 31
0.0
 12
659.2942015433009
 22
180.7344138730005
 32
0.0
 13
659.2942015433009
 23
180.7344138730005
 33
0.0
  0
MTEXT
  5
2F46
330
26AE
100
AcDbEntity
  8
Bemaßung
 62
     0
100
AcDbMText
 10
657.4192015433009
 20
192.7344138730006
 30
0.0
 40
2.5
 41
0.0
 71
     5
 72
     1
  1
24
 11
0.0000000000000001
 21
1.0
 31
0.0
 73
     1
 44
1.0
  0
POINT
  5
2F47
330
26AE
100
AcDbEntity
  8
Defpoints
 62
     0
100
AcDbPoint
 10
637.9776278189486
 20
204.7344138730005
 30
0.0
  0
POINT
  5
2F48
330
26AE
100
AcDbEntity
  8
Defpoints
 62
     0
100
AcDbPoint
 10
637.9776278189486
 20
180.7344138730005
 30
0.0
  0
POINT
  5
2F49
330
26AE
100
AcDbEntity
  8
Defpoints
 62
     0
100
AcDbPoint
 10
659.2942015433009
 20
180.7344138730005
 30
0.0
  0
ENDBLK
  5
26B9
330
26AE
100
AcDbEntity
  8
0
100
AcDbBlockEnd
  0
BLOCK
  5
26D9
330
26CF
100
AcDbEntity
  8
0
100
AcDbBlockBegin
  2
*D6
 70
     1
 10
0.0
 20
0.0
 30
0.0
  3
*D6
  1

  0
LINE
  5
2F12
330
26CF
100
AcDbEntity
  8
Bemaßung
 62
     0
370
    -2
100
AcDbLine
 10
586.6025978189485
 20
247.7344138730005
 30
0.0
 11
672.5794714869343
 21
247.7344138730005
 31
0.0
  0
LINE
  5
2F13
330
26CF
100
AcDbEntity
  8
Bemaßung
 62
     0
370
    -2
100
AcDbLine
 10
586.6025978189485
 20
137.7344138730005
 30
0.0
 11
672.5794714869343
 21
137.7344138730005
 31
0.0
  0
LINE
  5
2F14
330
26CF
100
AcDbEntity
  8
Bemaßung
 62
     0
370
    -2
100
AcDbLine
 10
671.3294714869343
 20
245.2344138730005
 30
0.0
 11
671.3294714869343
 21
140.2344138730005
 31
0.0
  0
SOLID
  5
2F15
330
26CF
100
AcDbEntity
  8
Bemaßung
 62
     0
100
AcDbTrace
 10
670.9128048202678
 20
245.2344138730005
 30
0.0
 11
671.746138153601
 21
245.2344138730005
 31
0.0
 12
671.3294714869343
 22
247.7344138730005
 32
0.0
 13
671.3294714869343
 23
247.7344138730005
 33
0.0
  0
SOLID
  5
2F16
330
26CF
100
AcDbEntity
  8
Bemaßung
 62
     0
100
AcDbTrace
 10
670.9128048202678
 20
140.2344138730005
 30
0.0
 11
671.746138153601
 21
140.2344138730005
 31
0.0
 12
671.3294714869343
 22
137.7344138730005
 32
0.0
 13
671.3294714869343
 23
137.7344138730005
 33
0.0
  0
MTEXT
  5
2F17
330
26CF
100
AcDbEntity
  8
Bemaßung
 62
     0
100
AcDbMText
 10
669.4544714869343
 20
192.7344138730006
 30
0.0
 40
2.5
 41
0.0
 71
     5
 72
     1
  1
110
 11
0.0000000000000001
 21
1.0
 31
0.0
 73
     1
 44
1.0
  0
POINT
  5
2F18
330
26CF
100
AcDbEntity
  8
Defpoints
 62
     0
100
AcDbPoint
 10
585.9775978189485
 20
247.7344138730005
 30
0.0
  0
POINT
  5
2F19
330
26CF
100
AcDbEntity
  8
Defpoints
 62
     0
100
AcDbPoint
 10
585.9775978189485
 20
137.7344138730005
 30
0.0
  0
POINT
  5
2F1A
330
26CF
100
AcDbEntity
  8
Defpoints
 62
     0
100
AcDbPoint
 10
671.3294714869343
 20
137.7344138730005
 30
0.0
  0
ENDBLK
  5
26DA
330
26CF
100
AcDbEntity
  8
0
100
AcDbBlockEnd
  0
BLOCK
  5
26FA
330
26F0
100
AcDbEntity
  8
0
100
AcDbBlockBegin
  2
*D7
 70
     1
 10
0.0
 20
0.0
 30
0.0
  3
*D7
  1

  0
LINE
  5
2F4A
330
26F0
100
AcDbEntity
  8
Bemaßung
 62
     0
370
    -2
100
AcDbLine
 10
582.9775978189485
 20
127.1094138730005
 30
0.0
 11
582.9775978189485
 21
60.30934398804038
 31
0.0
  0
LINE
  5
2F4B
330
26F0
100
AcDbEntity
  8
Bemaßung
 62
     0
370
    -2
100
AcDbLine
 10
481.4775978189485
 20
74.16920387300058
 30
0.0
 11
481.4775978189485
 21
60.30934398804038
 31
0.0
  0
LINE
  5
2F4C
330
26F0
100
AcDbEntity
  8
Bemaßung
 62
     0
370
    -2
100
AcDbLine
 10
580.4775978189485
 20
61.55934398804038
 30
0.0
 11
483.9775978189485
 21
61.55934398804038
 31
0.0
  0
SOLID
  5
2F4D
330
26F0
100
AcDbEntity
  8
Bemaßung
 62
     0
100
AcDbTrace
 10
580.4775978189485
 20
61.97601065470704
 30
0.0
 11
580.4775978189485
 21
61.14267732137371
 31
0.0
 12
582.9775978189485
 22
61.55934398804038
 32
0.0
 13
582.9775978189485
 23
61.55934398804038
 33
0.0
  0
SOLID
  5
2F4E
330
26F0
100
AcDbEntity
  8
Bemaßung
 62
     0
100
AcDbTrace
 10
483.9775978189485
 20
61.97601065470704
 30
0.0
 11
483.9775978189485
 21
61.14267732137371
 31
0.0
 12
481.4775978189485
 22
61.55934398804038
 32
0.0
 13
481.4775978189485
 23
61.55934398804038
 33
0.0
  0
MTEXT
  5
2F4F
330
26F0
100
AcDbEntity
  8
Bemaßung
 62
     0
100
AcDbMText
 10
532.2275978189485
 20
63.64267732137371
 30
0.0
 40
2.5
 41
0.0
 71
     5
 72
     1
  1
101,5
 73
     1
 44
1.0
  0
POINT
  5
2F50
330
26F0
100
AcDbEntity
  8
Defpoints
 62
     0
100
AcDbPoint
 10
582.9775978189485
 20
127.7344138730005
 30
0.0
  0
POINT
  5
2F51
330
26F0
100
AcDbEntity
  8
Defpoints
 62
     0
100
AcDbPoint
 10
481.4775978189485
 20
74.79420387300058
 30
0.0
  0
POINT
  5
2F52
330
26F0
100
AcDbEntity
  8
Defpoints
 62
     0
100
AcDbPoint
 10
481.4775978189485
 20
61.55934398804038
 30
0.0
  0
ENDBLK
  5
26FB
330
26F0
100
AcDbEntity
  8
0
100
AcDbBlockEnd
  0
BLOCK
  5
273E
330
2734
100
AcDbEntity
  8
0
100
AcDbBlockBegin
  2
*D9
 70
     1
 10
0.0
 20
0.0
 30
0.0
  3
*D9
  1

  0
LINE
  5
274B
330
2734
100
AcDbEntity
  8
Bemaßung
 62
     0
370
    -2
100
AcDbLine
 10
173.1655933831132
 20
244.174367031282
 30
0.0
 11
173.1655933831132
 21
281.4692065026733
 31
0.0
  0
LINE
  5
274C
330
2734
100
AcDbEntity
  8
Bemaßung
 62
     0
370
    -2
100
AcDbLine
 10
303.165244780983
 20
244.1733347713668
 30
0.0
 11
303.165244780983
 21
281.4692065026733
 31
0.0
  0
LINE
  5
274D
330
2734
100
AcDbEntity
  8
Bemaßung
 62
     0
370
    -2
100
AcDbLine
 10
175.6655933831132
 20
280.2192065026734
 30
0.0
 11
300.665244780983
 21
280.2192065026734
 31
0.0
  0
SOLID
  5
274E
330
2734
100
AcDbEntity
  8
Bemaßung
 62
     0
100
AcDbTrace
 10
175.6655933831132
 20
280.63587316934
 30
0.0
 11
175.6655933831132
 21
279.8025398360067
 31
0.0
 12
173.1655933831132
 22
280.2192065026734
 32
0.0
 13
173.1655933831132
 23
280.2192065026734
 33
0.0
  0
SOLID
  5
274F
330
2734
100
AcDbEntity
  8
Bemaßung
 62
     0
100
AcDbTrace
 10
300.665244780983
 20
280.63587316934
 30
0.0
 11
300.665244780983
 21
279.8025398360067
 31
0.0
 12
303.165244780983
 22
280.2192065026734
 32
0.0
 13
303.165244780983
 23
280.2192065026734
 33
0.0
  0
MTEXT
  5
2750
330
2734
100
AcDbEntity
  8
Bemaßung
 62
     0
100
AcDbMText
 10
238.1654190820481
 20
282.0942065026733
 30
0.0
 40
2.5
 41
0.0
 71
     5
 72
     1
  1
130
 73
     1
 44
1.0
  0
POINT
  5
2751
330
2734
100
AcDbEntity
  8
Defpoints
 62
     0
100
AcDbPoint
 10
173.1655933831132
 20
243.549367031282
 30
0.0
  0
POINT
  5
2752
330
2734
100
AcDbEntity
  8
Defpoints
 62
     0
100
AcDbPoint
 10
303.165244780983
 20
243.5483347713668
 30
0.0
  0
POINT
  5
2753
330
2734
100
AcDbEntity
  8
Defpoints
 62
     0
100
AcDbPoint
 10
303.165244780983
 20
280.2192065026734
 30
0.0
  0
ENDBLK
  5
273F
330
2734
100
AcDbEntity
  8
0
100
AcDbBlockEnd
  0
BLOCK
  5
275F
330
2755
100
AcDbEntity
  8
0
100
AcDbBlockBegin
  2
*D10
 70
     1
 10
0.0
 20
0.0
 30
0.0
  3
*D10
  1

  0
LINE
  5
276C
330
2755
100
AcDbEntity
  8
Bemaßung
 62
     0
370
    -2
100
AcDbLine
 10
186.7343447809829
 20
257.7428847713668
 30
0.0
 11
141.809164680179
 21
257.7428847713668
 31
0.0
  0
LINE
  5
276D
330
2755
100
AcDbEntity
  8
Bemaßung
 62
     0
370
    -2
100
AcDbLine
 10
186.7331590757688
 20
127.7433120480738
 30
0.0
 11
141.809164680179
 21
127.7433120480738
 31
0.0
  0
LINE
  5
276E
330
2755
100
AcDbEntity
  8
Bemaßung
 62
     0
370
    -2
100
AcDbLine
 10
143.059164680179
 20
255.2428847713669
 30
0.0
 11
143.059164680179
 21
130.2433120480738
 31
0.0
  0
SOLID
  5
276F
330
2755
100
AcDbEntity
  8
Bemaßung
 62
     0
100
AcDbTrace
 10
142.6424980135124
 20
255.2428847713669
 30
0.0
 11
143.4758313468457
 21
255.2428847713669
 31
0.0
 12
143.059164680179
 22
257.7428847713668
 32
0.0
 13
143.059164680179
 23
257.7428847713668
 33
0.0
  0
SOLID
  5
2770
330
2755
100
AcDbEntity
  8
Bemaßung
 62
     0
100
AcDbTrace
 10
142.6424980135123
 20
130.2433120480738
 30
0.0
 11
143.4758313468456
 21
130.2433120480738
 31
0.0
 12
143.059164680179
 22
127.7433120480738
 32
0.0
 13
143.059164680179
 23
127.7433120480738
 33
0.0
  0
MTEXT
  5
2771
330
2755
100
AcDbEntity
  8
Bemaßung
 62
     0
100
AcDbMText
 10
141.1841646801789
 20
192.7430984097204
 30
0.0
 40
2.5
 41
0.0
 71
     5
 72
     1
  1
130
 11
0.0000000000000001
 21
1.0
 31
0.0
 73
     1
 44
1.0
  0
POINT
  5
2772
330
2755
100
AcDbEntity
  8
Defpoints
 62
     0
100
AcDbPoint
 10
187.3593447809829
 20
257.7428847713668
 30
0.0
  0
POINT
  5
2773
330
2755
100
AcDbEntity
  8
Defpoints
 62
     0
100
AcDbPoint
 10
187.3581590757688
 20
127.7433120480738
 30
0.0
  0
POINT
  5
2774
330
2755
100
AcDbEntity
  8
Defpoints
 62
     0
100
AcDbPoint
 10
143.059164680179
 20
127.7433120480738
 30
0.0
  0
ENDBLK
  5
2760
330
2755
100
AcDbEntity
  8
0
100
AcDbBlockEnd
  0
BLOCK
  5
2780
330
2776
100
AcDbEntity
  8
0
100
AcDbBlockBegin
  2
*D11
 70
     1
 10
0.0
 20
0.0
 30
0.0
  3
*D11
  1

  0
ARC
  5
278D
330
2776
100
AcDbEntity
  8
Bemaßung
 62
     0
370
    -2
100
AcDbCircle
 10
238.1650047809829
 20
192.7425506291617
 30
0.0
 40
78.64762321089401
100
AcDbArc
 50
91.82135802985285
 51
133.1785692200988
  0
SOLID
  5
278E
330
2776
100
AcDbEntity
  8
Bemaßung
 62
     0
100
AcDbTrace
 10
235.6586981963377
 20
271.7670536814844
 30
0.0
 11
235.6719429280173
 21
270.9338256085493
 31
0.0
 12
238.1650047809829
 22
271.3901738400557
 32
0.0
 13
238.1650047809829
 23
271.3901738400557
 33
0.0
  0
SOLID
  5
278F
330
2776
100
AcDbEntity
  8
Bemaßung
 62
     0
100
AcDbTrace
 10
184.638357396704
 20
249.7950603031803
 30
0.0
 11
184.058542375634
 21
250.3936076996212
 31
0.0
 12
182.5528076968464
 22
248.3548889381909
 32
0.0
 13
182.5528076968464
 23
248.3548889381909
 33
0.0
  0
MTEXT
  5
2790
330
2776
100
AcDbEntity
  8
Bemaßung
 62
     0
100
AcDbMText
 10
207.3503781771654
 20
267.1357736809351
 30
0.0
 40
2.5
 41
0.0
 71
     5
 72
     1
  1
45°
 11
0.9238797754630102
 21
0.3826828458272174
 31
0.0
 73
     1
 44
1.0
  0
POINT
  5
2791
330
2776
100
AcDbEntity
  8
Defpoints
 62
     0
100
AcDbPoint
 10
217.8095341947568
 20
268.7103296801254
 30
0.0
  0
POINT
  5
2792
330
2776
100
AcDbEntity
  8
Defpoints
 62
     0
100
AcDbPoint
 10
181.4040147809829
 20
249.5036847713669
 30
0.0
  0
POINT
  5
2793
330
2776
100
AcDbEntity
  8
Defpoints
 62
     0
100
AcDbPoint
 10
238.1650047809829
 20
71.0815447713669
 30
0.0
  0
POINT
  5
2794
330
2776
100
AcDbEntity
  8
Defpoints
 62
     0
100
AcDbPoint
 10
238.1650047809829
 20
273.3770947713667
 30
0.0
  0
POINT
  5
2795
330
2776
100
AcDbEntity
  8
Defpoints
 62
     0
100
AcDbPoint
 10
193.2175547809828
 20
237.6901147713668
 30
0.0
  0
ENDBLK
  5
2781
330
2776
100
AcDbEntity
  8
0
100
AcDbBlockEnd
  0
BLOCK
  5
279D
330
2797
100
AcDbEntity
  8
0
100
AcDbBlockBegin
  2
*D12
 70
     1
 10
0.0
 20
0.0
 30
0.0
  3
*D12
  1

  0
LINE
  5
27A6
330
2797
100
AcDbEntity
  8
Bemaßung
 62
     0
370
    -2
100
AcDbLine
 10
267.1283826666461
 20
168.9901981390847
 30
0.0
 11
184.0385197965539
 21
237.1309623274979
 31
0.0
  0
MTEXT
  5
27A7
330
2797
100
AcDbEntity
  8
Bemaßung
 62
     0
100
AcDbMText
 10
264.6122689564179
 20
173.478501408879
 30
0.0
 40
2.5
 41
0.0
 71
     5
 72
     1
  1
\U+2205145
 11
0.7732354997775569
 21
-0.6341189650875866
 31
0.0
 73
     1
 44
1.0
  0
SOLID
  5
27A8
330
2797
100
AcDbEntity
  8
Bemaßung
 62
     0
100
AcDbTrace
 10
184.3027360320071
 20
237.4531437857386
 30
0.0
 11
183.7743035611008
 21
236.8087808692572
 31
0.0
 12
182.10543104711
 22
238.7162597402169
 32
0.0
 13
182.10543104711
 23
238.7162597402169
 33
0.0
  0
POINT
  5
27A9
330
2797
100
AcDbEntity
  8
Defpoints
 62
     0
100
AcDbPoint
 10
182.10543104711
 20
238.7162597402169
 30
0.0
  0
POINT
  5
27AA
330
2797
100
AcDbEntity
  8
Defpoints
 62
     0
100
AcDbPoint
 10
294.2245785148559
 20
146.7690098025168
 30
0.0
  0
ENDBLK
  5
279E
330
2797
100
AcDbEntity
  8
0
100
AcDbBlockEnd
  0
BLOCK
  5
27D0
330
27CA
100
AcDbEntity
  8
0
100
AcDbBlockBegin
  2
*D13
 70
     1
 10
0.0
 20
0.0
 30
0.0
  3
*D13
  1

  0
LINE
  5
27DE
330
27CA
100
AcDbEntity
  8
Bemaßung
 62
     0
370
    -2
100
AcDbLine
 10
209.9950184801451
 20
168.3509590301798
 30
0.0
 11
298.643822215048
 21
245.1097068852174
 31
0.0
  0
MTEXT
  5
27DF
330
27CA
100
AcDbEntity
  8
Bemaßung
 62
     0
100
AcDbMText
 10
212.3900948457814
 20
172.9050015911596
 30
0.0
 40
2.5
 41
0.0
 71
     5
 72
     1
  1
\U+2205165
 11
0.7559853596730691
 21
0.6545885241584827
 31
0.0
 73
     1
 44
1.0
  0
SOLID
  5
27E0
330
27CA
100
AcDbEntity
  8
Bemaßung
 62
     0
100
AcDbTrace
 10
298.3710769966486
 20
245.4247007850812
 30
0.0
 11
298.9165674334474
 21
244.7947129853537
 31
0.0
 12
300.5337856142307
 22
246.7461781956136
 32
0.0
 13
300.5337856142307
 23
246.7461781956136
 33
0.0
  0
POINT
  5
27E1
330
27CA
100
AcDbEntity
  8
Defpoints
 62
     0
100
AcDbPoint
 10
300.5337856142307
 20
246.7461781956136
 30
0.0
  0
POINT
  5
27E2
330
27CA
100
AcDbEntity
  8
Defpoints
 62
     0
100
AcDbPoint
 10
175.796223947735
 20
138.7390913471198
 30
0.0
  0
ENDBLK
  5
27D1
330
27CA
100
AcDbEntity
  8
0
100
AcDbBlockEnd
  0
BLOCK
  5
27EE
330
27E4
100
AcDbEntity
  8
0
100
AcDbBlockBegin
  2
*D14
 70
     1
 10
0.0
 20
0.0
 30
0.0
  3
*D14
  1

  0
LINE
  5
27FB
330
27E4
100
AcDbEntity
  8
Bemaßung
 62
     0
370
    -2
100
AcDbLine
 10
315.9974047809829
 20
192.7426347713668
 30
0.0
 11
332.3441293846922
 21
192.7426347713668
 31
0.0
  0
LINE
  5
27FC
330
27E4
100
AcDbEntity
  8
Bemaßung
 62
     0
370
    -2
100
AcDbLine
 10
255.1899647809829
 20
81.74266477136677
 30
0.0
 11
332.3441293846922
 21
81.74266477136676
 31
0.0
  0
LINE
  5
27FD
330
27E4
100
AcDbEntity
  8
Bemaßung
 62
     0
370
    -2
100
AcDbLine
 10
331.0941293846922
 20
190.2426347713668
 30
0.0
 11
331.0941293846922
 21
84.24266477136676
 31
0.0
  0
SOLID
  5
27FE
330
27E4
100
AcDbEntity
  8
Bemaßung
 62
     0
100
AcDbTrace
 10
330.6774627180256
 20
190.2426347713668
 30
0.0
 11
331.5107960513589
 21
190.2426347713668
 31
0.0
 12
331.0941293846922
 22
192.7426347713668
 32
0.0
 13
331.0941293846922
 23
192.7426347713668
 33
0.0
  0
SOLID
  5
27FF
330
27E4
100
AcDbEntity
  8
Bemaßung
 62
     0
100
AcDbTrace
 10
330.6774627180255
 20
84.24266477136676
 30
0.0
 11
331.5107960513589
 21
84.24266477136676
 31
0.0
 12
331.0941293846922
 22
81.74266477136676
 32
0.0
 13
331.0941293846922
 23
81.74266477136676
 33
0.0
  0
MTEXT
  5
2800
330
27E4
100
AcDbEntity
  8
Bemaßung
 62
     0
100
AcDbMText
 10
329.2191293846922
 20
137.2426497713668
 30
0.0
 40
2.5
 41
0.0
 71
     5
 72
     1
  1
111
 11
0.0000000000000001
 21
1.0
 31
0.0
 73
     1
 44
1.0
  0
POINT
  5
2801
330
27E4
100
AcDbEntity
  8
Defpoints
 62
     0
100
AcDbPoint
 10
315.3724047809829
 20
192.7426347713668
 30
0.0
  0
POINT
  5
2802
330
27E4
100
AcDbEntity
  8
Defpoints
 62
     0
100
AcDbPoint
 10
254.5649647809828
 20
81.74266477136677
 30
0.0
  0
POINT
  5
2803
330
27E4
100
AcDbEntity
  8
Defpoints
 62
     0
100
AcDbPoint
 10
331.0941293846922
 20
81.74266477136676
 30
0.0
  0
ENDBLK
  5
27EF
330
27E4
100
AcDbEntity
  8
0
100
AcDbBlockEnd
  0
BLOCK
  5
2827
330
281D
100
AcDbEntity
  8
0
100
AcDbBlockBegin
  2
*D15
 70
     1
 10
0.0
 20
0.0
 30
0.0
  3
*D15
  1

  0
LINE
  5
2834
330
281D
100
AcDbEntity
  8
Bemaßung
 62
     0
370
    -2
100
AcDbLine
 10
258.6650047809829
 20
100.1176547713669
 30
0.0
 11
258.6650047809829
 21
55.85926631601092
 31
0.0
  0
LINE
  5
2835
330
281D
100
AcDbEntity
  8
Bemaßung
 62
     0
370
    -2
100
AcDbLine
 10
217.6650047809829
 20
100.1176547713668
 30
0.0
 11
217.6650047809829
 21
55.85926631601092
 31
0.0
  0
LINE
  5
2836
330
281D
100
AcDbEntity
  8
Bemaßung
 62
     0
370
    -2
100
AcDbLine
 10
256.1650047809829
 20
57.10926631601092
 30
0.0
 11
220.1650047809829
 21
57.10926631601092
 31
0.0
  0
SOLID
  5
2837
330
281D
100
AcDbEntity
  8
Bemaßung
 62
     0
100
AcDbTrace
 10
256.1650047809829
 20
57.52593298267758
 30
0.0
 11
256.1650047809829
 21
56.69259964934425
 31
0.0
 12
258.6650047809829
 22
57.10926631601092
 32
0.0
 13
258.6650047809829
 23
57.10926631601092
 33
0.0
  0
SOLID
  5
2838
330
281D
100
AcDbEntity
  8
Bemaßung
 62
     0
100
AcDbTrace
 10
220.1650047809829
 20
57.52593298267758
 30
0.0
 11
220.1650047809829
 21
56.69259964934425
 31
0.0
 12
217.6650047809829
 22
57.10926631601092
 32
0.0
 13
217.6650047809829
 23
57.10926631601092
 33
0.0
  0
MTEXT
  5
2839
330
281D
100
AcDbEntity
  8
Bemaßung
 62
     0
100
AcDbMText
 10
238.1650047809829
 20
58.98426631601092
 30
0.0
 40
2.5
 41
0.0
 71
     5
 72
     1
  1
41
 73
     1
 44
1.0
  0
POINT
  5
283A
330
281D
100
AcDbEntity
  8
Defpoints
 62
     0
100
AcDbPoint
 10
258.6650047809829
 20
100.7426547713669
 30
0.0
  0
POINT
  5
283B
330
281D
100
AcDbEntity
  8
Defpoints
 62
     0
100
AcDbPoint
 10
217.6650047809829
 20
100.7426547713669
 30
0.0
  0
POINT
  5
283C
330
281D
100
AcDbEntity
  8
Defpoints
 62
     0
100
AcDbPoint
 10
217.6650047809829
 20
57.10926631601092
 30
0.0
  0
ENDBLK
  5
2828
330
281D
100
AcDbEntity
  8
0
100
AcDbBlockEnd
  0
ENDSEC
  0
SECTION
  2
ENTITIES
  0
LINE
  5
21EF
330
1F
100
AcDbEntity
  8
0
100
AcDbLine
 10
-303.347915219017
 20
100.7423047713668
 30
0.0
 11
-303.347915219017
 21
104.5423047713668
 31
0.0
  0
LINE
  5
21F0
330
1F
100
AcDbEntity
  8
0
100
AcDbLine
 10
-262.347915219017
 20
100.7423047713668
 30
0.0
 11
-262.347915219017
 21
104.5423047713668
 31
0.0
  0
LINE
  5
21F1
330
1F
100
AcDbEntity
  8
Mittellinie
100
AcDbLine
 10
-282.847915219017
 20
66.70097477136687
 30
0.0
 11
-282.847915219017
 21
268.1155947713668
 31
0.0
  0
LINE
  5
21F2
330
1F
100
AcDbEntity
  8
0
100
AcDbLine
 10
-303.347915219017
 20
100.7423047713668
 30
0.0
 11
-262.347915219017
 21
100.7423047713668
 31
0.0
  0
LINE
  5
21F3
330
1F
100
AcDbEntity
  8
Innenkanten
100
AcDbLine
 10
-300.247945219017
 20
97.7423047713669
 30
0.0
 11
-265.447925219017
 21
97.7423047713669
 31
0.0
  0
LINE
  5
21F4
330
1F
100
AcDbEntity
  8
0
100
AcDbLine
 10
-300.247945219017
 20
82.74230477136688
 30
0.0
 11
-265.447925219017
 21
82.74230477136688
 31
0.0
  0
LINE
  5
21F5
330
1F
100
AcDbEntity
  8
0
100
AcDbLine
 10
-299.2479252190171
 20
81.74230477136688
 30
0.0
 11
-266.447925219017
 21
81.74230477136688
 31
0.0
  0
LINE
  5
21F6
330
1F
100
AcDbEntity
  8
Innenkanten
100
AcDbLine
 10
-300.247945219017
 20
82.74230477136688
 30
0.0
 11
-265.447925219017
 21
82.74230477136688
 31
0.0
  0
LINE
  5
21F7
330
1F
100
AcDbEntity
  8
0
100
AcDbLine
 10
-299.247945219017
 20
81.74230477136688
 30
0.0
 11
-266.447925219017
 21
81.74230477136688
 31
0.0
  0
LINE
  5
21F8
330
1F
100
AcDbEntity
  8
Innenkanten
100
AcDbLine
 10
-299.247945219017
 20
81.74230477136688
 30
0.0
 11
-299.247945219017
 21
97.7423047713669
 31
0.0
  0
LINE
  5
21F9
330
1F
100
AcDbEntity
  8
0
100
AcDbLine
 10
-300.247945219017
 20
82.74231477136686
 30
0.0
 11
-300.247945219017
 21
100.7423047713668
 31
0.0
  0
LINE
  5
21FA
330
1F
100
AcDbEntity
  8
0
100
AcDbLine
 10
-299.2479252190171
 20
81.74230477136688
 30
0.0
 11
-300.247955219017
 21
82.74231477136686
 31
0.0
  0
LINE
  5
21FB
330
1F
100
AcDbEntity
  8
0
100
AcDbLine
 10
-299.247945219017
 20
81.74230477136688
 30
0.0
 11
-300.247945219017
 21
82.74230477136688
 31
0.0
  0
LINE
  5
21FC
330
1F
100
AcDbEntity
  8
0
100
AcDbLine
 10
-265.447925219017
 20
82.74230477136688
 30
0.0
 11
-265.447925219017
 21
100.7423047713668
 31
0.0
  0
LINE
  5
21FD
330
1F
100
AcDbEntity
  8
Innenkanten
100
AcDbLine
 10
-266.447925219017
 20
81.74230477136688
 30
0.0
 11
-266.447925219017
 21
97.7423047713669
 31
0.0
  0
LINE
  5
21FE
330
1F
100
AcDbEntity
  8
0
100
AcDbLine
 10
-266.447925219017
 20
81.74230477136688
 30
0.0
 11
-265.447925219017
 21
82.74230477136688
 31
0.0
  0
LINE
  5
21FF
330
1F
100
AcDbEntity
  8
0
100
AcDbLine
 10
-266.447925219017
 20
81.74230477136688
 30
0.0
 11
-265.447925219017
 21
82.74230477136688
 31
0.0
  0
ARC
  5
2200
330
1F
100
AcDbEntity
  8
0
100
AcDbCircle
 10
-282.847915219017
 20
192.7427247713668
 30
0.0
 40
40.0
100
AcDbArc
 50
300.8304799999987
 51
239.1694800000013
  0
ARC
  5
2201
330
1F
100
AcDbEntity
  8
Innenkanten
100
AcDbCircle
 10
-282.847915219017
 20
192.7427247713668
 30
0.0
 40
38.5
100
AcDbArc
 50
299.5712899999996
 51
240.428670000002
  0
LINE
  5
2202
330
1F
100
AcDbEntity
  8
Innenkanten
100
AcDbLine
 10
-303.347915219017
 20
104.5423047713668
 30
0.0
 11
-262.347915219017
 21
104.5423047713668
 31
0.0
  0
LINE
  5
2203
330
1F
100
AcDbEntity
  8
Innenkanten
100
AcDbLine
 10
-303.347915219017
 20
103.5423047713668
 30
0.0
 11
-262.347915219017
 21
103.5423047713668
 31
0.0
  0
LINE
  5
2204
330
1F
100
AcDbEntity
  8
Innenkanten
100
AcDbLine
 10
-310.3609552190171
 20
235.2332947713668
 30
0.0
 11
-255.334915219017
 21
235.2332947713668
 31
0.0
  0
LINE
  5
2205
330
1F
100
AcDbEntity
  8
Innenkanten
100
AcDbLine
 10
-303.347915219017
 20
134.3427047713668
 30
0.0
 11
-262.347915219017
 21
134.3427047713668
 31
0.0
  0
LINE
  5
2206
330
1F
100
AcDbEntity
  8
0
100
AcDbLine
 10
-333.653845219017
 20
257.7427547713668
 30
0.0
 11
-232.041995219017
 21
257.7427547713668
 31
0.0
  0
LINE
  5
2207
330
1F
100
AcDbEntity
  8
0
100
AcDbLine
 10
-333.6539152190171
 20
127.7427547713668
 30
0.0
 11
-297.6479352190171
 21
127.7427547713668
 31
0.0
  0
LINE
  5
2208
330
1F
100
AcDbEntity
  8
Mittellinie
100
AcDbLine
 10
-361.557575219017
 20
192.7427247713668
 30
0.0
 11
-207.634235219017
 21
192.7427247713668
 31
0.0
  0
ARC
  5
2209
330
1F
100
AcDbEntity
  8
Mittellinie
100
AcDbCircle
 10
-282.847915219017
 20
192.7427247713668
 30
0.0
 40
66.99998499999999
100
AcDbArc
 50
114.9992499999994
 51
125.1620100000021
  0
ARC
  5
220A
330
1F
100
AcDbEntity
  8
Mittellinie
100
AcDbCircle
 10
-282.847915219017
 20
192.7427247713668
 30
0.0
 40
72.5
100
AcDbArc
 50
129.123030000003
 51
141.0764399999972
  0
CIRCLE
  5
220B
330
1F
100
AcDbEntity
  8
Innenkanten
100
AcDbCircle
 10
-316.347935219017
 20
250.7664747713669
 30
0.0
 40
3.0
  0
ARC
  5
220C
330
1F
100
AcDbEntity
  8
0
100
AcDbCircle
 10
-282.847915219017
 20
192.7427247713668
 30
0.0
 40
82.49997699999999
100
AcDbArc
 50
128.0122399999975
 51
141.9877599999979
  0
LINE
  5
220D
330
1F
100
AcDbEntity
  8
Innenkanten
100
AcDbLine
 10
-325.347915219017
 20
247.2427247713668
 30
0.0
 11
-325.347915219017
 21
255.7427547713668
 31
0.0
  0
LINE
  5
220E
330
1F
100
AcDbEntity
  8
Mittellinie
100
AcDbLine
 10
-339.269165219017
 20
249.1639647713668
 30
0.0
 11
-328.734315219017
 21
238.6291447713669
 31
0.0
  0
LINE
  5
220F
330
1F
100
AcDbEntity
  8
Mittellinie
100
AcDbLine
 10
-313.572295219017
 20
245.9589447713668
 30
0.0
 11
-318.544455219017
 21
254.5709747713668
 31
0.0
  0
LINE
  5
2210
330
1F
100
AcDbEntity
  8
Innenkanten
100
AcDbLine
 10
-317.020875219017
 20
248.2549947713668
 30
0.0
 11
-315.675025219017
 21
253.2778247713669
 31
0.0
  0
ARC
  5
2211
330
1F
100
AcDbEntity
  8
Innenkanten
100
AcDbCircle
 10
152.1531047809829
 20
192.7428547713668
 30
0.0
 40
500.0010099999999
100
AcDbArc
 50
175.3352900000013
 51
184.6647200000005
  0
LINE
  5
2212
330
1F
100
AcDbEntity
  8
Innenkanten
100
AcDbLine
 10
-325.347915219017
 20
165.2391847713669
 30
0.0
 11
-325.347915219017
 21
220.2463247713668
 31
0.0
  0
LINE
  5
2213
330
1F
100
AcDbEntity
  8
0
100
AcDbLine
 10
-347.847919219017
 20
141.9367547713669
 30
0.0
 11
-347.847919219017
 21
243.5487547713668
 31
0.0
  0
CIRCLE
  5
2214
330
1F
100
AcDbEntity
  8
Innenkanten
100
AcDbCircle
 10
-334.113185219017
 20
141.4775347713668
 30
0.0
 40
4.5
  0
ARC
  5
2215
330
1F
100
AcDbEntity
  8
Mittellinie
100
AcDbCircle
 10
-282.847915219017
 20
192.7427247713668
 30
0.0
 40
72.5
100
AcDbArc
 50
218.5609599999996
 51
231.889409999999
  0
ARC
  5
2216
330
1F
100
AcDbEntity
  8
Innenkanten
100
AcDbCircle
 10
-337.347915219017
 20
138.2427247713668
 30
0.0
 40
12.0
100
AcDbArc
 50
0.0
 51
89.9999820000008
  0
ARC
  5
2217
330
1F
100
AcDbEntity
  8
0
100
AcDbCircle
 10
-282.847915219017
 20
192.7427247713668
 30
0.0
 40
82.49997699999999
100
AcDbArc
 50
218.012240000002
 51
231.9876899999995
  0
LINE
  5
2218
330
1F
100
AcDbEntity
  8
Mittellinie
100
AcDbLine
 10
-339.880885219017
 20
135.7098347713669
 30
0.0
 11
-327.514885219017
 21
148.0757947713668
 31
0.0
  0
LINE
  5
2219
330
1F
100
AcDbEntity
  8
0
100
AcDbLine
 10
-303.347915219017
 20
134.3427047713668
 30
0.0
 11
-303.347915219017
 21
158.3954047713668
 31
0.0
  0
LINE
  5
221A
330
1F
100
AcDbEntity
  8
0
100
AcDbLine
 10
-303.347915219017
 20
104.5423047713668
 30
0.0
 11
-303.347915219017
 21
127.7332947713669
 31
0.0
  0
ARC
  5
221B
330
1F
100
AcDbEntity
  8
Innenkanten
100
AcDbCircle
 10
-323.347915219017
 20
129.7427547713668
 30
0.0
 40
2.0
100
AcDbArc
 50
179.9999799999979
 51
270.0000299999997
  0
LINE
  5
221C
330
1F
100
AcDbEntity
  8
Innenkanten
100
AcDbLine
 10
-325.347915219017
 20
138.2427247713668
 30
0.0
 11
-325.347915219017
 21
129.7427547713668
 31
0.0
  0
ARC
  5
221D
330
1F
100
AcDbEntity
  8
Mittellinie
100
AcDbCircle
 10
-282.847915219017
 20
192.7427247713668
 30
0.0
 40
66.99998499999999
100
AcDbArc
 50
204.9992100000026
 51
215.1619900000016
  0
CIRCLE
  5
221E
330
1F
100
AcDbEntity
  8
Innenkanten
100
AcDbCircle
 10
-340.871635219017
 20
159.2427847713669
 30
0.0
 40
3.0
  0
LINE
  5
221F
330
1F
100
AcDbEntity
  8
Innenkanten
100
AcDbLine
 10
-341.544585219017
 20
156.7313447713669
 30
0.0
 11
-340.1987252190171
 21
161.7541447713668
 31
0.0
  0
LINE
  5
2220
330
1F
100
AcDbEntity
  8
Innenkanten
100
AcDbLine
 10
-344.198335219017
 20
150.2427247713668
 30
0.0
 11
-337.347915219017
 21
150.2427247713668
 31
0.0
  0
ARC
  5
2221
330
1F
100
AcDbEntity
  8
Innenkanten
100
AcDbCircle
 10
-344.198335219017
 20
152.2427247713668
 30
0.0
 40
2.0
100
AcDbArc
 50
184.6649700000021
 51
270.0000199999987
  0
LINE
  5
2222
330
1F
100
AcDbEntity
  8
Innenkanten
100
AcDbLine
 10
-343.383055219017
 20
159.9157047713669
 30
0.0
 11
-338.3602252190171
 21
158.5698447713668
 31
0.0
  0
LINE
  5
2223
330
1F
100
AcDbEntity
  8
Mittellinie
100
AcDbLine
 10
-344.676125219017
 20
157.0461947713669
 30
0.0
 11
-336.0641352190171
 21
162.0183647713669
 31
0.0
  0
LINE
  5
2224
330
1F
100
AcDbEntity
  8
Innenkanten
100
AcDbLine
 10
-325.347925219017
 20
165.2391847713669
 30
0.0
 11
-310.342065219017
 21
150.2332947713669
 31
0.0
  0
LINE
  5
2225
330
1F
100
AcDbEntity
  8
Innenkanten
100
AcDbLine
 10
-310.342065219017
 20
150.2332947713669
 30
0.0
 11
-303.347915219017
 21
150.2332947713669
 31
0.0
  0
ARC
  5
2226
330
1F
100
AcDbEntity
  8
Innenkanten
100
AcDbCircle
 10
-318.0820552190171
 20
163.1698547713669
 30
0.0
 40
4.5
100
AcDbArc
 50
310.0000899999979
 51
129.999989999998
  0
CIRCLE
  5
2227
330
1F
100
AcDbEntity
  8
Innenkanten
100
AcDbCircle
 10
-318.0820552190171
 20
163.1698547713669
 30
0.0
 40
2.399999999999999
  0
ARC
  5
2228
330
1F
100
AcDbEntity
  8
Mittellinie
100
AcDbCircle
 10
-282.847915219017
 20
192.7427247713668
 30
0.0
 40
46.0
100
AcDbArc
 50
215.3915100000002
 51
223.9694700000022
  0
LINE
  5
2229
330
1F
100
AcDbEntity
  8
Innenkanten
100
AcDbLine
 10
-315.189535219017
 20
159.7226447713668
 30
0.0
 11
-317.7135352190171
 21
157.6047547713668
 31
0.0
  0
LINE
  5
222A
330
1F
100
AcDbEntity
  8
Innenkanten
100
AcDbLine
 10
-316.093555219017
 20
163.0002047713668
 30
0.0
 11
-320.078305219017
 21
163.3488347713667
 31
0.0
  0
LINE
  5
222B
330
1F
100
AcDbEntity
  8
Mittellinie
100
AcDbLine
 10
-314.9562452190171
 20
165.7927447713668
 30
0.0
 11
-320.6081552190171
 21
161.0502247713668
 31
0.0
  0
LINE
  5
222C
330
1F
100
AcDbEntity
  8
Innenkanten
100
AcDbLine
 10
-320.9746152190171
 20
166.6170247713667
 30
0.0
 11
-324.101795219017
 21
163.9930047713668
 31
0.0
  0
LINE
  5
222D
330
1F
100
AcDbEntity
  8
Innenkanten
100
AcDbLine
 10
-318.2602652190171
 20
161.1821247713668
 30
0.0
 11
-317.911635219017
 21
165.1669247713667
 31
0.0
  0
CIRCLE
  5
222E
330
1F
100
AcDbEntity
  8
Innenkanten
100
AcDbCircle
 10
-334.113145219017
 20
244.0079847713668
 30
0.0
 40
4.5
  0
ARC
  5
222F
330
1F
100
AcDbEntity
  8
Innenkanten
100
AcDbCircle
 10
-337.347915219017
 20
247.2427247713668
 30
0.0
 40
12.0
100
AcDbArc
 50
270.0000199999987
 51
0.0
  0
LINE
  5
2230
330
1F
100
AcDbEntity
  8
Innenkanten
100
AcDbLine
 10
-344.198335219017
 20
235.2427247713668
 30
0.0
 11
-337.347915219017
 21
235.2427247713668
 31
0.0
  0
ARC
  5
2231
330
1F
100
AcDbEntity
  8
Innenkanten
100
AcDbCircle
 10
-344.198335219017
 20
233.2427247713668
 30
0.0
 40
2.0
100
AcDbArc
 50
89.9999820000008
 51
175.3350299999978
  0
ARC
  5
2232
330
1F
100
AcDbEntity
  8
Innenkanten
100
AcDbCircle
 10
-312.4208152190171
 20
227.9768547713668
 30
0.0
 40
4.5
100
AcDbArc
 50
220.0000999999983
 51
39.99999500000031
  0
CIRCLE
  5
2233
330
1F
100
AcDbEntity
  8
Innenkanten
100
AcDbCircle
 10
-312.4208152190171
 20
227.9768547713668
 30
0.0
 40
2.399999999999999
  0
ARC
  5
2234
330
1F
100
AcDbEntity
  8
Mittellinie
100
AcDbCircle
 10
-282.847915219017
 20
192.7427247713668
 30
0.0
 40
46.0
100
AcDbArc
 50
125.3915000000016
 51
133.9694600000003
  0
LINE
  5
2235
330
1F
100
AcDbEntity
  8
Mittellinie
100
AcDbLine
 10
-309.797935219017
 20
224.8510347713669
 30
0.0
 11
-314.540475219017
 21
230.5029847713668
 31
0.0
  0
LINE
  5
2236
330
1F
100
AcDbEntity
  8
Innenkanten
100
AcDbLine
 10
-310.360935219017
 20
235.2332947713668
 30
0.0
 11
-325.347925219017
 21
220.2462947713669
 31
0.0
  0
LINE
  5
2237
330
1F
100
AcDbEntity
  8
Innenkanten
100
AcDbLine
 10
-315.867995219017
 20
225.0843147713668
 30
0.0
 11
-317.985885219017
 21
227.6083247713669
 31
0.0
  0
LINE
  5
2238
330
1F
100
AcDbEntity
  8
Innenkanten
100
AcDbLine
 10
-312.590455219017
 20
225.9883347713667
 30
0.0
 11
-312.241825219017
 21
229.9731047713668
 31
0.0
  0
LINE
  5
2239
330
1F
100
AcDbEntity
  8
Innenkanten
100
AcDbLine
 10
-314.408545219017
 20
228.1550547713669
 30
0.0
 11
-310.4237252190171
 21
227.8064147713668
 31
0.0
  0
LINE
  5
223A
330
1F
100
AcDbEntity
  8
Innenkanten
100
AcDbLine
 10
-308.9736052190171
 20
230.8694047713669
 30
0.0
 11
-311.5976252190171
 21
233.9966047713668
 31
0.0
  0
LINE
  5
223B
330
1F
100
AcDbEntity
  8
Innenkanten
100
AcDbLine
 10
-318.859315219017
 20
251.4394147713668
 30
0.0
 11
-313.836525219017
 21
250.0935547713669
 31
0.0
  0
ARC
  5
223C
330
1F
100
AcDbEntity
  8
Innenkanten
100
AcDbCircle
 10
-323.347915219017
 20
255.7427547713668
 30
0.0
 40
2.0
100
AcDbArc
 50
89.9999820000008
 51
179.9999599999959
  0
ARC
  5
223D
330
1F
100
AcDbEntity
  8
Mittellinie
100
AcDbCircle
 10
-282.847915219017
 20
192.7427247713668
 30
0.0
 40
72.5
100
AcDbArc
 50
38.80801099999823
 51
51.29240899999888
  0
ARC
  5
223E
330
1F
100
AcDbEntity
  8
0
100
AcDbCircle
 10
-282.847915219017
 20
192.7427247713668
 30
0.0
 40
82.49997699999999
100
AcDbArc
 50
38.0122840000005
 51
51.98777699999963
  0
LINE
  5
223F
330
1F
100
AcDbEntity
  8
Innenkanten
100
AcDbLine
 10
-240.347935219017
 20
255.7427547713668
 30
0.0
 11
-240.347935219017
 21
247.2427247713668
 31
0.0
  0
LINE
  5
2240
330
1F
100
AcDbEntity
  8
Mittellinie
100
AcDbLine
 10
-237.682895219017
 20
237.9077647713668
 30
0.0
 11
-225.937455219017
 21
249.6532547713669
 31
0.0
  0
ARC
  5
2241
330
1F
100
AcDbEntity
  8
Innenkanten
100
AcDbCircle
 10
-717.845855219017
 20
192.7427547713668
 30
0.0
 40
499.99789
100
AcDbArc
 50
355.334980000001
 51
4.664019999997608
  0
LINE
  5
2242
330
1F
100
AcDbEntity
  8
Innenkanten
100
AcDbLine
 10
-240.347935219017
 20
165.2391847713669
 30
0.0
 11
-240.347935219017
 21
220.2463247713668
 31
0.0
  0
LINE
  5
2243
330
1F
100
AcDbEntity
  8
0
100
AcDbLine
 10
-217.847935219017
 20
141.9367547713669
 30
0.0
 11
-217.847935219017
 21
243.5487547713668
 31
0.0
  0
LINE
  5
2244
330
1F
100
AcDbEntity
  8
Innenkanten
100
AcDbLine
 10
-255.353795219017
 20
150.2333247713669
 30
0.0
 11
-240.347905219017
 21
165.2392147713668
 31
0.0
  0
LINE
  5
2245
330
1F
100
AcDbEntity
  8
0
100
AcDbLine
 10
-268.047935219017
 20
127.7427547713668
 30
0.0
 11
-232.041915219017
 21
127.7427547713668
 31
0.0
  0
LINE
  5
2246
330
1F
100
AcDbEntity
  8
Mittellinie
100
AcDbLine
 10
-252.123525219017
 20
139.5265447713669
 30
0.0
 11
-247.151375219017
 21
130.9145447713668
 31
0.0
  0
LINE
  5
2247
330
1F
100
AcDbEntity
  8
0
100
AcDbLine
 10
-262.347915219017
 20
134.3427047713668
 30
0.0
 11
-262.347915219017
 21
158.3952247713667
 31
0.0
  0
LINE
  5
2248
330
1F
100
AcDbEntity
  8
Innenkanten
100
AcDbLine
 10
-263.847915219017
 20
134.3427047713668
 30
0.0
 11
-263.847915219017
 21
159.2575547713669
 31
0.0
  0
LINE
  5
2249
330
1F
100
AcDbEntity
  8
Innenkanten
100
AcDbLine
 10
-301.847915219017
 20
134.3427047713668
 30
0.0
 11
-301.847915219017
 21
159.2578947713668
 31
0.0
  0
LINE
  5
224A
330
1F
100
AcDbEntity
  8
Innenkanten
100
AcDbLine
 10
-301.847915219017
 20
133.3427047713668
 30
0.0
 11
-263.847915219017
 21
133.3427047713668
 31
0.0
  0
LINE
  5
224B
330
1F
100
AcDbEntity
  8
0
100
AcDbLine
 10
-301.847915219017
 20
130.5426847713669
 30
0.0
 11
-263.847915219017
 21
130.5426847713669
 31
0.0
  0
LINE
  5
224C
330
1F
100
AcDbEntity
  8
Innenkanten
100
AcDbLine
 10
-297.6479352190171
 20
127.5427147713668
 30
0.0
 11
-268.047935219017
 21
127.5427147713668
 31
0.0
  0
LINE
  5
224D
330
1F
100
AcDbEntity
  8
Innenkanten
100
AcDbLine
 10
-297.6479252190171
 20
112.2426947713669
 30
0.0
 11
-268.047935219017
 21
112.2426947713669
 31
0.0
  0
LINE
  5
224E
330
1F
100
AcDbEntity
  8
0
100
AcDbLine
 10
-296.647935219017
 20
111.2426947713669
 30
0.0
 11
-269.047935219017
 21
111.2426947713669
 31
0.0
  0
LINE
  5
224F
330
1F
100
AcDbEntity
  8
Innenkanten
100
AcDbLine
 10
-296.647935219017
 20
111.2426947713669
 30
0.0
 11
-296.647935219017
 21
127.5427147713668
 31
0.0
  0
LINE
  5
2250
330
1F
100
AcDbEntity
  8
0
100
AcDbLine
 10
-297.6479352190171
 20
112.2426947713669
 30
0.0
 11
-297.6479352190171
 21
130.5426847713669
 31
0.0
  0
LINE
  5
2251
330
1F
100
AcDbEntity
  8
0
100
AcDbLine
 10
-297.6479252190171
 20
112.2427147713668
 30
0.0
 11
-296.647925219017
 21
111.2427147713668
 31
0.0
  0
LINE
  5
2252
330
1F
100
AcDbEntity
  8
0
100
AcDbLine
 10
-301.8979352190171
 20
130.5426847713669
 30
0.0
 11
-301.8979352190171
 21
134.3427047713668
 31
0.0
  0
LINE
  5
2253
330
1F
100
AcDbEntity
  8
0
100
AcDbLine
 10
-268.047935219017
 20
112.2426947713669
 30
0.0
 11
-268.047935219017
 21
130.5426847713669
 31
0.0
  0
LINE
  5
2254
330
1F
100
AcDbEntity
  8
Innenkanten
100
AcDbLine
 10
-269.047935219017
 20
111.2426947713669
 30
0.0
 11
-269.047935219017
 21
127.5427147713668
 31
0.0
  0
LINE
  5
2255
330
1F
100
AcDbEntity
  8
0
100
AcDbLine
 10
-262.347915219017
 20
104.5423047713668
 30
0.0
 11
-262.347915219017
 21
127.7332947713669
 31
0.0
  0
LINE
  5
2256
330
1F
100
AcDbEntity
  8
0
100
AcDbLine
 10
-269.047915219017
 20
111.2426947713669
 30
0.0
 11
-268.0479152190171
 21
112.2426947713669
 31
0.0
  0
LINE
  5
2257
330
1F
100
AcDbEntity
  8
0
100
AcDbLine
 10
-263.797935219017
 20
130.5426847713669
 30
0.0
 11
-263.797935219017
 21
134.3427047713668
 31
0.0
  0
ARC
  5
2258
330
1F
100
AcDbEntity
  8
Mittellinie
100
AcDbCircle
 10
-282.847915219017
 20
192.7427247713668
 30
0.0
 40
66.99998499999999
100
AcDbArc
 50
294.9992200000018
 51
305.1619999999986
  0
CIRCLE
  5
2259
330
1F
100
AcDbEntity
  8
Innenkanten
100
AcDbCircle
 10
-249.347915219017
 20
134.7191047713669
 30
0.0
 40
3.0
  0
LINE
  5
225A
330
1F
100
AcDbEntity
  8
Innenkanten
100
AcDbLine
 10
-251.8593352190171
 20
135.3920247713668
 30
0.0
 11
-246.836525219017
 21
134.0461947713669
 31
0.0
  0
LINE
  5
225B
330
1F
100
AcDbEntity
  8
Innenkanten
100
AcDbLine
 10
-250.020875219017
 20
132.2076047713668
 30
0.0
 11
-248.675025219017
 21
137.2304247713668
 31
0.0
  0
CIRCLE
  5
225C
330
1F
100
AcDbEntity
  8
Innenkanten
100
AcDbCircle
 10
-297.547935219017
 20
147.2332947713669
 30
0.0
 40
2.0
  0
LINE
  5
225D
330
1F
100
AcDbEntity
  8
Mittellinie
100
AcDbLine
 10
-297.547935219017
 20
145.1412847713669
 30
0.0
 11
-297.547935219017
 21
150.1412847713669
 31
0.0
  0
LINE
  5
225E
330
1F
100
AcDbEntity
  8
Mittellinie
100
AcDbLine
 10
-300.078785219017
 20
147.2332947713669
 30
0.0
 11
-295.366225219017
 21
147.2332947713669
 31
0.0
  0
ARC
  5
225F
330
1F
100
AcDbEntity
  8
Innenkanten
100
AcDbCircle
 10
-253.275025219017
 20
157.5085947713668
 30
0.0
 40
4.5
100
AcDbArc
 50
40.0001560000011
 51
220.0000500000024
  0
CIRCLE
  5
2260
330
1F
100
AcDbEntity
  8
Innenkanten
100
AcDbCircle
 10
-253.275025219017
 20
157.5085947713668
 30
0.0
 40
2.399999999999999
  0
ARC
  5
2261
330
1F
100
AcDbEntity
  8
Mittellinie
100
AcDbCircle
 10
-282.847915219017
 20
192.7427247713668
 30
0.0
 40
46.0
100
AcDbArc
 50
305.3915900000004
 51
313.9695500000026
  0
LINE
  5
2262
330
1F
100
AcDbEntity
  8
Innenkanten
100
AcDbLine
 10
-253.105395219017
 20
159.4970947713668
 30
0.0
 11
-253.454025219017
 21
155.5123547713668
 31
0.0
  0
LINE
  5
2263
330
1F
100
AcDbEntity
  8
Mittellinie
100
AcDbLine
 10
-255.897935219017
 20
160.6344247713668
 30
0.0
 11
-251.1553952190169
 21
154.9824747713668
 31
0.0
  0
LINE
  5
2264
330
1F
100
AcDbEntity
  8
Innenkanten
100
AcDbLine
 10
-255.353805219017
 20
150.2332947713669
 30
0.0
 11
-262.347915219017
 21
150.2332947713669
 31
0.0
  0
CIRCLE
  5
2265
330
1F
100
AcDbEntity
  8
Innenkanten
100
AcDbCircle
 10
-268.147935219017
 20
147.2332947713669
 30
0.0
 40
2.0
  0
LINE
  5
2266
330
1F
100
AcDbEntity
  8
Mittellinie
100
AcDbLine
 10
-268.147935219017
 20
144.9495147713668
 30
0.0
 11
-268.147935219017
 21
149.9495147713668
 31
0.0
  0
LINE
  5
2267
330
1F
100
AcDbEntity
  8
Mittellinie
100
AcDbLine
 10
-265.831075219017
 20
147.2332947713669
 30
0.0
 11
-270.7354052190171
 21
147.2332947713669
 31
0.0
  0
LINE
  5
2268
330
1F
100
AcDbEntity
  8
Innenkanten
100
AcDbLine
 10
-256.722215219017
 20
154.6160447713669
 30
0.0
 11
-254.098195219017
 21
151.4888547713668
 31
0.0
  0
LINE
  5
2269
330
1F
100
AcDbEntity
  8
Innenkanten
100
AcDbLine
 10
-251.287295219017
 20
157.3304047713669
 30
0.0
 11
-255.2721152190169
 21
157.6790347713669
 31
0.0
  0
LINE
  5
226A
330
1F
100
AcDbEntity
  8
Innenkanten
100
AcDbLine
 10
-249.8278652190171
 20
160.4011447713668
 30
0.0
 11
-247.709965219017
 21
157.8771247713668
 31
0.0
  0
CIRCLE
  5
226B
330
1F
100
AcDbEntity
  8
Innenkanten
100
AcDbCircle
 10
-231.582675219017
 20
141.4774947713668
 30
0.0
 40
4.5
  0
ARC
  5
226C
330
1F
100
AcDbEntity
  8
Mittellinie
100
AcDbCircle
 10
-282.847915219017
 20
192.7427247713668
 30
0.0
 40
72.5
100
AcDbArc
 50
309.1839899999987
 51
320.4414100000009
  0
ARC
  5
226D
330
1F
100
AcDbEntity
  8
Innenkanten
100
AcDbCircle
 10
-228.347935219017
 20
138.2427247713668
 30
0.0
 40
12.0
100
AcDbArc
 50
89.9999820000008
 51
179.9999599999959
  0
ARC
  5
226E
330
1F
100
AcDbEntity
  8
0
100
AcDbCircle
 10
-282.847915219017
 20
192.7427247713668
 30
0.0
 40
82.49997699999999
100
AcDbArc
 50
308.0122900000016
 51
321.987719999999
  0
LINE
  5
226F
330
1F
100
AcDbEntity
  8
Mittellinie
100
AcDbLine
 10
-226.384585219017
 20
136.2794147713668
 30
0.0
 11
-236.661765219017
 21
146.5565747713668
 31
0.0
  0
ARC
  5
2270
330
1F
100
AcDbEntity
  8
Innenkanten
100
AcDbCircle
 10
-242.347935219017
 20
129.7427547713668
 30
0.0
 40
2.0
100
AcDbArc
 50
270.0000199999987
 51
0.0
  0
LINE
  5
2271
330
1F
100
AcDbEntity
  8
Innenkanten
100
AcDbLine
 10
-240.347935219017
 20
138.2427247713668
 30
0.0
 11
-240.347935219017
 21
129.7427547713668
 31
0.0
  0
LINE
  5
2272
330
1F
100
AcDbEntity
  8
Innenkanten
100
AcDbLine
 10
-228.347935219017
 20
150.2427247713668
 30
0.0
 11
-221.499285219017
 21
150.2427247713668
 31
0.0
  0
ARC
  5
2273
330
1F
100
AcDbEntity
  8
Innenkanten
100
AcDbCircle
 10
-221.499285219017
 20
152.2427247713668
 30
0.0
 40
2.0
100
AcDbArc
 50
270.0000199999987
 51
357.6676899999991
  0
LINE
  5
2274
330
1F
100
AcDbEntity
  8
Innenkanten
100
AcDbLine
 10
-244.721215219017
 20
218.8684247713668
 30
0.0
 11
-241.5940252190171
 21
221.4924547713668
 31
0.0
  0
LINE
  5
2275
330
1F
100
AcDbEntity
  8
Innenkanten
100
AcDbLine
 10
-255.334915219017
 20
235.2332947713668
 30
0.0
 11
-240.347935219017
 21
220.2463247713668
 31
0.0
  0
ARC
  5
2276
330
1F
100
AcDbEntity
  8
Innenkanten
100
AcDbCircle
 10
-247.613785219017
 20
222.3156047713668
 30
0.0
 40
4.5
100
AcDbArc
 50
130.0001499999998
 51
310.0000499999978
  0
CIRCLE
  5
2277
330
1F
100
AcDbEntity
  8
Innenkanten
100
AcDbCircle
 10
-247.613785219017
 20
222.3156047713668
 30
0.0
 40
2.399999999999999
  0
ARC
  5
2278
330
1F
100
AcDbEntity
  8
Mittellinie
100
AcDbCircle
 10
-282.847915219017
 20
192.7427247713668
 30
0.0
 40
46.0
100
AcDbArc
 50
35.39158100000299
 51
43.96954800000098
  0
LINE
  5
2279
330
1F
100
AcDbEntity
  8
Mittellinie
100
AcDbLine
 10
-250.739585219017
 20
219.6927047713669
 30
0.0
 11
-245.087655219017
 21
224.4352647713668
 31
0.0
  0
LINE
  5
227A
330
1F
100
AcDbEntity
  8
Innenkanten
100
AcDbLine
 10
-247.435585219017
 20
224.3033647713667
 30
0.0
 11
-247.784215219017
 21
220.3185347713668
 31
0.0
  0
LINE
  5
227B
330
1F
100
AcDbEntity
  8
Innenkanten
100
AcDbLine
 10
-250.5063052190171
 20
225.7628047713668
 30
0.0
 11
-247.982285219017
 21
227.8806947713668
 31
0.0
  0
LINE
  5
227C
330
1F
100
AcDbEntity
  8
Innenkanten
100
AcDbLine
 10
-249.602295219017
 20
222.4852547713668
 30
0.0
 11
-245.617545219017
 21
222.1366147713669
 31
0.0
  0
ARC
  5
227D
330
1F
100
AcDbEntity
  8
Mittellinie
100
AcDbCircle
 10
-282.847915219017
 20
192.7427247713668
 30
0.0
 40
66.99998499999999
100
AcDbArc
 50
24.99923899999805
 51
35.16201499999936
  0
LINE
  5
227E
330
1F
100
AcDbEntity
  8
Mittellinie
100
AcDbLine
 10
-229.6317152190171
 20
223.4671547713668
 30
0.0
 11
-221.019705219017
 21
228.4392647713667
 31
0.0
  0
CIRCLE
  5
227F
330
1F
100
AcDbEntity
  8
Innenkanten
100
AcDbCircle
 10
-224.824225219017
 20
226.2426947713669
 30
0.0
 40
3.0
  0
LINE
  5
2280
330
1F
100
AcDbEntity
  8
Innenkanten
100
AcDbLine
 10
-222.312825219017
 20
225.5697847713669
 30
0.0
 11
-227.335635219017
 21
226.9156447713668
 31
0.0
  0
LINE
  5
2281
330
1F
100
AcDbEntity
  8
Innenkanten
100
AcDbLine
 10
-224.151295219017
 20
228.7541447713668
 30
0.0
 11
-225.4971652190171
 21
223.7313447713669
 31
0.0
  0
CIRCLE
  5
2282
330
1F
100
AcDbEntity
  8
Innenkanten
100
AcDbCircle
 10
-231.582695219017
 20
244.0079847713668
 30
0.0
 40
4.5
  0
LINE
  5
2283
330
1F
100
AcDbEntity
  8
Innenkanten
100
AcDbLine
 10
-228.347935219017
 20
235.2427247713668
 30
0.0
 11
-221.498925219017
 21
235.2427247713668
 31
0.0
  0
ARC
  5
2284
330
1F
100
AcDbEntity
  8
Innenkanten
100
AcDbCircle
 10
-228.347935219017
 20
247.2427247713668
 30
0.0
 40
12.0
100
AcDbArc
 50
179.9999799999979
 51
270.0000299999997
  0
ARC
  5
2285
330
1F
100
AcDbEntity
  8
Innenkanten
100
AcDbCircle
 10
-221.498925219017
 20
233.2427247713668
 30
0.0
 40
2.0
100
AcDbArc
 50
2.332313999998035
 51
89.9999820000008
  0
ARC
  5
2297
330
1F
100
AcDbEntity
  8
Innenkanten
100
AcDbCircle
 10
-242.347935219017
 20
255.7427547713668
 30
0.0
 40
2.0
100
AcDbArc
 50
0.0
 51
89.9999820000008
  0
LINE
  5
2298
102
{ACAD_REACTORS
330
2833
102
}
330
1F
100
AcDbEntity
  8
0
100
AcDbLine
 10
217.6650047809829
 20
127.7426347713668
 30
0.0
 11
217.6650047809829
 21
100.7426547713669
 31
0.0
  0
LINE
  5
2299
102
{ACAD_REACTORS
330
2833
102
}
330
1F
100
AcDbEntity
  8
0
100
AcDbLine
 10
258.6650047809829
 20
100.7426547713669
 30
0.0
 11
258.6650047809829
 21
127.7426347713668
 31
0.0
  0
LINE
  5
229A
102
{ACAD_REACTORS
330
278C
102
}
330
1F
100
AcDbEntity
  8
Mittellinie
100
AcDbLine
 10
238.1650047809829
 20
71.0815447713669
 30
0.0
 11
238.1650047809829
 21
273.3770947713668
 31
0.0
  0
LINE
  5
22A9
330
1F
100
AcDbEntity
  8
Innenkanten
100
AcDbLine
 10
220.7649847809828
 20
82.74265477136692
 30
0.0
 11
255.5650247809829
 21
82.74265477136692
 31
0.0
  0
LINE
  5
22AA
330
1F
100
AcDbEntity
  8
Innenkanten
100
AcDbLine
 10
255.5650247809829
 20
97.74265477136692
 30
0.0
 11
220.7649847809828
 21
97.74265477136692
 31
0.0
  0
LINE
  5
22AB
330
1F
100
AcDbEntity
  8
0
100
AcDbLine
 10
221.7649847809829
 20
81.74265477136691
 30
0.0
 11
254.5650247809829
 21
81.74265477136691
 31
0.0
  0
LINE
  5
22AC
330
1F
100
AcDbEntity
  8
0
100
AcDbLine
 10
217.6650047809829
 20
100.7426547713669
 30
0.0
 11
258.6650047809829
 21
100.7426547713669
 31
0.0
  0
LINE
  5
22AD
330
1F
100
AcDbEntity
  8
Innenkanten
100
AcDbLine
 10
221.7649847809829
 20
97.74265477136692
 30
0.0
 11
221.7649847809829
 21
81.74265477136691
 31
0.0
  0
LINE
  5
22AE
330
1F
100
AcDbEntity
  8
0
100
AcDbLine
 10
220.7649847809828
 20
100.7426547713669
 30
0.0
 11
220.7649847809828
 21
82.74265477136692
 31
0.0
  0
LINE
  5
22AF
330
1F
100
AcDbEntity
  8
0
100
AcDbLine
 10
220.7649847809828
 20
82.74266477136677
 30
0.0
 11
221.7649847809829
 21
81.74266477136677
 31
0.0
  0
LINE
  5
22B0
330
1F
100
AcDbEntity
  8
Innenkanten
100
AcDbLine
 10
254.5650247809829
 20
81.74265477136691
 30
0.0
 11
254.5650247809829
 21
97.74265477136692
 31
0.0
  0
LINE
  5
22B1
330
1F
100
AcDbEntity
  8
0
100
AcDbLine
 10
255.5650247809829
 20
82.74265477136692
 30
0.0
 11
255.5650247809829
 21
100.7426547713669
 31
0.0
  0
LINE
  5
22B2
102
{ACAD_REACTORS
330
27FA
102
}
330
1F
100
AcDbEntity
  8
0
100
AcDbLine
 10
254.5649647809828
 20
81.74266477136677
 30
0.0
 11
255.5650247809829
 21
82.74268477136685
 31
0.0
  0
ARC
  5
22B3
102
{ACAD_REACTORS
330
274A
102
}
330
1F
100
AcDbEntity
  8
0
100
AcDbCircle
 10
238.1650047809829
 20
192.7426347713668
 30
0.0
 40
82.499985
100
AcDbArc
 50
128.0120099999995
 51
141.9870700000009
  0
ARC
  5
22B4
102
{ACAD_REACTORS
330
276B
102
}
330
1F
100
AcDbEntity
  8
0
100
AcDbCircle
 10
238.1650047809829
 20
192.7426347713668
 30
0.0
 40
82.499985
100
AcDbArc
 50
218.0119599999976
 51
231.986969999999
  0
LINE
  5
22B5
102
{ACAD_REACTORS
330
27FA
102
}
330
1F
100
AcDbEntity
  8
Mittellinie
100
AcDbLine
 10
163.2144447809829
 20
192.7426347713668
 30
0.0
 11
315.3724047809829
 21
192.7426347713668
 31
0.0
  0
CIRCLE
  5
22E8
330
1F
100
AcDbEntity
  8
Innenkanten
100
AcDbCircle
 10
271.6650047809829
 20
250.7646347713667
 30
0.0
 40
2.5
  0
ARC
  5
22E9
102
{ACAD_REACTORS
330
27D8
102
}
330
1F
100
AcDbEntity
  8
0
100
AcDbCircle
 10
238.1650047809829
 20
192.7426347713668
 30
0.0
 40
82.499985
100
AcDbArc
 50
38.01199700000028
 51
51.98704599999865
  0
ARC
  5
22EA
102
{ACAD_REACTORS
330
27A5
102
}
330
1F
100
AcDbEntity
  8
Mittellinie
100
AcDbCircle
 10
238.1650047809829
 20
192.7426347713668
 30
0.0
 40
72.5
100
AcDbArc
 50
127.9402900000007
 51
142.0288300000011
  0
ARC
  5
22EB
330
1F
100
AcDbEntity
  8
Mittellinie
100
AcDbCircle
 10
238.1650047809829
 20
192.7426347713668
 30
0.0
 40
72.5
100
AcDbArc
 50
38.07747800000124
 51
52.03165400000223
  0
LINE
  5
22EC
330
1F
100
AcDbEntity
  8
Mittellinie
100
AcDbLine
 10
270.1645147809829
 20
248.1675647713668
 30
0.0
 11
273.2118147809828
 21
253.4454547713668
 31
0.0
  0
LINE
  5
22ED
330
1F
100
AcDbEntity
  8
Mittellinie
100
AcDbLine
 10
283.1648847809828
 20
237.7424847713669
 30
0.0
 11
295.0944447809829
 21
249.6720747713668
 31
0.0
  0
LINE
  5
22EE
102
{ACAD_REACTORS
330
278C
102
}
330
1F
100
AcDbEntity
  8
Mittellinie
100
AcDbLine
 10
181.4040147809829
 20
249.5036847713669
 30
0.0
 11
193.2175547809829
 21
237.6901147713669
 31
0.0
  0
CIRCLE
  5
22EF
330
1F
100
AcDbEntity
  8
Innenkanten
100
AcDbCircle
 10
289.4302647809828
 20
141.4774047713668
 30
0.0
 40
4.5
  0
CIRCLE
  5
22F0
330
1F
100
AcDbEntity
  8
Innenkanten
100
AcDbCircle
 10
289.4302647809828
 20
244.0078647713668
 30
0.0
 40
4.5
  0
ARC
  5
22F1
330
1F
100
AcDbEntity
  8
0
100
AcDbCircle
 10
238.1650047809829
 20
192.7426347713668
 30
0.0
 40
82.499985
100
AcDbArc
 50
308.0119900000015
 51
321.9870400000012
  0
ARC
  5
22F2
330
1F
100
AcDbEntity
  8
Mittellinie
100
AcDbCircle
 10
238.1650047809829
 20
192.7426347713668
 30
0.0
 40
72.5
100
AcDbArc
 50
308.0598199999996
 51
321.9699699999992
  0
CIRCLE
  5
22F3
330
1F
100
AcDbEntity
  8
Innenkanten
100
AcDbCircle
 10
238.1650047809829
 20
192.7426347713668
 30
0.0
 40
55.0
  0
LINE
  5
22F4
330
1F
100
AcDbEntity
  8
Mittellinie
100
AcDbLine
 10
283.6562747809829
 20
147.2513947713667
 30
0.0
 11
295.2380047809829
 21
135.6696947713668
 31
0.0
  0
CIRCLE
  5
22F5
330
1F
100
AcDbEntity
  8
Innenkanten
100
AcDbCircle
 10
238.1650047809829
 20
192.7426347713668
 30
0.0
 40
22.5
  0
CIRCLE
  5
22F6
330
1F
100
AcDbEntity
  8
Innenkanten
100
AcDbCircle
 10
238.1650047809829
 20
192.7426347713668
 30
0.0
 40
44.0
  0
LINE
  5
22F7
330
1F
100
AcDbEntity
  8
0
100
AcDbLine
 10
173.1656147809828
 20
243.5494647713668
 30
0.0
 11
173.1647647809828
 21
141.9369747713668
 31
0.0
  0
LINE
  5
22F8
330
1F
100
AcDbEntity
  8
Innenkanten
100
AcDbLine
 10
217.6650047809829
 20
103.5426347713669
 30
0.0
 11
258.6650047809829
 21
103.5426347713669
 31
0.0
  0
LINE
  5
22F9
330
1F
100
AcDbEntity
  8
Innenkanten
100
AcDbLine
 10
217.6650047809829
 20
104.5426347713669
 30
0.0
 11
258.6650047809829
 21
104.5426347713669
 31
0.0
  0
LINE
  5
22FA
330
1F
100
AcDbEntity
  8
Innenkanten
100
AcDbLine
 10
217.6650047809829
 20
126.7426347713668
 30
0.0
 11
258.6650047809829
 21
126.7426347713668
 31
0.0
  0
LINE
  5
22FB
330
1F
100
AcDbEntity
  8
0
100
AcDbLine
 10
187.3581847809829
 20
127.7432747713668
 30
0.0
 11
288.9706647809829
 21
127.7423947713668
 31
0.0
  0
CIRCLE
  5
22FC
330
1F
100
AcDbEntity
  8
Innenkanten
100
AcDbCircle
 10
186.8997447809829
 20
141.4773747713668
 30
0.0
 40
4.5
  0
ARC
  5
22FD
330
1F
100
AcDbEntity
  8
Mittellinie
100
AcDbCircle
 10
238.1650047809829
 20
192.7426347713668
 30
0.0
 40
72.5
100
AcDbArc
 50
217.923600000002
 51
231.9687900000003
  0
LINE
  5
22FE
330
1F
100
AcDbEntity
  8
Mittellinie
100
AcDbLine
 10
181.2604047809829
 20
135.8380347713668
 30
0.0
 11
192.3784447809829
 21
146.9560447713669
 31
0.0
  0
ARC
  5
22FF
330
1F
100
AcDbEntity
  8
Innenkanten
100
AcDbCircle
 10
238.1650047809829
 20
192.7426347713668
 30
0.0
 40
67.0
100
AcDbArc
 50
237.7160000000019
 51
242.4039599999975
  0
CIRCLE
  5
2300
330
1F
100
AcDbEntity
  8
Innenkanten
100
AcDbCircle
 10
204.6649447809829
 20
134.7189547713668
 30
0.0
 40
2.5
  0
CIRCLE
  5
2301
330
1F
100
AcDbEntity
  8
Innenkanten
100
AcDbCircle
 10
204.6649447809829
 20
134.7189547713668
 30
0.0
 40
1.5
  0
LINE
  5
2302
330
1F
100
AcDbEntity
  8
Innenkanten
100
AcDbLine
 10
203.1182547809829
 20
132.0399047713668
 30
0.0
 11
206.1653747809829
 21
137.3178047713669
 31
0.0
  0
CIRCLE
  5
2303
330
1F
100
AcDbEntity
  8
Innenkanten
100
AcDbCircle
 10
238.1650047809829
 20
157.7426047713669
 30
0.0
 40
2.5
  0
LINE
  5
2304
330
1F
100
AcDbEntity
  8
Innenkanten
100
AcDbLine
 10
236.8921747809829
 20
159.0154947713668
 30
0.0
 11
239.437774780983
 21
156.4698347713668
 31
0.0
  0
LINE
  5
2305
330
1F
100
AcDbEntity
  8
Innenkanten
100
AcDbLine
 10
236.8921747809829
 20
156.4698347713668
 30
0.0
 11
239.4377047809829
 21
159.0154347713668
 31
0.0
  0
ARC
  5
2306
330
1F
100
AcDbEntity
  8
Mittellinie
100
AcDbCircle
 10
238.1650047809829
 20
192.7426347713668
 30
0.0
 40
35.000034
100
AcDbArc
 50
261.2279199999993
 51
278.7020100000012
  0
CIRCLE
  5
2307
330
1F
100
AcDbEntity
  8
Innenkanten
100
AcDbCircle
 10
238.1650047809829
 20
192.7426347713668
 30
0.0
 40
12.0
  0
CIRCLE
  5
2308
330
1F
100
AcDbEntity
  8
Innenkanten
100
AcDbCircle
 10
238.1650047809829
 20
192.7426347713668
 30
0.0
 40
15.0
  0
CIRCLE
  5
2309
330
1F
100
AcDbEntity
  8
Innenkanten
100
AcDbCircle
 10
207.8541547809829
 20
210.2426647713667
 30
0.0
 40
2.5
  0
ARC
  5
230A
330
1F
100
AcDbEntity
  8
Mittellinie
100
AcDbCircle
 10
238.1650047809829
 20
192.7426347713668
 30
0.0
 40
35.000034
100
AcDbArc
 50
141.0030700000019
 51
158.8820700000014
  0
LINE
  5
230B
330
1F
100
AcDbEntity
  8
Mittellinie
100
AcDbLine
 10
203.4579747809829
 20
212.7806347713668
 30
0.0
 11
212.0041147809829
 21
207.8466047713668
 31
0.0
  0
LINE
  5
230C
330
1F
100
AcDbEntity
  8
Innenkanten
100
AcDbLine
 10
208.319974780983
 20
208.5039547713669
 30
0.0
 11
207.3882747809828
 21
211.9813147713667
 31
0.0
  0
LINE
  5
230D
330
1F
100
AcDbEntity
  8
Innenkanten
100
AcDbLine
 10
206.115444780983
 20
209.7767847713668
 30
0.0
 11
209.5927347809829
 21
210.7085147713668
 31
0.0
  0
ARC
  5
230E
330
1F
100
AcDbEntity
  8
Mittellinie
100
AcDbCircle
 10
238.1650047809829
 20
192.7426347713668
 30
0.0
 40
67.0
100
AcDbArc
 50
147.7159800000027
 51
152.4040199999994
  0
CIRCLE
  5
230F
330
1F
100
AcDbEntity
  8
Innenkanten
100
AcDbCircle
 10
180.1430347809829
 20
226.2426347713668
 30
0.0
 40
1.5
  0
CIRCLE
  5
2310
330
1F
100
AcDbEntity
  8
Innenkanten
100
AcDbCircle
 10
180.1430347809829
 20
226.2426347713668
 30
0.0
 40
2.5
  0
LINE
  5
2311
330
1F
100
AcDbEntity
  8
Mittellinie
100
AcDbLine
 10
177.4626147809829
 20
227.7901847713668
 30
0.0
 11
182.740444780983
 21
224.7429447713668
 31
0.0
  0
CIRCLE
  5
2312
330
1F
100
AcDbEntity
  8
Innenkanten
100
AcDbCircle
 10
186.8998047809828
 20
244.0078947713668
 30
0.0
 40
4.5
  0
CIRCLE
  5
2313
330
1F
100
AcDbEntity
  8
Innenkanten
100
AcDbCircle
 10
268.4758547809829
 20
210.2426347713668
 30
0.0
 40
2.5
  0
ARC
  5
2314
330
1F
100
AcDbEntity
  8
Mittellinie
100
AcDbCircle
 10
238.1650047809829
 20
192.7426347713668
 30
0.0
 40
35.000034
100
AcDbArc
 50
21.79150999999885
 51
38.71940000000122
  0
LINE
  5
2315
330
1F
100
AcDbEntity
  8
Mittellinie
100
AcDbLine
 10
264.1033547809829
 20
207.7181947713669
 30
0.0
 11
273.124594780983
 21
212.9265647713667
 31
0.0
  0
LINE
  5
2316
330
1F
100
AcDbEntity
  8
Innenkanten
100
AcDbLine
 10
268.0100347809828
 20
208.5039547713669
 30
0.0
 11
268.9417947809829
 21
211.9813447713669
 31
0.0
  0
LINE
  5
2317
330
1F
100
AcDbEntity
  8
Innenkanten
100
AcDbLine
 10
266.7371447809829
 20
210.7085747713668
 30
0.0
 11
270.2145647809828
 21
209.7767847713668
 31
0.0
  0
LINE
  5
2318
102
{ACAD_REACTORS
330
274A
102
}
330
1F
100
AcDbEntity
  8
0
100
AcDbLine
 10
303.164394780983
 20
141.9358147713668
 30
0.0
 11
303.165244780983
 21
243.5483347713668
 31
0.0
  0
CIRCLE
  5
2319
330
1F
100
AcDbEntity
  8
Innenkanten
100
AcDbCircle
 10
296.1869747809829
 20
159.2426347713668
 30
0.0
 40
2.5
  0
CIRCLE
  5
231A
330
1F
100
AcDbEntity
  8
Innenkanten
100
AcDbCircle
 10
296.1869747809829
 20
159.2426347713668
 30
0.0
 40
1.5
  0
ARC
  5
231B
330
1F
100
AcDbEntity
  8
Mittellinie
100
AcDbCircle
 10
238.1650047809829
 20
192.7426347713668
 30
0.0
 40
67.0
100
AcDbArc
 50
327.715990000001
 51
332.4039800000011
  0
LINE
  5
231C
330
1F
100
AcDbEntity
  8
Mittellinie
100
AcDbLine
 10
298.8677647809828
 20
157.6958547713669
 30
0.0
 11
293.5898047809829
 21
160.7430647713669
 31
0.0
  0
LINE
  5
231D
102
{ACAD_REACTORS
330
276B
102
}
330
1F
100
AcDbEntity
  8
0
100
AcDbLine
 10
288.9718247809829
 20
257.7419947713668
 30
0.0
 11
187.3593447809829
 21
257.7428847713668
 31
0.0
  0
ARC
  5
231E
330
1F
100
AcDbEntity
  8
Mittellinie
100
AcDbCircle
 10
238.1650047809829
 20
192.7426347713668
 30
0.0
 40
67.0
100
AcDbArc
 50
57.71602099999899
 51
62.40400299999883
  0
CIRCLE
  5
231F
330
1F
100
AcDbEntity
  8
Innenkanten
100
AcDbCircle
 10
271.6650047809829
 20
250.7646347713667
 30
0.0
 40
1.5
  0
LINE
  5
2390
330
1F
100
AcDbEntity
  8
Mittellinie
100
AcDbLine
 10
637.9776278189486
 20
192.7344138730005
 30
0.0
 11
361.4333485040519
 21
192.7344138730005
 31
0.0
  0
LINE
  5
2391
330
1F
100
AcDbEntity
  8
0
100
AcDbLine
 10
587.9775978189485
 20
204.7344138730005
 30
0.0
 11
637.9776278189486
 21
204.7344138730005
 31
0.0
  0
LINE
  5
2392
330
1F
100
AcDbEntity
  8
0
100
AcDbLine
 10
637.9776278189486
 20
180.7344138730005
 30
0.0
 11
587.9775978189485
 21
180.7344138730005
 31
0.0
  0
LINE
  5
2395
102
{ACAD_REACTORS
330
2619
102
}
330
1F
100
AcDbEntity
  8
Innenkanten
100
AcDbLine
 10
570.9775978189485
 20
127.7344138730005
 30
0.0
 11
570.9775978189485
 21
257.7344138730005
 31
0.0
  0
LINE
  5
2396
330
1F
100
AcDbEntity
  8
Innenkanten
100
AcDbLine
 10
456.9775978189485
 20
257.7344138730005
 30
0.0
 11
456.9775978189485
 21
127.7344138730005
 31
0.0
  0
LINE
  5
2397
330
1F
100
AcDbEntity
  8
Innenkanten
100
AcDbLine
 10
566.9775978189485
 20
257.7344138730005
 30
0.0
 11
566.9775978189485
 21
127.7344138730005
 31
0.0
  0
LINE
  5
2398
102
{ACAD_REACTORS
330
263E
330
26E5
102
}
330
1F
100
AcDbEntity
  8
0
100
AcDbLine
 10
585.9775978189485
 20
137.7344138730005
 30
0.0
 11
585.9775978189485
 21
247.7344138730005
 31
0.0
  0
LINE
  5
2399
102
{ACAD_REACTORS
330
2619
330
263E
330
2661
330
26A3
330
2706
102
}
330
1F
100
AcDbEntity
  8
0
100
AcDbLine
 10
582.9775978189485
 20
127.7344138730005
 30
0.0
 11
582.9775978189485
 21
257.7344138730005
 31
0.0
  0
LINE
  5
23A0
102
{ACAD_REACTORS
330
2706
102
}
330
1F
100
AcDbEntity
  8
Mittellinie
100
AcDbLine
 10
481.4775978189485
 20
74.79420387300058
 30
0.0
 11
481.4775978189485
 21
111.6687538730005
 31
0.0
  0
LINE
  5
23A1
330
1F
100
AcDbEntity
  8
0
100
AcDbLine
 10
501.9775978189485
 20
104.5342938730005
 30
0.0
 11
501.9775978189485
 21
100.7343038730006
 31
0.0
  0
LINE
  5
23A2
330
1F
100
AcDbEntity
  8
0
100
AcDbLine
 10
460.9775978189485
 20
100.7343038730006
 30
0.0
 11
460.9775978189485
 21
104.5342938730005
 31
0.0
  0
LINE
  5
23A3
330
1F
100
AcDbEntity
  8
Innenkanten
100
AcDbLine
 10
498.8775578189486
 20
97.73430387300061
 30
0.0
 11
464.0775678189485
 21
97.73430387300061
 31
0.0
  0
LINE
  5
23A4
330
1F
100
AcDbEntity
  8
Innenkanten
100
AcDbLine
 10
464.0775678189485
 20
82.73430387300061
 30
0.0
 11
498.8775578189486
 21
82.73430387300061
 31
0.0
  0
LINE
  5
23A5
330
1F
100
AcDbEntity
  8
0
100
AcDbLine
 10
465.0775678189485
 20
81.73430387300061
 30
0.0
 11
497.8775578189485
 21
81.73430387300061
 31
0.0
  0
LINE
  5
23A6
330
1F
100
AcDbEntity
  8
0
100
AcDbLine
 10
501.9775978189485
 20
100.7343038730006
 30
0.0
 11
460.9775978189485
 21
100.7343038730006
 31
0.0
  0
LINE
  5
23A7
330
1F
100
AcDbEntity
  8
Innenkanten
100
AcDbLine
 10
465.0775678189485
 20
97.73430387300061
 30
0.0
 11
465.0775678189485
 21
81.73430387300061
 31
0.0
  0
LINE
  5
23A8
330
1F
100
AcDbEntity
  8
0
100
AcDbLine
 10
464.0775678189485
 20
100.7343038730006
 30
0.0
 11
464.0775678189485
 21
82.73430387300061
 31
0.0
  0
LINE
  5
23A9
330
1F
100
AcDbEntity
  8
0
100
AcDbLine
 10
464.0775378189485
 20
82.73427387300058
 30
0.0
 11
465.0775378189485
 21
81.73426387300059
 31
0.0
  0
LINE
  5
23AA
330
1F
100
AcDbEntity
  8
Innenkanten
100
AcDbLine
 10
497.8775578189485
 20
81.73430387300061
 30
0.0
 11
497.8775578189485
 21
97.73430387300061
 31
0.0
  0
LINE
  5
23AB
330
1F
100
AcDbEntity
  8
0
100
AcDbLine
 10
498.8775578189486
 20
82.73430387300061
 30
0.0
 11
498.8775578189486
 21
100.7343038730006
 31
0.0
  0
LINE
  5
23AC
330
1F
100
AcDbEntity
  8
0
100
AcDbLine
 10
497.8775278189486
 20
81.73430387300061
 30
0.0
 11
498.8775278189486
 21
82.73430387300061
 31
0.0
  0
LINE
  5
23AD
330
1F
100
AcDbEntity
  8
0
100
AcDbLine
 10
498.8775578189486
 20
100.7343038730006
 30
0.0
 11
498.8775578189486
 21
97.73430387300061
 31
0.0
  0
LINE
  5
23AE
330
1F
100
AcDbEntity
  8
Innenkanten
100
AcDbLine
 10
460.9775978189485
 20
103.5342938730005
 30
0.0
 11
501.9775978189485
 21
103.5342938730005
 31
0.0
  0
LINE
  5
23AF
330
1F
100
AcDbEntity
  8
Innenkanten
100
AcDbLine
 10
513.9775978189485
 20
126.9503538730006
 30
0.0
 11
458.9775978189485
 21
126.9502938730005
 31
0.0
  0
LINE
  5
23B0
330
1F
100
AcDbEntity
  8
0
100
AcDbLine
 10
503.9774778189486
 20
104.5352238730005
 30
0.0
 11
458.9775978189485
 21
104.5352238730005
 31
0.0
  0
LINE
  5
23B1
330
1F
100
AcDbEntity
  8
0
100
AcDbLine
 10
582.9775978189485
 20
127.7344138730005
 30
0.0
 11
425.6775983425472
 21
127.7344138730007
 31
0.0
  0
LINE
  5
23B6
330
1F
100
AcDbEntity
  8
0
100
AcDbLine
 10
458.9775978189485
 20
127.7122638730005
 30
0.0
 11
458.9775978189485
 21
104.5342938730005
 31
0.0
  0
ARC
  5
23C2
330
1F
100
AcDbEntity
  8
0
100
AcDbCircle
 10
455.3416678189485
 20
139.6715138730005
 30
0.0
 40
60.0
100
AcDbArc
 50
324.1542699999991
 51
347.759289999998
  0
LINE
  5
23C3
330
1F
100
AcDbEntity
  8
0
100
AcDbLine
 10
513.9775978189485
 20
126.9503538730006
 30
0.0
 11
513.9775978189485
 21
127.8004538730004
 31
0.0
  0
LINE
  5
23C4
330
1F
100
AcDbEntity
  8
Innenkanten
100
AcDbLine
 10
570.9775978189485
 20
141.9284138730005
 30
0.0
 11
582.9775978189485
 21
141.9284138730005
 31
0.0
  0
LINE
  5
23C5
330
1F
100
AcDbEntity
  8
0
100
AcDbLine
 10
582.9775978189485
 20
137.7344138730005
 30
0.0
 11
585.9775978189485
 21
137.7344138730005
 31
0.0
  0
LINE
  5
23CC
102
{ACAD_REACTORS
330
2682
102
}
330
1F
100
AcDbEntity
  8
0
100
AcDbLine
 10
587.9775978189485
 20
177.7344138730005
 30
0.0
 11
587.9775978189485
 21
207.7344138730005
 31
0.0
  0
LINE
  5
23CE
330
1F
100
AcDbEntity
  8
Innenkanten
100
AcDbLine
 10
406.4776178189485
 20
150.2343938730005
 30
0.0
 11
570.9775978189485
 21
150.2344138730005
 31
0.0
  0
LINE
  5
23CF
330
1F
100
AcDbEntity
  8
Innenkanten
100
AcDbLine
 10
566.9775978189485
 20
164.7344138730005
 30
0.0
 11
456.9857778189485
 21
164.7344138730005
 31
0.0
  0
LINE
  5
23D0
330
1F
100
AcDbEntity
  8
Innenkanten
100
AcDbLine
 10
566.9775978189485
 20
167.7344138730005
 30
0.0
 11
456.9857778189485
 21
167.7344138730005
 31
0.0
  0
LINE
  5
23D1
330
1F
100
AcDbEntity
  8
Innenkanten
100
AcDbLine
 10
566.9775978189485
 20
170.7344138730005
 30
0.0
 11
456.9857778189485
 21
170.7344138730005
 31
0.0
  0
LINE
  5
23D2
330
1F
100
AcDbEntity
  8
Innenkanten
100
AcDbLine
 10
566.9775978189485
 20
173.7344138730005
 30
0.0
 11
456.9857778189485
 21
173.7344138730005
 31
0.0
  0
LINE
  5
23DA
330
1F
100
AcDbEntity
  8
0
100
AcDbLine
 10
585.9775978189485
 20
177.7344138730005
 30
0.0
 11
587.9775978189485
 21
177.7344138730005
 31
0.0
  0
LINE
  5
23DB
330
1F
100
AcDbEntity
  8
Innenkanten
100
AcDbLine
 10
424.6775978189485
 20
235.2344138730005
 30
0.0
 11
570.9775978189485
 21
235.2344138730005
 31
0.0
  0
LINE
  5
23DC
330
1F
100
AcDbEntity
  8
Innenkanten
100
AcDbLine
 10
566.9775978189485
 20
211.7344138730005
 30
0.0
 11
456.9857778189485
 21
211.7344138730005
 31
0.0
  0
LINE
  5
23DD
330
1F
100
AcDbEntity
  8
Innenkanten
100
AcDbLine
 10
566.9775978189485
 20
214.7344138730005
 30
0.0
 11
456.9857778189485
 21
214.7344138730005
 31
0.0
  0
LINE
  5
23DE
330
1F
100
AcDbEntity
  8
Innenkanten
100
AcDbLine
 10
566.9775978189485
 20
217.7344138730005
 30
0.0
 11
456.9857778189485
 21
217.7344138730005
 31
0.0
  0
LINE
  5
23DF
330
1F
100
AcDbEntity
  8
Innenkanten
100
AcDbLine
 10
566.9775978189485
 20
220.7344138730005
 30
0.0
 11
456.9857778189485
 21
220.7344138730005
 31
0.0
  0
LINE
  5
23EB
330
1F
100
AcDbEntity
  8
0
100
AcDbLine
 10
587.9775978189485
 20
207.7344138730005
 30
0.0
 11
585.9775978189485
 21
207.7344138730005
 31
0.0
  0
LINE
  5
23EC
330
1F
100
AcDbEntity
  8
0
100
AcDbLine
 10
425.6775981331077
 20
257.7343938730004
 30
0.0
 11
582.9775978189485
 21
257.7344138730005
 31
0.0
  0
LINE
  5
23F1
330
1F
100
AcDbEntity
  8
Innenkanten
100
AcDbLine
 10
570.9775978189485
 20
243.5404138730006
 30
0.0
 11
582.9775978189485
 21
243.5404138730006
 31
0.0
  0
LINE
  5
23F2
330
1F
100
AcDbEntity
  8
0
100
AcDbLine
 10
582.9775978189485
 20
247.7344138730005
 30
0.0
 11
585.9775978189485
 21
247.7344138730005
 31
0.0
  0
LINE
  5
23F3
102
{ACAD_REACTORS
330
2661
330
26C4
102
}
330
1F
100
AcDbEntity
  8
0
100
AcDbLine
 10
637.9776278189486
 20
204.7344138730005
 30
0.0
 11
637.9776278189486
 21
180.7344138730005
 31
0.0
  0
DIMENSION
  5
2602
102
{ACAD_XDICTIONARY
360
260F
102
}
102
{ACAD_REACTORS
330
2619
102
}
330
1F
100
AcDbEntity
  8
Bemaßung
100
AcDbDimension
  2
*D0
 10
582.9775978189485
 20
270.9649375038884
 30
0.0
 11
576.9775978189485
 21
272.8399375038884
 31
0.0
 70
    32
 71
     5
 42
12.0
  3
ISO-25
100
AcDbAlignedDimension
 13
570.9775978189485
 23
257.7344138730005
 33
0.0
 14
582.9775978189485
 24
257.7344138730005
 34
0.0
100
AcDbRotatedDimension
  0
DIMENSION
  5
2623
102
{ACAD_XDICTIONARY
360
2632
102
}
102
{ACAD_REACTORS
330
263E
102
}
330
1F
100
AcDbEntity
  8
Bemaßung
100
AcDbDimension
  2
*D1
 10
582.9775978189485
 20
270.9649375038884
 30
0.0
 11
584.4775978189485
 21
272.8399375038884
 31
0.0
 70
    32
 71
     5
 42
3.0
  3
ISO-25
100
AcDbAlignedDimension
 13
585.9775978189485
 23
247.7344138730005
 33
0.0
 14
582.9775978189485
 24
257.7344138730005
 34
0.0
100
AcDbRotatedDimension
  0
DIMENSION
  5
264A
102
{ACAD_XDICTIONARY
360
2657
102
}
102
{ACAD_REACTORS
330
2661
102
}
330
1F
100
AcDbEntity
  8
Bemaßung
100
AcDbDimension
  2
*D2
 10
637.9776278189486
 20
280.2192065026734
 30
0.0
 11
610.4776128189485
 21
282.0942065026733
 31
0.0
 70
    32
 71
     5
 42
55.00003000000003
  3
ISO-25
100
AcDbAlignedDimension
 13
582.9775978189485
 23
257.7344138730005
 33
0.0
 14
637.9776278189486
 24
204.7344138730005
 34
0.0
100
AcDbRotatedDimension
  0
DIMENSION
  5
266B
102
{ACAD_XDICTIONARY
360
2678
102
}
102
{ACAD_REACTORS
330
2682
102
}
330
1F
100
AcDbEntity
  8
Bemaßung
100
AcDbDimension
  2
*D3
 10
637.9776278189486
 20
256.6208204305703
 30
0.0
 11
612.9776128189485
 21
258.4958204305703
 31
0.0
 70
    32
 71
     5
 42
50.00003000000003
  3
ISO-25
100
AcDbAlignedDimension
 13
587.9775978189485
 23
207.7344138730005
 33
0.0
 14
637.9776278189486
 24
204.7344138730005
 34
0.0
100
AcDbRotatedDimension
  0
DIMENSION
  5
268C
102
{ACAD_XDICTIONARY
360
2699
102
}
102
{ACAD_REACTORS
330
26A3
102
}
330
1F
100
AcDbEntity
  8
Bemaßung
100
AcDbDimension
  2
*D4
 10
379.9776178189485
 20
280.2192065026734
 30
0.0
 11
481.4776078189485
 21
282.0942065026733
 31
0.0
 70
    32
 71
     5
 42
202.99998
  3
ISO-25
100
AcDbAlignedDimension
 13
582.9775978189485
 23
257.7344138730005
 33
0.0
 14
379.9776178189485
 24
192.7344138730005
 34
0.0
100
AcDbRotatedDimension
  0
DIMENSION
  5
26AD
102
{ACAD_XDICTIONARY
360
26BA
102
}
102
{ACAD_REACTORS
330
26C4
102
}
330
1F
100
AcDbEntity
  8
Bemaßung
100
AcDbDimension
  2
*D5
 10
659.2942015433009
 20
180.7344138730005
 30
0.0
 11
657.4192015433009
 21
192.7344138730006
 31
0.0
 70
    32
 71
     5
 42
24.0
  3
ISO-25
100
AcDbAlignedDimension
 13
637.9776278189486
 23
204.7344138730005
 33
0.0
 14
637.9776278189486
 24
180.7344138730005
 34
0.0
 50
90.0
100
AcDbRotatedDimension
  0
DIMENSION
  5
26CE
102
{ACAD_XDICTIONARY
360
26DB
102
}
102
{ACAD_REACTORS
330
26E5
102
}
330
1F
100
AcDbEntity
  8
Bemaßung
100
AcDbDimension
  2
*D6
 10
671.3294714869343
 20
137.7344138730005
 30
0.0
 11
669.4544714869343
 21
192.7344138730006
 31
0.0
 70
    32
 71
     5
 42
110.0
  3
ISO-25
100
AcDbAlignedDimension
 13
585.9775978189485
 23
247.7344138730005
 33
0.0
 14
585.9775978189485
 24
137.7344138730005
 34
0.0
 50
90.0
100
AcDbRotatedDimension
  0
DIMENSION
  5
26EF
102
{ACAD_XDICTIONARY
360
26FC
102
}
102
{ACAD_REACTORS
330
2706
102
}
330
1F
100
AcDbEntity
  8
Bemaßung
100
AcDbDimension
  2
*D7
 10
481.4775978189485
 20
61.55934398804038
 30
0.0
 11
532.2275978189485
 21
63.64267732137371
 31
0.0
 70
    32
 71
     5
 42
101.5
  3
ISO-25
100
AcDbAlignedDimension
 13
582.9775978189485
 23
127.7344138730005
 33
0.0
 14
481.4775978189485
 24
74.79420387300058
 34
0.0
100
AcDbRotatedDimension
  0
DIMENSION
  5
2733
102
{ACAD_XDICTIONARY
360
2740
102
}
102
{ACAD_REACTORS
330
274A
102
}
330
1F
100
AcDbEntity
  8
Bemaßung
100
AcDbDimension
  2
*D9
 10
303.165244780983
 20
280.2192065026734
 30
0.0
 11
238.1654190820481
 21
282.0942065026733
 31
0.0
 70
    32
 71
     5
 42
129.9996513978697
  3
ISO-25
100
AcDbAlignedDimension
 13
173.1655933831132
 23
243.549367031282
 33
0.0
 14
303.165244780983
 24
243.5483347713668
 34
0.0
100
AcDbRotatedDimension
  0
DIMENSION
  5
2754
102
{ACAD_XDICTIONARY
360
2761
102
}
102
{ACAD_REACTORS
330
276B
102
}
330
1F
100
AcDbEntity
  8
Bemaßung
100
AcDbDimension
  2
*D10
 10
143.059164680179
 20
127.7433120480738
 30
0.0
 11
141.1841646801789
 21
192.7430984097204
 31
0.0
 70
    32
 71
     5
 42
129.999572723293
  3
ISO-25
100
AcDbAlignedDimension
 13
187.3593447809829
 23
257.7428847713668
 33
0.0
 14
187.3581590757688
 24
127.7433120480738
 34
0.0
 50
90.0
100
AcDbRotatedDimension
  0
DIMENSION
  5
2775
102
{ACAD_XDICTIONARY
360
2782
102
}
102
{ACAD_REACTORS
330
278C
102
}
330
1F
100
AcDbEntity
  8
Bemaßung
100
AcDbDimension
  2
*D11
 10
193.2175547809829
 20
237.6901147713669
 30
0.0
 11
207.3503781771653
 21
267.1357736809351
 31
0.0
 70
    34
 71
     5
 42
0.7853968936695745
  3
ISO-25
100
AcDb2LineAngularDimension
 13
238.1650047809829
 23
71.0815447713669
 33
0.0
 14
238.1650047809829
 24
273.3770947713668
 34
0.0
 15
181.4040147809829
 25
249.5036847713669
 35
0.0
 16
217.8095341947568
 26
268.7103296801254
 36
0.0
  0
DIMENSION
  5
2796
102
{ACAD_XDICTIONARY
360
279F
102
}
102
{ACAD_REACTORS
330
27A5
102
}
330
1F
100
AcDbEntity
  8
Bemaßung
100
AcDbDimension
  2
*D12
 10
294.2245785148559
 20
146.7690098025168
 30
0.0
 11
263.4232958968786
 21
172.028684846796
 31
0.0
 70
   163
 71
     5
 42
145.0
  3
ISO-25
100
AcDbDiametricDimension
 15
182.10543104711
 25
238.7162597402169
 35
0.0
 40
0.0
1001
ACAD
1000
DSTYLE
1002
{
1070
   279
1070
     1
1070
   288
1070
     1
1002
}
  0
DIMENSION
  5
27C9
102
{ACAD_XDICTIONARY
360
27D2
102
}
102
{ACAD_REACTORS
330
27D8
102
}
330
1F
100
AcDbEntity
  8
Bemaßung
100
AcDbDimension
  2
*D13
 10
175.796223947735
 20
138.7390913471198
 30
0.0
 11
213.6174483285786
 21
171.4875290417726
 31
0.0
 70
   163
 71
     5
 42
164.99997
  3
ISO-25
100
AcDbDiametricDimension
 15
300.5337856142307
 25
246.7461781956136
 35
0.0
 40
0.0
1001
ACAD
1000
DSTYLE
1002
{
1070
   279
1070
     1
1070
   288
1070
     1
1002
}
  0
DIMENSION
  5
27E3
102
{ACAD_XDICTIONARY
360
27F0
102
}
102
{ACAD_REACTORS
330
27FA
102
}
330
1F
100
AcDbEntity
  8
Bemaßung
100
AcDbDimension
  2
*D14
 10
331.0941293846922
 20
81.74266477136676
 30
0.0
 11
329.2191293846922
 21
137.2426497713668
 31
0.0
 70
    32
 71
     5
 42
110.99997
  3
ISO-25
100
AcDbAlignedDimension
 13
315.3724047809829
 23
192.7426347713668
 33
0.0
 14
254.5649647809828
 24
81.74266477136677
 34
0.0
 50
90.0
100
AcDbRotatedDimension
  0
DIMENSION
  5
281C
102
{ACAD_XDICTIONARY
360
2829
102
}
102
{ACAD_REACTORS
330
2833
102
}
330
1F
100
AcDbEntity
  8
Bemaßung
100
AcDbDimension
  2
*D15
 10
217.6650047809829
 20
57.10926631601092
 30
0.0
 11
238.1650047809829
 21
58.98426631601092
 31
0.0
 70
    32
 71
     5
 42
41.0
  3
ISO-25
100
AcDbAlignedDimension
 13
258.6650047809829
 23
100.7426547713669
 33
0.0
 14
217.6650047809829
 24
100.7426547713669
 34
0.0
100
AcDbRotatedDimension
  0
LINE
  5
2851
330
1F
100
AcDbEntity
  8
0
100
AcDbLine
 10
187.3593447809829
 20
257.7428847713668
 30
0.0
 11
187.3593447809829
 21
103.1116609578357
 31
0.0
  0
LINE
  5
2854
330
1F
100
AcDbEntity
  8
0
100
AcDbLine
 10
173.1621881344169
 20
-216.085935129675
 30
0.0
 11
303.1618181357846
 21
-216.0870225909986
 31
0.0
  0
LINE
  5
2855
330
1F
100
AcDbEntity
  8
Innenkanten
100
AcDbLine
 10
173.1621881344169
 20
-204.085935129675
 30
0.0
 11
303.1618181357846
 21
-204.0870225909986
 31
0.0
  0
LINE
  5
2856
330
1F
100
AcDbEntity
  8
0
100
AcDbLine
 10
173.1621881344169
 20
-216.085935129675
 30
0.0
 11
173.1622885157775
 21
-204.0859351305146
 31
0.0
  0
LINE
  5
2857
330
1F
100
AcDbEntity
  8
0
100
AcDbLine
 10
303.1618181357846
 20
-216.0870225909986
 30
0.0
 11
303.1619185171155
 21
-204.0870225918383
 31
0.0
  0
LINE
  5
2858
330
1F
100
AcDbEntity
  8
Innenkanten
100
AcDbLine
 10
187.3593447809829
 20
-216.086053890465
 30
0.0
 11
187.3594451623139
 21
-204.0860538913046
 31
0.0
  0
LINE
  5
2859
330
1F
100
AcDbEntity
  8
Innenkanten
100
AcDbLine
 10
288.9717642677861
 20
-216.0869038896242
 30
0.0
 11
288.971864649117
 21
-204.0869038904638
 31
0.0
  0
LINE
  5
285B
330
1F
100
AcDbEntity
  8
0
100
AcDbLine
 10
173.1622885157775
 20
-204.0859351305146
 30
0.0
 11
173.116468690834
 21
-53.28702273507698
 31
0.0
  0
LINE
  5
285E
330
1F
100
AcDbEntity
  8
0
100
AcDbLine
 10
303.1164486908338
 20
-53.28702252563751
 30
0.0
 11
303.1615002615698
 21
-204.0870225883396
 31
0.0
  0
LINE
  5
285F
330
1F
100
AcDbEntity
  8
0
100
AcDbLine
 10
183.1650047809829
 20
-219.0860188043457
 30
0.0
 11
293.1650047809829
 21
-219.0860188043457
 31
0.0
  0
LINE
  5
2860
330
1F
100
AcDbEntity
  8
0
100
AcDbLine
 10
183.1650047809829
 20
-219.0860188043457
 30
0.0
 11
183.1650298763156
 21
-216.0860188045556
 31
0.0
  0
LINE
  5
2861
330
1F
100
AcDbEntity
  8
0
100
AcDbLine
 10
293.1650047809829
 20
-219.0860188043457
 30
0.0
 11
293.1650047809829
 21
-216.0869389665462
 31
0.0
  0
LINE
  5
2862
330
1F
100
AcDbEntity
  8
0
100
AcDbLine
 10
223.1650047809829
 20
-271.0860188043457
 30
0.0
 11
253.1650047809829
 21
-271.0860188043457
 31
0.0
  0
LINE
  5
2863
330
1F
100
AcDbEntity
  8
0
100
AcDbLine
 10
223.1650047809829
 20
-271.0860188043457
 30
0.0
 11
223.1650047809829
 21
-221.0860188043457
 31
0.0
  0
LINE
  5
2867
330
1F
100
AcDbEntity
  8
0
100
AcDbLine
 10
215.6650047809829
 20
-221.0860188043457
 30
0.0
 11
260.6650047809829
 21
-221.0860188043457
 31
0.0
  0
LINE
  5
2868
330
1F
100
AcDbEntity
  8
0
100
AcDbLine
 10
215.6650047809829
 20
-221.0860188043457
 30
0.0
 11
215.6650047809829
 21
-219.0860188043457
 31
0.0
  0
LINE
  5
2869
330
1F
100
AcDbEntity
  8
0
100
AcDbLine
 10
260.6650047809829
 20
-221.0860188043457
 30
0.0
 11
260.6650047809829
 21
-219.0860188043457
 31
0.0
  0
LINE
  5
286A
330
1F
100
AcDbEntity
  8
0
100
AcDbLine
 10
253.1650047809829
 20
-271.0860188043457
 30
0.0
 11
253.1650047809829
 21
-221.0860188043457
 31
0.0
  0
LINE
  5
287D
330
1F
100
AcDbEntity
  8
Innenkanten
100
AcDbLine
 10
173.1571628046275
 20
-200.0884048544038
 30
0.0
 11
303.1571628046275
 21
-200.0884048544038
 31
0.0
  0
LINE
  5
287E
330
1F
100
AcDbEntity
  8
Innenkanten
100
AcDbLine
 10
210.1571628046275
 20
-200.0884048544038
 30
0.0
 11
210.1571628046275
 21
-90.09658485440382
 31
0.0
  0
LINE
  5
287F
330
1F
100
AcDbEntity
  8
Innenkanten
100
AcDbLine
 10
213.1571628046275
 20
-200.0884048544038
 30
0.0
 11
213.1571628046275
 21
-90.09658485440382
 31
0.0
  0
LINE
  5
2880
330
1F
100
AcDbEntity
  8
Innenkanten
100
AcDbLine
 10
216.1571628046275
 20
-200.0884048544038
 30
0.0
 11
216.1571628046275
 21
-90.09658485440382
 31
0.0
  0
LINE
  5
2881
330
1F
100
AcDbEntity
  8
Innenkanten
100
AcDbLine
 10
219.1571628046275
 20
-200.0884048544038
 30
0.0
 11
219.1571628046275
 21
-90.09658485440382
 31
0.0
  0
LINE
  5
2882
330
1F
100
AcDbEntity
  8
Innenkanten
100
AcDbLine
 10
257.1571628046275
 20
-200.0884048544038
 30
0.0
 11
257.1571628046275
 21
-90.09658485440382
 31
0.0
  0
LINE
  5
2883
330
1F
100
AcDbEntity
  8
Innenkanten
100
AcDbLine
 10
260.1571628046275
 20
-200.0884048544038
 30
0.0
 11
260.1571628046275
 21
-90.09658485440382
 31
0.0
  0
LINE
  5
2884
330
1F
100
AcDbEntity
  8
Innenkanten
100
AcDbLine
 10
263.1571628046275
 20
-200.0884048544038
 30
0.0
 11
263.1571628046275
 21
-90.09658485440382
 31
0.0
  0
LINE
  5
2885
330
1F
100
AcDbEntity
  8
Innenkanten
100
AcDbLine
 10
266.1571628046275
 20
-200.0884048544038
 30
0.0
 11
266.1571628046275
 21
-90.09658485440382
 31
0.0
  0
LINE
  5
2886
330
1F
100
AcDbEntity
  8
Innenkanten
100
AcDbLine
 10
173.1571628046275
 20
-90.08840485440385
 30
0.0
 11
303.1571628046275
 21
-90.08840485440385
 31
0.0
  0
LINE
  5
28B1
330
1F
100
AcDbEntity
  8
Innenkanten
100
AcDbLine
 10
195.6567883780966
 20
-46.27427676010604
 30
0.0
 11
280.6567883780966
 21
-46.27427676010611
 31
0.0
  0
LINE
  5
28B2
330
1F
100
AcDbEntity
  8
0
100
AcDbLine
 10
280.6567883780966
 20
-40.2742767601061
 30
0.0
 11
195.6567883780966
 21
-40.27427676010605
 31
0.0
  0
LINE
  5
28B7
330
1F
100
AcDbEntity
  8
Innenkanten
100
AcDbLine
 10
195.6567883780966
 20
-52.2870222114783
 30
0.0
 11
195.6563700234533
 21
-204.0861232960013
 31
0.0
  0
LINE
  5
28B8
330
1F
100
AcDbEntity
  8
Innenkanten
100
AcDbLine
 10
197.1336283780966
 20
-46.27427676010604
 30
0.0
 11
197.1336283780966
 21
-40.27427676010605
 31
0.0
  0
LINE
  5
28B9
330
1F
100
AcDbEntity
  8
Mittellinie
100
AcDbLine
 10
202.9817083780966
 20
-41.94510676010613
 30
0.0
 11
202.9817083780966
 21
-48.7663967601061
 31
0.0
  0
ARC
  5
28BA
330
1F
100
AcDbEntity
  8
0
100
AcDbCircle
 10
201.4817083780966
 20
-45.27427676010607
 30
0.0
 40
1.0
100
AcDbArc
 50
89.99997999999797
 51
180.0000299999997
  0
LINE
  5
28BB
330
1F
100
AcDbEntity
  8
0
100
AcDbLine
 10
203.4975783780966
 20
-44.2742767601061
 30
0.0
 11
201.4817083780966
 21
-44.2742767601061
 31
0.0
  0
LINE
  5
28BC
330
1F
100
AcDbEntity
  8
0
100
AcDbLine
 10
200.4817083780966
 20
-45.2742767601061
 30
0.0
 11
200.4817083780966
 21
-46.27427676010611
 31
0.0
  0
LINE
  5
28BD
330
1F
100
AcDbEntity
  8
0
100
AcDbLine
 10
203.4975783780966
 20
-40.2742767601061
 30
0.0
 11
203.4975783780966
 21
-46.27427676010611
 31
0.0
  0
LINE
  5
28BE
330
1F
100
AcDbEntity
  8
Innenkanten
100
AcDbLine
 10
210.6533383780966
 20
-40.2742767601061
 30
0.0
 11
210.6533383780966
 21
-52.2870222114783
 31
0.0
  0
LINE
  5
28C3
330
1F
100
AcDbEntity
  8
Innenkanten
100
AcDbLine
 10
280.6567702712291
 20
-52.2870222114783
 30
0.0
 11
280.6563700175054
 21
-204.086834330429
 31
0.0
  0
LINE
  5
28C5
330
1F
100
AcDbEntity
  8
Innenkanten
100
AcDbLine
 10
265.6604783780966
 20
-52.2870222114783
 30
0.0
 11
265.6604783780966
 21
-40.2742767601061
 31
0.0
  0
LINE
  5
28C6
330
1F
100
AcDbEntity
  8
Mittellinie
100
AcDbLine
 10
267.7692783780965
 20
-41.94510676010613
 30
0.0
 11
267.7692783780965
 21
-48.7663967601061
 31
0.0
  0
LINE
  5
28C7
330
1F
100
AcDbEntity
  8
0
100
AcDbLine
 10
270.2692783780966
 20
-45.2742767601061
 30
0.0
 11
270.2692783780966
 21
-46.27427676010611
 31
0.0
  0
LINE
  5
28C8
330
1F
100
AcDbEntity
  8
0
100
AcDbLine
 10
269.2692783780965
 20
-44.2742767601061
 30
0.0
 11
267.1371683780965
 21
-44.2742767601061
 31
0.0
  0
ARC
  5
28C9
330
1F
100
AcDbEntity
  8
0
100
AcDbCircle
 10
269.2692783780965
 20
-45.27427676010609
 30
0.0
 40
1.0
100
AcDbArc
 50
359.9999820000007
 51
89.99995999999596
  0
LINE
  5
28CA
330
1F
100
AcDbEntity
  8
0
100
AcDbLine
 10
267.1371683780965
 20
-40.2742767601061
 30
0.0
 11
267.1371683780965
 21
-46.27427676010611
 31
0.0
  0
LINE
  5
28CB
330
1F
100
AcDbEntity
  8
Innenkanten
100
AcDbLine
 10
273.5011483780966
 20
-40.2742767601061
 30
0.0
 11
273.5011483780966
 21
-46.27427676010611
 31
0.0
  0
LINE
  5
28D9
330
1F
100
AcDbEntity
  8
0
100
AcDbLine
 10
198.1453198351903
 20
-13.68687676010604
 30
0.0
 11
278.1453198351903
 21
-13.68687676010604
 31
0.0
  0
LINE
  5
28DA
330
1F
100
AcDbEntity
  8
0
100
AcDbLine
 10
198.1453198351903
 20
-13.68687676010604
 30
0.0
 11
198.1453198351902
 21
-40.27427676010605
 31
0.0
  0
LINE
  5
28DB
330
1F
100
AcDbEntity
  8
0
100
AcDbLine
 10
278.1453198351903
 20
-13.68687676010604
 30
0.0
 11
278.1453198351902
 21
-40.27427676010609
 31
0.0
  0
LINE
  5
28DC
330
1F
100
AcDbEntity
  8
Mittellinie
100
AcDbLine
 10
238.1650047809829
 20
0.1544863570852613
 30
0.0
 11
238.1650047809829
 21
-282.6366092714636
 31
0.0
  0
ARC
  5
2AD2
330
1F
100
AcDbEntity
  8
0
100
AcDbCircle
 10
421.7776078189485
 20
137.6183738730005
 30
0.0
 40
1.6
100
AcDbArc
 50
89.99891000000097
 51
179.9999599999992
  0
ARC
  5
2AD3
330
1F
100
AcDbEntity
  8
0
100
AcDbCircle
 10
421.7776078189485
 20
131.8183638730005
 30
0.0
 40
1.6
100
AcDbArc
 50
179.9999799999979
 51
270.0000299999997
  0
ARC
  5
2AD4
330
1F
100
AcDbEntity
  8
0
100
AcDbCircle
 10
421.7776078189485
 20
229.0973738730006
 30
0.0
 40
1.6
100
AcDbArc
 50
89.99891000000097
 51
179.9999599999992
  0
ARC
  5
2AD5
330
1F
100
AcDbEntity
  8
0
100
AcDbCircle
 10
421.7776078189485
 20
223.2973538730004
 30
0.0
 40
1.6
100
AcDbArc
 50
179.9999799999979
 51
270.0000299999997
  0
ARC
  5
2AD6
330
1F
100
AcDbEntity
  8
0
100
AcDbCircle
 10
421.7776078189485
 20
253.6663738730005
 30
0.0
 40
1.6
100
AcDbArc
 50
89.9999820000008
 51
179.9999599999992
  0
ARC
  5
2AD7
330
1F
100
AcDbEntity
  8
0
100
AcDbCircle
 10
421.7776078189485
 20
247.8663538730005
 30
0.0
 40
1.6
100
AcDbArc
 50
179.9999799999979
 51
270.001089999999
  0
LINE
  5
2AD9
330
1F
100
AcDbEntity
  8
Mittellinie
100
AcDbLine
 10
419.3972978189485
 20
134.7183638730005
 30
0.0
 11
425.7400378189485
 21
134.7183638730005
 31
0.0
  0
LINE
  5
2ADA
330
1F
100
AcDbEntity
  8
Innenkanten
100
AcDbLine
 10
406.4776178189485
 20
165.2309538730005
 30
0.0
 11
424.6775978189485
 21
165.2309538730005
 31
0.0
  0
LINE
  5
2ADC
330
1F
100
AcDbEntity
  8
Innenkanten
100
AcDbLine
 10
424.6775978189485
 20
220.2380938730005
 30
0.0
 11
406.4776178189485
 21
220.2380938730005
 31
0.0
  0
LINE
  5
2ADE
330
1F
100
AcDbEntity
  8
Innenkanten
100
AcDbLine
 10
413.2776078189484
 20
127.5344138730005
 30
0.0
 11
413.2776078189484
 21
111.2344238730005
 31
0.0
  0
LINE
  5
2ADF
330
1F
100
AcDbEntity
  8
Innenkanten
100
AcDbLine
 10
385.6775978189485
 20
111.2344238730005
 30
0.0
 11
385.6775978189485
 21
127.5344138730005
 31
0.0
  0
LINE
  5
2AE0
330
1F
100
AcDbEntity
  8
Mittellinie
100
AcDbLine
 10
399.4776178189485
 20
137.7936038730005
 30
0.0
 11
399.4776178189485
 21
104.4916638730005
 31
0.0
  0
LINE
  5
2AE1
330
1F
100
AcDbEntity
  8
0
100
AcDbLine
 10
414.2776078189485
 20
112.2344238730005
 30
0.0
 11
414.2776078189485
 21
130.5344138730005
 31
0.0
  0
LINE
  5
2AE2
330
1F
100
AcDbEntity
  8
0
100
AcDbLine
 10
384.6775978189485
 20
130.5344138730005
 30
0.0
 11
384.6775978189485
 21
112.2344238730005
 31
0.0
  0
LINE
  5
2AFC
330
1F
100
AcDbEntity
  8
Innenkanten
100
AcDbLine
 10
414.2776078189485
 20
112.2344238730005
 30
0.0
 11
384.6775978189485
 21
112.2344238730005
 31
0.0
  0
LINE
  5
2AFD
330
1F
100
AcDbEntity
  8
0
100
AcDbLine
 10
385.6775978189485
 20
111.2344238730005
 30
0.0
 11
413.2776078189484
 21
111.2344238730005
 31
0.0
  0
LINE
  5
2AFE
330
1F
100
AcDbEntity
  8
0
100
AcDbLine
 10
384.6775678189485
 20
112.2343838730005
 30
0.0
 11
385.6775678189485
 21
111.2343938730004
 31
0.0
  0
LINE
  5
2AFF
330
1F
100
AcDbEntity
  8
0
100
AcDbLine
 10
413.2776078189484
 20
111.2344238730005
 30
0.0
 11
414.2776078189485
 21
112.2344238730005
 31
0.0
  0
LINE
  5
2B7C
330
1F
100
AcDbEntity
  8
Innenkanten
100
AcDbLine
 10
419.4776178189485
 20
235.2343938730005
 30
0.0
 11
419.4776178189485
 21
150.2343938730005
 31
0.0
  0
LINE
  5
2B7D
330
1F
100
AcDbEntity
  8
Innenkanten
100
AcDbLine
 10
412.4776178189485
 20
235.2343938730005
 30
0.0
 11
412.4776178189485
 21
150.2343938730005
 31
0.0
  0
LINE
  5
2B7E
330
1F
100
AcDbEntity
  8
Innenkanten
100
AcDbLine
 10
381.4776178189485
 20
231.6534338730004
 30
0.0
 11
381.4776178189485
 21
134.3344238730005
 31
0.0
  0
LINE
  5
2B7F
330
1F
100
AcDbEntity
  8
0
100
AcDbLine
 10
379.9776178189485
 20
134.3344238730005
 30
0.0
 11
379.9776178189485
 21
222.7343938730005
 31
0.0
  0
LINE
  5
2B80
330
1F
100
AcDbEntity
  8
0
100
AcDbLine
 10
406.4776178189485
 20
235.2343938730005
 30
0.0
 11
406.4776178189485
 21
150.2343938730005
 31
0.0
  0
LINE
  5
2B83
330
1F
100
AcDbEntity
  8
Innenkanten
100
AcDbLine
 10
379.9776178189485
 20
134.3344238730005
 30
0.0
 11
418.9776178189485
 21
134.3344238730005
 31
0.0
  0
LINE
  5
2B84
330
1F
100
AcDbEntity
  8
Innenkanten
100
AcDbLine
 10
418.5276078189485
 20
133.3344238730005
 30
0.0
 11
380.4275978189485
 21
133.3344238730005
 31
0.0
  0
LINE
  5
2B85
330
1F
100
AcDbEntity
  8
0
100
AcDbLine
 10
418.5276078189485
 20
130.5344138730005
 30
0.0
 11
380.4275978189485
 21
130.5344138730005
 31
0.0
  0
LINE
  5
2B86
330
1F
100
AcDbEntity
  8
Innenkanten
100
AcDbLine
 10
384.6775978189485
 20
127.5344138730005
 30
0.0
 11
414.2776078189485
 21
127.5344138730005
 31
0.0
  0
LINE
  5
2B87
330
1F
100
AcDbEntity
  8
0
100
AcDbLine
 10
380.4275978189485
 20
130.5344138730005
 30
0.0
 11
380.4275978189485
 21
134.3344238730005
 31
0.0
  0
LINE
  5
2B88
330
1F
100
AcDbEntity
  8
Innenkanten
100
AcDbLine
 10
418.9776178189485
 20
134.3344238730005
 30
0.0
 11
418.9776178189485
 21
150.2343938730005
 31
0.0
  0
LINE
  5
2B89
330
1F
100
AcDbEntity
  8
0
100
AcDbLine
 10
420.1775978189485
 20
137.6183738730005
 30
0.0
 11
420.1775978189485
 21
131.8183638730005
 31
0.0
  0
LINE
  5
2B8A
330
1F
100
AcDbEntity
  8
0
100
AcDbLine
 10
418.5276078189485
 20
134.3344238730005
 30
0.0
 11
418.5276078189485
 21
130.5344138730005
 31
0.0
  0
LINE
  5
2B8B
330
1F
100
AcDbEntity
  8
Innenkanten
100
AcDbLine
 10
406.4776178189485
 20
151.7112338730006
 30
0.0
 11
412.4776178189485
 21
151.7112338730006
 31
0.0
  0
LINE
  5
2B8C
330
1F
100
AcDbEntity
  8
Innenkanten
100
AcDbLine
 10
406.4776178189485
 20
158.3870138730005
 30
0.0
 11
381.4776178189485
 21
158.3870138730005
 31
0.0
  0
LINE
  5
2B8D
330
1F
100
AcDbEntity
  8
Innenkanten
100
AcDbLine
 10
379.9776178189485
 20
159.2494438730004
 30
0.0
 11
381.4776178189485
 21
158.3870138730005
 31
0.0
  0
LINE
  5
2B8E
330
1F
100
AcDbEntity
  8
Mittellinie
100
AcDbLine
 10
414.9697178189485
 20
157.5593538730005
 30
0.0
 11
408.1484278189485
 21
157.5593538730005
 31
0.0
  0
ARC
  5
2B8F
330
1F
100
AcDbEntity
  8
0
100
AcDbCircle
 10
411.4776178189485
 20
156.0593538730005
 30
0.0
 40
1.0
100
AcDbArc
 50
179.9999799999979
 51
270.0000299999997
  0
LINE
  5
2B90
330
1F
100
AcDbEntity
  8
0
100
AcDbLine
 10
411.4776178189485
 20
155.0593538730005
 30
0.0
 11
412.4776178189485
 21
155.0593538730005
 31
0.0
  0
LINE
  5
2B91
330
1F
100
AcDbEntity
  8
0
100
AcDbLine
 10
410.4776178189485
 20
156.0593538730005
 30
0.0
 11
410.4776178189485
 21
158.0751838730005
 31
0.0
  0
LINE
  5
2B92
330
1F
100
AcDbEntity
  8
Innenkanten
100
AcDbLine
 10
406.4776178189485
 20
158.0751838730005
 30
0.0
 11
412.4776178189485
 21
158.0751838730005
 31
0.0
  0
ARC
  5
2B94
330
1F
100
AcDbEntity
  8
0
100
AcDbCircle
 10
410.0257778189485
 20
222.7274738730006
 30
0.0
 40
30.04815499999999
100
AcDbArc
 50
163.6198899999998
 51
179.9867999999975
  0
LINE
  5
2B95
330
1F
100
AcDbEntity
  8
0
100
AcDbLine
 10
420.1775978189485
 20
223.2973538730004
 30
0.0
 11
420.1775978189485
 21
229.0973738730006
 31
0.0
  0
LINE
  5
2B96
330
1F
100
AcDbEntity
  8
Mittellinie
100
AcDbLine
 10
408.1484278189485
 20
222.3468838730005
 30
0.0
 11
414.9697178189485
 21
222.3468838730005
 31
0.0
  0
ARC
  5
2B97
330
1F
100
AcDbEntity
  8
0
100
AcDbCircle
 10
411.4776178189485
 20
223.8468838730006
 30
0.0
 40
1.0
100
AcDbArc
 50
89.9999820000008
 51
179.9999599999992
  0
LINE
  5
2B98
330
1F
100
AcDbEntity
  8
Innenkanten
100
AcDbLine
 10
412.4776178189485
 20
221.7148038730006
 30
0.0
 11
406.4776178189485
 21
221.7148038730006
 31
0.0
  0
LINE
  5
2B99
330
1F
100
AcDbEntity
  8
0
100
AcDbLine
 10
411.4776178189485
 20
224.8468838730005
 30
0.0
 11
412.4776178189485
 21
224.8468838730005
 31
0.0
  0
LINE
  5
2B9A
330
1F
100
AcDbEntity
  8
0
100
AcDbLine
 10
410.4776178189485
 20
221.7148038730006
 30
0.0
 11
410.4776178189485
 21
223.8468838730006
 31
0.0
  0
LINE
  5
2B9B
330
1F
100
AcDbEntity
  8
0
100
AcDbLine
 10
406.4775878189484
 20
232.7692138730006
 30
0.0
 11
382.1217278189485
 21
231.9186938730006
 31
0.0
  0
ARC
  5
2B9C
330
1F
100
AcDbEntity
  8
0
100
AcDbCircle
 10
382.1566378189485
 20
230.9193038730005
 30
0.0
 40
1.0
100
AcDbArc
 50
92.00074200000026
 51
163.6196500000001
  0
LINE
  5
2B9D
330
1F
100
AcDbEntity
  8
Innenkanten
100
AcDbLine
 10
412.4776178189485
 20
228.0787538730005
 30
0.0
 11
406.4776178189485
 21
228.0787538730005
 31
0.0
  0
LINE
  5
2B9E
330
1F
100
AcDbEntity
  8
0
100
AcDbLine
 10
420.1775978189485
 20
253.6663738730005
 30
0.0
 11
420.1775978189485
 21
247.8663538730005
 31
0.0
  0
LINE
  5
2BC5
330
1F
100
AcDbEntity
  8
0
100
AcDbLine
 10
424.6775978189485
 20
256.7343938730004
 30
0.0
 11
424.6775978189485
 21
128.7344138730005
 31
0.0
  0
LINE
  5
2BC9
330
1F
100
AcDbEntity
  8
Innenkanten
100
AcDbLine
 10
452.6775978189485
 20
127.7344138730005
 30
0.0
 11
452.6775978189485
 21
257.7343938730005
 31
0.0
  0
LINE
  5
2BD1
330
1F
100
AcDbEntity
  8
0
100
AcDbLine
 10
423.4776178189485
 20
140.7183438730005
 30
0.0
 11
423.4776178189485
 21
128.7183638730005
 31
0.0
  0
ARC
  5
2BD2
330
1F
100
AcDbEntity
  8
0
100
AcDbCircle
 10
425.6775978189485
 20
128.7344138730005
 30
0.0
 40
1.0
100
AcDbArc
 50
179.9999799999979
 51
270.0000299999997
  0
LINE
  5
2BD3
330
1F
100
AcDbEntity
  8
0
100
AcDbLine
 10
421.7776078189485
 20
130.2183638730005
 30
0.0
 11
423.4776178189485
 21
130.2183638730005
 31
0.0
  0
LINE
  5
2BD4
330
1F
100
AcDbEntity
  8
0
100
AcDbLine
 10
423.4776178189485
 20
128.7183638730005
 30
0.0
 11
424.6775978189485
 21
128.7183638730005
 31
0.0
  0
LINE
  5
2BD5
330
1F
100
AcDbEntity
  8
0
100
AcDbLine
 10
421.7776378189484
 20
139.2183738730006
 30
0.0
 11
423.4776178189485
 21
139.2183438730005
 31
0.0
  0
LINE
  5
2BD6
330
1F
100
AcDbEntity
  8
0
100
AcDbLine
 10
424.6775978189485
 20
140.7183438730005
 30
0.0
 11
423.4776178189485
 21
140.7183438730005
 31
0.0
  0
LINE
  5
2BDE
330
1F
100
AcDbEntity
  8
0
100
AcDbLine
 10
423.4776178189485
 20
220.1973538730005
 30
0.0
 11
423.4776178189485
 21
232.1973538730005
 31
0.0
  0
LINE
  5
2BDF
330
1F
100
AcDbEntity
  8
Mittellinie
100
AcDbLine
 10
420.7572878189485
 20
226.1969538730005
 30
0.0
 11
426.8683678189486
 21
226.1969538730005
 31
0.0
  0
LINE
  5
2BE0
330
1F
100
AcDbEntity
  8
0
100
AcDbLine
 10
423.4776178189485
 20
220.1973538730005
 30
0.0
 11
424.6775978189485
 21
220.1973538730005
 31
0.0
  0
LINE
  5
2BE1
330
1F
100
AcDbEntity
  8
0
100
AcDbLine
 10
421.7776078189485
 20
221.6973538730005
 30
0.0
 11
423.4776178189485
 21
221.6973538730005
 31
0.0
  0
LINE
  5
2BE2
330
1F
100
AcDbEntity
  8
0
100
AcDbLine
 10
423.4776178189485
 20
244.7663838730005
 30
0.0
 11
423.4776178189485
 21
256.7663838730005
 31
0.0
  0
LINE
  5
2BE3
330
1F
100
AcDbEntity
  8
0
100
AcDbLine
 10
421.7776378189484
 20
230.6973838730005
 30
0.0
 11
423.4776178189485
 21
230.6973538730005
 31
0.0
  0
LINE
  5
2BE4
330
1F
100
AcDbEntity
  8
0
100
AcDbLine
 10
423.4776178189485
 20
232.1973538730005
 30
0.0
 11
424.6775978189485
 21
232.1973538730005
 31
0.0
  0
LINE
  5
2BE5
330
1F
100
AcDbEntity
  8
0
100
AcDbLine
 10
424.6775978189485
 20
244.7663838730005
 30
0.0
 11
423.4776178189485
 21
244.7663838730005
 31
0.0
  0
LINE
  5
2BE6
330
1F
100
AcDbEntity
  8
0
100
AcDbLine
 10
421.7776378189484
 20
246.2663538730005
 30
0.0
 11
423.4776178189485
 21
246.2663838730005
 31
0.0
  0
LINE
  5
2BE7
330
1F
100
AcDbEntity
  8
Mittellinie
100
AcDbLine
 10
426.8683678189486
 20
250.7657738730006
 30
0.0
 11
420.9963278189485
 21
250.7657738730006
 31
0.0
  0
ARC
  5
2BE8
330
1F
100
AcDbEntity
  8
0
100
AcDbCircle
 10
425.6775978189485
 20
256.7343938730004
 30
0.0
 40
1.0
100
AcDbArc
 50
89.9999820000008
 51
179.9999599999992
  0
LINE
  5
2BE9
330
1F
100
AcDbEntity
  8
0
100
AcDbLine
 10
423.4776178189485
 20
255.2663838730005
 30
0.0
 11
421.7776078189485
 21
255.2663838730005
 31
0.0
  0
LINE
  5
2BEA
330
1F
100
AcDbEntity
  8
0
100
AcDbLine
 10
423.4776178189485
 20
256.7663838730005
 30
0.0
 11
424.6781178189484
 21
256.7663838730005
 31
0.0
  0
LINE
  5
2C3D
330
1F
100
AcDbEntity
  8
0
100
AcDbLine
 10
424.6775978189485
 20
235.2344138730005
 30
0.0
 11
406.4776178189485
 21
235.2343938730005
 31
0.0
  0
LINE
  5
2C64
330
1F
100
AcDbEntity
  8
0
100
AcDbLine
 10
302.1164486908337
 20
-52.2870222114783
 30
0.0
 11
174.1164686908338
 21
-52.2870222114783
 31
0.0
  0
LINE
  5
2C66
330
1F
100
AcDbEntity
  8
0
100
AcDbLine
 10
186.1003986908338
 20
-51.08704221147842
 30
0.0
 11
174.1004186908338
 21
-51.08704221147842
 31
0.0
  0
LINE
  5
2C67
330
1F
100
AcDbEntity
  8
Mittellinie
100
AcDbLine
 10
180.1004186908338
 20
-47.00672221147839
 30
0.0
 11
180.1004186908338
 21
-53.34946221147833
 31
0.0
  0
LINE
  5
2C68
330
1F
100
AcDbEntity
  8
0
100
AcDbLine
 10
184.6004286908338
 20
-49.38706221147833
 30
0.0
 11
184.6003986908338
 21
-51.08704221147842
 31
0.0
  0
LINE
  5
2C69
330
1F
100
AcDbEntity
  8
0
100
AcDbLine
 10
174.1004186908338
 20
-51.08704221147842
 30
0.0
 11
174.1004186908338
 21
-52.2870222114783
 31
0.0
  0
LINE
  5
2C6A
330
1F
100
AcDbEntity
  8
0
100
AcDbLine
 10
175.6004186908338
 20
-49.3870322114784
 30
0.0
 11
175.6004186908338
 21
-51.08704221147842
 31
0.0
  0
ARC
  5
2C6B
330
1F
100
AcDbEntity
  8
0
100
AcDbCircle
 10
174.1164686908339
 20
-53.28702221147826
 30
0.0
 40
1.0
100
AcDbArc
 50
89.99997999999797
 51
180.0000299999964
  0
LINE
  5
2C6C
330
1F
100
AcDbEntity
  8
0
100
AcDbLine
 10
183.0004286908338
 20
-47.78702221147829
 30
0.0
 11
177.2004186908338
 21
-47.78702221147829
 31
0.0
  0
ARC
  5
2C6D
330
1F
100
AcDbEntity
  8
0
100
AcDbCircle
 10
177.2004186908338
 20
-49.38703221147836
 30
0.0
 40
1.6
100
AcDbArc
 50
89.99997999999797
 51
180.0000299999964
  0
ARC
  5
2C6E
330
1F
100
AcDbEntity
  8
0
100
AcDbCircle
 10
183.0004286908339
 20
-49.38703221147836
 30
0.0
 40
1.6
100
AcDbArc
 50
359.9989100000009
 51
89.99995999999923
  0
LINE
  5
2C6F
330
1F
100
AcDbEntity
  8
0
100
AcDbLine
 10
186.1003986908338
 20
-52.2870222114783
 30
0.0
 11
186.1003986908338
 21
-51.08704221147842
 31
0.0
  0
LINE
  5
2C70
330
1F
100
AcDbEntity
  8
0
100
AcDbLine
 10
290.1484386908338
 20
-51.08704221147842
 30
0.0
 11
302.1484386908338
 21
-51.08704221147842
 31
0.0
  0
LINE
  5
2C71
330
1F
100
AcDbEntity
  8
0
100
AcDbLine
 10
265.5794086908338
 20
-51.08704221147842
 30
0.0
 11
277.5794086908338
 21
-51.08704221147842
 31
0.0
  0
ARC
  5
2C72
330
1F
100
AcDbEntity
  8
0
100
AcDbCircle
 10
274.4794286908339
 20
-49.38703221147838
 30
0.0
 40
1.6
100
AcDbArc
 50
359.9989100000009
 51
89.99995999999923
  0
LINE
  5
2C73
330
1F
100
AcDbEntity
  8
Mittellinie
100
AcDbLine
 10
271.5790086908338
 20
-46.2742767601061
 30
0.0
 11
271.5790086908338
 21
-54.47779221147845
 31
0.0
  0
LINE
  5
2C74
330
1F
100
AcDbEntity
  8
0
100
AcDbLine
 10
267.0794086908338
 20
-49.3870322114784
 30
0.0
 11
267.0794086908338
 21
-51.08704221147842
 31
0.0
  0
LINE
  5
2C75
330
1F
100
AcDbEntity
  8
0
100
AcDbLine
 10
265.5794086908338
 20
-51.08704221147842
 30
0.0
 11
265.5794086908338
 21
-52.2870222114783
 31
0.0
  0
LINE
  5
2C76
330
1F
100
AcDbEntity
  8
0
100
AcDbLine
 10
268.6794086908337
 20
-47.78702221147829
 30
0.0
 11
274.4794286908338
 21
-47.78702221147829
 31
0.0
  0
ARC
  5
2C77
330
1F
100
AcDbEntity
  8
0
100
AcDbCircle
 10
268.6794086908338
 20
-49.38703221147838
 30
0.0
 40
1.6
100
AcDbArc
 50
89.99997999999797
 51
180.0000299999964
  0
LINE
  5
2C78
330
1F
100
AcDbEntity
  8
0
100
AcDbLine
 10
290.1484386908338
 20
-52.2870222114783
 30
0.0
 11
290.1484386908338
 21
-51.08704221147842
 31
0.0
  0
LINE
  5
2C79
330
1F
100
AcDbEntity
  8
0
100
AcDbLine
 10
277.5794086908338
 20
-51.08704221147842
 30
0.0
 11
277.5794086908338
 21
-52.2870222114783
 31
0.0
  0
LINE
  5
2C7A
330
1F
100
AcDbEntity
  8
0
100
AcDbLine
 10
276.0794386908337
 20
-49.38706221147833
 30
0.0
 11
276.0794086908338
 21
-51.08704221147842
 31
0.0
  0
LINE
  5
2C7B
330
1F
100
AcDbEntity
  8
Mittellinie
100
AcDbLine
 10
296.1478286908338
 20
-54.47779221147845
 30
0.0
 11
296.1478286908338
 21
-45.38454510195811
 31
0.0
  0
LINE
  5
2C7C
330
1F
100
AcDbEntity
  8
0
100
AcDbLine
 10
302.1484386908338
 20
-51.08704221147842
 30
0.0
 11
302.1484386908338
 21
-52.28754221147834
 31
0.0
  0
LINE
  5
2C7D
330
1F
100
AcDbEntity
  8
0
100
AcDbLine
 10
300.6484386908338
 20
-51.08704221147842
 30
0.0
 11
300.6484386908338
 21
-49.3870322114784
 31
0.0
  0
ARC
  5
2C7E
330
1F
100
AcDbEntity
  8
0
100
AcDbCircle
 10
302.1164486908338
 20
-53.28702221147826
 30
0.0
 40
1.0
100
AcDbArc
 50
359.9999820000007
 51
89.99995999999923
  0
LINE
  5
2C7F
330
1F
100
AcDbEntity
  8
0
100
AcDbLine
 10
291.6484086908337
 20
-49.38706221147833
 30
0.0
 11
291.6484386908338
 21
-51.08704221147842
 31
0.0
  0
LINE
  5
2C80
330
1F
100
AcDbEntity
  8
0
100
AcDbLine
 10
299.0484286908338
 20
-47.78702221147829
 30
0.0
 11
293.2484086908337
 21
-47.78702221147829
 31
0.0
  0
ARC
  5
2C81
330
1F
100
AcDbEntity
  8
0
100
AcDbCircle
 10
293.2484086908339
 20
-49.38703221147839
 30
0.0
 40
1.6
100
AcDbArc
 50
89.99997999999797
 51
180.001089999999
  0
ARC
  5
2C82
330
1F
100
AcDbEntity
  8
0
100
AcDbCircle
 10
299.0484286908339
 20
-49.38703221147839
 30
0.0
 40
1.6
100
AcDbArc
 50
359.9999820000007
 51
89.99995999999923
  0
LINE
  5
2C8C
330
1F
100
AcDbEntity
  8
Innenkanten
100
AcDbLine
 10
173.1571628046275
 20
-85.78840485440386
 30
0.0
 11
303.1330494096861
 21
-85.78840485440386
 31
0.0
  0
LINE
  5
2D85
330
1F
100
AcDbEntity
  8
Innenkanten
100
AcDbLine
 10
32.10195754894908
 20
235.2991753843261
 30
0.0
 11
32.10195754894908
 21
150.2991753843262
 31
0.0
  0
LINE
  5
2D86
330
1F
100
AcDbEntity
  8
Innenkanten
100
AcDbLine
 10
25.10195754894908
 20
235.2991753843261
 30
0.0
 11
25.10195754894908
 21
150.2991753843262
 31
0.0
  0
LINE
  5
2D87
330
1F
100
AcDbEntity
  8
Innenkanten
100
AcDbLine
 10
63.10195754894909
 20
231.7182153843261
 30
0.0
 11
63.10195754894909
 21
134.3992053843262
 31
0.0
  0
LINE
  5
2D88
330
1F
100
AcDbEntity
  8
0
100
AcDbLine
 10
19.9019775489491
 20
256.7991753843262
 30
0.0
 11
19.9019775489491
 21
128.7991953843262
 31
0.0
  0
LINE
  5
2D89
330
1F
100
AcDbEntity
  8
0
100
AcDbLine
 10
38.10195754894909
 20
235.2991753843261
 30
0.0
 11
38.10195754894909
 21
150.2991753843262
 31
0.0
  0
LINE
  5
2D8A
330
1F
100
AcDbEntity
  8
0
100
AcDbLine
 10
64.60195754894908
 20
134.3992053843262
 30
0.0
 11
64.60195754894908
 21
222.7991753843261
 31
0.0
  0
LINE
  5
2D8B
330
1F
100
AcDbEntity
  8
Innenkanten
100
AcDbLine
 10
-8.098022451050894
 20
127.7991953843262
 30
0.0
 11
-8.098022451050894
 21
257.7991753843261
 31
0.0
  0
LINE
  5
2D8F
330
1F
100
AcDbEntity
  8
0
100
AcDbLine
 10
-138.3980224510509
 20
127.7991953843262
 30
0.0
 11
-138.3980224510509
 21
257.7991953843262
 31
0.0
  0
LINE
  5
2D90
330
1F
100
AcDbEntity
  8
0
100
AcDbLine
 10
-141.3980224510509
 20
137.7991953843262
 30
0.0
 11
-141.3980224510509
 21
247.7991953843262
 31
0.0
  0
LINE
  5
2D91
330
1F
100
AcDbEntity
  8
Innenkanten
100
AcDbLine
 10
-122.3980224510509
 20
257.7991953843262
 30
0.0
 11
-122.3980224510509
 21
127.7991953843262
 31
0.0
  0
LINE
  5
2D92
330
1F
100
AcDbEntity
  8
Innenkanten
100
AcDbLine
 10
-12.3980224510509
 20
257.7991953843262
 30
0.0
 11
-12.3980224510509
 21
127.7991953843262
 31
0.0
  0
LINE
  5
2D93
330
1F
100
AcDbEntity
  8
Innenkanten
100
AcDbLine
 10
-126.3980224510509
 20
127.7991953843262
 30
0.0
 11
-126.3980224510509
 21
257.7991953843262
 31
0.0
  0
LINE
  5
2D94
330
1F
100
AcDbEntity
  8
Innenkanten
100
AcDbLine
 10
38.10195754894909
 20
150.2991753843262
 30
0.0
 11
-126.3980224510509
 21
150.2991953843262
 31
0.0
  0
LINE
  5
2D95
330
1F
100
AcDbEntity
  8
0
100
AcDbLine
 10
-138.3980224510509
 20
127.7991953843262
 30
0.0
 11
18.90197702535033
 21
127.7991953843263
 31
0.0
  0
LINE
  5
2D96
330
1F
100
AcDbEntity
  8
Innenkanten
100
AcDbLine
 10
30.30196754894911
 20
112.2992053843262
 30
0.0
 11
59.90197754894911
 21
112.2992053843262
 31
0.0
  0
LINE
  5
2D97
330
1F
100
AcDbEntity
  8
Innenkanten
100
AcDbLine
 10
59.90197754894911
 20
127.5991953843262
 30
0.0
 11
30.30196754894911
 21
127.5991953843262
 31
0.0
  0
LINE
  5
2D98
330
1F
100
AcDbEntity
  8
Innenkanten
100
AcDbLine
 10
26.0519675489491
 20
133.3992053843262
 30
0.0
 11
64.15197754894911
 21
133.3992053843262
 31
0.0
  0
LINE
  5
2D99
330
1F
100
AcDbEntity
  8
Innenkanten
100
AcDbLine
 10
64.60195754894908
 20
134.3992053843262
 30
0.0
 11
25.60195754894909
 21
134.3992053843262
 31
0.0
  0
LINE
  5
2D9A
330
1F
100
AcDbEntity
  8
0
100
AcDbLine
 10
26.0519675489491
 20
130.5991953843262
 30
0.0
 11
64.15197754894911
 21
130.5991953843262
 31
0.0
  0
LINE
  5
2D9B
330
1F
100
AcDbEntity
  8
0
100
AcDbLine
 10
58.9019775489491
 20
111.2992053843262
 30
0.0
 11
31.3019675489491
 21
111.2992053843262
 31
0.0
  0
LINE
  5
2D9C
330
1F
100
AcDbEntity
  8
Mittellinie
100
AcDbLine
 10
45.10195754894908
 20
137.8583853843262
 30
0.0
 11
45.10195754894908
 21
104.5564453843262
 31
0.0
  0
LINE
  5
2D9D
330
1F
100
AcDbEntity
  8
Innenkanten
100
AcDbLine
 10
58.9019775489491
 20
111.2992053843262
 30
0.0
 11
58.9019775489491
 21
127.5991953843262
 31
0.0
  0
LINE
  5
2D9E
330
1F
100
AcDbEntity
  8
0
100
AcDbLine
 10
59.90197754894911
 20
130.5991953843262
 30
0.0
 11
59.90197754894911
 21
112.2992053843262
 31
0.0
  0
LINE
  5
2D9F
330
1F
100
AcDbEntity
  8
0
100
AcDbLine
 10
59.90200754894908
 20
112.2991653843262
 30
0.0
 11
58.90200754894909
 21
111.2991753843261
 31
0.0
  0
LINE
  5
2DA0
330
1F
100
AcDbEntity
  8
0
100
AcDbLine
 10
64.15197754894911
 20
130.5991953843262
 30
0.0
 11
64.15197754894911
 21
134.3992053843262
 31
0.0
  0
LINE
  5
2DA1
330
1F
100
AcDbEntity
  8
Innenkanten
100
AcDbLine
 10
31.3019675489491
 20
127.5991953843262
 30
0.0
 11
31.3019675489491
 21
111.2992053843262
 31
0.0
  0
LINE
  5
2DA2
330
1F
100
AcDbEntity
  8
0
100
AcDbLine
 10
30.30196754894911
 20
112.2992053843262
 30
0.0
 11
30.30196754894911
 21
130.5991953843262
 31
0.0
  0
LINE
  5
2DA3
330
1F
100
AcDbEntity
  8
0
100
AcDbLine
 10
31.3019675489491
 20
111.2992053843262
 30
0.0
 11
30.30196754894911
 21
112.2992053843262
 31
0.0
  0
LINE
  5
2DA4
330
1F
100
AcDbEntity
  8
0
100
AcDbLine
 10
26.0519675489491
 20
134.3992053843262
 30
0.0
 11
26.0519675489491
 21
130.5991953843262
 31
0.0
  0
LINE
  5
2DA5
330
1F
100
AcDbEntity
  8
Innenkanten
100
AcDbLine
 10
38.10195754894909
 20
151.7760153843262
 30
0.0
 11
32.10195754894908
 21
151.7760153843262
 31
0.0
  0
LINE
  5
2DA6
330
1F
100
AcDbEntity
  8
Innenkanten
100
AcDbLine
 10
25.60195754894909
 20
134.3992053843262
 30
0.0
 11
25.60195754894909
 21
150.2991753843262
 31
0.0
  0
LINE
  5
2DA7
330
1F
100
AcDbEntity
  8
0
100
AcDbLine
 10
21.10195754894908
 20
140.7831253843262
 30
0.0
 11
21.10195754894908
 21
128.7831453843262
 31
0.0
  0
LINE
  5
2DA8
330
1F
100
AcDbEntity
  8
Mittellinie
100
AcDbLine
 10
25.18227754894911
 20
134.7831453843262
 30
0.0
 11
18.83953754894912
 21
134.7831453843262
 31
0.0
  0
LINE
  5
2DA9
330
1F
100
AcDbEntity
  8
0
100
AcDbLine
 10
22.80193754894912
 20
139.2831553843262
 30
0.0
 11
21.10195754894908
 21
139.2831253843262
 31
0.0
  0
LINE
  5
2DAA
330
1F
100
AcDbEntity
  8
0
100
AcDbLine
 10
21.10195754894908
 20
128.7831453843262
 30
0.0
 11
19.9019775489491
 21
128.7831453843262
 31
0.0
  0
LINE
  5
2DAB
330
1F
100
AcDbEntity
  8
0
100
AcDbLine
 10
22.8019675489491
 20
130.2831453843262
 30
0.0
 11
21.10195754894908
 21
130.2831453843262
 31
0.0
  0
ARC
  5
2DAC
330
1F
100
AcDbEntity
  8
0
100
AcDbCircle
 10
18.9019775489491
 20
128.7991953843262
 30
0.0
 40
1.0
100
AcDbArc
 50
269.9999700000002
 51
0.0000200000020199
  0
LINE
  5
2DAD
330
1F
100
AcDbEntity
  8
0
100
AcDbLine
 10
24.4019775489491
 20
137.6831553843262
 30
0.0
 11
24.4019775489491
 21
131.8831453843262
 31
0.0
  0
ARC
  5
2DAE
330
1F
100
AcDbEntity
  8
0
100
AcDbCircle
 10
22.8019675489491
 20
131.8831453843262
 30
0.0
 40
1.6
100
AcDbArc
 50
269.9999700000002
 51
0.0000200000020199
  0
ARC
  5
2DAF
330
1F
100
AcDbEntity
  8
0
100
AcDbCircle
 10
22.8019675489491
 20
137.6831553843262
 30
0.0
 40
1.6
100
AcDbArc
 50
0.0000400000007758
 51
90.00108999999904
  0
LINE
  5
2DB0
330
1F
100
AcDbEntity
  8
0
100
AcDbLine
 10
19.9019775489491
 20
140.7831253843262
 30
0.0
 11
21.10195754894908
 21
140.7831253843262
 31
0.0
  0
ARC
  5
2DB4
330
1F
100
AcDbEntity
  8
0
100
AcDbCircle
 10
-10.76209245105087
 20
139.7362953843262
 30
0.0
 40
60.0
100
AcDbArc
 50
192.2407100000019
 51
215.8457300000001
  0
LINE
  5
2DB5
330
1F
100
AcDbEntity
  8
0
100
AcDbLine
 10
-54.29798245105098
 20
82.7990853843263
 30
0.0
 11
-54.29798245105098
 21
100.7990853843263
 31
0.0
  0
LINE
  5
2DB6
330
1F
100
AcDbEntity
  8
Innenkanten
100
AcDbLine
 10
-53.29798245105099
 20
81.79908538432631
 30
0.0
 11
-53.29798245105099
 21
97.7990853843263
 31
0.0
  0
LINE
  5
2DB7
330
1F
100
AcDbEntity
  8
0
100
AcDbLine
 10
-19.49799245105089
 20
100.7990853843263
 30
0.0
 11
-19.49799245105089
 21
82.7990853843263
 31
0.0
  0
LINE
  5
2DB8
330
1F
100
AcDbEntity
  8
Innenkanten
100
AcDbLine
 10
-20.49799245105089
 20
97.7990853843263
 30
0.0
 11
-20.49799245105089
 21
81.79908538432631
 31
0.0
  0
LINE
  5
2DB9
330
1F
100
AcDbEntity
  8
Mittellinie
100
AcDbLine
 10
-36.8980224510509
 20
74.85898538432627
 30
0.0
 11
-36.8980224510509
 21
111.7335353843262
 31
0.0
  0
LINE
  5
2DBA
330
1F
100
AcDbEntity
  8
0
100
AcDbLine
 10
-20.49799245105089
 20
81.79908538432631
 30
0.0
 11
-53.29798245105099
 21
81.79908538432631
 31
0.0
  0
LINE
  5
2DBB
330
1F
100
AcDbEntity
  8
Innenkanten
100
AcDbLine
 10
-19.49799245105089
 20
82.7990853843263
 30
0.0
 11
-54.29798245105098
 21
82.7990853843263
 31
0.0
  0
LINE
  5
2DBC
330
1F
100
AcDbEntity
  8
0
100
AcDbLine
 10
-19.49796245105085
 20
82.79905538432627
 30
0.0
 11
-20.49796245105085
 21
81.79904538432628
 31
0.0
  0
LINE
  5
2DBD
330
1F
100
AcDbEntity
  8
0
100
AcDbLine
 10
-53.29795245105095
 20
81.79908538432631
 30
0.0
 11
-54.29795245105094
 21
82.7990853843263
 31
0.0
  0
LINE
  5
2DBE
330
1F
100
AcDbEntity
  8
0
100
AcDbLine
 10
-59.39790245105098
 20
104.6000053843262
 30
0.0
 11
-14.3980224510509
 21
104.6000053843262
 31
0.0
  0
LINE
  5
2DBF
330
1F
100
AcDbEntity
  8
Innenkanten
100
AcDbLine
 10
-69.39802245105091
 20
127.0151353843262
 30
0.0
 11
-14.3980224510509
 21
127.0150753843262
 31
0.0
  0
LINE
  5
2DC0
330
1F
100
AcDbEntity
  8
Innenkanten
100
AcDbLine
 10
-16.3980224510509
 20
103.5990753843262
 30
0.0
 11
-57.3980224510509
 21
103.5990753843262
 31
0.0
  0
LINE
  5
2DC1
330
1F
100
AcDbEntity
  8
0
100
AcDbLine
 10
-57.3980224510509
 20
100.7990853843263
 30
0.0
 11
-16.3980224510509
 21
100.7990853843263
 31
0.0
  0
LINE
  5
2DC2
330
1F
100
AcDbEntity
  8
Innenkanten
100
AcDbLine
 10
-54.29798245105098
 20
97.7990853843263
 30
0.0
 11
-19.49799245105089
 21
97.7990853843263
 31
0.0
  0
LINE
  5
2DC3
330
1F
100
AcDbEntity
  8
0
100
AcDbLine
 10
-14.3980224510509
 20
127.7770453843262
 30
0.0
 11
-14.3980224510509
 21
104.5990753843262
 31
0.0
  0
LINE
  5
2DC4
330
1F
100
AcDbEntity
  8
0
100
AcDbLine
 10
-16.3980224510509
 20
100.7990853843263
 30
0.0
 11
-16.3980224510509
 21
104.5990753843262
 31
0.0
  0
LINE
  5
2DC5
330
1F
100
AcDbEntity
  8
0
100
AcDbLine
 10
-54.29798245105098
 20
100.7990853843263
 30
0.0
 11
-54.29798245105098
 21
97.7990853843263
 31
0.0
  0
LINE
  5
2DC6
330
1F
100
AcDbEntity
  8
0
100
AcDbLine
 10
-57.3980224510509
 20
104.5990753843262
 30
0.0
 11
-57.3980224510509
 21
100.7990853843263
 31
0.0
  0
LINE
  5
2DC7
330
1F
100
AcDbEntity
  8
0
100
AcDbLine
 10
-69.39802245105091
 20
127.0151353843262
 30
0.0
 11
-69.39802245105091
 21
127.8652353843261
 31
0.0
  0
LINE
  5
2DC8
330
1F
100
AcDbEntity
  8
0
100
AcDbLine
 10
-138.3980224510509
 20
137.7991953843262
 30
0.0
 11
-141.3980224510509
 21
137.7991953843262
 31
0.0
  0
LINE
  5
2DC9
330
1F
100
AcDbEntity
  8
Innenkanten
100
AcDbLine
 10
-126.3980224510509
 20
141.9931953843262
 30
0.0
 11
-138.3980224510509
 21
141.9931953843262
 31
0.0
  0
LINE
  5
2DCA
330
1F
100
AcDbEntity
  8
Innenkanten
100
AcDbLine
 10
19.9019775489491
 20
235.2991953843262
 30
0.0
 11
-126.3980224510509
 21
235.2991953843262
 31
0.0
  0
LINE
  5
2DCB
330
1F
100
AcDbEntity
  8
0
100
AcDbLine
 10
18.90197723478985
 20
257.7991753843261
 30
0.0
 11
-138.3980224510509
 21
257.7991953843262
 31
0.0
  0
LINE
  5
2DCF
330
1F
100
AcDbEntity
  8
Mittellinie
100
AcDbLine
 10
-193.3980524510509
 20
192.7991953843262
 30
0.0
 11
79.66921578203846
 21
192.7991953843262
 31
0.0
  0
LINE
  5
2DD0
330
1F
100
AcDbEntity
  8
Innenkanten
100
AcDbLine
 10
38.10195754894909
 20
158.4517953843262
 30
0.0
 11
63.10195754894909
 21
158.4517953843262
 31
0.0
  0
LINE
  5
2DD1
330
1F
100
AcDbEntity
  8
Innenkanten
100
AcDbLine
 10
64.60195754894908
 20
159.3142253843261
 30
0.0
 11
63.10195754894909
 21
158.4517953843262
 31
0.0
  0
LINE
  5
2DD2
330
1F
100
AcDbEntity
  8
Innenkanten
100
AcDbLine
 10
38.10195754894909
 20
165.2957353843262
 30
0.0
 11
19.9019775489491
 21
165.2957353843262
 31
0.0
  0
LINE
  5
2DD3
330
1F
100
AcDbEntity
  8
Mittellinie
100
AcDbLine
 10
29.60985754894909
 20
157.6241353843262
 30
0.0
 11
36.43114754894907
 21
157.6241353843262
 31
0.0
  0
LINE
  5
2DD4
330
1F
100
AcDbEntity
  8
Innenkanten
100
AcDbLine
 10
38.10195754894909
 20
158.1399653843262
 30
0.0
 11
32.10195754894908
 21
158.1399653843262
 31
0.0
  0
LINE
  5
2DD5
330
1F
100
AcDbEntity
  8
0
100
AcDbLine
 10
34.10195754894909
 20
156.1241353843262
 30
0.0
 11
34.10195754894909
 21
158.1399653843262
 31
0.0
  0
LINE
  5
2DD6
330
1F
100
AcDbEntity
  8
0
100
AcDbLine
 10
33.10195754894909
 20
155.1241353843262
 30
0.0
 11
32.10195754894908
 21
155.1241353843262
 31
0.0
  0
ARC
  5
2DD7
330
1F
100
AcDbEntity
  8
0
100
AcDbCircle
 10
33.10195754894909
 20
156.1241353843262
 30
0.0
 40
1.0
100
AcDbArc
 50
269.9999700000002
 51
0.0000200000020199
  0
LINE
  5
2DD8
330
1F
100
AcDbEntity
  8
0
100
AcDbLine
 10
38.10198754894912
 20
232.8339953843262
 30
0.0
 11
62.45784754894907
 21
231.9834753843263
 31
0.0
  0
ARC
  5
2DD9
330
1F
100
AcDbEntity
  8
0
100
AcDbCircle
 10
34.55379754894909
 20
222.7922553843262
 30
0.0
 40
30.04815499999999
100
AcDbArc
 50
0.013200000002456
 51
16.38011000000067
  0
ARC
  5
2DDA
330
1F
100
AcDbEntity
  8
0
100
AcDbCircle
 10
62.42293754894911
 20
230.9840853843262
 30
0.0
 40
1.0
100
AcDbArc
 50
16.38034999999988
 51
87.99925799999975
  0
LINE
  5
2DDB
330
1F
100
AcDbEntity
  8
0
100
AcDbLine
 10
21.10195754894908
 20
244.8311653843262
 30
0.0
 11
21.10195754894908
 21
256.8311653843262
 31
0.0
  0
LINE
  5
2DDC
330
1F
100
AcDbEntity
  8
Innenkanten
100
AcDbLine
 10
19.9019775489491
 20
220.3028753843261
 30
0.0
 11
38.10195754894909
 21
220.3028753843261
 31
0.0
  0
LINE
  5
2DDD
330
1F
100
AcDbEntity
  8
0
100
AcDbLine
 10
19.9019775489491
 20
235.2991953843262
 30
0.0
 11
38.10195754894909
 21
235.2991753843261
 31
0.0
  0
LINE
  5
2DDE
330
1F
100
AcDbEntity
  8
Innenkanten
100
AcDbLine
 10
32.10195754894908
 20
228.1435353843262
 30
0.0
 11
38.10195754894909
 21
228.1435353843262
 31
0.0
  0
LINE
  5
2DDF
330
1F
100
AcDbEntity
  8
Innenkanten
100
AcDbLine
 10
32.10195754894908
 20
221.7795853843262
 30
0.0
 11
38.10195754894909
 21
221.7795853843262
 31
0.0
  0
LINE
  5
2DE0
330
1F
100
AcDbEntity
  8
Mittellinie
100
AcDbLine
 10
36.43114754894907
 20
222.4116653843263
 30
0.0
 11
29.60985754894909
 21
222.4116653843263
 31
0.0
  0
LINE
  5
2DE1
330
1F
100
AcDbEntity
  8
0
100
AcDbLine
 10
34.10195754894909
 20
221.7795853843262
 30
0.0
 11
34.10195754894909
 21
223.9116653843262
 31
0.0
  0
LINE
  5
2DE2
330
1F
100
AcDbEntity
  8
0
100
AcDbLine
 10
33.10195754894909
 20
224.9116653843262
 30
0.0
 11
32.10195754894908
 21
224.9116653843262
 31
0.0
  0
ARC
  5
2DE3
330
1F
100
AcDbEntity
  8
0
100
AcDbCircle
 10
33.10195754894909
 20
223.9116653843262
 30
0.0
 40
1.0
100
AcDbArc
 50
0.0000400000007758
 51
90.00001799999919
  0
LINE
  5
2DE4
330
1F
100
AcDbEntity
  8
0
100
AcDbLine
 10
21.10195754894908
 20
220.2621353843262
 30
0.0
 11
21.10195754894908
 21
232.2621353843262
 31
0.0
  0
ARC
  5
2DE5
330
1F
100
AcDbEntity
  8
0
100
AcDbCircle
 10
22.8019675489491
 20
229.1621553843262
 30
0.0
 40
1.6
100
AcDbArc
 50
0.0000400000007758
 51
90.00108999999904
  0
LINE
  5
2DE6
330
1F
100
AcDbEntity
  8
Mittellinie
100
AcDbLine
 10
23.82228754894913
 20
226.2617353843262
 30
0.0
 11
17.71120754894906
 21
226.2617353843262
 31
0.0
  0
LINE
  5
2DE7
330
1F
100
AcDbEntity
  8
0
100
AcDbLine
 10
22.8019675489491
 20
221.7621353843262
 30
0.0
 11
21.10195754894908
 21
221.7621353843262
 31
0.0
  0
LINE
  5
2DE8
330
1F
100
AcDbEntity
  8
0
100
AcDbLine
 10
21.10195754894908
 20
220.2621353843262
 30
0.0
 11
19.9019775489491
 21
220.2621353843262
 31
0.0
  0
LINE
  5
2DE9
330
1F
100
AcDbEntity
  8
0
100
AcDbLine
 10
24.4019775489491
 20
223.3621353843261
 30
0.0
 11
24.4019775489491
 21
229.1621553843262
 31
0.0
  0
ARC
  5
2DEA
330
1F
100
AcDbEntity
  8
0
100
AcDbCircle
 10
22.8019675489491
 20
223.3621353843261
 30
0.0
 40
1.6
100
AcDbArc
 50
269.9999700000002
 51
0.0000200000020199
  0
LINE
  5
2DEB
330
1F
100
AcDbEntity
  8
0
100
AcDbLine
 10
19.9019775489491
 20
244.8311653843262
 30
0.0
 11
21.10195754894908
 21
244.8311653843262
 31
0.0
  0
LINE
  5
2DEC
330
1F
100
AcDbEntity
  8
0
100
AcDbLine
 10
21.10195754894908
 20
232.2621353843262
 30
0.0
 11
19.9019775489491
 21
232.2621353843262
 31
0.0
  0
LINE
  5
2DED
330
1F
100
AcDbEntity
  8
0
100
AcDbLine
 10
22.80193754894912
 20
230.7621653843261
 30
0.0
 11
21.10195754894908
 21
230.7621353843262
 31
0.0
  0
LINE
  5
2DEE
330
1F
100
AcDbEntity
  8
Mittellinie
100
AcDbLine
 10
17.71120754894906
 20
250.8305553843263
 30
0.0
 11
23.58324754894908
 21
250.8305553843263
 31
0.0
  0
LINE
  5
2DEF
330
1F
100
AcDbEntity
  8
0
100
AcDbLine
 10
21.10195754894908
 20
256.8311653843262
 30
0.0
 11
19.90145754894911
 21
256.8311653843262
 31
0.0
  0
LINE
  5
2DF0
330
1F
100
AcDbEntity
  8
0
100
AcDbLine
 10
21.10195754894908
 20
255.3311653843262
 30
0.0
 11
22.8019675489491
 21
255.3311653843262
 31
0.0
  0
ARC
  5
2DF1
330
1F
100
AcDbEntity
  8
0
100
AcDbCircle
 10
18.9019775489491
 20
256.7991753843262
 30
0.0
 40
1.0
100
AcDbArc
 50
0.0000400000007758
 51
90.00001799999919
  0
LINE
  5
2DF2
330
1F
100
AcDbEntity
  8
0
100
AcDbLine
 10
22.80193754894912
 20
246.3311353843262
 30
0.0
 11
21.10195754894908
 21
246.3311653843262
 31
0.0
  0
LINE
  5
2DF3
330
1F
100
AcDbEntity
  8
0
100
AcDbLine
 10
24.4019775489491
 20
253.7311553843262
 30
0.0
 11
24.4019775489491
 21
247.9311353843262
 31
0.0
  0
ARC
  5
2DF4
330
1F
100
AcDbEntity
  8
0
100
AcDbCircle
 10
22.8019675489491
 20
247.9311353843262
 30
0.0
 40
1.6
100
AcDbArc
 50
269.998910000001
 51
0.0000200000020199
  0
ARC
  5
2DF5
330
1F
100
AcDbEntity
  8
0
100
AcDbCircle
 10
22.8019675489491
 20
253.7311553843262
 30
0.0
 40
1.6
100
AcDbArc
 50
0.0000400000007758
 51
90.00001799999919
  0
LINE
  5
2DFC
330
1F
100
AcDbEntity
  8
Innenkanten
100
AcDbLine
 10
-122.3980224510509
 20
220.7991953843262
 30
0.0
 11
-12.40620245105088
 21
220.7991953843262
 31
0.0
  0
LINE
  5
2DFD
330
1F
100
AcDbEntity
  8
Innenkanten
100
AcDbLine
 10
-122.3980224510509
 20
217.7991953843262
 30
0.0
 11
-12.40620245105088
 21
217.7991953843262
 31
0.0
  0
LINE
  5
2DFE
330
1F
100
AcDbEntity
  8
Innenkanten
100
AcDbLine
 10
-122.3980224510509
 20
214.7991953843262
 30
0.0
 11
-12.40620245105088
 21
214.7991953843262
 31
0.0
  0
LINE
  5
2DFF
330
1F
100
AcDbEntity
  8
Innenkanten
100
AcDbLine
 10
-122.3980224510509
 20
211.7991953843262
 30
0.0
 11
-12.40620245105088
 21
211.7991953843262
 31
0.0
  0
LINE
  5
2E00
330
1F
100
AcDbEntity
  8
Innenkanten
100
AcDbLine
 10
-122.3980224510509
 20
173.7991953843262
 30
0.0
 11
-12.40620245105088
 21
173.7991953843262
 31
0.0
  0
LINE
  5
2E01
330
1F
100
AcDbEntity
  8
Innenkanten
100
AcDbLine
 10
-122.3980224510509
 20
170.7991953843262
 30
0.0
 11
-12.40620245105088
 21
170.7991953843262
 31
0.0
  0
LINE
  5
2E02
330
1F
100
AcDbEntity
  8
Innenkanten
100
AcDbLine
 10
-122.3980224510509
 20
167.7991953843262
 30
0.0
 11
-12.40620245105088
 21
167.7991953843262
 31
0.0
  0
LINE
  5
2E03
330
1F
100
AcDbEntity
  8
Innenkanten
100
AcDbLine
 10
-122.3980224510509
 20
164.7991953843262
 30
0.0
 11
-12.40620245105088
 21
164.7991953843262
 31
0.0
  0
LINE
  5
2E07
330
1F
100
AcDbEntity
  8
0
100
AcDbLine
 10
-193.3980524510509
 20
180.7991953843262
 30
0.0
 11
-143.3980224510509
 21
180.7991953843262
 31
0.0
  0
LINE
  5
2E08
330
1F
100
AcDbEntity
  8
0
100
AcDbLine
 10
-143.3980224510509
 20
204.7991953843262
 30
0.0
 11
-193.3980524510509
 21
204.7991953843262
 31
0.0
  0
LINE
  5
2E09
330
1F
100
AcDbEntity
  8
0
100
AcDbLine
 10
-143.3980224510509
 20
177.7991953843262
 30
0.0
 11
-143.3980224510509
 21
207.7991953843262
 31
0.0
  0
LINE
  5
2E0A
330
1F
100
AcDbEntity
  8
0
100
AcDbLine
 10
-141.3980224510509
 20
177.7991953843262
 30
0.0
 11
-143.3980224510509
 21
177.7991953843262
 31
0.0
  0
LINE
  5
2E0B
330
1F
100
AcDbEntity
  8
0
100
AcDbLine
 10
-143.3980224510509
 20
207.7991953843262
 30
0.0
 11
-141.3980224510509
 21
207.7991953843262
 31
0.0
  0
LINE
  5
2E0C
330
1F
100
AcDbEntity
  8
0
100
AcDbLine
 10
-193.3980524510509
 20
204.7991953843262
 30
0.0
 11
-193.3980524510509
 21
180.7991953843262
 31
0.0
  0
LINE
  5
2E0D
330
1F
100
AcDbEntity
  8
Innenkanten
100
AcDbLine
 10
-126.3980224510509
 20
243.6051953843263
 30
0.0
 11
-138.3980224510509
 21
243.6051953843263
 31
0.0
  0
LINE
  5
2E11
330
1F
100
AcDbEntity
  8
0
100
AcDbLine
 10
-138.3980224510509
 20
247.7991953843262
 30
0.0
 11
-141.3980224510509
 21
247.7991953843262
 31
0.0
  0
LINE
  5
2F0F
330
1F
100
AcDbEntity
  8
0
100
AcDbLine
 10
195.6567883780966
 20
-52.2870222114783
 30
0.0
 11
195.6567883780966
 21
-40.27427676010605
 31
0.0
  0
LINE
  5
2F10
330
1F
100
AcDbEntity
  8
0
100
AcDbLine
 10
280.6567702712291
 20
-52.2870222114783
 30
0.0
 11
280.6567702712291
 21
-40.2742767601061
 31
0.0
  0
VIEWPORT
  5
FF1
330
FEA
100
AcDbEntity
 67
     1
  8
0
100
AcDbViewport
 10
227.944573763241
 20
164.4306744288919
 30
0.0
 40
543.9854876532758
 41
348.5621296938007
 68
     1
 69
     1
 12
227.944573763241
 22
164.4306744288919
 13
0.0
 23
0.0
 14
10.0
 24
10.0
 15
10.0
 25
10.0
 16
0.0
 26
0.0
 36
1.0
 17
0.0
 27
0.0
 37
0.0
 42
50.0
 43
0.0
 44
0.0
 45
348.5621296938007
 50
0.0
 51
0.0
 72
   100
 90
    32800
  1

281
     0
 71
     1
 74
     0
110
0.0
120
0.0
130
0.0
111
1.0
121
0.0
131
0.0
112
0.0
122
1.0
132
0.0
 79
     0
146
0.0
  0
VIEWPORT
  5
FF3
330
FEA
100
AcDbEntity
 67
     1
  8
0
100
AcDbViewport
 10
144.7270812988279
 20
101.5933663914631
 30
0.0
 40
296.2546461044554
 41
209.0554971327303
 68
     2
 69
     2
 12
203.1282534378307
 22
126.0400189425975
 13
0.0
 23
0.0
 14
10.0
 24
10.0
 15
10.0
 25
10.0
 16
0.0
 26
0.0
 36
1.0
 17
0.0
 27
0.0
 37
0.0
 42
50.0
 43
0.0
 44
0.0
 45
382.825506506762
 50
0.0
 51
0.0
 72
   100
 90
    32864
  1

281
     0
 71
     1
 74
     0
110
-53.08748352590964
120
3.820899076262548
130
0.0
111
1.0
121
0.0
131
0.0
112
0.0
122
1.0
132
0.0
 79
     0
146
0.0
  0
ENDSEC
  0
SECTION
  2
OBJECTS
  0
DICTIONARY
  5
C
330
0
100
AcDbDictionary
281
     1
  3
ACAD_GROUP
350
D
  3
ACAD_LAYOUT
350
1A
  3
ACAD_MLINESTYLE
350
17
  3
ACAD_PLOTSETTINGS
350
19
  3
ACAD_PLOTSTYLENAME
350
E
  3
AcadDim
350
118B
  3
AcDbVariableDictionary
350
50
  3
DWGPROPS
350
A6A
  0
DICTIONARY
  5
260F
330
2602
100
AcDbDictionary
280
     1
281
     1
  3
ACAD_DIMASSOC
360
2619
  0
DICTIONARY
  5
2632
330
2623
100
AcDbDictionary
280
     1
281
     1
  3
ACAD_DIMASSOC
360
263E
  0
DICTIONARY
  5
2657
330
264A
100
AcDbDictionary
280
     1
281
     1
  3
ACAD_DIMASSOC
360
2661
  0
DICTIONARY
  5
2678
330
266B
100
AcDbDictionary
280
     1
281
     1
  3
ACAD_DIMASSOC
360
2682
  0
DICTIONARY
  5
2699
330
268C
100
AcDbDictionary
280
     1
281
     1
  3
ACAD_DIMASSOC
360
26A3
  0
DICTIONARY
  5
26BA
330
26AD
100
AcDbDictionary
280
     1
281
     1
  3
ACAD_DIMASSOC
360
26C4
  0
DICTIONARY
  5
26DB
330
26CE
100
AcDbDictionary
280
     1
281
     1
  3
ACAD_DIMASSOC
360
26E5
  0
DICTIONARY
  5
26FC
330
26EF
100
AcDbDictionary
280
     1
281
     1
  3
ACAD_DIMASSOC
360
2706
  0
DICTIONARY
  5
2740
330
2733
100
AcDbDictionary
280
     1
281
     1
  3
ACAD_DIMASSOC
360
274A
  0
DICTIONARY
  5
2761
330
2754
100
AcDbDictionary
280
     1
281
     1
  3
ACAD_DIMASSOC
360
276B
  0
DICTIONARY
  5
2782
330
2775
100
AcDbDictionary
280
     1
281
     1
  3
ACAD_DIMASSOC
360
278C
  0
DICTIONARY
  5
279F
330
2796
100
AcDbDictionary
280
     1
281
     1
  3
ACAD_DIMASSOC
360
27A5
  0
DICTIONARY
  5
27D2
330
27C9
100
AcDbDictionary
280
     1
281
     1
  3
ACAD_DIMASSOC
360
27D8
  0
DICTIONARY
  5
27F0
330
27E3
100
AcDbDictionary
280
     1
281
     1
  3
ACAD_DIMASSOC
360
27FA
  0
DICTIONARY
  5
2829
330
281C
100
AcDbDictionary
280
     1
281
     1
  3
ACAD_DIMASSOC
360
2833
  0
DICTIONARY
  5
D
102
{ACAD_REACTORS
330
C
102
}
330
C
100
AcDbDictionary
281
     1
  3
*A1
350
2A6
  3
*A10
350
A72
  3
*A11
350
10FD
  3
*A12
350
8F6
  3
*A13
350
413
  3
*A14
350
2093
  3
*A15
350
869
  3
*A16
350
23F7
  3
*A17
350
24C5
  3
*A18
350
25FE
  3
*A19
350
8E4
  3
*A2
350
1C68
  3
*A20
350
885
  3
*A21
350
886
  3
*A22
350
8D4
  3
*A23
350
905
  3
*A24
350
8E3
  3
*A25
350
8ED
  3
*A26
350
2973
  3
*A27
350
93F
  3
*A28
350
90F
  3
*A29
350
91E
  3
*A3
350
1E89
  3
*A30
350
92D
  3
*A31
350
936
  3
*A32
350
1578
  3
*A4
350
85A
  3
*A5
350
1F44
  3
*A6
350
94E
  3
*A7
350
3BE
  3
*A8
350
331
  3
*A9
350
369
  0
DICTIONARY
  5
1A
102
{ACAD_REACTORS
330
C
102
}
330
C
100
AcDbDictionary
281
     1
  3
Layout1
350
FEB
  3
Model
350
22
  0
DICTIONARY
  5
17
102
{ACAD_REACTORS
330
C
102
}
330
C
100
AcDbDictionary
281
     1
  3
Standard
350
18
  0
DICTIONARY
  5
19
102
{ACAD_REACTORS
330
C
102
}
330
C
100
AcDbDictionary
281
     1
  0
ACDBDICTIONARYWDFLT
  5
E
102
{ACAD_REACTORS
330
C
102
}
330
C
100
AcDbDictionary
281
     1
  3
Normal
350
F
100
AcDbDictionaryWithDefault
340
F
  0
XRECORD
  5
118B
102
{ACAD_REACTORS
330
C
102
}
330
C
100
AcDbXrecord
280
     1
 90
   990106
  3

 60
     0
 61
     0
 62
     1
 63
     3
 64
     0
 65
     0
 66
     0
 67
     3
 68
     1
 69
     0
 70
     0
 71
     0
 72
     0
 40
2.0
170
     0
340
0
  0
DICTIONARY
  5
50
102
{ACAD_REACTORS
330
C
102
}
330
C
100
AcDbDictionary
281
     1
  3
DIMASSOC
350
52
  3
HIDETEXT
350
51
  0
XRECORD
  5
A6A
102
{ACAD_REACTORS
330
C
102
}
330
C
100
AcDbXrecord
280
     1
  1
DWGPROPS COOKIE
  2

  3

  4

  6

  7

  8

  9

300
=
301
=
302
=
303
=
304
=
305
=
306
=
307
=
308
=
309
=
 40
0.587026388888889
 41
2452181.498615972
 42
2452184.61255463
  1

 90
        0
  0
DIMASSOC
  5
2619
102
{ACAD_REACTORS
330
260F
102
}
330
260F
100
AcDbDimAssoc
330
2602
 90
        3
 70
     0
 71
     0
  1
AcDbOsnapPointRef
 72
     1
331
2395
 73
     2
 91
        0
 40
1.0
 10
570.9775978189485
 20
257.7344138730005
 30
0.0
 75
     0
  1
AcDbOsnapPointRef
 72
     1
331
2399
 73
     2
 91
        0
 40
1.0
 10
582.9775978189485
 20
257.7344138730005
 30
0.0
 75
     0
  0
DIMASSOC
  5
263E
102
{ACAD_REACTORS
330
2632
102
}
330
2632
100
AcDbDimAssoc
330
2623
 90
        3
 70
     0
 71
     0
  1
AcDbOsnapPointRef
 72
     1
331
2398
 73
     2
 91
        0
 40
1.0
 10
585.9775978189485
 20
247.7344138730005
 30
0.0
 75
     0
  1
AcDbOsnapPointRef
 72
     1
331
2399
 73
     2
 91
        0
 40
1.0
 10
582.9775978189485
 20
257.7344138730005
 30
0.0
 75
     0
  0
DIMASSOC
  5
2661
102
{ACAD_REACTORS
330
2657
102
}
330
2657
100
AcDbDimAssoc
330
264A
 90
        3
 70
     0
 71
     0
  1
AcDbOsnapPointRef
 72
     1
331
2399
 73
     2
 91
        0
 40
1.0
 10
582.9775978189485
 20
257.7344138730005
 30
0.0
 75
     0
  1
AcDbOsnapPointRef
 72
    13
331
23F3
 73
     2
 91
        0
 40
0.0
 10
637.9776278189486
 20
204.7344138730005
 30
0.0
 75
     0
  0
DIMASSOC
  5
2682
102
{ACAD_REACTORS
330
2678
102
}
330
2678
100
AcDbDimAssoc
330
266B
 90
        1
 70
     0
 71
     0
  1
AcDbOsnapPointRef
 72
     1
331
23CC
 73
     2
 91
        0
 40
1.0
 10
587.9775978189485
 20
207.7344138730005
 30
0.0
 75
     0
  0
DIMASSOC
  5
26A3
102
{ACAD_REACTORS
330
2699
102
}
330
2699
100
AcDbDimAssoc
330
268C
 90
        1
 70
     0
 71
     0
  1
AcDbOsnapPointRef
 72
     1
331
2399
 73
     2
 91
        0
 40
1.0
 10
582.9775978189485
 20
257.7344138730005
 30
0.0
 75
     0
  0
DIMASSOC
  5
26C4
102
{ACAD_REACTORS
330
26BA
102
}
330
26BA
100
AcDbDimAssoc
330
26AD
 90
        2
 70
     0
 71
     0
  1
AcDbOsnapPointRef
 72
     1
331
23F3
 73
     2
 91
        0
 40
1.0
 10
637.9776278189486
 20
180.7344138730005
 30
0.0
 75
     0
  0
DIMASSOC
  5
26E5
102
{ACAD_REACTORS
330
26DB
102
}
330
26DB
100
AcDbDimAssoc
330
26CE
 90
        3
 70
     0
 71
     0
  1
AcDbOsnapPointRef
 72
     1
331
2398
 73
     2
 91
        0
 40
1.0
 10
585.9775978189485
 20
247.7344138730005
 30
0.0
 75
     0
  1
AcDbOsnapPointRef
 72
    13
331
2398
 73
     2
 91
        0
 40
0.0
 10
585.9775978189485
 20
137.7344138730005
 30
0.0
 75
     0
  0
DIMASSOC
  5
2706
102
{ACAD_REACTORS
330
26FC
102
}
330
26FC
100
AcDbDimAssoc
330
26EF
 90
        3
 70
     0
 71
     0
  1
AcDbOsnapPointRef
 72
    13
331
2399
 73
     2
 91
        0
 40
0.0
 10
582.9775978189485
 20
127.7344138730005
 30
0.0
 75
     0
  1
AcDbOsnapPointRef
 72
    13
331
23A0
 73
     2
 91
        0
 40
0.0
 10
481.4775978189485
 20
74.79420387300058
 30
0.0
 75
     0
  0
DIMASSOC
  5
274A
102
{ACAD_REACTORS
330
2740
102
}
330
2740
100
AcDbDimAssoc
330
2733
 90
        3
 70
     0
 71
     0
  1
AcDbOsnapPointRef
 72
     1
331
22B3
 73
     2
 91
        0
 40
2.478141866759682
 10
173.1655933831132
 20
243.549367031282
 30
0.0
 75
     0
  1
AcDbOsnapPointRef
 72
     1
331
2318
 73
     2
 91
        0
 40
1.0
 10
303.165244780983
 20
243.5483347713668
 30
0.0
 75
     0
  0
DIMASSOC
  5
276B
102
{ACAD_REACTORS
330
2761
102
}
330
2761
100
AcDbDimAssoc
330
2754
 90
        3
 70
     0
 71
     0
  1
AcDbOsnapPointRef
 72
     1
331
231D
 73
     2
 91
        0
 40
1.0
 10
187.3593447809829
 20
257.7428847713668
 30
0.0
 75
     0
  1
AcDbOsnapPointRef
 72
     1
331
22B4
 73
     2
 91
        0
 40
4.048936448225292
 10
187.3581590757688
 20
127.7433120480738
 30
0.0
 75
     0
  0
DIMASSOC
  5
278C
102
{ACAD_REACTORS
330
2782
102
}
330
2782
100
AcDbDimAssoc
330
2775
 90
       15
 70
     0
 71
     0
  1
AcDbOsnapPointRef
 72
    13
331
229A
 73
     2
 91
        0
 40
0.0
 10
238.1650047809829
 20
71.0815447713669
 30
0.0
 75
     0
  1
AcDbOsnapPointRef
 72
     1
331
229A
 73
     2
 91
        0
 40
1.0
 10
238.1650047809829
 20
273.3770947713668
 30
0.0
 75
     0
  1
AcDbOsnapPointRef
 72
    13
331
22EE
 73
     2
 91
        0
 40
0.0
 10
181.4040147809829
 20
249.5036847713669
 30
0.0
 75
     0
  1
AcDbOsnapPointRef
 72
     1
331
22EE
 73
     2
 91
        0
 40
1.0
 10
193.2175547809829
 20
237.6901147713669
 30
0.0
 75
     0
  0
DIMASSOC
  5
27A5
102
{ACAD_REACTORS
330
279F
102
}
330
279F
100
AcDbDimAssoc
330
2796
 90
        2
 70
     0
 71
     0
  1
AcDbOsnapPointRef
 72
     3
331
22EA
 73
     2
 91
        0
 40
0.0
 10
0.0
 20
0.0
 30
0.0
 75
     0
  0
DIMASSOC
  5
27D8
102
{ACAD_REACTORS
330
27D2
102
}
330
27D2
100
AcDbDimAssoc
330
27C9
 90
        2
 70
     0
 71
     0
  1
AcDbOsnapPointRef
 72
     3
331
22E9
 73
     2
 91
        0
 40
0.0
 10
238.1650047809829
 20
192.7426347713668
 30
0.0
 75
     0
  0
DIMASSOC
  5
27FA
102
{ACAD_REACTORS
330
27F0
102
}
330
27F0
100
AcDbDimAssoc
330
27E3
 90
        3
 70
     0
 71
     0
  1
AcDbOsnapPointRef
 72
     1
331
22B5
 73
     2
 91
        0
 40
1.0
 10
315.3724047809829
 20
192.7426347713668
 30
0.0
 75
     0
  1
AcDbOsnapPointRef
 72
    13
331
22B2
 73
     2
 91
        0
 40
0.0
 10
254.5649647809828
 20
81.74266477136677
 30
0.0
 75
     0
  0
DIMASSOC
  5
2833
102
{ACAD_REACTORS
330
2829
102
}
330
2829
100
AcDbDimAssoc
330
281C
 90
        3
 70
     0
 71
     0
  1
AcDbOsnapPointRef
 72
    13
331
2299
 73
     2
 91
        0
 40
0.0
 10
258.6650047809829
 20
100.7426547713669
 30
0.0
 75
     0
  1
AcDbOsnapPointRef
 72
     8
331
2298
 73
     2
 91
        0
 40
1.0
 10
217.6650047809829
 20
100.7426547713669
 30
0.0
 75
     1
  1
AcDbOsnapPointRef
 72
    13
331
2299
 73
     2
 91
        0
 40
0.0
 10
258.6650047809829
 20
100.7426547713669
 30
0.0
 75
     0
  0
GROUP
  5
2A6
102
{ACAD_REACTORS
330
D
102
}
330
D
100
AcDbGroup
300

 70
     1
 71
     1
  0
GROUP
  5
A72
102
{ACAD_REACTORS
330
D
102
}
330
D
100
AcDbGroup
300

 70
     1
 71
     1
  0
GROUP
  5
10FD
102
{ACAD_REACTORS
330
D
102
}
330
D
100
AcDbGroup
300

 70
     1
 71
     1
  0
GROUP
  5
8F6
102
{ACAD_REACTORS
330
D
102
}
330
D
100
AcDbGroup
300

 70
     1
 71
     1
  0
GROUP
  5
413
102
{ACAD_REACTORS
330
D
102
}
330
D
100
AcDbGroup
300

 70
     1
 71
     1
  0
GROUP
  5
2093
102
{ACAD_REACTORS
330
D
102
}
330
D
100
AcDbGroup
300

 70
     1
 71
     1
  0
GROUP
  5
869
102
{ACAD_REACTORS
330
D
102
}
330
D
100
AcDbGroup
300

 70
     1
 71
     1
  0
GROUP
  5
23F7
102
{ACAD_REACTORS
330
D
102
}
330
D
100
AcDbGroup
300

 70
     1
 71
     1
  0
GROUP
  5
24C5
102
{ACAD_REACTORS
330
D
102
}
330
D
100
AcDbGroup
300

 70
     1
 71
     1
  0
GROUP
  5
25FE
102
{ACAD_REACTORS
330
D
102
}
330
D
100
AcDbGroup
300

 70
     1
 71
     1
  0
GROUP
  5
8E4
102
{ACAD_REACTORS
330
D
102
}
330
D
100
AcDbGroup
300

 70
     1
 71
     1
  0
GROUP
  5
1C68
102
{ACAD_REACTORS
330
D
102
}
330
D
100
AcDbGroup
300

 70
     1
 71
     1
  0
GROUP
  5
885
102
{ACAD_REACTORS
330
D
102
}
330
D
100
AcDbGroup
300

 70
     1
 71
     1
  0
GROUP
  5
886
102
{ACAD_REACTORS
330
D
102
}
330
D
100
AcDbGroup
300

 70
     1
 71
     1
  0
GROUP
  5
8D4
102
{ACAD_REACTORS
330
D
102
}
330
D
100
AcDbGroup
300

 70
     1
 71
     1
  0
GROUP
  5
905
102
{ACAD_REACTORS
330
D
102
}
330
D
100
AcDbGroup
300

 70
     1
 71
     1
  0
GROUP
  5
8E3
102
{ACAD_REACTORS
330
D
102
}
330
D
100
AcDbGroup
300

 70
     1
 71
     1
  0
GROUP
  5
8ED
102
{ACAD_REACTORS
330
D
102
}
330
D
100
AcDbGroup
300

 70
     1
 71
     1
  0
GROUP
  5
2973
102
{ACAD_REACTORS
330
D
102
}
330
D
100
AcDbGroup
300

 70
     1
 71
     1
  0
GROUP
  5
93F
102
{ACAD_REACTORS
330
D
102
}
330
D
100
AcDbGroup
300

 70
     1
 71
     1
  0
GROUP
  5
90F
102
{ACAD_REACTORS
330
D
102
}
330
D
100
AcDbGroup
300

 70
     1
 71
     1
  0
GROUP
  5
91E
102
{ACAD_REACTORS
330
D
102
}
330
D
100
AcDbGroup
300

 70
     1
 71
     1
  0
GROUP
  5
1E89
102
{ACAD_REACTORS
330
D
102
}
330
D
100
AcDbGroup
300

 70
     1
 71
     1
  0
GROUP
  5
92D
102
{ACAD_REACTORS
330
D
102
}
330
D
100
AcDbGroup
300

 70
     1
 71
     1
  0
GROUP
  5
936
102
{ACAD_REACTORS
330
D
102
}
330
D
100
AcDbGroup
300

 70
     1
 71
     1
  0
GROUP
  5
1578
102
{ACAD_REACTORS
330
D
102
}
330
D
100
AcDbGroup
300

 70
     1
 71
     1
  0
GROUP
  5
85A
102
{ACAD_REACTORS
330
D
102
}
330
D
100
AcDbGroup
300

 70
     1
 71
     1
  0
GROUP
  5
1F44
102
{ACAD_REACTORS
330
D
102
}
330
D
100
AcDbGroup
300

 70
     1
 71
     1
  0
GROUP
  5
94E
102
{ACAD_REACTORS
330
D
102
}
330
D
100
AcDbGroup
300

 70
     1
 71
     1
  0
GROUP
  5
3BE
102
{ACAD_REACTORS
330
D
102
}
330
D
100
AcDbGroup
300

 70
     1
 71
     1
  0
GROUP
  5
331
102
{ACAD_REACTORS
330
D
102
}
330
D
100
AcDbGroup
300

 70
     1
 71
     1
  0
GROUP
  5
369
102
{ACAD_REACTORS
330
D
102
}
330
D
100
AcDbGroup
300

 70
     1
 71
     1
  0
LAYOUT
  5
FEB
102
{ACAD_REACTORS
330
1A
102
}
330
1A
100
AcDbPlotSettings
  1

  2
EPSON Stylus COLOR 1520
  4
A4
  6

 40
3.757083177566528
 41
14.7637300491333
 42
3.757080078125
 43
3.757080078125
 44
209.9733276367187
 45
296.9683227539062
 46
0.0
 47
0.0
 48
0.0
 49
0.0
140
0.0
141
0.0
142
1.0
143
1.0
 70
   688
 72
     1
 73
     1
 74
     5
  7

 75
    16
147
1.0
148
0.0
149
0.0
100
AcDbLayout
  1
Layout1
 70
     1
 71
     1
 10
-3.757080078125
 20
-3.757083177566528
 11
293.2112426757812
 21
206.2162444591522
 12
0.0
 22
0.0
 32
0.0
 14
-3.400241753399768
 24
-2.934382174902054
 34
0.0
 15
292.8544043510557
 25
206.1211149578283
 35
0.0
146
0.0
 13
0.0
 23
0.0
 33
0.0
 16
1.0
 26
0.0
 36
0.0
 17
0.0
 27
1.0
 37
0.0
 76
     0
330
FEA
331
FF1
  0
LAYOUT
  5
22
102
{ACAD_REACTORS
330
1A
102
}
330
1A
100
AcDbPlotSettings
  1

  2
EPSON Stylus COLOR 1520
  4
A4
  6

 40
3.757083177566528
 41
14.7637300491333
 42
3.757080078125
 43
3.757080078125
 44
209.9733276367187
 45
296.9683227539062
 46
0.0
 47
0.0
 48
0.0
 49
0.0
140
0.0
141
0.0
142
1.0
143
1.0
 70
 11952
 72
     1
 73
     1
 74
     0
  7

 75
     0
147
1.0
148
-89.73529411764705
149
0.0
100
AcDbLayout
  1
Model
 70
     1
 71
     0
 10
0.0
 20
0.0
 11
12.0
 21
9.0
 12
0.0
 22
0.0
 32
0.0
 14
0.0
 24
0.0
 34
0.0
 15
0.0
 25
0.0
 35
0.0
146
0.0
 13
0.0
 23
0.0
 33
0.0
 16
1.0
 26
0.0
 36
0.0
 17
0.0
 27
1.0
 37
0.0
 76
     0
330
1F
  0
MLINESTYLE
  5
18
102
{ACAD_REACTORS
330
17
102
}
330
17
100
AcDbMlineStyle
  2
STANDARD
 70
     0
  3

 62
   256
 51
90.0
 52
90.0
 71
     2
 49
0.5
 62
   256
  6
BYLAYER
 49
-0.5
 62
   256
  6
BYLAYER
  0
ACDBPLACEHOLDER
  5
F
102
{ACAD_REACTORS
330
E
102
}
330
E
  0
DICTIONARYVAR
  5
52
102
{ACAD_REACTORS
330
50
102
}
330
50
100
DictionaryVariables
280
     0
  1
2
  0
DICTIONARYVAR
  5
51
102
{ACAD_REACTORS
330
50
102
}
330
50
100
DictionaryVariables
280
     0
  1
1
  0
ENDSEC
  0
EOF
