  0
SECTION
  2
HEADER
  9
$ACADVER
  1
AC1015
  9
$ACADMAINTVER
 70
    13
  9
$DWGCODEPAGE
  3
ANSI_1252
  9
$INSBASE
 10
0.0
 20
0.0
 30
0.0
  9
$EXTMIN
 10
-65.20132893282767
 20
7.173710506752172
 30
-0.0000000000000058
  9
$EXTMAX
 10
365.1257410280464
 20
219.8314825352647
 30
0.0000000000000104
  9
$LIMMIN
 10
0.0
 20
0.0
  9
$LIMMAX
 10
420.0
 20
297.0
  9
$ORTHOMODE
 70
     1
  9
$REGENMODE
 70
     1
  9
$FILLMODE
 70
     1
  9
$QTEXTMODE
 70
     0
  9
$MIRRTEXT
 70
     1
  9
$LTSCALE
 40
1.0
  9
$ATTMODE
 70
     1
  9
$TEXTSIZE
 40
2.5
  9
$TRACEWID
 40
1.0
  9
$TEXTSTYLE
  7
Standard
  9
$CLAYER
  8
0
  9
$CELTYPE
  6
ByLayer
  9
$CECOLOR
 62
   256
  9
$CELTSCALE
 40
1.0
  9
$DISPSILH
 70
     0
  9
$DIMSCALE
 40
1.0
  9
$DIMASZ
 40
2.5
  9
$DIMEXO
 40
0.625
  9
$DIMDLI
 40
3.75
  9
$DIMRND
 40
0.0
  9
$DIMDLE
 40
0.0
  9
$DIMEXE
 40
1.25
  9
$DIMTP
 40
0.0
  9
$DIMTM
 40
0.0
  9
$DIMTXT
 40
2.5
  9
$DIMCEN
 40
2.5
  9
$DIMTSZ
 40
0.0
  9
$DIMTOL
 70
     0
  9
$DIMLIM
 70
     0
  9
$DIMTIH
 70
     0
  9
$DIMTOH
 70
     0
  9
$DIMSE1
 70
     0
  9
$DIMSE2
 70
     0
  9
$DIMTAD
 70
     1
  9
$DIMZIN
 70
     8
  9
$DIMBLK
  1

  9
$DIMASO
 70
     1
  9
$DIMSHO
 70
     1
  9
$DIMPOST
  1

  9
$DIMAPOST
  1

  9
$DIMALT
 70
     0
  9
$DIMALTD
 70
     3
  9
$DIMALTF
 40
0.03937007874016
  9
$DIMLFAC
 40
1.0
  9
$DIMTOFL
 70
     1
  9
$DIMTVP
 40
0.0
  9
$DIMTIX
 70
     0
  9
$DIMSOXD
 70
     0
  9
$DIMSAH
 70
     0
  9
$DIMBLK1
  1

  9
$DIMBLK2
  1

  9
$DIMSTYLE
  2
ISO-25
  9
$DIMCLRD
 70
     0
  9
$DIMCLRE
 70
     0
  9
$DIMCLRT
 70
     0
  9
$DIMTFAC
 40
1.0
  9
$DIMGAP
 40
0.625
  9
$DIMJUST
 70
     0
  9
$DIMSD1
 70
     0
  9
$DIMSD2
 70
     0
  9
$DIMTOLJ
 70
     0
  9
$DIMTZIN
 70
     8
  9
$DIMALTZ
 70
     0
  9
$DIMALTTZ
 70
     0
  9
$DIMUPT
 70
     0
  9
$DIMDEC
 70
     2
  9
$DIMTDEC
 70
     2
  9
$DIMALTU
 70
     2
  9
$DIMALTTD
 70
     3
  9
$DIMTXSTY
  7
Standard
  9
$DIMAUNIT
 70
     0
  9
$DIMADEC
 70
     0
  9
$DIMALTRND
 40
0.0
  9
$DIMAZIN
 70
     0
  9
$DIMDSEP
 70
    44
  9
$DIMATFIT
 70
     3
  9
$DIMFRAC
 70
     0
  9
$DIMLDRBLK
  1

  9
$DIMLUNIT
 70
     2
  9
$DIMLWD
 70
    -2
  9
$DIMLWE
 70
    -2
  9
$DIMTMOVE
 70
     0
  9
$LUNITS
 70
     2
  9
$LUPREC
 70
     4
  9
$SKETCHINC
 40
1.0
  9
$FILLETRAD
 40
3.0
  9
$AUNITS
 70
     0
  9
$AUPREC
 70
     0
  9
$MENU
  1
.
  9
$ELEVATION
 40
0.0
  9
$PELEVATION
 40
0.0
  9
$THICKNESS
 40
0.0
  9
$LIMCHECK
 70
     0
  9
$CHAMFERA
 40
10.0
  9
$CHAMFERB
 40
10.0
  9
$CHAMFERC
 40
20.0
  9
$CHAMFERD
 40
0.0
  9
$SKPOLY
 70
     0
  9
$TDCREATE
 40
2452181.456949305
  9
$TDUCREATE
 40
2452181.415282638
  9
$TDUPDATE
 40
2452321.489893981
  9
$TDUUPDATE
 40
2452321.448227315
  9
$TDINDWG
 40
0.6632108796
  9
$TDUSRTIMER
 40
0.6632013889
  9
$USRTIMER
 70
     1
  9
$ANGBASE
 50
0.0
  9
$ANGDIR
 70
     0
  9
$PDMODE
 70
     0
  9
$PDSIZE
 40
0.0
  9
$PLINEWID
 40
0.0
  9
$SPLFRAME
 70
     0
  9
$SPLINETYPE
 70
     6
  9
$SPLINESEGS
 70
     8
  9
$HANDSEED
  5
1355
  9
$SURFTAB1
 70
     6
  9
$SURFTAB2
 70
     6
  9
$SURFTYPE
 70
     6
  9
$SURFU
 70
     6
  9
$SURFV
 70
     6
  9
$UCSBASE
  2

  9
$UCSNAME
  2

  9
$UCSORG
 10
-53.08748352590964
 20
3.820899076262548
 30
0.0
  9
$UCSXDIR
 10
1.0
 20
0.0
 30
0.0
  9
$UCSYDIR
 10
0.0
 20
1.0
 30
0.0
  9
$UCSORTHOREF
  2

  9
$UCSORTHOVIEW
 70
     0
  9
$UCSORGTOP
 10
0.0
 20
0.0
 30
0.0
  9
$UCSORGBOTTOM
 10
0.0
 20
0.0
 30
0.0
  9
$UCSORGLEFT
 10
0.0
 20
0.0
 30
0.0
  9
$UCSORGRIGHT
 10
0.0
 20
0.0
 30
0.0
  9
$UCSORGFRONT
 10
0.0
 20
0.0
 30
0.0
  9
$UCSORGBACK
 10
0.0
 20
0.0
 30
0.0
  9
$PUCSBASE
  2

  9
$PUCSNAME
  2

  9
$PUCSORG
 10
0.0
 20
0.0
 30
0.0
  9
$PUCSXDIR
 10
1.0
 20
0.0
 30
0.0
  9
$PUCSYDIR
 10
0.0
 20
1.0
 30
0.0
  9
$PUCSORTHOREF
  2

  9
$PUCSORTHOVIEW
 70
     0
  9
$PUCSORGTOP
 10
0.0
 20
0.0
 30
0.0
  9
$PUCSORGBOTTOM
 10
0.0
 20
0.0
 30
0.0
  9
$PUCSORGLEFT
 10
0.0
 20
0.0
 30
0.0
  9
$PUCSORGRIGHT
 10
0.0
 20
0.0
 30
0.0
  9
$PUCSORGFRONT
 10
0.0
 20
0.0
 30
0.0
  9
$PUCSORGBACK
 10
0.0
 20
0.0
 30
0.0
  9
$USERI1
 70
     0
  9
$USERI2
 70
     0
  9
$USERI3
 70
     0
  9
$USERI4
 70
     0
  9
$USERI5
 70
     0
  9
$USERR1
 40
0.0
  9
$USERR2
 40
0.0
  9
$USERR3
 40
0.0
  9
$USERR4
 40
0.0
  9
$USERR5
 40
0.0
  9
$WORLDVIEW
 70
     1
  9
$SHADEDGE
 70
     3
  9
$SHADEDIF
 70
    70
  9
$TILEMODE
 70
     1
  9
$MAXACTVP
 70
    64
  9
$PINSBASE
 10
0.0
 20
0.0
 30
0.0
  9
$PLIMCHECK
 70
     0
  9
$PEXTMIN
 10
-3.941331020028087
 20
-3.413356654815061
 30
0.0
  9
$PEXTMAX
 10
293.5792120411931
 20
205.9729648491457
 30
0.0
  9
$PLIMMIN
 10
-3.757080078125
 20
-3.757083177566528
  9
$PLIMMAX
 10
293.2112426757812
 20
206.2162444591522
  9
$UNITMODE
 70
     0
  9
$VISRETAIN
 70
     1
  9
$PLINEGEN
 70
     0
  9
$PSLTSCALE
 70
     1
  9
$TREEDEPTH
 70
  3020
  9
$CMLSTYLE
  2
Standard
  9
$CMLJUST
 70
     0
  9
$CMLSCALE
 40
20.0
  9
$PROXYGRAPHICS
 70
     1
  9
$MEASUREMENT
 70
     1
  9
$CELWEIGHT
370
    -1
  9
$ENDCAPS
280
     0
  9
$JOINSTYLE
280
     0
  9
$LWDISPLAY
290
     0
  9
$INSUNITS
 70
     4
  9
$HYPERLINKBASE
  1

  9
$STYLESHEET
  1

  9
$XEDIT
290
     1
  9
$CEPSNTYPE
380
     0
  9
$PSTYLEMODE
290
     1
  9
$FINGERPRINTGUID
  2
{F84AA5D3-2765-4D6B-8594-ABD9F52FB735}
  9
$VERSIONGUID
  2
{2CDBF8F5-356D-41F2-B9BA-AF40047B45C2}
  9
$EXTNAMES
290
     1
  9
$PSVPSCALE
 40
0.0
  9
$OLESTARTUP
290
     0
  0
ENDSEC
  0
SECTION
  2
CLASSES
  0
CLASS
  1
ACDBDICTIONARYWDFLT
  2
AcDbDictionaryWithDefault
  3
AutoCAD 2000
 90
        0
280
     0
281
     0
  0
CLASS
  1
ACDBPLACEHOLDER
  2
AcDbPlaceHolder
  3
AutoCAD 2000
 90
        0
280
     0
281
     0
  0
CLASS
  1
LAYOUT
  2
AcDbLayout
  3
AutoCAD 2000
 90
        0
280
     0
281
     0
  0
CLASS
  1
DICTIONARYVAR
  2
AcDbDictionaryVar
  3
AutoCAD 2000
 90
        0
280
     0
281
     0
  0
CLASS
  1
DIMASSOC
  2
AcDbDimAssoc
  3
"AcDbDimAssoc|Product Desc:     AcDim ARX App For Dimension|Company:          Autodesk, Inc.|WEB Address:      www.autodesk.com"
 90
        0
280
     0
281
     0
  0
ENDSEC
  0
SECTION
  2
TABLES
  0
TABLE
  2
VPORT
  5
8
330
0
100
AcDbSymbolTable
 70
     6
  0
VPORT
  5
1354
330
8
100
AcDbSymbolTableRecord
100
AcDbViewportTableRecord
  2
*Active
 70
     0
 10
0.0
 20
0.0
 11
1.0
 21
1.0
 12
171.7937600605672
 22
45.12544289645108
 13
0.0
 23
0.0
 14
10.0
 24
10.0
 15
10.0
 25
10.0
 16
0.0
 26
0.0
 36
1.0
 17
0.0
 27
0.0
 37
0.0
 40
116.8530634118783
 41
1.699453551912568
 42
50.0
 43
0.0
 44
0.0
 50
0.0
 51
0.0
 71
     0
 72
   100
 73
     1
 74
     3
 75
     1
 76
     0
 77
     0
 78
     0
281
     0
 65
     1
110
-53.08748352590964
120
3.820899076262548
130
0.0
111
1.0
121
0.0
131
0.0
112
0.0
122
1.0
132
0.0
 79
     0
146
0.0
  0
ENDTAB
  0
TABLE
  2
LTYPE
  5
5
330
0
100
AcDbSymbolTable
 70
     4
  0
LTYPE
  5
14
330
5
100
AcDbSymbolTableRecord
100
AcDbLinetypeTableRecord
  2
ByBlock
 70
     0
  3

 72
    65
 73
     0
 40
0.0
  0
LTYPE
  5
15
330
5
100
AcDbSymbolTableRecord
100
AcDbLinetypeTableRecord
  2
ByLayer
 70
     0
  3

 72
    65
 73
     0
 40
0.0
  0
LTYPE
  5
16
330
5
100
AcDbSymbolTableRecord
100
AcDbLinetypeTableRecord
  2
Continuous
 70
     0
  3
Solid line
 72
    65
 73
     0
 40
0.0
  0
LTYPE
  5
2D
330
5
100
AcDbSymbolTableRecord
100
AcDbLinetypeTableRecord
  2
MITTE
 70
     0
  3
Mitte ____ _ ____ _ ____ _ ____ _ ____ _ ____
 72
    65
 73
     4
 40
50.8
 49
31.75
 74
     0
 49
-6.349999999999999
 74
     0
 49
6.349999999999999
 74
     0
 49
-6.349999999999999
 74
     0
  0
LTYPE
  5
39
330
5
100
AcDbSymbolTableRecord
100
AcDbLinetypeTableRecord
  2
VERDECKT
 70
     0
  3
Verdeckt __ __ __ __ __ __ __ __ __ __ __ __ __
 72
    65
 73
     2
 40
9.524999999999998
 49
6.349999999999999
 74
     0
 49
-3.174999999999999
 74
     0
  0
LTYPE
  5
A72
330
5
100
AcDbSymbolTableRecord
100
AcDbLinetypeTableRecord
  2
DASHDOT
 70
     0
  3
__ . __ . __ . __ . __ . __ . __ . __ . __ . __
 72
    65
 73
     4
 40
1.0
 49
0.5
 74
     0
 49
-0.25
 74
     0
 49
0.0
 74
     0
 49
-0.25
 74
     0
  0
ENDTAB
  0
TABLE
  2
LAYER
  5
2
330
0
100
AcDbSymbolTable
 70
     7
  0
LAYER
  5
10
330
2
100
AcDbSymbolTableRecord
100
AcDbLayerTableRecord
  2
0
 70
     0
 62
     7
  6
Continuous
370
    35
390
F
  0
LAYER
  5
2E
330
2
100
AcDbSymbolTableRecord
100
AcDbLayerTableRecord
  2
Mittellinie
 70
     0
 62
     3
  6
MITTE
370
    18
390
F
  0
LAYER
  5
3A
330
2
100
AcDbSymbolTableRecord
100
AcDbLayerTableRecord
  2
Unsichtbar
 70
     0
 62
     5
  6
Continuous
370
    18
390
F
  0
LAYER
  5
87
330
2
100
AcDbSymbolTableRecord
100
AcDbLayerTableRecord
  2
Innenkanten
 70
     0
 62
     1
  6
Continuous
370
    25
390
F
  0
LAYER
  5
46F
330
2
100
AcDbSymbolTableRecord
100
AcDbLayerTableRecord
  2
Defpoints
 70
     0
 62
     6
  6
Continuous
290
     0
370
    15
390
F
  0
LAYER
  5
9F1
330
2
100
AcDbSymbolTableRecord
100
AcDbLayerTableRecord
  2
Bemaßung
 70
     0
 62
     6
  6
Continuous
370
    15
390
F
  0
LAYER
  5
A73
330
2
100
AcDbSymbolTableRecord
100
AcDbLayerTableRecord
  2
1
 70
     0
 62
     3
  6
Continuous
370
    -3
390
F
  0
ENDTAB
  0
TABLE
  2
STYLE
  5
3
330
0
100
AcDbSymbolTable
 70
     3
  0
STYLE
  5
11
330
3
100
AcDbSymbolTableRecord
100
AcDbTextStyleTableRecord
  2
Standard
 70
     0
 40
0.0
 41
1.0
 50
0.0
 71
     0
 42
2.5
  3
txt
  4

  0
STYLE
  5
2C
330
3
100
AcDbSymbolTableRecord
100
AcDbTextStyleTableRecord
  2

 70
     1
 40
0.0
 41
1.0
 50
0.0
 71
     0
 42
2.5
  3
ltypeshp.shx
  4

  0
STYLE
  5
A74
330
3
100
AcDbSymbolTableRecord
100
AcDbTextStyleTableRecord
  2
STANDARD1
 70
     0
 40
0.0
 41
1.0
 50
0.0
 71
     0
 42
3.200000047683716
  3
MONOTXT
  4
BIGFONT
  0
ENDTAB
  0
TABLE
  2
VIEW
  5
6
330
0
100
AcDbSymbolTable
 70
     1
  0
VIEW
  5
81C
330
6
100
AcDbSymbolTableRecord
100
AcDbViewTableRecord
  2
tom
 70
     0
 40
127.2859585283894
 10
166.2856675397948
 20
206.2562233711272
 41
204.2020725054376
 11
0.0
 21
0.0
 31
1.0
 12
0.0
 22
0.0
 32
0.0
 42
50.0
 43
0.0
 44
0.0
 50
0.0
 71
     0
281
     0
 72
     1
110
-53.08748352590964
120
3.820899076262548
130
0.0
111
1.0
121
0.0
131
0.0
112
0.0
122
1.0
132
0.0
 79
     0
146
0.0
  0
ENDTAB
  0
TABLE
  2
UCS
  5
7
330
0
100
AcDbSymbolTable
 70
     0
  0
ENDTAB
  0
TABLE
  2
APPID
  5
9
330
0
100
AcDbSymbolTable
 70
     1
  0
APPID
  5
12
330
9
100
AcDbSymbolTableRecord
100
AcDbRegAppTableRecord
  2
ACAD
 70
     0
  0
ENDTAB
  0
TABLE
  2
DIMSTYLE
  5
A
330
0
100
AcDbSymbolTable
 70
     2
100
AcDbDimStyleTable
 71
     1
340
27
  0
DIMSTYLE
105
27
102
{ACAD_REACTORS
330
F48
330
F99
330
FC0
330
FE7
330
1008
330
102A
330
1099
330
10C4
330
10E5
330
1109
330
1123
102
}
330
A
100
AcDbSymbolTableRecord
100
AcDbDimStyleTableRecord
  2
ISO-25
 70
     0
 41
2.5
 42
0.625
 43
3.75
 44
1.25
 73
     0
 74
     0
 77
     1
 78
     8
140
2.5
141
2.5
143
0.03937007874016
147
0.625
171
     3
172
     1
271
     2
272
     2
274
     3
278
    44
283
     0
284
     8
340
11
  0
DIMSTYLE
105
A75
330
A
100
AcDbSymbolTableRecord
100
AcDbDimStyleTableRecord
  2
STANDARD
 70
     0
271
     3
272
     3
279
     2
340
11
  0
ENDTAB
  0
TABLE
  2
BLOCK_RECORD
  5
1
330
0
100
AcDbSymbolTable
 70
    12
  0
BLOCK_RECORD
  5
1F
330
1
100
AcDbSymbolTableRecord
100
AcDbBlockTableRecord
  2
*Model_Space
340
22
  0
BLOCK_RECORD
  5
1B
330
1
100
AcDbSymbolTableRecord
100
AcDbBlockTableRecord
  2
*Paper_Space
340
1E
  0
BLOCK_RECORD
  5
23
330
1
100
AcDbSymbolTableRecord
100
AcDbBlockTableRecord
  2
*Paper_Space0
340
26
  0
BLOCK_RECORD
  5
F49
330
1
100
AcDbSymbolTableRecord
100
AcDbBlockTableRecord
  2
*D1
340
0
  0
BLOCK_RECORD
  5
F9A
330
1
100
AcDbSymbolTableRecord
100
AcDbBlockTableRecord
  2
*D2
340
0
  0
BLOCK_RECORD
  5
FC1
330
1
100
AcDbSymbolTableRecord
100
AcDbBlockTableRecord
  2
*D3
340
0
  0
BLOCK_RECORD
  5
FE8
330
1
100
AcDbSymbolTableRecord
100
AcDbBlockTableRecord
  2
*D4
340
0
  0
BLOCK_RECORD
  5
1009
330
1
100
AcDbSymbolTableRecord
100
AcDbBlockTableRecord
  2
*D5
340
0
  0
BLOCK_RECORD
  5
102B
330
1
100
AcDbSymbolTableRecord
100
AcDbBlockTableRecord
  2
*D6
340
0
  0
BLOCK_RECORD
  5
109A
330
1
100
AcDbSymbolTableRecord
100
AcDbBlockTableRecord
  2
*D7
340
0
  0
BLOCK_RECORD
  5
10C5
330
1
100
AcDbSymbolTableRecord
100
AcDbBlockTableRecord
  2
*D8
340
0
  0
BLOCK_RECORD
  5
10E6
330
1
100
AcDbSymbolTableRecord
100
AcDbBlockTableRecord
  2
*D9
340
0
  0
BLOCK_RECORD
  5
110A
330
1
100
AcDbSymbolTableRecord
100
AcDbBlockTableRecord
  2
*D10
340
0
  0
BLOCK_RECORD
  5
1124
330
1
100
AcDbSymbolTableRecord
100
AcDbBlockTableRecord
  2
*D11
340
0
  0
ENDTAB
  0
ENDSEC
  0
SECTION
  2
BLOCKS
  0
BLOCK
  5
20
330
1F
100
AcDbEntity
  8
0
100
AcDbBlockBegin
  2
*Model_Space
 70
     0
 10
0.0
 20
0.0
 30
0.0
  3
*Model_Space
  1

  0
ENDBLK
  5
21
330
1F
100
AcDbEntity
  8
0
100
AcDbBlockEnd
  0
BLOCK
  5
1C
330
1B
100
AcDbEntity
 67
     1
  8
0
100
AcDbBlockBegin
  2
*Paper_Space
 70
     0
 10
0.0
 20
0.0
 30
0.0
  3
*Paper_Space
  1

  0
ENDBLK
  5
1D
330
1B
100
AcDbEntity
 67
     1
  8
0
100
AcDbBlockEnd
  0
BLOCK
  5
24
330
23
100
AcDbEntity
  8
0
100
AcDbBlockBegin
  2
*Paper_Space0
 70
     0
 10
0.0
 20
0.0
 30
0.0
  3
*Paper_Space0
  1

  0
VIEWPORT
  5
91
330
23
100
AcDbEntity
  8
0
100
AcDbViewport
 10
155.9373290447221
 20
108.2173017357335
 30
0.0
 40
1256.879349805632
 41
783.4547947121777
 69
     0
 12
155.9373290447221
 22
108.2173017357335
 13
0.0
 23
0.0
 14
10.0
 24
10.0
 15
10.0
 25
10.0
 16
0.0
 26
0.0
 36
1.0
 17
0.0
 27
0.0
 37
0.0
 42
50.0
 43
0.0
 44
0.0
 45
783.4547947121777
 50
0.0
 51
0.0
 72
   100
 90
    32800
  1

281
     0
 71
     1
 74
     0
110
0.0
120
0.0
130
0.0
111
1.0
121
0.0
131
0.0
112
0.0
122
1.0
132
0.0
 79
     0
146
0.0
  0
VIEWPORT
  5
93
330
23
100
AcDbEntity
  8
Innenkanten
100
AcDbViewport
 10
139.2237563133239
 20
101.2295821905136
 30
0.0
 40
222.7580101013183
 41
161.9673315048218
 69
     0
 12
184.7978219934714
 22
192.1304862769675
 13
0.0
 23
0.0
 14
10.0
 24
10.0
 15
10.0
 25
10.0
 16
0.0
 26
0.0
 36
1.0
 17
0.0
 27
0.0
 37
0.0
 42
50.0
 43
0.0
 44
0.0
 45
42.79257583451712
 50
0.0
 51
0.0
 72
   100
 90
    32864
  1

281
     0
 71
     1
 74
     0
110
178.8748676294718
120
192.1298075526766
130
0.0
111
1.0
121
0.0
131
0.0
112
0.0
122
1.0
132
0.0
 79
     0
146
0.0
  0
ENDBLK
  5
25
330
23
100
AcDbEntity
  8
0
100
AcDbBlockEnd
  0
BLOCK
  5
F53
330
F49
100
AcDbEntity
  8
0
100
AcDbBlockBegin
  2
*D1
 70
     1
 10
0.0
 20
0.0
 30
0.0
  3
*D1
  1

  0
LINE
  5
1323
330
F49
100
AcDbEntity
  8
Bemaßung
 62
     0
370
    -2
100
AcDbLine
 10
354.0888604248822
 20
195.2548075526766
 30
0.0
 11
354.0888604248822
 21
217.9386419045136
 31
0.0
  0
LINE
  5
1324
330
F49
100
AcDbEntity
  8
Bemaßung
 62
     0
370
    -2
100
AcDbLine
 10
338.0888604248823
 20
206.7548075526766
 30
0.0
 11
338.0888604248823
 21
217.9386419045136
 31
0.0
  0
LINE
  5
1325
330
F49
100
AcDbEntity
  8
Bemaßung
 62
     0
370
    -2
100
AcDbLine
 10
351.5888604248822
 20
216.6886419045137
 30
0.0
 11
340.5888604248823
 21
216.6886419045137
 31
0.0
  0
SOLID
  5
1326
330
F49
100
AcDbEntity
  8
Bemaßung
 62
     0
100
AcDbTrace
 10
351.5888604248822
 20
217.1053085711803
 30
0.0
 11
351.5888604248822
 21
216.271975237847
 31
0.0
 12
354.0888604248822
 22
216.6886419045137
 32
0.0
 13
354.0888604248822
 23
216.6886419045137
 33
0.0
  0
SOLID
  5
1327
330
F49
100
AcDbEntity
  8
Bemaßung
 62
     0
100
AcDbTrace
 10
340.5888604248823
 20
217.1053085711803
 30
0.0
 11
340.5888604248823
 21
216.271975237847
 31
0.0
 12
338.0888604248823
 22
216.6886419045137
 32
0.0
 13
338.0888604248823
 23
216.6886419045137
 33
0.0
  0
MTEXT
  5
1328
330
F49
100
AcDbEntity
  8
Bemaßung
 62
     0
100
AcDbMText
 10
346.0888604248823
 20
218.5636419045136
 30
0.0
 40
2.5
 41
0.0
 71
     5
 72
     1
  1
16
 73
     1
 44
1.0
  0
POINT
  5
1329
330
F49
100
AcDbEntity
  8
Defpoints
 62
     0
100
AcDbPoint
 10
354.0888604248822
 20
194.6298075526766
 30
0.0
  0
POINT
  5
132A
330
F49
100
AcDbEntity
  8
Defpoints
 62
     0
100
AcDbPoint
 10
338.0888604248823
 20
206.1298075526766
 30
0.0
  0
POINT
  5
132B
330
F49
100
AcDbEntity
  8
Defpoints
 62
     0
100
AcDbPoint
 10
338.0888604248823
 20
216.6886419045137
 30
0.0
  0
ENDBLK
  5
F54
330
F49
100
AcDbEntity
  8
0
100
AcDbBlockEnd
  0
BLOCK
  5
FA6
330
F9A
100
AcDbEntity
  8
0
100
AcDbBlockBegin
  2
*D2
 70
     1
 10
0.0
 20
0.0
 30
0.0
  3
*D2
  1

  0
LINE
  5
130D
330
F9A
100
AcDbEntity
  8
Bemaßung
 62
     0
370
    -2
100
AcDbLine
 10
338.0888604248823
 20
206.7548075526766
 30
0.0
 11
338.0888604248823
 21
212.1049652316099
 31
0.0
  0
LINE
  5
130E
330
F9A
100
AcDbEntity
  8
Bemaßung
 62
     0
370
    -2
100
AcDbLine
 10
333.0888604248822
 20
206.7548075526766
 30
0.0
 11
333.0888604248822
 21
212.1049652316099
 31
0.0
  0
LINE
  5
130F
330
F9A
100
AcDbEntity
  8
Bemaßung
 62
     0
370
    -2
100
AcDbLine
 10
340.5888604248823
 20
210.8549652316099
 30
0.0
 11
343.0888604248823
 21
210.8549652316099
 31
0.0
  0
LINE
  5
1310
330
F9A
100
AcDbEntity
  8
Bemaßung
 62
     0
370
    -2
100
AcDbLine
 10
330.5888604248822
 20
210.8549652316099
 30
0.0
 11
328.0888604248823
 21
210.8549652316099
 31
0.0
  0
LINE
  5
1311
330
F9A
100
AcDbEntity
  8
Bemaßung
 62
     0
370
    -2
100
AcDbLine
 10
338.0888604248823
 20
210.8549652316099
 30
0.0
 11
333.0888604248822
 21
210.8549652316099
 31
0.0
  0
SOLID
  5
1312
330
F9A
100
AcDbEntity
  8
Bemaßung
 62
     0
100
AcDbTrace
 10
340.5888604248823
 20
211.2716318982765
 30
0.0
 11
340.5888604248823
 21
210.4382985649432
 31
0.0
 12
338.0888604248823
 22
210.8549652316099
 32
0.0
 13
338.0888604248823
 23
210.8549652316099
 33
0.0
  0
SOLID
  5
1313
330
F9A
100
AcDbEntity
  8
Bemaßung
 62
     0
100
AcDbTrace
 10
330.5888604248822
 20
211.2716318982765
 30
0.0
 11
330.5888604248822
 21
210.4382985649432
 31
0.0
 12
333.0888604248822
 22
210.8549652316099
 32
0.0
 13
333.0888604248822
 23
210.8549652316099
 33
0.0
  0
MTEXT
  5
1314
330
F9A
100
AcDbEntity
  8
Bemaßung
 62
     0
100
AcDbMText
 10
335.5888604248823
 20
212.7299652316099
 30
0.0
 40
2.5
 41
0.0
 71
     5
 72
     1
  1
5
 73
     1
 44
1.0
  0
POINT
  5
1315
330
F9A
100
AcDbEntity
  8
Defpoints
 62
     0
100
AcDbPoint
 10
338.0888604248823
 20
206.1298075526766
 30
0.0
  0
POINT
  5
1316
330
F9A
100
AcDbEntity
  8
Defpoints
 62
     0
100
AcDbPoint
 10
333.0888604248822
 20
206.1298075526766
 30
0.0
  0
POINT
  5
1317
330
F9A
100
AcDbEntity
  8
Defpoints
 62
     0
100
AcDbPoint
 10
333.0888604248822
 20
210.8549652316099
 30
0.0
  0
ENDBLK
  5
FA7
330
F9A
100
AcDbEntity
  8
0
100
AcDbBlockEnd
  0
BLOCK
  5
FCD
330
FC1
100
AcDbEntity
  8
0
100
AcDbBlockBegin
  2
*D3
 70
     1
 10
0.0
 20
0.0
 30
0.0
  3
*D3
  1

  0
LINE
  5
133E
330
FC1
100
AcDbEntity
  8
Bemaßung
 62
     0
370
    -2
100
AcDbLine
 10
340.5888604248823
 20
181.5048075526766
 30
0.0
 11
340.5888604248823
 21
168.6489488946521
 31
0.0
  0
LINE
  5
133F
330
FC1
100
AcDbEntity
  8
Bemaßung
 62
     0
370
    -2
100
AcDbLine
 10
338.0888604248823
 20
177.5048075526766
 30
0.0
 11
338.0888604248823
 21
168.6489488946521
 31
0.0
  0
LINE
  5
1340
330
FC1
100
AcDbEntity
  8
Bemaßung
 62
     0
370
    -2
100
AcDbLine
 10
343.0888604248823
 20
169.8989488946521
 30
0.0
 11
345.5888604248823
 21
169.8989488946521
 31
0.0
  0
LINE
  5
1341
330
FC1
100
AcDbEntity
  8
Bemaßung
 62
     0
370
    -2
100
AcDbLine
 10
335.5888604248823
 20
169.8989488946521
 30
0.0
 11
326.4221937582156
 21
169.8989488946521
 31
0.0
  0
LINE
  5
1342
330
FC1
100
AcDbEntity
  8
Bemaßung
 62
     0
370
    -2
100
AcDbLine
 10
340.5888604248823
 20
169.8989488946521
 30
0.0
 11
338.0888604248823
 21
169.8989488946521
 31
0.0
  0
SOLID
  5
1343
330
FC1
100
AcDbEntity
  8
Bemaßung
 62
     0
100
AcDbTrace
 10
343.0888604248823
 20
170.3156155613187
 30
0.0
 11
343.0888604248823
 21
169.4822822279854
 31
0.0
 12
340.5888604248823
 22
169.8989488946521
 32
0.0
 13
340.5888604248823
 23
169.8989488946521
 33
0.0
  0
SOLID
  5
1344
330
FC1
100
AcDbEntity
  8
Bemaßung
 62
     0
100
AcDbTrace
 10
335.5888604248823
 20
170.3156155613187
 30
0.0
 11
335.5888604248823
 21
169.4822822279854
 31
0.0
 12
338.0888604248823
 22
169.8989488946521
 32
0.0
 13
338.0888604248823
 23
169.8989488946521
 33
0.0
  0
MTEXT
  5
1345
330
FC1
100
AcDbEntity
  8
Bemaßung
 62
     0
100
AcDbMText
 10
329.755527091549
 20
171.9822822279854
 30
0.0
 40
2.5
 41
0.0
 71
     5
 72
     1
  1
2,5
 73
     1
 44
1.0
  0
POINT
  5
1346
330
FC1
100
AcDbEntity
  8
Defpoints
 62
     0
100
AcDbPoint
 10
340.5888604248823
 20
182.1298075526766
 30
0.0
  0
POINT
  5
1347
330
FC1
100
AcDbEntity
  8
Defpoints
 62
     0
100
AcDbPoint
 10
338.0888604248823
 20
178.1298075526766
 30
0.0
  0
POINT
  5
1348
330
FC1
100
AcDbEntity
  8
Defpoints
 62
     0
100
AcDbPoint
 10
338.0888604248823
 20
169.8989488946521
 30
0.0
  0
ENDBLK
  5
FCE
330
FC1
100
AcDbEntity
  8
0
100
AcDbBlockEnd
  0
BLOCK
  5
FF2
330
FE8
100
AcDbEntity
  8
0
100
AcDbBlockBegin
  2
*D4
 70
     1
 10
0.0
 20
0.0
 30
0.0
  3
*D4
  1

  0
LINE
  5
132C
330
FE8
100
AcDbEntity
  8
Bemaßung
 62
     0
370
    -2
100
AcDbLine
 10
341.2138604248823
 20
202.1298075526766
 30
0.0
 11
365.1257410280464
 21
202.1298075526766
 31
0.0
  0
LINE
  5
132D
330
FE8
100
AcDbEntity
  8
Bemaßung
 62
     0
370
    -2
100
AcDbLine
 10
341.2138604248823
 20
182.1298075526766
 30
0.0
 11
365.1257410280464
 21
182.1298075526766
 31
0.0
  0
LINE
  5
132E
330
FE8
100
AcDbEntity
  8
Bemaßung
 62
     0
370
    -2
100
AcDbLine
 10
363.8757410280463
 20
199.6298075526766
 30
0.0
 11
363.8757410280463
 21
184.6298075526766
 31
0.0
  0
SOLID
  5
132F
330
FE8
100
AcDbEntity
  8
Bemaßung
 62
     0
100
AcDbTrace
 10
363.4590743613796
 20
199.6298075526766
 30
0.0
 11
364.292407694713
 21
199.6298075526766
 31
0.0
 12
363.8757410280463
 22
202.1298075526766
 32
0.0
 13
363.8757410280463
 23
202.1298075526766
 33
0.0
  0
SOLID
  5
1330
330
FE8
100
AcDbEntity
  8
Bemaßung
 62
     0
100
AcDbTrace
 10
363.4590743613796
 20
184.6298075526766
 30
0.0
 11
364.292407694713
 21
184.6298075526766
 31
0.0
 12
363.8757410280463
 22
182.1298075526766
 32
0.0
 13
363.8757410280463
 23
182.1298075526766
 33
0.0
  0
MTEXT
  5
1331
330
FE8
100
AcDbEntity
  8
Bemaßung
 62
     0
100
AcDbMText
 10
362.0007410280463
 20
192.1298075526767
 30
0.0
 40
2.5
 41
0.0
 71
     5
 72
     1
  1
20
 11
0.0000000000000001
 21
1.0
 31
0.0
 73
     1
 44
1.0
  0
POINT
  5
1332
330
FE8
100
AcDbEntity
  8
Defpoints
 62
     0
100
AcDbPoint
 10
340.5888604248823
 20
202.1298075526766
 30
0.0
  0
POINT
  5
1333
330
FE8
100
AcDbEntity
  8
Defpoints
 62
     0
100
AcDbPoint
 10
340.5888604248823
 20
182.1298075526766
 30
0.0
  0
POINT
  5
1334
330
FE8
100
AcDbEntity
  8
Defpoints
 62
     0
100
AcDbPoint
 10
363.8757410280463
 20
182.1298075526766
 30
0.0
  0
ENDBLK
  5
FF3
330
FE8
100
AcDbEntity
  8
0
100
AcDbBlockEnd
  0
BLOCK
  5
1013
330
1009
100
AcDbEntity
  8
0
100
AcDbBlockBegin
  2
*D5
 70
     1
 10
0.0
 20
0.0
 30
0.0
  3
*D5
  1

  0
LINE
  5
1349
330
1009
100
AcDbEntity
  8
Bemaßung
 62
     0
370
    -2
100
AcDbLine
 10
338.0888604248823
 20
206.7548075526766
 30
0.0
 11
338.0888604248823
 21
217.9386419045136
 31
0.0
  0
LINE
  5
134A
330
1009
100
AcDbEntity
  8
Bemaßung
 62
     0
370
    -2
100
AcDbLine
 10
249.0888604248822
 20
206.2548075526766
 30
0.0
 11
249.0888604248822
 21
217.9386419045136
 31
0.0
  0
LINE
  5
134B
330
1009
100
AcDbEntity
  8
Bemaßung
 62
     0
370
    -2
100
AcDbLine
 10
335.5888604248823
 20
216.6886419045137
 30
0.0
 11
251.5888604248822
 21
216.6886419045137
 31
0.0
  0
SOLID
  5
134C
330
1009
100
AcDbEntity
  8
Bemaßung
 62
     0
100
AcDbTrace
 10
335.5888604248823
 20
217.1053085711803
 30
0.0
 11
335.5888604248823
 21
216.271975237847
 31
0.0
 12
338.0888604248823
 22
216.6886419045137
 32
0.0
 13
338.0888604248823
 23
216.6886419045137
 33
0.0
  0
SOLID
  5
134D
330
1009
100
AcDbEntity
  8
Bemaßung
 62
     0
100
AcDbTrace
 10
251.5888604248822
 20
217.1053085711803
 30
0.0
 11
251.5888604248822
 21
216.271975237847
 31
0.0
 12
249.0888604248822
 22
216.6886419045137
 32
0.0
 13
249.0888604248822
 23
216.6886419045137
 33
0.0
  0
MTEXT
  5
134E
330
1009
100
AcDbEntity
  8
Bemaßung
 62
     0
100
AcDbMText
 10
293.5888604248823
 20
218.5636419045136
 30
0.0
 40
2.5
 41
0.0
 71
     5
 72
     1
  1
89
 73
     1
 44
1.0
  0
POINT
  5
134F
330
1009
100
AcDbEntity
  8
Defpoints
 62
     0
100
AcDbPoint
 10
338.0888604248823
 20
206.1298075526766
 30
0.0
  0
POINT
  5
1350
330
1009
100
AcDbEntity
  8
Defpoints
 62
     0
100
AcDbPoint
 10
249.0888604248822
 20
205.6298075526766
 30
0.0
  0
POINT
  5
1351
330
1009
100
AcDbEntity
  8
Defpoints
 62
     0
100
AcDbPoint
 10
249.0888604248822
 20
216.6886419045137
 30
0.0
  0
ENDBLK
  5
1014
330
1009
100
AcDbEntity
  8
0
100
AcDbBlockEnd
  0
BLOCK
  5
1035
330
102B
100
AcDbEntity
  8
0
100
AcDbBlockBegin
  2
*D6
 70
     1
 10
0.0
 20
0.0
 30
0.0
  3
*D6
  1

  0
LINE
  5
1066
330
102B
100
AcDbEntity
  8
Bemaßung
 62
     0
370
    -2
100
AcDbLine
 10
249.0888604248822
 20
206.2548075526766
 30
0.0
 11
249.0888604248822
 21
212.1049652316099
 31
0.0
  0
LINE
  5
1067
330
102B
100
AcDbEntity
  8
Bemaßung
 62
     0
370
    -2
100
AcDbLine
 10
275.5888604248823
 20
206.7548075526767
 30
0.0
 11
275.5888604248823
 21
212.1049652316099
 31
0.0
  0
LINE
  5
1068
330
102B
100
AcDbEntity
  8
Bemaßung
 62
     0
370
    -2
100
AcDbLine
 10
251.5888604248822
 20
210.8549652316099
 30
0.0
 11
273.0888604248822
 21
210.8549652316099
 31
0.0
  0
SOLID
  5
1069
330
102B
100
AcDbEntity
  8
Bemaßung
 62
     0
100
AcDbTrace
 10
251.5888604248822
 20
211.2716318982766
 30
0.0
 11
251.5888604248822
 21
210.4382985649433
 31
0.0
 12
249.0888604248822
 22
210.8549652316099
 32
0.0
 13
249.0888604248822
 23
210.8549652316099
 33
0.0
  0
SOLID
  5
106A
330
102B
100
AcDbEntity
  8
Bemaßung
 62
     0
100
AcDbTrace
 10
273.0888604248822
 20
211.2716318982766
 30
0.0
 11
273.0888604248822
 21
210.4382985649433
 31
0.0
 12
275.5888604248823
 22
210.8549652316099
 32
0.0
 13
275.5888604248823
 23
210.8549652316099
 33
0.0
  0
MTEXT
  5
106B
330
102B
100
AcDbEntity
  8
Bemaßung
 62
     0
100
AcDbMText
 10
262.3388604248822
 20
212.9382985649433
 30
0.0
 40
2.5
 41
0.0
 71
     5
 72
     1
  1
26,5
 73
     1
 44
1.0
  0
POINT
  5
106C
330
102B
100
AcDbEntity
  8
Defpoints
 62
     0
100
AcDbPoint
 10
249.0888604248822
 20
205.6298075526766
 30
0.0
  0
POINT
  5
106D
330
102B
100
AcDbEntity
  8
Defpoints
 62
     0
100
AcDbPoint
 10
275.5888604248823
 20
206.1298075526766
 30
0.0
  0
POINT
  5
106E
330
102B
100
AcDbEntity
  8
Defpoints
 62
     0
100
AcDbPoint
 10
275.5888604248823
 20
210.8549652316099
 30
0.0
  0
ENDBLK
  5
1036
330
102B
100
AcDbEntity
  8
0
100
AcDbBlockEnd
  0
BLOCK
  5
10A4
330
109A
100
AcDbEntity
  8
0
100
AcDbBlockBegin
  2
*D7
 70
     1
 10
0.0
 20
0.0
 30
0.0
  3
*D7
  1

  0
LINE
  5
10BB
330
109A
100
AcDbEntity
  8
Bemaßung
 62
     0
370
    -2
100
AcDbLine
 10
164.8748676294718
 20
206.2548075526766
 30
0.0
 11
164.8748676294718
 21
217.9386419045136
 31
0.0
  0
LINE
  5
10BC
330
109A
100
AcDbEntity
  8
Bemaßung
 62
     0
370
    -2
100
AcDbLine
 10
192.8748676294718
 20
206.2548075526766
 30
0.0
 11
192.8748676294718
 21
217.9386419045136
 31
0.0
  0
LINE
  5
10BD
330
109A
100
AcDbEntity
  8
Bemaßung
 62
     0
370
    -2
100
AcDbLine
 10
167.3748676294718
 20
216.6886419045137
 30
0.0
 11
190.3748676294718
 21
216.6886419045137
 31
0.0
  0
SOLID
  5
10BE
330
109A
100
AcDbEntity
  8
Bemaßung
 62
     0
100
AcDbTrace
 10
167.3748676294718
 20
217.1053085711803
 30
0.0
 11
167.3748676294718
 21
216.271975237847
 31
0.0
 12
164.8748676294718
 22
216.6886419045137
 32
0.0
 13
164.8748676294718
 23
216.6886419045137
 33
0.0
  0
SOLID
  5
10BF
330
109A
100
AcDbEntity
  8
Bemaßung
 62
     0
100
AcDbTrace
 10
190.3748676294718
 20
217.1053085711803
 30
0.0
 11
190.3748676294718
 21
216.271975237847
 31
0.0
 12
192.8748676294718
 22
216.6886419045137
 32
0.0
 13
192.8748676294718
 23
216.6886419045137
 33
0.0
  0
MTEXT
  5
10C0
330
109A
100
AcDbEntity
  8
Bemaßung
 62
     0
100
AcDbMText
 10
178.8748676294718
 20
218.5636419045136
 30
0.0
 40
2.5
 41
0.0
 71
     5
 72
     1
  1
28
 73
     1
 44
1.0
  0
POINT
  5
10C1
330
109A
100
AcDbEntity
  8
Defpoints
 62
     0
100
AcDbPoint
 10
164.8748676294718
 20
205.6298075526766
 30
0.0
  0
POINT
  5
10C2
330
109A
100
AcDbEntity
  8
Defpoints
 62
     0
100
AcDbPoint
 10
192.8748676294718
 20
205.6298075526766
 30
0.0
  0
POINT
  5
10C3
330
109A
100
AcDbEntity
  8
Defpoints
 62
     0
100
AcDbPoint
 10
192.8748676294718
 20
216.6886419045137
 30
0.0
  0
ENDBLK
  5
10A5
330
109A
100
AcDbEntity
  8
0
100
AcDbBlockEnd
  0
BLOCK
  5
10CF
330
10C5
100
AcDbEntity
  8
0
100
AcDbBlockBegin
  2
*D8
 70
     1
 10
0.0
 20
0.0
 30
0.0
  3
*D8
  1

  0
LINE
  5
10DC
330
10C5
100
AcDbEntity
  8
Bemaßung
 62
     0
370
    -2
100
AcDbLine
 10
164.7498676294718
 20
206.1298075526766
 30
0.0
 11
155.0523737844837
 21
206.1298075526766
 31
0.0
  0
LINE
  5
10DD
330
10C5
100
AcDbEntity
  8
Bemaßung
 62
     0
370
    -2
100
AcDbLine
 10
164.7498676294718
 20
178.1298075526766
 30
0.0
 11
155.0523737844837
 21
178.1298075526766
 31
0.0
  0
LINE
  5
10DE
330
10C5
100
AcDbEntity
  8
Bemaßung
 62
     0
370
    -2
100
AcDbLine
 10
156.3023737844837
 20
203.6298075526766
 30
0.0
 11
156.3023737844837
 21
180.6298075526766
 31
0.0
  0
SOLID
  5
10DF
330
10C5
100
AcDbEntity
  8
Bemaßung
 62
     0
100
AcDbTrace
 10
155.8857071178171
 20
203.6298075526766
 30
0.0
 11
156.7190404511504
 21
203.6298075526766
 31
0.0
 12
156.3023737844837
 22
206.1298075526766
 32
0.0
 13
156.3023737844837
 23
206.1298075526766
 33
0.0
  0
SOLID
  5
10E0
330
10C5
100
AcDbEntity
  8
Bemaßung
 62
     0
100
AcDbTrace
 10
155.885707117817
 20
180.6298075526766
 30
0.0
 11
156.7190404511503
 21
180.6298075526766
 31
0.0
 12
156.3023737844837
 22
178.1298075526766
 32
0.0
 13
156.3023737844837
 23
178.1298075526766
 33
0.0
  0
MTEXT
  5
10E1
330
10C5
100
AcDbEntity
  8
Bemaßung
 62
     0
100
AcDbMText
 10
154.4273737844837
 20
192.1298075526766
 30
0.0
 40
2.5
 41
0.0
 71
     5
 72
     1
  1
28
 11
0.0000000000000001
 21
1.0
 31
0.0
 73
     1
 44
1.0
  0
POINT
  5
10E2
330
10C5
100
AcDbEntity
  8
Defpoints
 62
     0
100
AcDbPoint
 10
165.3748676294718
 20
206.1298075526766
 30
0.0
  0
POINT
  5
10E3
330
10C5
100
AcDbEntity
  8
Defpoints
 62
     0
100
AcDbPoint
 10
165.3748676294718
 20
178.1298075526766
 30
0.0
  0
POINT
  5
10E4
330
10C5
100
AcDbEntity
  8
Defpoints
 62
     0
100
AcDbPoint
 10
156.3023737844837
 20
178.1298075526766
 30
0.0
  0
ENDBLK
  5
10D0
330
10C5
100
AcDbEntity
  8
0
100
AcDbBlockEnd
  0
BLOCK
  5
10F1
330
10E6
100
AcDbEntity
  8
0
100
AcDbBlockBegin
  2
*D9
 70
     1
 10
0.0
 20
0.0
 30
0.0
  3
*D9
  1

  0
LINE
  5
10FF
330
10E6
100
AcDbEntity
  8
Bemaßung
 62
     0
370
    -2
100
AcDbLine
 10
178.874867629472
 20
211.2385213528497
 30
0.0
 11
178.8748676294722
 21
211.923376559291
 31
0.0
  0
ARC
  5
1100
330
10E6
100
AcDbEntity
  8
Bemaßung
 62
     0
370
    -2
100
AcDbCircle
 10
178.8748676294718
 20
192.1298075526766
 30
0.0
 40
18.54356900661437
100
AcDbArc
 50
97.73034305974112
 51
127.2696569402588
  0
SOLID
  5
1101
330
10E6
100
AcDbEntity
  8
Bemaßung
 62
     0
100
AcDbTrace
 10
176.3524670258495
 20
210.9205734564332
 30
0.0
 11
176.408641037783
 21
210.089135590548
 31
0.0
 12
178.8748676294718
 22
210.673376559291
 32
0.0
 13
178.8748676294718
 23
210.673376559291
 33
0.0
  0
SOLID
  5
1102
330
10E6
100
AcDbEntity
  8
Bemaßung
 62
     0
100
AcDbTrace
 10
167.919590535265
 20
206.572855740735
 30
0.0
 11
167.371396206927
 21
207.2004921186023
 31
0.0
 12
165.762584237494
 22
205.2420909446543
 32
0.0
 13
165.762584237494
 23
205.2420909446543
 33
0.0
  0
MTEXT
  5
1103
330
10E6
100
AcDbEntity
  8
Bemaßung
 62
     0
100
AcDbMText
 10
171.0610195580372
 20
210.994105541057
 30
0.0
 40
2.5
 41
0.0
 71
     5
 72
     1
  1
45°
 11
0.9238795325112867
 21
0.3826834323650898
 31
0.0
 73
     1
 44
1.0
  0
POINT
  5
1104
330
10E6
100
AcDbEntity
  8
Defpoints
 62
     0
100
AcDbPoint
 10
174.0754388063872
 20
210.041519767739
 30
0.0
  0
POINT
  5
1105
330
10E6
100
AcDbEntity
  8
Defpoints
 62
     0
100
AcDbPoint
 10
165.5123640734705
 20
205.4923111086779
 30
0.0
  0
POINT
  5
1106
330
10E6
100
AcDbEntity
  8
Defpoints
 62
     0
100
AcDbPoint
 10
178.8748676294718
 20
157.0402259499536
 30
0.0
  0
POINT
  5
1107
330
10E6
100
AcDbEntity
  8
Defpoints
 62
     0
100
AcDbPoint
 10
178.8748676294718
 20
210.6135213528497
 30
0.0
  0
POINT
  5
1108
330
10E6
100
AcDbEntity
  8
Defpoints
 62
     0
100
AcDbPoint
 10
168.7741907624564
 20
202.230484419692
 30
0.0
  0
ENDBLK
  5
10F2
330
10E6
100
AcDbEntity
  8
0
100
AcDbBlockEnd
  0
BLOCK
  5
1110
330
110A
100
AcDbEntity
  8
0
100
AcDbBlockBegin
  2
*D10
 70
     1
 10
0.0
 20
0.0
 30
0.0
  3
*D10
  1

  0
LINE
  5
111E
330
110A
100
AcDbEntity
  8
Bemaßung
 62
     0
370
    -2
100
AcDbLine
 10
187.9678841523309
 20
184.9685022538117
 30
0.0
 11
167.876285405335
 21
200.791862104508
 31
0.0
  0
MTEXT
  5
111F
330
110A
100
AcDbEntity
  8
Bemaßung
 62
     0
100
AcDbMText
 10
186.018262555722
 20
188.8906194636633
 30
0.0
 40
2.5
 41
0.0
 71
     5
 72
     1
  1
\U+220533
 11
0.785613016009764
 21
-0.6187181822736765
 31
0.0
 73
     1
 44
1.0
  0
SOLID
  5
1120
330
110A
100
AcDbEntity
  8
Bemaßung
 62
     0
100
AcDbTrace
 10
168.1340846479491
 20
201.1192008611788
 30
0.0
 11
167.618486162721
 21
200.4645233478373
 31
0.0
 12
165.9122528653106
 22
202.3386575601922
 32
0.0
 13
165.9122528653106
 23
202.3386575601922
 33
0.0
  0
POINT
  5
1121
330
110A
100
AcDbEntity
  8
Defpoints
 62
     0
100
AcDbPoint
 10
165.9122528653106
 20
202.3386575601922
 30
0.0
  0
POINT
  5
1122
330
110A
100
AcDbEntity
  8
Defpoints
 62
     0
100
AcDbPoint
 10
191.8374823936328
 20
181.9209575451609
 30
0.0
  0
ENDBLK
  5
1111
330
110A
100
AcDbEntity
  8
0
100
AcDbBlockEnd
  0
BLOCK
  5
112E
330
1124
100
AcDbEntity
  8
0
100
AcDbBlockBegin
  2
*D11
 70
     1
 10
0.0
 20
0.0
 30
0.0
  3
*D11
  1

  0
LINE
  5
113B
330
1124
100
AcDbEntity
  8
Bemaßung
 62
     0
370
    -2
100
AcDbLine
 10
197.7974287787316
 20
192.1298075526766
 30
0.0
 11
201.12357449469
 21
192.1298075526766
 31
0.0
  0
LINE
  5
113C
330
1124
100
AcDbEntity
  8
Bemaßung
 62
     0
370
    -2
100
AcDbLine
 10
185.4498676294718
 20
171.1298075526766
 30
0.0
 11
201.12357449469
 21
171.1298075526766
 31
0.0
  0
LINE
  5
113D
330
1124
100
AcDbEntity
  8
Bemaßung
 62
     0
370
    -2
100
AcDbLine
 10
199.87357449469
 20
189.6298075526766
 30
0.0
 11
199.87357449469
 21
173.6298075526766
 31
0.0
  0
SOLID
  5
113E
330
1124
100
AcDbEntity
  8
Bemaßung
 62
     0
100
AcDbTrace
 10
199.4569078280233
 20
189.6298075526766
 30
0.0
 11
200.2902411613566
 21
189.6298075526766
 31
0.0
 12
199.87357449469
 22
192.1298075526766
 32
0.0
 13
199.87357449469
 23
192.1298075526766
 33
0.0
  0
SOLID
  5
113F
330
1124
100
AcDbEntity
  8
Bemaßung
 62
     0
100
AcDbTrace
 10
199.4569078280233
 20
173.6298075526766
 30
0.0
 11
200.2902411613566
 21
173.6298075526766
 31
0.0
 12
199.87357449469
 22
171.1298075526766
 32
0.0
 13
199.87357449469
 23
171.1298075526766
 33
0.0
  0
MTEXT
  5
1140
330
1124
100
AcDbEntity
  8
Bemaßung
 62
     0
100
AcDbMText
 10
197.99857449469
 20
181.6298075526766
 30
0.0
 40
2.5
 41
0.0
 71
     5
 72
     1
  1
21
 11
0.0000000000000001
 21
1.0
 31
0.0
 73
     1
 44
1.0
  0
POINT
  5
1141
330
1124
100
AcDbEntity
  8
Defpoints
 62
     0
100
AcDbPoint
 10
197.1724287787316
 20
192.1298075526766
 30
0.0
  0
POINT
  5
1142
330
1124
100
AcDbEntity
  8
Defpoints
 62
     0
100
AcDbPoint
 10
184.8248676294718
 20
171.1298075526766
 30
0.0
  0
POINT
  5
1143
330
1124
100
AcDbEntity
  8
Defpoints
 62
     0
100
AcDbPoint
 10
199.87357449469
 20
171.1298075526766
 30
0.0
  0
ENDBLK
  5
112F
330
1124
100
AcDbEntity
  8
0
100
AcDbBlockEnd
  0
ENDSEC
  0
SECTION
  2
ENTITIES
  0
LINE
  5
C39
102
{ACAD_REACTORS
330
FDB
102
}
330
1F
100
AcDbEntity
  8
0
100
AcDbLine
 10
252.0888604248822
 20
178.1298075526766
 30
0.0
 11
338.0888604248823
 21
178.1298075526766
 31
0.0
  0
ARC
  5
C3B
330
1F
100
AcDbEntity
  8
0
100
AcDbCircle
 10
308.5888604248822
 20
171.1298075526766
 30
0.0
 40
6.0
100
AcDbArc
 50
94.78019184719959
 51
140.6450205426262
  0
LINE
  5
C3C
330
1F
100
AcDbEntity
  8
Mittellinie
100
AcDbLine
 10
248.2120631987072
 20
192.1298075526766
 30
0.0
 11
357.2145072525724
 21
192.1298075526766
 31
0.0
  0
ARC
  5
C3D
330
1F
100
AcDbEntity
  8
0
100
AcDbCircle
 10
300.0833075597181
 20
178.1051620567787
 30
0.0
 40
10.0
100
AcDbArc
 50
270.0
 51
320.6450205426261
  0
LINE
  5
C3E
330
1F
100
AcDbEntity
  8
Mittellinie
100
AcDbLine
 10
-65.20132893282767
 20
192.1298075526766
 30
0.0
 11
-25.08171780557836
 21
192.1298075526766
 31
0.0
  0
LINE
  5
C3F
330
1F
100
AcDbEntity
  8
0
100
AcDbLine
 10
-31.3585850238685
 20
206.1298075526766
 30
0.0
 11
-44.35858502386849
 21
206.1298075526766
 31
0.0
  0
LINE
  5
C40
330
1F
100
AcDbEntity
  8
0
100
AcDbLine
 10
-39.78952387663707
 20
178.1298075526766
 30
0.0
 11
-31.3585850238685
 21
178.1298075526766
 31
0.0
  0
ARC
  5
C41
330
1F
100
AcDbEntity
  8
Innenkanten
100
AcDbCircle
 10
-30.3585850238685
 20
206.1298075526766
 30
0.0
 40
5.599999999999994
100
AcDbArc
 50
180.0
 51
270.0
  0
ARC
  5
C42
330
1F
100
AcDbEntity
  8
Mittellinie
100
AcDbCircle
 10
-44.35858502386849
 20
192.1298075526766
 30
0.0
 40
16.7
100
AcDbArc
 50
36.59900868189412
 51
54.27834873823081
  0
LINE
  5
C43
330
1F
100
AcDbEntity
  8
Mittellinie
100
AcDbLine
 10
-34.46253581592216
 20
202.025856760623
 30
0.0
 11
-30.72778149378288
 21
205.7606110827622
 31
0.0
  0
CIRCLE
  5
C44
330
1F
100
AcDbEntity
  8
Innenkanten
100
AcDbCircle
 10
-32.54990177805314
 20
203.938490798492
 30
0.0
 40
1.75
  0
CIRCLE
  5
C45
330
1F
100
AcDbEntity
  8
Innenkanten
100
AcDbCircle
 10
-32.54990177805314
 20
203.938490798492
 30
0.0
 40
2.149999999999998
  0
LINE
  5
C46
330
1F
100
AcDbEntity
  8
0
100
AcDbLine
 10
-58.3585850238685
 20
179.1298075526766
 30
0.0
 11
-58.3585850238685
 21
205.1298075526766
 31
0.0
  0
LINE
  5
C47
330
1F
100
AcDbEntity
  8
Mittellinie
100
AcDbLine
 10
-44.35858502386849
 20
159.8860669621384
 30
0.0
 11
-44.35858502386849
 21
211.3132273045713
 31
0.0
  0
ARC
  5
C48
330
1F
100
AcDbEntity
  8
Innenkanten
100
AcDbCircle
 10
-58.3585850238685
 20
178.1298075526766
 30
0.0
 40
5.599999999999994
100
AcDbArc
 50
0.0
 51
90.0
  0
LINE
  5
C49
330
1F
100
AcDbEntity
  8
0
100
AcDbLine
 10
-48.77602763788397
 20
161.0929117613704
 30
0.0
 11
-48.77602763788397
 21
181.4012304791374
 31
0.0
  0
LINE
  5
C4A
330
1F
100
AcDbEntity
  8
0
100
AcDbLine
 10
-39.78952387663713
 20
161.0929117613704
 30
0.0
 11
-39.78952387663713
 21
181.4012304791374
 31
0.0
  0
LINE
  5
C4B
330
1F
100
AcDbEntity
  8
Innenkanten
100
AcDbLine
 10
-44.78202596621872
 20
164.2644670566485
 30
0.0
 11
-47.77752721996765
 21
164.2644670566485
 31
0.0
  0
LINE
  5
C4C
330
1F
100
AcDbEntity
  8
Innenkanten
100
AcDbLine
 10
-44.78202596621872
 20
161.7182909909619
 30
0.0
 11
-47.77752721996765
 21
161.7182909909619
 31
0.0
  0
LINE
  5
C4D
330
1F
100
AcDbEntity
  8
Innenkanten
100
AcDbLine
 10
-45.63075132144757
 20
163.7652168476904
 30
0.0
 11
-46.92880186473877
 21
163.7652168476904
 31
0.0
  0
LINE
  5
C4E
330
1F
100
AcDbEntity
  8
Innenkanten
100
AcDbLine
 10
-45.63075132144757
 20
162.2175411999201
 30
0.0
 11
-46.92880186473877
 21
162.2175411999201
 31
0.0
  0
LINE
  5
C4F
330
1F
100
AcDbEntity
  8
0
100
AcDbLine
 10
-48.77602763788397
 20
161.0929117613704
 30
0.0
 11
-39.78952387663713
 21
161.0929117613704
 31
0.0
  0
LINE
  5
C50
330
1F
100
AcDbEntity
  8
Innenkanten
100
AcDbLine
 10
-47.77752721996765
 20
164.2644670566485
 30
0.0
 11
-47.77752721996765
 21
161.7182909909619
 31
0.0
  0
LINE
  5
C51
330
1F
100
AcDbEntity
  8
Innenkanten
100
AcDbLine
 10
-47.0286519065304
 20
162.3173912417117
 30
0.0
 11
-47.0286519065304
 21
163.6653668058987
 31
0.0
  0
ARC
  5
C52
330
1F
100
AcDbEntity
  8
Innenkanten
100
AcDbCircle
 10
-46.92880186473877
 20
162.3173912417117
 30
0.0
 40
0.099850041791626
100
AcDbArc
 50
180.0
 51
270.0
  0
ARC
  5
C53
330
1F
100
AcDbEntity
  8
Innenkanten
100
AcDbCircle
 10
-46.92880186473877
 20
163.6653668058987
 30
0.0
 40
0.099850041791626
100
AcDbArc
 50
90.0
 51
180.0
  0
LINE
  5
C54
330
1F
100
AcDbEntity
  8
Innenkanten
100
AcDbLine
 10
-43.78352554830235
 20
164.2644670566485
 30
0.0
 11
-41.28727450351161
 21
164.2644670566485
 31
0.0
  0
LINE
  5
C55
330
1F
100
AcDbEntity
  8
Innenkanten
100
AcDbLine
 10
-43.78352554830235
 20
161.7182909909619
 30
0.0
 11
-41.28727450351158
 21
161.7182909909619
 31
0.0
  0
LINE
  5
C56
330
1F
100
AcDbEntity
  8
Innenkanten
100
AcDbLine
 10
-41.6367496497823
 20
163.7652168476904
 30
0.0
 11
-42.93480019307355
 21
163.7652168476904
 31
0.0
  0
LINE
  5
C57
330
1F
100
AcDbEntity
  8
Innenkanten
100
AcDbLine
 10
-41.6367496497823
 20
162.2175411999201
 30
0.0
 11
-42.93480019307355
 21
162.2175411999201
 31
0.0
  0
LINE
  5
C58
330
1F
100
AcDbEntity
  8
Innenkanten
100
AcDbLine
 10
-44.78202596621872
 20
164.2644670566485
 30
0.0
 11
-44.78202596621872
 21
161.7182909909619
 31
0.0
  0
LINE
  5
C59
330
1F
100
AcDbEntity
  8
Innenkanten
100
AcDbLine
 10
-43.78352554830235
 20
164.2644670566485
 30
0.0
 11
-43.7835255483024
 21
161.7182909909619
 31
0.0
  0
LINE
  5
C5A
330
1F
100
AcDbEntity
  8
Innenkanten
100
AcDbLine
 10
-45.53090127965591
 20
162.3173912417117
 30
0.0
 11
-45.53090127965591
 21
163.6653668058987
 31
0.0
  0
LINE
  5
C5B
330
1F
100
AcDbEntity
  8
Innenkanten
100
AcDbLine
 10
-43.03465023486518
 20
162.3173912417117
 30
0.0
 11
-43.03465023486518
 21
163.6653668058987
 31
0.0
  0
ARC
  5
C5C
330
1F
100
AcDbEntity
  8
Innenkanten
100
AcDbCircle
 10
-45.63075132144757
 20
162.3173912417117
 30
0.0
 40
0.099850041791626
100
AcDbArc
 50
270.0
 51
0.0
  0
ARC
  5
C5D
330
1F
100
AcDbEntity
  8
Innenkanten
100
AcDbCircle
 10
-42.93480019307355
 20
162.3173912417117
 30
0.0
 40
0.099850041791626
100
AcDbArc
 50
180.0
 51
270.0
  0
ARC
  5
C5E
330
1F
100
AcDbEntity
  8
Innenkanten
100
AcDbCircle
 10
-45.63075132144757
 20
163.6653668058987
 30
0.0
 40
0.0998500417916545
100
AcDbArc
 50
0.0
 51
90.0
  0
ARC
  5
C5F
330
1F
100
AcDbEntity
  8
Innenkanten
100
AcDbCircle
 10
-42.93480019307355
 20
163.6653668058987
 30
0.0
 40
0.099850041791626
100
AcDbArc
 50
90.0
 51
180.0
  0
LINE
  5
C60
330
1F
100
AcDbEntity
  8
Innenkanten
100
AcDbLine
 10
-40.78802429455339
 20
163.7652168476904
 30
0.0
 11
-40.78802429455345
 21
162.2175411999201
 31
0.0
  0
LINE
  5
C61
330
1F
100
AcDbEntity
  8
Innenkanten
100
AcDbLine
 10
-41.53689960799067
 20
162.3173912417117
 30
0.0
 11
-41.53689960799067
 21
163.6653668058987
 31
0.0
  0
LINE
  5
C62
330
1F
100
AcDbEntity
  8
Innenkanten
100
AcDbLine
 10
-40.78802429455345
 20
162.2175411999201
 30
0.0
 11
-41.28727450351161
 21
161.7182909909619
 31
0.0
  0
ARC
  5
C63
330
1F
100
AcDbEntity
  8
Innenkanten
100
AcDbCircle
 10
-41.6367496497823
 20
162.3173912417117
 30
0.0
 40
0.099850041791626
100
AcDbArc
 50
270.0
 51
0.0
  0
LINE
  5
C64
330
1F
100
AcDbEntity
  8
Innenkanten
100
AcDbLine
 10
-41.28727450351161
 20
164.2644670566485
 30
0.0
 11
-40.78802429455345
 21
163.7652168476904
 31
0.0
  0
ARC
  5
C65
330
1F
100
AcDbEntity
  8
Innenkanten
100
AcDbCircle
 10
-41.6367496497823
 20
163.6653668058987
 30
0.0
 40
0.099850041791626
100
AcDbArc
 50
0.0
 51
90.0
  0
LINE
  5
C66
330
1F
100
AcDbEntity
  8
0
100
AcDbLine
 10
-52.2585850238685
 20
182.1298075526766
 30
0.0
 11
-36.45858502386849
 21
182.1298075526766
 31
0.0
  0
LINE
  5
C67
330
1F
100
AcDbEntity
  8
Innenkanten
100
AcDbLine
 10
-45.28127617517685
 20
177.8191102298626
 30
0.0
 11
-47.77752721996765
 21
177.8191102298626
 31
0.0
  0
LINE
  5
C68
330
1F
100
AcDbEntity
  8
Innenkanten
100
AcDbLine
 10
-44.78202596621872
 20
177.145122447769
 30
0.0
 11
-47.77752721996765
 21
177.145122447769
 31
0.0
  0
LINE
  5
C69
330
1F
100
AcDbEntity
  8
Innenkanten
100
AcDbLine
 10
-44.78202596621872
 20
174.5989463820824
 30
0.0
 11
-47.77752721996765
 21
174.5989463820824
 31
0.0
  0
LINE
  5
C6A
330
1F
100
AcDbEntity
  8
Innenkanten
100
AcDbLine
 10
-44.78202596621872
 20
173.9249585999889
 30
0.0
 11
-47.77752721996765
 21
173.9249585999889
 31
0.0
  0
LINE
  5
C6B
330
1F
100
AcDbEntity
  8
Innenkanten
100
AcDbLine
 10
-44.78202596621872
 20
171.3787825343023
 30
0.0
 11
-47.77752721996765
 21
171.3787825343023
 31
0.0
  0
LINE
  5
C6C
330
1F
100
AcDbEntity
  8
Innenkanten
100
AcDbLine
 10
-45.28127617517685
 20
170.7047947522088
 30
0.0
 11
-47.77752721996765
 21
170.7047947522088
 31
0.0
  0
LINE
  5
C6D
330
1F
100
AcDbEntity
  8
Innenkanten
100
AcDbLine
 10
-45.28127617517685
 20
168.1586186865222
 30
0.0
 11
-47.77752721996765
 21
168.1586186865222
 31
0.0
  0
LINE
  5
C6E
330
1F
100
AcDbEntity
  8
Innenkanten
100
AcDbLine
 10
-45.28127617517685
 20
164.938454838742
 30
0.0
 11
-47.77752721996765
 21
164.938454838742
 31
0.0
  0
LINE
  5
C6F
330
1F
100
AcDbEntity
  8
Innenkanten
100
AcDbLine
 10
-45.28127617517685
 20
167.4846309044287
 30
0.0
 11
-47.77752721996765
 21
167.4846309044287
 31
0.0
  0
LINE
  5
C70
330
1F
100
AcDbEntity
  8
Innenkanten
100
AcDbLine
 10
-45.63075132144757
 20
178.3183604388207
 30
0.0
 11
-46.9288018647388
 21
178.3183604388207
 31
0.0
  0
LINE
  5
C71
330
1F
100
AcDbEntity
  8
Innenkanten
100
AcDbLine
 10
-45.63075132144757
 20
176.6458722388109
 30
0.0
 11
-46.92880186473877
 21
176.6458722388109
 31
0.0
  0
LINE
  5
C72
330
1F
100
AcDbEntity
  8
Innenkanten
100
AcDbLine
 10
-45.63075132144757
 20
175.0981965910406
 30
0.0
 11
-46.9288018647388
 21
175.0981965910406
 31
0.0
  0
LINE
  5
C73
330
1F
100
AcDbEntity
  8
Innenkanten
100
AcDbLine
 10
-45.63075132144757
 20
171.8780327432605
 30
0.0
 11
-46.92880186473877
 21
171.8780327432605
 31
0.0
  0
LINE
  5
C74
330
1F
100
AcDbEntity
  8
Innenkanten
100
AcDbLine
 10
-45.63075132144757
 20
170.2055445432507
 30
0.0
 11
-46.92880186473877
 21
170.2055445432507
 31
0.0
  0
LINE
  5
C75
330
1F
100
AcDbEntity
  8
Innenkanten
100
AcDbLine
 10
-45.63075132144757
 20
168.6578688954804
 30
0.0
 11
-46.92880186473877
 21
168.6578688954804
 31
0.0
  0
LINE
  5
C76
330
1F
100
AcDbEntity
  8
Innenkanten
100
AcDbLine
 10
-45.63075132144757
 20
166.9853806954705
 30
0.0
 11
-46.92880186473877
 21
166.9853806954705
 31
0.0
  0
LINE
  5
C77
330
1F
100
AcDbEntity
  8
Innenkanten
100
AcDbLine
 10
-45.63075132144757
 20
165.4377050477002
 30
0.0
 11
-46.92880186473877
 21
165.4377050477002
 31
0.0
  0
LINE
  5
C78
330
1F
100
AcDbEntity
  8
Innenkanten
100
AcDbLine
 10
-45.28127617517685
 20
180.3652862955492
 30
0.0
 11
-47.77752721996765
 21
180.3652862955492
 31
0.0
  0
LINE
  5
C79
330
1F
100
AcDbEntity
  8
Innenkanten
100
AcDbLine
 10
-45.63075132144757
 20
179.866036086591
 30
0.0
 11
-46.92865190653043
 21
179.866036086591
 31
0.0
  0
LINE
  5
C7A
330
1F
100
AcDbEntity
  8
Innenkanten
100
AcDbLine
 10
-45.63075132144757
 20
173.4255327432605
 30
0.0
 11
-46.92880186473877
 21
173.4255327432605
 31
0.0
  0
LINE
  5
C7B
330
1F
100
AcDbEntity
  8
0
100
AcDbLine
 10
-39.78952387663713
 20
181.4012304791374
 30
0.0
 11
-48.776027637884
 21
181.4012304791374
 31
0.0
  0
LINE
  5
C7C
330
1F
100
AcDbEntity
  8
Innenkanten
100
AcDbLine
 10
-50.7585850238685
 20
174.6298075526766
 30
0.0
 11
-50.7585850238685
 21
178.1298075526766
 31
0.0
  0
ARC
  5
C7D
330
1F
100
AcDbEntity
  8
0
100
AcDbCircle
 10
-52.2585850238685
 20
175.1298075526766
 30
0.0
 40
0.5
100
AcDbArc
 50
180.0
 51
270.0
  0
LINE
  5
C7E
330
1F
100
AcDbEntity
  8
Innenkanten
100
AcDbLine
 10
-47.77752721996765
 20
174.5989463820824
 30
0.0
 11
-47.77752721996765
 21
177.145122447769
 31
0.0
  0
LINE
  5
C7F
330
1F
100
AcDbEntity
  8
Innenkanten
100
AcDbLine
 10
-47.77752721996765
 20
170.7047947522088
 30
0.0
 11
-47.77752721996765
 21
168.1586186865222
 31
0.0
  0
LINE
  5
C80
330
1F
100
AcDbEntity
  8
Innenkanten
100
AcDbLine
 10
-47.0286519065304
 20
168.757718937272
 30
0.0
 11
-47.0286519065304
 21
170.105694501459
 31
0.0
  0
LINE
  5
C81
330
1F
100
AcDbEntity
  8
0
100
AcDbLine
 10
-51.77575242782541
 20
173.2664493276167
 30
0.0
 11
-51.77575242782541
 21
168.7664493276168
 31
0.0
  0
LINE
  5
C82
330
1F
100
AcDbEntity
  8
Innenkanten
100
AcDbLine
 10
-49.52575242782541
 20
172.5164493276168
 30
0.0
 11
-49.52575242782541
 21
169.5164493276168
 31
0.0
  0
LINE
  5
C83
330
1F
100
AcDbEntity
  8
Innenkanten
100
AcDbLine
 10
-50.27575242782541
 20
173.2664493276168
 30
0.0
 11
-50.27575242782541
 21
168.7664493276168
 31
0.0
  0
LINE
  5
C84
330
1F
100
AcDbEntity
  8
0
100
AcDbLine
 10
-51.77575242782541
 20
168.7664493276168
 30
0.0
 11
-48.7757524278254
 21
168.7664493276168
 31
0.0
  0
LINE
  5
C85
330
1F
100
AcDbEntity
  8
Innenkanten
100
AcDbLine
 10
-47.77752721996765
 20
164.938454838742
 30
0.0
 11
-47.77752721996765
 21
167.4846309044287
 31
0.0
  0
ARC
  5
C86
330
1F
100
AcDbEntity
  8
Innenkanten
100
AcDbCircle
 10
-46.92880186473877
 20
165.5375550894918
 30
0.0
 40
0.099850041791626
100
AcDbArc
 50
180.0
 51
270.0
  0
LINE
  5
C87
330
1F
100
AcDbEntity
  8
Innenkanten
100
AcDbLine
 10
-47.0286519065304
 20
165.5375550894918
 30
0.0
 11
-47.0286519065304
 21
166.8855306536789
 31
0.0
  0
ARC
  5
C88
330
1F
100
AcDbEntity
  8
Innenkanten
100
AcDbCircle
 10
-46.92880186473877
 20
166.8855306536789
 30
0.0
 40
0.099850041791626
100
AcDbArc
 50
90.0
 51
180.0
  0
LINE
  5
C89
330
1F
100
AcDbEntity
  8
Innenkanten
100
AcDbLine
 10
-49.52575242782541
 20
169.5164493276168
 30
0.0
 11
-48.7757524278254
 21
169.5164493276168
 31
0.0
  0
ARC
  5
C8A
330
1F
100
AcDbEntity
  8
Innenkanten
100
AcDbCircle
 10
-46.92880186473877
 20
168.757718937272
 30
0.0
 40
0.099850041791626
100
AcDbArc
 50
180.0
 51
270.0
  0
LINE
  5
C8B
330
1F
100
AcDbEntity
  8
0
100
AcDbLine
 10
-52.2585850238685
 20
174.6298075526766
 30
0.0
 11
-48.77602763788397
 21
174.6298075526766
 31
0.0
  0
LINE
  5
C8C
330
1F
100
AcDbEntity
  8
0
100
AcDbLine
 10
-51.77575242782541
 20
173.2664493276167
 30
0.0
 11
-48.7757524278254
 21
173.2664493276168
 31
0.0
  0
LINE
  5
C8D
330
1F
100
AcDbEntity
  8
0
100
AcDbLine
 10
-51.30858502386849
 20
173.2664493276167
 30
0.0
 11
-51.30858502386849
 21
174.6298075526766
 31
0.0
  0
LINE
  5
C8E
330
1F
100
AcDbEntity
  8
Innenkanten
100
AcDbLine
 10
-47.77752721996765
 20
171.3787825343023
 30
0.0
 11
-47.77752721996765
 21
173.9249585999889
 31
0.0
  0
LINE
  5
C8F
330
1F
100
AcDbEntity
  8
Innenkanten
100
AcDbLine
 10
-47.0286519065304
 20
171.9778827850521
 30
0.0
 11
-47.0286519065304
 21
173.3258583492391
 31
0.0
  0
ARC
  5
C90
330
1F
100
AcDbEntity
  8
Innenkanten
100
AcDbCircle
 10
-46.92880186473877
 20
171.9778827850521
 30
0.0
 40
0.099850041791626
100
AcDbArc
 50
180.0
 51
270.0
  0
ARC
  5
C91
330
1F
100
AcDbEntity
  8
Innenkanten
100
AcDbCircle
 10
-46.92880186473877
 20
170.105694501459
 30
0.0
 40
0.099850041791626
100
AcDbArc
 50
90.0
 51
180.0
  0
LINE
  5
C92
330
1F
100
AcDbEntity
  8
Innenkanten
100
AcDbLine
 10
-49.52575242782541
 20
172.5164493276168
 30
0.0
 11
-48.7757524278254
 21
172.5164493276168
 31
0.0
  0
ARC
  5
C93
330
1F
100
AcDbEntity
  8
Innenkanten
100
AcDbCircle
 10
-46.92880186473877
 20
173.3258583492391
 30
0.0
 40
0.099850041791626
100
AcDbArc
 50
90.0
 51
180.0
  0
LINE
  5
C94
330
1F
100
AcDbEntity
  8
0
100
AcDbLine
 10
-57.3585850238685
 20
178.1298075526766
 30
0.0
 11
-48.77602763788397
 21
178.1298075526766
 31
0.0
  0
LINE
  5
C95
330
1F
100
AcDbEntity
  8
Mittellinie
100
AcDbLine
 10
-58.14795295658067
 20
178.3404396199644
 30
0.0
 11
-54.13947599596778
 21
182.3489165805773
 31
0.0
  0
CIRCLE
  5
C96
330
1F
100
AcDbEntity
  8
Innenkanten
100
AcDbCircle
 10
-56.16726826968386
 20
180.3211243068613
 30
0.0
 40
2.150000000000005
  0
ARC
  5
C97
330
1F
100
AcDbEntity
  8
Mittellinie
100
AcDbCircle
 10
-44.35858502386849
 20
192.1298075526766
 30
0.0
 40
16.7
100
AcDbArc
 50
215.9937959376613
 51
233.6552630892617
  0
CIRCLE
  5
C98
330
1F
100
AcDbEntity
  8
Innenkanten
100
AcDbCircle
 10
-56.16726826968386
 20
180.3211243068613
 30
0.0
 40
1.75
  0
LINE
  5
C99
330
1F
100
AcDbEntity
  8
Innenkanten
100
AcDbLine
 10
-55.40924980025187
 20
179.6578581461083
 30
0.0
 11
-55.50400210893087
 21
179.5631058374293
 31
0.0
  0
LINE
  5
C9A
330
1F
100
AcDbEntity
  8
Innenkanten
100
AcDbLine
 10
-56.92528673911579
 20
179.6578581461083
 30
0.0
 11
-56.83053443043684
 21
179.5631058374293
 31
0.0
  0
ARC
  5
C9B
330
1F
100
AcDbEntity
  8
Innenkanten
100
AcDbCircle
 10
-56.16726826968386
 20
178.8998396766763
 30
0.0
 40
0.9379999999999999
100
AcDbArc
 50
45.00000000000007
 51
134.9999999999998
  0
ARC
  5
C9C
330
1F
100
AcDbEntity
  8
0
100
AcDbCircle
 10
-57.3585850238685
 20
179.1298075526766
 30
0.0
 40
1.0
100
AcDbArc
 50
180.0
 51
270.0
  0
ARC
  5
C9D
330
1F
100
AcDbEntity
  8
Innenkanten
100
AcDbCircle
 10
-56.16726826968386
 20
181.7424089370462
 30
0.0
 40
0.9380000000000016
100
AcDbArc
 50
225.0
 51
314.9999999999999
  0
LINE
  5
C9E
330
1F
100
AcDbEntity
  8
Innenkanten
100
AcDbLine
 10
-56.83053443043684
 20
181.0791427762932
 30
0.0
 11
-56.92528673911579
 21
180.9843904676142
 31
0.0
  0
ARC
  5
C9F
330
1F
100
AcDbEntity
  8
Innenkanten
100
AcDbCircle
 10
-57.58855289986877
 20
180.3211243068613
 30
0.0
 40
0.937999999999999
100
AcDbArc
 50
314.9999999999999
 51
45.00000000000007
  0
LINE
  5
CA0
330
1F
100
AcDbEntity
  8
Innenkanten
100
AcDbLine
 10
-55.50400210893087
 20
181.0791427762932
 30
0.0
 11
-55.40924980025187
 21
180.9843904676142
 31
0.0
  0
ARC
  5
CA1
330
1F
100
AcDbEntity
  8
Innenkanten
100
AcDbCircle
 10
-54.74598363949889
 20
180.3211243068613
 30
0.0
 40
0.937999999999999
100
AcDbArc
 50
134.9999999999998
 51
225.0
  0
LINE
  5
CA2
330
1F
100
AcDbEntity
  8
0
100
AcDbLine
 10
-52.7585850238685
 20
175.1298075526766
 30
0.0
 11
-52.7585850238685
 21
181.6298075526766
 31
0.0
  0
LINE
  5
CA3
330
1F
100
AcDbEntity
  8
Innenkanten
100
AcDbLine
 10
-47.77752721996765
 20
177.8191102298626
 30
0.0
 11
-47.77752721996765
 21
180.3652862955492
 31
0.0
  0
LINE
  5
CA4
330
1F
100
AcDbEntity
  8
Innenkanten
100
AcDbLine
 10
-47.02865190653042
 20
178.4182104806124
 30
0.0
 11
-47.0286519065304
 21
179.766036086591
 31
0.0
  0
ARC
  5
CA5
330
1F
100
AcDbEntity
  8
Innenkanten
100
AcDbCircle
 10
-46.9288018647388
 20
175.1980466328323
 30
0.0
 40
0.099850041791626
100
AcDbArc
 50
180.0
 51
270.0
  0
LINE
  5
CA6
330
1F
100
AcDbEntity
  8
Innenkanten
100
AcDbLine
 10
-47.02865190653042
 20
175.1980466328323
 30
0.0
 11
-47.0286519065304
 21
176.5460221970192
 31
0.0
  0
ARC
  5
CA7
330
1F
100
AcDbEntity
  8
Innenkanten
100
AcDbCircle
 10
-46.92880186473877
 20
176.5460221970192
 30
0.0
 40
0.0998500417916545
100
AcDbArc
 50
90.0
 51
180.0
  0
ARC
  5
CA8
330
1F
100
AcDbEntity
  8
Innenkanten
100
AcDbCircle
 10
-46.9288018647388
 20
178.4182104806124
 30
0.0
 40
0.099850041791626
100
AcDbArc
 50
180.0
 51
270.0
  0
ARC
  5
CA9
330
1F
100
AcDbEntity
  8
0
100
AcDbCircle
 10
-52.2585850238685
 20
181.6298075526766
 30
0.0
 40
0.5
100
AcDbArc
 50
90.0
 51
180.0
  0
ARC
  5
CAA
330
1F
100
AcDbEntity
  8
Innenkanten
100
AcDbCircle
 10
-46.92865190653043
 20
179.766036086591
 30
0.0
 40
0.0999999999999995
100
AcDbArc
 50
90.0
 51
180.0
  0
LINE
  5
CAB
330
1F
100
AcDbEntity
  8
Innenkanten
100
AcDbLine
 10
-37.95858502386849
 20
174.6298075526766
 30
0.0
 11
-37.95858502386849
 21
178.1298075526766
 31
0.0
  0
ARC
  5
CAC
330
1F
100
AcDbEntity
  8
0
100
AcDbCircle
 10
-36.45858502386849
 20
175.1298075526766
 30
0.0
 40
0.5
100
AcDbArc
 50
270.0
 51
0.0
  0
LINE
  5
CAD
330
1F
100
AcDbEntity
  8
Innenkanten
100
AcDbLine
 10
-44.78202596621872
 20
174.5989463820824
 30
0.0
 11
-44.78202596621872
 21
177.145122447769
 31
0.0
  0
LINE
  5
CAE
330
1F
100
AcDbEntity
  8
Innenkanten
100
AcDbLine
 10
-43.7835255483024
 20
174.5989463820824
 30
0.0
 11
-43.78352554830235
 21
177.145122447769
 31
0.0
  0
LINE
  5
CAF
330
1F
100
AcDbEntity
  8
Innenkanten
100
AcDbLine
 10
-40.78802429455339
 20
175.0981965910406
 30
0.0
 11
-41.28727450351158
 21
174.5989463820824
 31
0.0
  0
LINE
  5
CB0
330
1F
100
AcDbEntity
  8
0
100
AcDbLine
 10
-35.30858502386848
 20
172.1298075526766
 30
0.0
 11
-35.30858502386848
 21
178.1298075526766
 31
0.0
  0
LINE
  5
CB1
330
1F
100
AcDbEntity
  8
0
100
AcDbLine
 10
-39.78952387663713
 20
174.6298075526766
 30
0.0
 11
-36.45858502386849
 21
174.6298075526766
 31
0.0
  0
LINE
  5
CB2
330
1F
100
AcDbEntity
  8
0
100
AcDbLine
 10
-36.30858502386848
 20
171.1298075526766
 30
0.0
 11
-39.78952387663713
 21
171.1298075526766
 31
0.0
  0
LINE
  5
CB3
330
1F
100
AcDbEntity
  8
Innenkanten
100
AcDbLine
 10
-44.78202596621872
 20
170.2055445432507
 30
0.0
 11
-44.78202596621872
 21
168.6578688954804
 31
0.0
  0
LINE
  5
CB4
330
1F
100
AcDbEntity
  8
Innenkanten
100
AcDbLine
 10
-43.78352554830235
 20
170.7047947522088
 30
0.0
 11
-43.7835255483024
 21
168.1586186865222
 31
0.0
  0
LINE
  5
CB5
330
1F
100
AcDbEntity
  8
Innenkanten
100
AcDbLine
 10
-40.78802429455339
 20
170.7047947522088
 30
0.0
 11
-40.78802429455339
 21
168.1586186865222
 31
0.0
  0
LINE
  5
CB6
330
1F
100
AcDbEntity
  8
Innenkanten
100
AcDbLine
 10
-45.53090127965591
 20
168.757718937272
 30
0.0
 11
-45.53090127965591
 21
170.105694501459
 31
0.0
  0
LINE
  5
CB7
330
1F
100
AcDbEntity
  8
Innenkanten
100
AcDbLine
 10
-41.53689960799067
 20
168.7577189372719
 30
0.0
 11
-41.53689960799067
 21
170.105694501459
 31
0.0
  0
LINE
  5
CB8
330
1F
100
AcDbEntity
  8
Innenkanten
100
AcDbLine
 10
-43.03465023486518
 20
168.7577189372719
 30
0.0
 11
-43.03465023486518
 21
170.105694501459
 31
0.0
  0
LINE
  5
CB9
330
1F
100
AcDbEntity
  8
Innenkanten
100
AcDbLine
 10
-43.78352554830235
 20
168.1586186865222
 30
0.0
 11
-40.78802429455339
 21
168.1586186865222
 31
0.0
  0
LINE
  5
CBA
330
1F
100
AcDbEntity
  8
Innenkanten
100
AcDbLine
 10
-43.78352554830235
 20
164.938454838742
 30
0.0
 11
-40.78802429455339
 21
164.938454838742
 31
0.0
  0
LINE
  5
CBB
330
1F
100
AcDbEntity
  8
Innenkanten
100
AcDbLine
 10
-43.78352554830235
 20
167.4846309044287
 30
0.0
 11
-40.78802429455339
 21
167.4846309044287
 31
0.0
  0
LINE
  5
CBC
330
1F
100
AcDbEntity
  8
Innenkanten
100
AcDbLine
 10
-41.6367496497823
 20
166.9853806954705
 30
0.0
 11
-42.9348001930735
 21
166.9853806954705
 31
0.0
  0
LINE
  5
CBD
330
1F
100
AcDbEntity
  8
Innenkanten
100
AcDbLine
 10
-41.6367496497823
 20
165.4377050477002
 30
0.0
 11
-42.9348001930735
 21
165.4377050477002
 31
0.0
  0
LINE
  5
CBE
330
1F
100
AcDbEntity
  8
Innenkanten
100
AcDbLine
 10
-41.6367496497823
 20
168.6578688954804
 30
0.0
 11
-42.93480019307355
 21
168.6578688954804
 31
0.0
  0
LINE
  5
CBF
330
1F
100
AcDbEntity
  8
Innenkanten
100
AcDbLine
 10
-43.78352554830235
 20
164.938454838742
 30
0.0
 11
-43.7835255483024
 21
167.4846309044287
 31
0.0
  0
LINE
  5
CC0
330
1F
100
AcDbEntity
  8
Innenkanten
100
AcDbLine
 10
-45.28127617517685
 20
167.4846309044287
 30
0.0
 11
-44.78202596621872
 21
166.9853806954705
 31
0.0
  0
LINE
  5
CC1
330
1F
100
AcDbEntity
  8
Innenkanten
100
AcDbLine
 10
-44.78202596621872
 20
165.4377050477002
 30
0.0
 11
-44.78202596621872
 21
166.9853806954705
 31
0.0
  0
LINE
  5
CC2
330
1F
100
AcDbEntity
  8
Innenkanten
100
AcDbLine
 10
-44.78202596621872
 20
165.4377050477002
 30
0.0
 11
-45.28127617517685
 21
164.938454838742
 31
0.0
  0
ARC
  5
CC3
330
1F
100
AcDbEntity
  8
Innenkanten
100
AcDbCircle
 10
-45.63075132144757
 20
166.8855306536789
 30
0.0
 40
0.0998500417916545
100
AcDbArc
 50
0.0
 51
90.0
  0
LINE
  5
CC4
330
1F
100
AcDbEntity
  8
Innenkanten
100
AcDbLine
 10
-45.53090127965591
 20
165.5375550894918
 30
0.0
 11
-45.53090127965591
 21
166.8855306536789
 31
0.0
  0
ARC
  5
CC5
330
1F
100
AcDbEntity
  8
Innenkanten
100
AcDbCircle
 10
-45.63075132144757
 20
165.5375550894918
 30
0.0
 40
0.0998500417916615
100
AcDbArc
 50
270.0
 51
0.0
  0
ARC
  5
CC6
330
1F
100
AcDbEntity
  8
Innenkanten
100
AcDbCircle
 10
-42.9348001930735
 20
165.5375550894918
 30
0.0
 40
0.099850041791626
100
AcDbArc
 50
180.0
 51
270.0
  0
LINE
  5
CC7
330
1F
100
AcDbEntity
  8
Innenkanten
100
AcDbLine
 10
-43.03465023486512
 20
165.5375550894918
 30
0.0
 11
-43.03465023486512
 21
166.8855306536789
 31
0.0
  0
ARC
  5
CC8
330
1F
100
AcDbEntity
  8
Innenkanten
100
AcDbCircle
 10
-42.9348001930735
 20
166.8855306536789
 30
0.0
 40
0.099850041791626
100
AcDbArc
 50
90.0
 51
180.0
  0
LINE
  5
CC9
330
1F
100
AcDbEntity
  8
Innenkanten
100
AcDbLine
 10
-44.78202596621872
 20
168.6578688954804
 30
0.0
 11
-45.28127617517685
 21
168.1586186865222
 31
0.0
  0
ARC
  5
CCA
330
1F
100
AcDbEntity
  8
Innenkanten
100
AcDbCircle
 10
-45.63075132144757
 20
168.757718937272
 30
0.0
 40
0.0998500417916545
100
AcDbArc
 50
270.0
 51
0.0
  0
ARC
  5
CCB
330
1F
100
AcDbEntity
  8
Innenkanten
100
AcDbCircle
 10
-42.93480019307355
 20
168.7577189372719
 30
0.0
 40
0.099850041791626
100
AcDbArc
 50
180.0
 51
270.0
  0
LINE
  5
CCC
330
1F
100
AcDbEntity
  8
Innenkanten
100
AcDbLine
 10
-40.78802429455339
 20
164.938454838742
 30
0.0
 11
-40.78802429455339
 21
167.4846309044287
 31
0.0
  0
ARC
  5
CCD
330
1F
100
AcDbEntity
  8
Innenkanten
100
AcDbCircle
 10
-41.6367496497823
 20
166.8855306536789
 30
0.0
 40
0.099850041791669
100
AcDbArc
 50
0.0
 51
90.0
  0
LINE
  5
CCE
330
1F
100
AcDbEntity
  8
Innenkanten
100
AcDbLine
 10
-41.53689960799065
 20
165.5375550894918
 30
0.0
 11
-41.53689960799065
 21
166.8855306536789
 31
0.0
  0
ARC
  5
CCF
330
1F
100
AcDbEntity
  8
Innenkanten
100
AcDbCircle
 10
-41.6367496497823
 20
165.5375550894918
 30
0.0
 40
0.0998500417916615
100
AcDbArc
 50
270.0
 51
0.0
  0
ARC
  5
CD0
330
1F
100
AcDbEntity
  8
Innenkanten
100
AcDbCircle
 10
-41.6367496497823
 20
168.7577189372719
 30
0.0
 40
0.099850041791626
100
AcDbArc
 50
270.0
 51
0.0
  0
LINE
  5
CD1
330
1F
100
AcDbEntity
  8
Innenkanten
100
AcDbLine
 10
-43.78352554830235
 20
171.3787825343023
 30
0.0
 11
-41.28727450351158
 21
171.3787825343023
 31
0.0
  0
LINE
  5
CD2
330
1F
100
AcDbEntity
  8
Innenkanten
100
AcDbLine
 10
-43.78352554830235
 20
173.9249585999889
 30
0.0
 11
-41.28727450351161
 21
173.9249585999889
 31
0.0
  0
LINE
  5
CD3
330
1F
100
AcDbEntity
  8
Innenkanten
100
AcDbLine
 10
-43.78352554830235
 20
174.5989463820824
 30
0.0
 11
-41.28727450351158
 21
174.5989463820824
 31
0.0
  0
LINE
  5
CD4
330
1F
100
AcDbEntity
  8
Innenkanten
100
AcDbLine
 10
-43.78352554830235
 20
170.7047947522088
 30
0.0
 11
-40.78802429455339
 21
170.7047947522088
 31
0.0
  0
LINE
  5
CD5
330
1F
100
AcDbEntity
  8
Innenkanten
100
AcDbLine
 10
-41.6367496497823
 20
170.2055445432507
 30
0.0
 11
-42.93480019307355
 21
170.2055445432507
 31
0.0
  0
LINE
  5
CD6
330
1F
100
AcDbEntity
  8
Innenkanten
100
AcDbLine
 10
-41.6367496497823
 20
173.4257083910308
 30
0.0
 11
-42.9348001930735
 21
173.4257083910308
 31
0.0
  0
LINE
  5
CD7
330
1F
100
AcDbEntity
  8
Innenkanten
100
AcDbLine
 10
-41.6367496497823
 20
171.8780327432605
 30
0.0
 11
-42.9348001930735
 21
171.8780327432605
 31
0.0
  0
LINE
  5
CD8
330
1F
100
AcDbEntity
  8
Innenkanten
100
AcDbLine
 10
-44.78202596621872
 20
171.3787825343023
 30
0.0
 11
-44.78202596621872
 21
173.9249585999889
 31
0.0
  0
LINE
  5
CD9
330
1F
100
AcDbEntity
  8
Innenkanten
100
AcDbLine
 10
-43.78352554830235
 20
171.3787825343023
 30
0.0
 11
-43.7835255483024
 21
173.9249585999889
 31
0.0
  0
LINE
  5
CDA
330
1F
100
AcDbEntity
  8
Innenkanten
100
AcDbLine
 10
-45.53090127965591
 20
171.9778827850521
 30
0.0
 11
-45.53090127965591
 21
173.3258583492391
 31
0.0
  0
LINE
  5
CDB
330
1F
100
AcDbEntity
  8
Innenkanten
100
AcDbLine
 10
-43.03465023486512
 20
171.9778827850521
 30
0.0
 11
-43.03465023486512
 21
173.3258583492391
 31
0.0
  0
LINE
  5
CDC
330
1F
100
AcDbEntity
  8
Innenkanten
100
AcDbLine
 10
-45.28127617517685
 20
170.7047947522088
 30
0.0
 11
-44.78202596621872
 21
170.2055445432507
 31
0.0
  0
ARC
  5
CDD
330
1F
100
AcDbEntity
  8
Innenkanten
100
AcDbCircle
 10
-45.63075132144757
 20
171.9778827850521
 30
0.0
 40
0.099850041791626
100
AcDbArc
 50
270.0
 51
0.0
  0
ARC
  5
CDE
330
1F
100
AcDbEntity
  8
Innenkanten
100
AcDbCircle
 10
-45.63075132144757
 20
170.105694501459
 30
0.0
 40
0.0998500417916545
100
AcDbArc
 50
0.0
 51
90.0
  0
ARC
  5
CDF
330
1F
100
AcDbEntity
  8
Innenkanten
100
AcDbCircle
 10
-42.93480019307355
 20
170.105694501459
 30
0.0
 40
0.0998500417916545
100
AcDbArc
 50
90.0
 51
180.0
  0
ARC
  5
CE0
330
1F
100
AcDbEntity
  8
Innenkanten
100
AcDbCircle
 10
-42.9348001930735
 20
171.9778827850521
 30
0.0
 40
0.099850041791626
100
AcDbArc
 50
180.0
 51
270.0
  0
ARC
  5
CE1
330
1F
100
AcDbEntity
  8
Innenkanten
100
AcDbCircle
 10
-45.63075132144757
 20
173.3258583492391
 30
0.0
 40
0.0998500417916545
100
AcDbArc
 50
0.0
 51
90.0
  0
ARC
  5
CE2
330
1F
100
AcDbEntity
  8
Innenkanten
100
AcDbCircle
 10
-42.9348001930735
 20
173.3258583492391
 30
0.0
 40
0.099850041791626
100
AcDbArc
 50
90.0
 51
180.0
  0
LINE
  5
CE3
330
1F
100
AcDbEntity
  8
Innenkanten
100
AcDbLine
 10
-40.78802429455345
 20
171.8780327432605
 30
0.0
 11
-40.78802429455345
 21
173.4257083910308
 31
0.0
  0
LINE
  5
CE4
330
1F
100
AcDbEntity
  8
Innenkanten
100
AcDbLine
 10
-41.53689960799065
 20
171.9778827850521
 30
0.0
 11
-41.53689960799065
 21
173.3258583492391
 31
0.0
  0
LINE
  5
CE5
330
1F
100
AcDbEntity
  8
Innenkanten
100
AcDbLine
 10
-40.78802429455339
 20
171.8780327432605
 30
0.0
 11
-41.28727450351158
 21
171.3787825343023
 31
0.0
  0
ARC
  5
CE6
330
1F
100
AcDbEntity
  8
Innenkanten
100
AcDbCircle
 10
-41.6367496497823
 20
170.105694501459
 30
0.0
 40
0.099850041791626
100
AcDbArc
 50
0.0
 51
90.0
  0
ARC
  5
CE7
330
1F
100
AcDbEntity
  8
Innenkanten
100
AcDbCircle
 10
-41.6367496497823
 20
171.9778827850521
 30
0.0
 40
0.099850041791626
100
AcDbArc
 50
270.0
 51
0.0
  0
LINE
  5
CE8
330
1F
100
AcDbEntity
  8
Innenkanten
100
AcDbLine
 10
-41.28727450351158
 20
173.9249585999889
 30
0.0
 11
-40.78802429455339
 21
173.4257083910308
 31
0.0
  0
ARC
  5
CE9
330
1F
100
AcDbEntity
  8
Innenkanten
100
AcDbCircle
 10
-41.6367496497823
 20
173.3258583492391
 30
0.0
 40
0.099850041791669
100
AcDbArc
 50
0.0
 51
90.0
  0
ARC
  5
CEA
330
1F
100
AcDbEntity
  8
0
100
AcDbCircle
 10
-36.30858502386848
 20
172.1298075526766
 30
0.0
 40
1.0
100
AcDbArc
 50
270.0
 51
0.0
  0
LINE
  5
CEB
330
1F
100
AcDbEntity
  8
Innenkanten
100
AcDbLine
 10
-44.78202596621872
 20
178.3183604388207
 30
0.0
 11
-44.78202596621872
 21
179.866036086591
 31
0.0
  0
LINE
  5
CEC
330
1F
100
AcDbEntity
  8
Innenkanten
100
AcDbLine
 10
-43.78352554830235
 20
177.8191102298626
 30
0.0
 11
-43.78352554830235
 21
180.3652862955492
 31
0.0
  0
LINE
  5
CED
330
1F
100
AcDbEntity
  8
Innenkanten
100
AcDbLine
 10
-40.78802429455339
 20
177.8191102298626
 30
0.0
 11
-40.78802429455339
 21
180.3652862955492
 31
0.0
  0
LINE
  5
CEE
330
1F
100
AcDbEntity
  8
Innenkanten
100
AcDbLine
 10
-45.53090127965591
 20
178.4182104806124
 30
0.0
 11
-45.53090127965591
 21
179.7661860447994
 31
0.0
  0
LINE
  5
CEF
330
1F
100
AcDbEntity
  8
Innenkanten
100
AcDbLine
 10
-41.53689960799065
 20
178.4182104806124
 30
0.0
 11
-41.53689960799065
 21
179.7661860447994
 31
0.0
  0
LINE
  5
CF0
330
1F
100
AcDbEntity
  8
Innenkanten
100
AcDbLine
 10
-43.03465023486512
 20
178.4182104806124
 30
0.0
 11
-43.03465023486512
 21
179.7661860447994
 31
0.0
  0
LINE
  5
CF1
330
1F
100
AcDbEntity
  8
Innenkanten
100
AcDbLine
 10
-43.78352554830235
 20
177.145122447769
 30
0.0
 11
-41.28727450351158
 21
177.145122447769
 31
0.0
  0
LINE
  5
CF2
330
1F
100
AcDbEntity
  8
Innenkanten
100
AcDbLine
 10
-43.78352554830235
 20
177.8191102298626
 30
0.0
 11
-40.78802429455339
 21
177.8191102298626
 31
0.0
  0
LINE
  5
CF3
330
1F
100
AcDbEntity
  8
Innenkanten
100
AcDbLine
 10
-41.6367496497823
 20
176.6458722388109
 30
0.0
 11
-42.9348001930735
 21
176.6458722388109
 31
0.0
  0
LINE
  5
CF4
330
1F
100
AcDbEntity
  8
Innenkanten
100
AcDbLine
 10
-41.6367496497823
 20
175.0981965910406
 30
0.0
 11
-42.93480019307355
 21
175.0981965910406
 31
0.0
  0
LINE
  5
CF5
330
1F
100
AcDbEntity
  8
Innenkanten
100
AcDbLine
 10
-41.6367496497823
 20
178.3183604388207
 30
0.0
 11
-42.9348001930735
 21
178.3183604388207
 31
0.0
  0
ARC
  5
CF6
330
1F
100
AcDbEntity
  8
Innenkanten
100
AcDbCircle
 10
-45.63075132144757
 20
176.5460221970192
 30
0.0
 40
0.0998500417916545
100
AcDbArc
 50
0.0
 51
90.0
  0
LINE
  5
CF7
330
1F
100
AcDbEntity
  8
Innenkanten
100
AcDbLine
 10
-45.53090127965591
 20
175.1980466328323
 30
0.0
 11
-45.53090127965591
 21
176.5460221970192
 31
0.0
  0
ARC
  5
CF8
330
1F
100
AcDbEntity
  8
Innenkanten
100
AcDbCircle
 10
-45.63075132144757
 20
175.1980466328323
 30
0.0
 40
0.099850041791626
100
AcDbArc
 50
270.0
 51
0.0
  0
ARC
  5
CF9
330
1F
100
AcDbEntity
  8
Innenkanten
100
AcDbCircle
 10
-42.93480019307355
 20
175.1980466328323
 30
0.0
 40
0.099850041791626
100
AcDbArc
 50
180.0
 51
270.0
  0
LINE
  5
CFA
330
1F
100
AcDbEntity
  8
Innenkanten
100
AcDbLine
 10
-43.03465023486518
 20
175.1980466328323
 30
0.0
 11
-43.03465023486512
 21
176.5460221970192
 31
0.0
  0
ARC
  5
CFB
330
1F
100
AcDbEntity
  8
Innenkanten
100
AcDbCircle
 10
-42.9348001930735
 20
176.5460221970192
 30
0.0
 40
0.0998500417916545
100
AcDbArc
 50
90.0
 51
180.0
  0
LINE
  5
CFC
330
1F
100
AcDbEntity
  8
Innenkanten
100
AcDbLine
 10
-44.78202596621872
 20
178.3183604388207
 30
0.0
 11
-45.28127617517685
 21
177.8191102298626
 31
0.0
  0
ARC
  5
CFD
330
1F
100
AcDbEntity
  8
Innenkanten
100
AcDbCircle
 10
-45.63075132144757
 20
178.4182104806124
 30
0.0
 40
0.0998500417916475
100
AcDbArc
 50
270.0
 51
0.0
  0
ARC
  5
CFE
330
1F
100
AcDbEntity
  8
Innenkanten
100
AcDbCircle
 10
-42.9348001930735
 20
178.4182104806124
 30
0.0
 40
0.099850041791626
100
AcDbArc
 50
180.0
 51
270.0
  0
LINE
  5
CFF
330
1F
100
AcDbEntity
  8
Innenkanten
100
AcDbLine
 10
-41.28727450351158
 20
177.145122447769
 30
0.0
 11
-40.78802429455339
 21
176.6458722388109
 31
0.0
  0
ARC
  5
D00
330
1F
100
AcDbEntity
  8
Innenkanten
100
AcDbCircle
 10
-41.6367496497823
 20
176.5460221970192
 30
0.0
 40
0.099850041791669
100
AcDbArc
 50
0.0
 51
90.0
  0
LINE
  5
D01
330
1F
100
AcDbEntity
  8
Innenkanten
100
AcDbLine
 10
-41.53689960799065
 20
175.1980466328323
 30
0.0
 11
-41.53689960799065
 21
176.5460221970192
 31
0.0
  0
ARC
  5
D02
330
1F
100
AcDbEntity
  8
Innenkanten
100
AcDbCircle
 10
-41.6367496497823
 20
175.1980466328323
 30
0.0
 40
0.099850041791626
100
AcDbArc
 50
270.0
 51
0.0
  0
LINE
  5
D03
330
1F
100
AcDbEntity
  8
Innenkanten
100
AcDbLine
 10
-40.78802429455339
 20
175.0981965910406
 30
0.0
 11
-40.78802429455339
 21
176.6458722388109
 31
0.0
  0
ARC
  5
D04
330
1F
100
AcDbEntity
  8
Innenkanten
100
AcDbCircle
 10
-41.6367496497823
 20
178.4182104806124
 30
0.0
 40
0.0998500417916475
100
AcDbArc
 50
270.0
 51
0.0
  0
LINE
  5
D05
330
1F
100
AcDbEntity
  8
Innenkanten
100
AcDbLine
 10
-43.78352554830235
 20
180.3652862955492
 30
0.0
 11
-40.78802429455339
 21
180.3652862955492
 31
0.0
  0
LINE
  5
D06
330
1F
100
AcDbEntity
  8
Innenkanten
100
AcDbLine
 10
-41.6367496497823
 20
179.866036086591
 30
0.0
 11
-42.9348001930735
 21
179.866036086591
 31
0.0
  0
LINE
  5
D07
330
1F
100
AcDbEntity
  8
Innenkanten
100
AcDbLine
 10
-45.28127617517685
 20
180.3652862955492
 30
0.0
 11
-44.78202596621872
 21
179.866036086591
 31
0.0
  0
ARC
  5
D08
330
1F
100
AcDbEntity
  8
Innenkanten
100
AcDbCircle
 10
-45.63075132144757
 20
179.7661860447994
 30
0.0
 40
0.0998500417916545
100
AcDbArc
 50
0.0
 51
90.0
  0
ARC
  5
D09
330
1F
100
AcDbEntity
  8
Innenkanten
100
AcDbCircle
 10
-42.9348001930735
 20
179.7661860447994
 30
0.0
 40
0.0998500417916545
100
AcDbArc
 50
90.0
 51
180.0
  0
ARC
  5
D0A
330
1F
100
AcDbEntity
  8
Innenkanten
100
AcDbCircle
 10
-41.6367496497823
 20
179.7661860447994
 30
0.0
 40
0.099850041791669
100
AcDbArc
 50
0.0
 51
90.0
  0
LINE
  5
D0B
330
1F
100
AcDbEntity
  8
0
100
AcDbLine
 10
-35.95858502386849
 20
175.1298075526766
 30
0.0
 11
-35.95858502386849
 21
181.6298075526766
 31
0.0
  0
LINE
  5
D0C
330
1F
100
AcDbEntity
  8
Innenkanten
100
AcDbLine
 10
-35.30858502386848
 20
177.6298075526766
 30
0.0
 11
-35.95858502386849
 21
177.6298075526766
 31
0.0
  0
ARC
  5
D0D
330
1F
100
AcDbEntity
  8
0
100
AcDbCircle
 10
-36.45858502386849
 20
181.6298075526766
 30
0.0
 40
0.5
100
AcDbArc
 50
0.0
 51
90.0
  0
ARC
  5
D0E
330
1F
100
AcDbEntity
  8
Innenkanten
100
AcDbCircle
 10
-33.97118640823811
 20
203.938490798492
 30
0.0
 40
0.937999999999999
100
AcDbArc
 50
314.9999999999999
 51
45.00000000000007
  0
ARC
  5
D0F
330
1F
100
AcDbEntity
  8
Innenkanten
100
AcDbCircle
 10
-31.1286171478682
 20
203.938490798492
 30
0.0
 40
0.9380000000000039
100
AcDbArc
 50
135.0
 51
225.0
  0
LINE
  5
D10
330
1F
100
AcDbEntity
  8
Innenkanten
100
AcDbLine
 10
-31.79188330862118
 20
203.275224637739
 30
0.0
 11
-31.88663561730015
 21
203.18047232906
 31
0.0
  0
ARC
  5
D11
330
1F
100
AcDbEntity
  8
Innenkanten
100
AcDbCircle
 10
-32.54990177805314
 20
202.517206168307
 30
0.0
 40
0.9379999999999999
100
AcDbArc
 50
45.00000000000007
 51
134.9999999999998
  0
LINE
  5
D12
330
1F
100
AcDbEntity
  8
Innenkanten
100
AcDbLine
 10
-33.30792024748513
 20
203.275224637739
 30
0.0
 11
-33.21316793880612
 21
203.18047232906
 31
0.0
  0
LINE
  5
D13
330
1F
100
AcDbEntity
  8
0
100
AcDbLine
 10
-44.35858502386849
 20
206.1298075526766
 30
0.0
 11
-57.3585850238685
 21
206.1298075526766
 31
0.0
  0
ARC
  5
D14
330
1F
100
AcDbEntity
  8
0
100
AcDbCircle
 10
-57.3585850238685
 20
205.1298075526766
 30
0.0
 40
1.0
100
AcDbArc
 50
90.0
 51
180.0
  0
LINE
  5
D15
330
1F
100
AcDbEntity
  8
Innenkanten
100
AcDbLine
 10
-31.88663561730015
 20
204.6965092679239
 30
0.0
 11
-31.79188330862118
 21
204.601756959245
 31
0.0
  0
ARC
  5
D16
330
1F
100
AcDbEntity
  8
Innenkanten
100
AcDbCircle
 10
-32.54990177805314
 20
205.3597754286769
 30
0.0
 40
0.9380000000000016
100
AcDbArc
 50
225.0
 51
314.9999999999999
  0
LINE
  5
D17
330
1F
100
AcDbEntity
  8
Innenkanten
100
AcDbLine
 10
-33.21316793880612
 20
204.6965092679239
 30
0.0
 11
-33.30792024748513
 21
204.601756959245
 31
0.0
  0
LINE
  5
D18
330
1F
100
AcDbEntity
  8
0
100
AcDbLine
 10
249.0888604248822
 20
192.1298075526766
 30
0.0
 11
249.0888604248822
 21
174.6298075526766
 31
0.0
  0
LINE
  5
D19
330
1F
100
AcDbEntity
  8
0
100
AcDbLine
 10
-30.3585850238685
 20
179.1298075526766
 30
0.0
 11
-30.3585850238685
 21
205.1298075526766
 31
0.0
  0
ARC
  5
D1A
330
1F
100
AcDbEntity
  8
0
100
AcDbCircle
 10
236.0873653613471
 20
176.8798075526766
 30
0.0
 40
2.499999999999996
100
AcDbArc
 50
330.0
 51
29.99999999999993
  0
LINE
  5
D1B
330
1F
100
AcDbEntity
  8
0
100
AcDbLine
 10
238.2524288708082
 20
180.6298075526766
 30
0.0
 11
239.7837177788769
 21
180.6298075526766
 31
0.0
  0
LINE
  5
D1C
330
1F
100
AcDbEntity
  8
0
100
AcDbLine
 10
238.2524288708082
 20
175.6298075526766
 30
0.0
 11
239.7837177788769
 21
175.6298075526766
 31
0.0
  0
LINE
  5
D1D
330
1F
100
AcDbEntity
  8
0
100
AcDbLine
 10
238.2524288708082
 20
173.1051620567787
 30
0.0
 11
239.7837177788769
 21
173.1051620567787
 31
0.0
  0
LINE
  5
D1E
330
1F
100
AcDbEntity
  8
0
100
AcDbLine
 10
238.2524288708082
 20
168.1051620567787
 30
0.0
 11
239.7837177788769
 21
168.1051620567787
 31
0.0
  0
ARC
  5
D1F
330
1F
100
AcDbEntity
  8
0
100
AcDbCircle
 10
236.0873653613471
 20
169.3551620567788
 30
0.0
 40
2.499999999999996
100
AcDbArc
 50
330.0
 51
29.99999999999993
  0
LINE
  5
D20
330
1F
100
AcDbEntity
  8
0
100
AcDbLine
 10
227.1380744477619
 20
160.9591547549713
 30
0.0
 11
227.1380744477619
 21
181.4012304791374
 31
0.0
  0
LINE
  5
D21
330
1F
100
AcDbEntity
  8
0
100
AcDbLine
 10
226.3880744477619
 20
160.9591547549713
 30
0.0
 11
226.3880744477619
 21
181.4012304791374
 31
0.0
  0
LINE
  5
D22
330
1F
100
AcDbEntity
  8
0
100
AcDbLine
 10
219.107762138549
 20
160.9591547549713
 30
0.0
 11
219.107762138549
 21
181.4012304791374
 31
0.0
  0
LINE
  5
D23
330
1F
100
AcDbEntity
  8
0
100
AcDbLine
 10
232.9170663728582
 20
168.1051620567787
 30
0.0
 11
227.1380744477619
 21
160.9591547549713
 31
0.0
  0
LINE
  5
D24
330
1F
100
AcDbEntity
  8
0
100
AcDbLine
 10
227.1380744477619
 20
160.9591547549713
 30
0.0
 11
219.107762138549
 21
160.9591547549713
 31
0.0
  0
LINE
  5
D25
330
1F
100
AcDbEntity
  8
0
100
AcDbLine
 10
211.982762138549
 20
161.8427304791373
 30
0.0
 11
219.107762138549
 21
161.8427304791373
 31
0.0
  0
LINE
  5
D26
330
1F
100
AcDbEntity
  8
0
100
AcDbLine
 10
211.982762138549
 20
164.3927304791374
 30
0.0
 11
219.107762138549
 21
164.3927304791374
 31
0.0
  0
LINE
  5
D27
330
1F
100
AcDbEntity
  8
0
100
AcDbLine
 10
211.982762138549
 20
164.3927304791374
 30
0.0
 11
211.982762138549
 21
161.8427304791373
 31
0.0
  0
LINE
  5
D28
330
1F
100
AcDbEntity
  8
0
100
AcDbLine
 10
219.107762138549
 20
181.4012304791374
 30
0.0
 11
227.1380744477619
 21
181.4012304791374
 31
0.0
  0
LINE
  5
D29
330
1F
100
AcDbEntity
  8
0
100
AcDbLine
 10
211.982762138549
 20
165.0677304791374
 30
0.0
 11
219.107762138549
 21
165.0677304791374
 31
0.0
  0
LINE
  5
D2A
330
1F
100
AcDbEntity
  8
0
100
AcDbLine
 10
211.982762138549
 20
168.2927304791373
 30
0.0
 11
219.107762138549
 21
168.2927304791373
 31
0.0
  0
LINE
  5
D2B
330
1F
100
AcDbEntity
  8
0
100
AcDbLine
 10
211.982762138549
 20
171.5177304791374
 30
0.0
 11
219.107762138549
 21
171.5177304791374
 31
0.0
  0
LINE
  5
D2C
330
1F
100
AcDbEntity
  8
0
100
AcDbLine
 10
211.982762138549
 20
167.6177304791374
 30
0.0
 11
219.107762138549
 21
167.6177304791374
 31
0.0
  0
LINE
  5
D2D
330
1F
100
AcDbEntity
  8
0
100
AcDbLine
 10
211.982762138549
 20
170.8427304791374
 30
0.0
 11
219.107762138549
 21
170.8427304791374
 31
0.0
  0
LINE
  5
D2E
330
1F
100
AcDbEntity
  8
0
100
AcDbLine
 10
211.982762138549
 20
174.0677304791374
 30
0.0
 11
219.107762138549
 21
174.0677304791374
 31
0.0
  0
LINE
  5
D2F
330
1F
100
AcDbEntity
  8
0
100
AcDbLine
 10
211.982762138549
 20
170.8427304791374
 30
0.0
 11
211.982762138549
 21
168.2927304791373
 31
0.0
  0
LINE
  5
D30
330
1F
100
AcDbEntity
  8
0
100
AcDbLine
 10
211.982762138549
 20
167.6177304791374
 30
0.0
 11
211.982762138549
 21
165.0677304791374
 31
0.0
  0
LINE
  5
D31
330
1F
100
AcDbEntity
  8
0
100
AcDbLine
 10
211.982762138549
 20
174.0677304791374
 30
0.0
 11
211.982762138549
 21
171.5177304791374
 31
0.0
  0
LINE
  5
D32
330
1F
100
AcDbEntity
  8
0
100
AcDbLine
 10
211.982762138549
 20
174.7427304791374
 30
0.0
 11
219.107762138549
 21
174.7427304791374
 31
0.0
  0
LINE
  5
D33
330
1F
100
AcDbEntity
  8
0
100
AcDbLine
 10
211.982762138549
 20
177.2927304791373
 30
0.0
 11
219.107762138549
 21
177.2927304791373
 31
0.0
  0
LINE
  5
D34
330
1F
100
AcDbEntity
  8
0
100
AcDbLine
 10
211.982762138549
 20
177.9677304791374
 30
0.0
 11
219.107762138549
 21
177.9677304791374
 31
0.0
  0
LINE
  5
D35
330
1F
100
AcDbEntity
  8
0
100
AcDbLine
 10
211.982762138549
 20
180.5177304791374
 30
0.0
 11
219.107762138549
 21
180.5177304791374
 31
0.0
  0
LINE
  5
D36
330
1F
100
AcDbEntity
  8
0
100
AcDbLine
 10
211.982762138549
 20
180.5177304791374
 30
0.0
 11
211.982762138549
 21
177.9677304791374
 31
0.0
  0
LINE
  5
D37
330
1F
100
AcDbEntity
  8
0
100
AcDbLine
 10
211.982762138549
 20
177.2927304791373
 30
0.0
 11
211.982762138549
 21
174.7427304791374
 31
0.0
  0
ARC
  5
D38
330
1F
100
AcDbEntity
  8
0
100
AcDbCircle
 10
-31.3585850238685
 20
179.1298075526766
 30
0.0
 40
1.0
100
AcDbArc
 50
270.0
 51
0.0
  0
LINE
  5
D39
330
1F
100
AcDbEntity
  8
0
100
AcDbLine
 10
232.9170663728582
 20
168.1051620567787
 30
0.0
 11
232.9170663728582
 21
180.6298075526766
 31
0.0
  0
LINE
  5
D3A
330
1F
100
AcDbEntity
  8
0
100
AcDbLine
 10
234.2837177788769
 20
181.3911246693452
 30
0.0
 11
234.2837177788769
 21
167.3509204683551
 31
0.0
  0
LINE
  5
D3B
330
1F
100
AcDbEntity
  8
0
100
AcDbLine
 10
235.7837177788769
 20
181.3911246693452
 30
0.0
 11
235.7837177788769
 21
167.3509204683551
 31
0.0
  0
LINE
  5
D3C
330
1F
100
AcDbEntity
  8
Innenkanten
100
AcDbLine
 10
227.1380744477619
 20
167.9552304791374
 30
0.0
 11
232.9170663728582
 21
173.1298075526766
 31
0.0
  0
ARC
  5
D3D
330
1F
100
AcDbEntity
  8
0
100
AcDbCircle
 10
235.1673653595589
 20
169.3551620567788
 30
0.0
 40
2.499999999999996
100
AcDbArc
 50
330.0
 51
29.99999999999993
  0
ARC
  5
D3E
330
1F
100
AcDbEntity
  8
0
100
AcDbCircle
 10
240.4174923802693
 20
169.3551620567788
 30
0.0
 40
2.499999999999999
100
AcDbArc
 50
150.0
 51
209.9999999999999
  0
LINE
  5
D3F
330
1F
100
AcDbEntity
  8
0
100
AcDbLine
 10
234.2837177788769
 20
167.3551620567788
 30
0.0
 11
235.7837177788769
 21
167.3551620567788
 31
0.0
  0
LINE
  5
D40
330
1F
100
AcDbEntity
  8
0
100
AcDbLine
 10
232.9170663728582
 20
168.1051620567787
 30
0.0
 11
234.2837177788769
 21
168.1051620567787
 31
0.0
  0
LINE
  5
D41
330
1F
100
AcDbEntity
  8
0
100
AcDbLine
 10
235.7837177788769
 20
168.1051620567787
 30
0.0
 11
237.33242886902
 21
168.1051620567787
 31
0.0
  0
LINE
  5
D42
330
1F
100
AcDbEntity
  8
0
100
AcDbLine
 10
232.9170663728582
 20
173.1051620567787
 30
0.0
 11
234.2837177788769
 21
173.1051620567787
 31
0.0
  0
ARC
  5
D43
330
1F
100
AcDbEntity
  8
0
100
AcDbCircle
 10
239.4974923784811
 20
171.8551620567787
 30
0.0
 40
2.499999999999999
100
AcDbArc
 50
150.0
 51
209.9999999999999
  0
ARC
  5
D44
330
1F
100
AcDbEntity
  8
0
100
AcDbCircle
 10
235.1673653595589
 20
171.8551620567787
 30
0.0
 40
2.499999999999996
100
AcDbArc
 50
330.0
 51
29.99999999999993
  0
ARC
  5
D45
330
1F
100
AcDbEntity
  8
0
100
AcDbCircle
 10
240.4174923802693
 20
171.8551620567787
 30
0.0
 40
2.499999999999999
100
AcDbArc
 50
150.0
 51
209.9999999999999
  0
LINE
  5
D46
330
1F
100
AcDbEntity
  8
0
100
AcDbLine
 10
235.7837177788769
 20
173.1051620567787
 30
0.0
 11
237.33242886902
 21
173.1051620567787
 31
0.0
  0
LINE
  5
D47
330
1F
100
AcDbEntity
  8
0
100
AcDbLine
 10
227.1380744477619
 20
181.4012304791374
 30
0.0
 11
232.9170663728582
 21
180.6298075526766
 31
0.0
  0
ARC
  5
D48
330
1F
100
AcDbEntity
  8
0
100
AcDbCircle
 10
240.4174923802693
 20
179.3798075526766
 30
0.0
 40
2.499999999999999
100
AcDbArc
 50
150.0
 51
209.9999999999999
  0
ARC
  5
D49
330
1F
100
AcDbEntity
  8
0
100
AcDbCircle
 10
239.4974923784811
 20
179.3798075526766
 30
0.0
 40
2.499999999999999
100
AcDbArc
 50
150.0
 51
209.9999999999999
  0
ARC
  5
D4A
330
1F
100
AcDbEntity
  8
0
100
AcDbCircle
 10
235.1673653595589
 20
179.3798075526766
 30
0.0
 40
2.499999999999996
100
AcDbArc
 50
330.0
 51
29.99999999999993
  0
LINE
  5
D4B
330
1F
100
AcDbEntity
  8
0
100
AcDbLine
 10
232.9170663728582
 20
175.6298075526766
 30
0.0
 11
234.2837177788769
 21
175.6298075526766
 31
0.0
  0
ARC
  5
D4C
330
1F
100
AcDbEntity
  8
0
100
AcDbCircle
 10
240.4174923802693
 20
176.8798075526766
 30
0.0
 40
2.499999999999999
100
AcDbArc
 50
150.0
 51
209.9999999999999
  0
ARC
  5
D4D
330
1F
100
AcDbEntity
  8
0
100
AcDbCircle
 10
235.1673653595589
 20
176.8798075526766
 30
0.0
 40
2.499999999999996
100
AcDbArc
 50
330.0
 51
29.99999999999993
  0
LINE
  5
D4E
330
1F
100
AcDbEntity
  8
0
100
AcDbLine
 10
235.7837177788769
 20
175.6298075526766
 30
0.0
 11
237.33242886902
 21
175.6298075526766
 31
0.0
  0
LINE
  5
D4F
330
1F
100
AcDbEntity
  8
0
100
AcDbLine
 10
234.2837177788769
 20
181.3798075526766
 30
0.0
 11
235.7837177788769
 21
181.3798075526766
 31
0.0
  0
LINE
  5
D50
330
1F
100
AcDbEntity
  8
0
100
AcDbLine
 10
232.9170663728582
 20
180.6298075526766
 30
0.0
 11
234.2837177788769
 21
180.6298075526766
 31
0.0
  0
LINE
  5
D51
330
1F
100
AcDbEntity
  8
0
100
AcDbLine
 10
235.7837177788769
 20
180.6298075526766
 30
0.0
 11
237.33242886902
 21
180.6298075526766
 31
0.0
  0
LINE
  5
D52
330
1F
100
AcDbEntity
  8
0
100
AcDbLine
 10
243.0888604248822
 20
174.6298075526766
 30
0.0
 11
259.0888604248823
 21
174.6298075526766
 31
0.0
  0
LINE
  5
D53
330
1F
100
AcDbEntity
  8
0
100
AcDbLine
 10
259.5888604248822
 20
178.1298075526766
 30
0.0
 11
243.0888604248822
 21
178.1298075526766
 31
0.0
  0
LINE
  5
D54
330
1F
100
AcDbEntity
  8
0
100
AcDbLine
 10
243.0888604248822
 20
173.6298075526766
 30
0.0
 11
255.5888604248822
 21
173.6298075526766
 31
0.0
  0
LINE
  5
D55
330
1F
100
AcDbEntity
  8
0
100
AcDbLine
 10
241.2837177788769
 20
173.1051620567788
 30
0.0
 11
300.0833075597181
 21
173.1051620567787
 31
0.0
  0
LINE
  5
D56
330
1F
100
AcDbEntity
  8
0
100
AcDbLine
 10
241.2837177788769
 20
168.1051620567787
 30
0.0
 11
300.0833075597181
 21
168.1051620567787
 31
0.0
  0
LINE
  5
D57
330
1F
100
AcDbEntity
  8
0
100
AcDbLine
 10
243.0888604248822
 20
181.6298075526766
 30
0.0
 11
243.0888604248822
 21
173.6298075526766
 31
0.0
  0
LINE
  5
D58
330
1F
100
AcDbEntity
  8
Innenkanten
100
AcDbLine
 10
248.0888604248822
 20
176.1298075526766
 30
0.0
 11
248.0888604248822
 21
174.6298075526766
 31
0.0
  0
LINE
  5
D59
330
1F
100
AcDbEntity
  8
Innenkanten
100
AcDbLine
 10
244.0888604248822
 20
176.1298075526766
 30
0.0
 11
244.0888604248822
 21
174.6298075526766
 31
0.0
  0
ARC
  5
D5A
330
1F
100
AcDbEntity
  8
Innenkanten
100
AcDbCircle
 10
244.9388604248823
 20
175.4298075526766
 30
0.0
 40
0.5999999999999945
100
AcDbArc
 50
180.0
 51
270.0
  0
ARC
  5
D5B
330
1F
100
AcDbEntity
  8
Innenkanten
100
AcDbCircle
 10
247.2388604248823
 20
175.4298075526766
 30
0.0
 40
0.6000000000000015
100
AcDbArc
 50
270.0
 51
0.0
  0
LINE
  5
D5C
330
1F
100
AcDbEntity
  8
Mittellinie
100
AcDbLine
 10
246.0888604248822
 20
173.7028009579035
 30
0.0
 11
246.0888604248822
 21
177.0671419776728
 31
0.0
  0
LINE
  5
D5D
330
1F
100
AcDbEntity
  8
0
100
AcDbLine
 10
239.7837177788769
 20
181.3911246693452
 30
0.0
 11
239.7837177788769
 21
167.3509204683551
 31
0.0
  0
LINE
  5
D5E
330
1F
100
AcDbEntity
  8
0
100
AcDbLine
 10
241.2837177788769
 20
181.3911246693452
 30
0.0
 11
241.2837177788769
 21
167.3509204683551
 31
0.0
  0
LINE
  5
D5F
330
1F
100
AcDbEntity
  8
0
100
AcDbLine
 10
239.7837177788769
 20
167.3551620567788
 30
0.0
 11
241.2837177788769
 21
167.3551620567788
 31
0.0
  0
LINE
  5
D60
330
1F
100
AcDbEntity
  8
0
100
AcDbLine
 10
249.0888604248822
 20
182.1298075526766
 30
0.0
 11
243.5888604248822
 21
182.1298075526766
 31
0.0
  0
LINE
  5
D61
330
1F
100
AcDbEntity
  8
Innenkanten
100
AcDbLine
 10
244.0888604248822
 20
176.1298075526766
 30
0.0
 11
248.0888604248822
 21
176.1298075526766
 31
0.0
  0
LINE
  5
D62
330
1F
100
AcDbEntity
  8
Innenkanten
100
AcDbLine
 10
244.9388604248823
 20
174.8298075526766
 30
0.0
 11
247.2388604248823
 21
174.8298075526766
 31
0.0
  0
LINE
  5
D63
330
1F
100
AcDbEntity
  8
Innenkanten
100
AcDbLine
 10
245.3388604248822
 20
175.5798075526766
 30
0.0
 11
246.0888604248822
 21
174.8298075526766
 31
0.0
  0
LINE
  5
D64
330
1F
100
AcDbEntity
  8
0
100
AcDbLine
 10
241.2837177788769
 20
175.6298075526766
 30
0.0
 11
243.0888604248822
 21
175.6298075526766
 31
0.0
  0
LINE
  5
D65
330
1F
100
AcDbEntity
  8
Innenkanten
100
AcDbLine
 10
244.3388604248823
 20
176.1298075526766
 30
0.0
 11
244.3388604248823
 21
175.4298075526766
 31
0.0
  0
LINE
  5
D66
330
1F
100
AcDbEntity
  8
0
100
AcDbLine
 10
241.2837177788769
 20
180.6298075526766
 30
0.0
 11
243.0888604248822
 21
180.6298075526766
 31
0.0
  0
LINE
  5
D67
330
1F
100
AcDbEntity
  8
0
100
AcDbLine
 10
239.7837177788769
 20
181.3798075526766
 30
0.0
 11
241.2837177788769
 21
181.3798075526766
 31
0.0
  0
ARC
  5
D68
330
1F
100
AcDbEntity
  8
0
100
AcDbCircle
 10
243.5888604248822
 20
181.6298075526766
 30
0.0
 40
0.5
100
AcDbArc
 50
90.0
 51
180.0
  0
LINE
  5
D69
330
1F
100
AcDbEntity
  8
Innenkanten
100
AcDbLine
 10
246.8388604248823
 20
175.5798075526766
 30
0.0
 11
246.0888604248822
 21
174.8298075526766
 31
0.0
  0
LINE
  5
D6A
330
1F
100
AcDbEntity
  8
Innenkanten
100
AcDbLine
 10
247.8388604248822
 20
176.1298075526766
 30
0.0
 11
247.8388604248822
 21
175.4298075526766
 31
0.0
  0
ARC
  5
D6B
330
1F
100
AcDbEntity
  8
0
100
AcDbCircle
 10
259.0888604248823
 20
175.1298075526766
 30
0.0
 40
0.5
100
AcDbArc
 50
270.0
 51
0.0
  0
ARC
  5
D6C
330
1F
100
AcDbEntity
  8
0
100
AcDbCircle
 10
300.0833075597181
 20
178.1051620567787
 30
0.0
 40
5.0
100
AcDbArc
 50
270.0
 51
320.6450205426261
  0
LINE
  5
D6D
330
1F
100
AcDbEntity
  8
0
100
AcDbLine
 10
255.5888604248822
 20
174.6298075526766
 30
0.0
 11
255.5888604248822
 21
173.6298075526766
 31
0.0
  0
LINE
  5
D6E
330
1F
100
AcDbEntity
  8
0
100
AcDbLine
 10
259.5888604248822
 20
178.1298075526766
 30
0.0
 11
259.5888604248822
 21
175.1298075526766
 31
0.0
  0
ARC
  5
D6F
330
1F
100
AcDbEntity
  8
0
100
AcDbCircle
 10
-31.3585850238685
 20
205.1298075526766
 30
0.0
 40
1.0
100
AcDbArc
 50
0.0
 51
90.0
  0
LINE
  5
D70
102
{ACAD_REACTORS
330
101F
102
}
330
1F
100
AcDbEntity
  8
0
100
AcDbLine
 10
249.0888604248822
 20
192.1298075526766
 30
0.0
 11
249.0888604248822
 21
205.6298075526766
 31
0.0
  0
LINE
  5
D71
330
1F
100
AcDbEntity
  8
Innenkanten
100
AcDbLine
 10
250.4888604248823
 20
205.088490798492
 30
0.0
 11
250.4888604248823
 21
202.7884907984919
 31
0.0
  0
LINE
  5
D72
330
1F
100
AcDbEntity
  8
Innenkanten
100
AcDbLine
 10
251.2388604248823
 20
204.688490798492
 30
0.0
 11
250.4888604248823
 21
203.938490798492
 31
0.0
  0
LINE
  5
D73
330
1F
100
AcDbEntity
  8
Innenkanten
100
AcDbLine
 10
252.0888604248822
 20
200.5298075526766
 30
0.0
 11
252.0888604248822
 21
206.1298075526766
 31
0.0
  0
LINE
  5
D74
330
1F
100
AcDbEntity
  8
Innenkanten
100
AcDbLine
 10
251.7888604248823
 20
201.7884907984919
 30
0.0
 11
251.7888604248823
 21
206.0884907984919
 31
0.0
  0
LINE
  5
D75
330
1F
100
AcDbEntity
  8
Innenkanten
100
AcDbLine
 10
252.0888604248822
 20
200.5298075526766
 30
0.0
 11
249.0888604248822
 21
200.5298075526766
 31
0.0
  0
LINE
  5
D76
330
1F
100
AcDbEntity
  8
Mittellinie
100
AcDbLine
 10
249.2602227886501
 20
203.938490798492
 30
0.0
 11
253.0939908500505
 21
203.938490798492
 31
0.0
  0
LINE
  5
D77
330
1F
100
AcDbEntity
  8
Innenkanten
100
AcDbLine
 10
251.7888604248823
 20
202.188490798492
 30
0.0
 11
251.0888604248822
 21
202.188490798492
 31
0.0
  0
ARC
  5
D78
330
1F
100
AcDbEntity
  8
Innenkanten
100
AcDbCircle
 10
251.0888604248822
 20
202.7884907984919
 30
0.0
 40
0.6000000000000015
100
AcDbArc
 50
180.0
 51
270.0
  0
LINE
  5
D79
330
1F
100
AcDbEntity
  8
Innenkanten
100
AcDbLine
 10
251.2388604248823
 20
203.1884907984919
 30
0.0
 11
250.4888604248823
 21
203.938490798492
 31
0.0
  0
LINE
  5
D7A
330
1F
100
AcDbEntity
  8
Innenkanten
100
AcDbLine
 10
251.7888604248823
 20
201.7884907984919
 30
0.0
 11
252.0888604248822
 21
201.7884907984919
 31
0.0
  0
ARC
  5
D7B
330
1F
100
AcDbEntity
  8
0
100
AcDbCircle
 10
249.5888604248822
 20
205.6298075526766
 30
0.0
 40
0.5
100
AcDbArc
 50
90.0
 51
180.0
  0
LINE
  5
D7C
330
1F
100
AcDbEntity
  8
Innenkanten
100
AcDbLine
 10
251.7888604248823
 20
205.688490798492
 30
0.0
 11
251.0888604248822
 21
205.688490798492
 31
0.0
  0
ARC
  5
D7D
330
1F
100
AcDbEntity
  8
Innenkanten
100
AcDbCircle
 10
251.0888604248822
 20
205.088490798492
 30
0.0
 40
0.5999999999999996
100
AcDbArc
 50
90.0
 51
180.0
  0
LINE
  5
D7E
330
1F
100
AcDbEntity
  8
Innenkanten
100
AcDbLine
 10
251.7888604248823
 20
206.0884907984919
 30
0.0
 11
252.0888604248822
 21
206.0884907984919
 31
0.0
  0
LINE
  5
D7F
102
{ACAD_REACTORS
330
113A
102
}
330
1F
100
AcDbEntity
  8
Mittellinie
100
AcDbLine
 10
158.4083672536663
 20
192.1298075526766
 30
0.0
 11
197.1724287787316
 21
192.1298075526766
 31
0.0
  0
LINE
  5
D80
330
1F
100
AcDbEntity
  8
Innenkanten
100
AcDbLine
 10
316.0888604248822
 20
206.1298075526766
 30
0.0
 11
316.0888604248822
 21
178.1298075526766
 31
0.0
  0
LINE
  5
D81
102
{ACAD_REACTORS
330
FB4
102
}
330
1F
100
AcDbEntity
  8
Innenkanten
100
AcDbLine
 10
333.0888604248822
 20
206.1298075526766
 30
0.0
 11
333.0888604248822
 21
178.1298075526766
 31
0.0
  0
LINE
  5
D82
330
1F
100
AcDbEntity
  8
0
100
AcDbLine
 10
338.0888604248823
 20
202.1298075526766
 30
0.0
 11
338.0888604248823
 21
178.1298075526766
 31
0.0
  0
LINE
  5
D83
102
{ACAD_REACTORS
330
FDB
102
}
330
1F
100
AcDbEntity
  8
0
100
AcDbLine
 10
340.5888604248823
 20
192.1298075526766
 30
0.0
 11
340.5888604248823
 21
182.1298075526766
 31
0.0
  0
LINE
  5
D84
330
1F
100
AcDbEntity
  8
Innenkanten
100
AcDbLine
 10
275.5888604248823
 20
178.1298075526766
 30
0.0
 11
275.5888604248823
 21
206.1298075526766
 31
0.0
  0
LINE
  5
D85
330
1F
100
AcDbEntity
  8
Innenkanten
100
AcDbLine
 10
276.0888604248822
 20
178.1298075526766
 30
0.0
 11
276.0888604248822
 21
206.1298075526766
 31
0.0
  0
LINE
  5
D86
330
1F
100
AcDbEntity
  8
Innenkanten
100
AcDbLine
 10
335.3388604248822
 20
185.6298075526766
 30
0.0
 11
335.3388604248822
 21
178.1298075526766
 31
0.0
  0
LINE
  5
D87
330
1F
100
AcDbEntity
  8
Mittellinie
100
AcDbLine
 10
332.3285184532778
 20
181.1696524442851
 30
0.0
 11
340.4276956128087
 21
181.1696524442851
 31
0.0
  0
LINE
  5
D88
330
1F
100
AcDbEntity
  8
Innenkanten
100
AcDbLine
 10
309.5888604248822
 20
177.6298075526766
 30
0.0
 11
323.5888604248823
 21
177.6298075526766
 31
0.0
  0
LINE
  5
D89
330
1F
100
AcDbEntity
  8
0
100
AcDbLine
 10
310.5888604248822
 20
171.1298075526766
 30
0.0
 11
322.5888604248822
 21
171.1298075526766
 31
0.0
  0
LINE
  5
D8A
330
1F
100
AcDbEntity
  8
Mittellinie
100
AcDbLine
 10
313.5888604248822
 20
179.4076270485537
 30
0.0
 11
313.5888604248822
 21
169.682827748565
 31
0.0
  0
LINE
  5
D8B
330
1F
100
AcDbEntity
  8
0
100
AcDbLine
 10
309.5888604248822
 20
178.1298075526766
 30
0.0
 11
309.5888604248822
 21
172.1298075526766
 31
0.0
  0
LINE
  5
D8C
330
1F
100
AcDbEntity
  8
0
100
AcDbLine
 10
308.0888604248822
 20
177.1089379242273
 30
0.0
 11
308.0888604248822
 21
171.995832956461
 31
0.0
  0
LINE
  5
D8D
330
1F
100
AcDbEntity
  8
0
100
AcDbLine
 10
312.4388604248822
 20
171.3298075526766
 30
0.0
 11
314.7388604248823
 21
171.3298075526766
 31
0.0
  0
LINE
  5
D8E
330
1F
100
AcDbEntity
  8
Innenkanten
100
AcDbLine
 10
312.8388604248822
 20
172.0798075526766
 30
0.0
 11
313.5888604248822
 21
171.3298075526766
 31
0.0
  0
LINE
  5
D8F
330
1F
100
AcDbEntity
  8
Innenkanten
100
AcDbLine
 10
311.5888604248822
 20
172.6298075526766
 30
0.0
 11
315.5888604248823
 21
172.6298075526766
 31
0.0
  0
ARC
  5
D90
330
1F
100
AcDbEntity
  8
0
100
AcDbCircle
 10
310.5888604248822
 20
172.1298075526766
 30
0.0
 40
1.0
100
AcDbArc
 50
180.0
 51
270.0
  0
LINE
  5
D91
330
1F
100
AcDbEntity
  8
0
100
AcDbLine
 10
309.5888604248822
 20
174.1089379242273
 30
0.0
 11
308.0888604248822
 21
174.1089379242273
 31
0.0
  0
LINE
  5
D92
330
1F
100
AcDbEntity
  8
0
100
AcDbLine
 10
309.5888604248822
 20
173.1089379242273
 30
0.0
 11
308.0888604248822
 21
173.1089379242273
 31
0.0
  0
ARC
  5
D93
330
1F
100
AcDbEntity
  8
0
100
AcDbCircle
 10
308.5888604248822
 20
171.1298075526766
 30
0.0
 40
0.9999999999999984
100
AcDbArc
 50
120.0000000000005
 51
140.6450205426262
  0
LINE
  5
D94
330
1F
100
AcDbEntity
  8
0
100
AcDbLine
 10
311.8388604248822
 20
172.6298075526766
 30
0.0
 11
311.8388604248822
 21
171.9298075526766
 31
0.0
  0
LINE
  5
D95
330
1F
100
AcDbEntity
  8
Innenkanten
100
AcDbLine
 10
311.5888604248822
 20
172.6298075526766
 30
0.0
 11
311.5888604248822
 21
171.1298075526766
 31
0.0
  0
ARC
  5
D96
330
1F
100
AcDbEntity
  8
0
100
AcDbCircle
 10
312.4388604248822
 20
171.9298075526766
 30
0.0
 40
0.5999999999999945
100
AcDbArc
 50
180.0
 51
270.0
  0
LINE
  5
D97
330
1F
100
AcDbEntity
  8
0
100
AcDbLine
 10
315.3388604248823
 20
172.6298075526766
 30
0.0
 11
315.3388604248823
 21
171.9298075526766
 31
0.0
  0
LINE
  5
D98
330
1F
100
AcDbEntity
  8
Innenkanten
100
AcDbLine
 10
315.5888604248823
 20
172.6298075526766
 30
0.0
 11
315.5888604248823
 21
171.1298075526766
 31
0.0
  0
ARC
  5
D99
330
1F
100
AcDbEntity
  8
0
100
AcDbCircle
 10
314.7388604248823
 20
171.9298075526766
 30
0.0
 40
0.6000000000000015
100
AcDbArc
 50
270.0
 51
0.0
  0
LINE
  5
D9A
330
1F
100
AcDbEntity
  8
Innenkanten
100
AcDbLine
 10
314.3388604248822
 20
172.0798075526766
 30
0.0
 11
313.5888604248822
 21
171.3298075526766
 31
0.0
  0
LINE
  5
D9B
330
1F
100
AcDbEntity
  8
0
100
AcDbLine
 10
309.5888604248822
 20
176.1089379242273
 30
0.0
 11
308.0888604248822
 21
176.1089379242273
 31
0.0
  0
LINE
  5
D9C
330
1F
100
AcDbEntity
  8
0
100
AcDbLine
 10
309.5888604248822
 20
175.1089379242273
 30
0.0
 11
308.0888604248822
 21
175.1089379242273
 31
0.0
  0
LINE
  5
D9D
330
1F
100
AcDbEntity
  8
0
100
AcDbLine
 10
323.5888604248823
 20
178.1298075526766
 30
0.0
 11
323.5888604248823
 21
172.1298075526766
 31
0.0
  0
ARC
  5
D9E
330
1F
100
AcDbEntity
  8
0
100
AcDbCircle
 10
322.5888604248822
 20
172.1298075526766
 30
0.0
 40
1.0
100
AcDbArc
 50
270.0
 51
0.0
  0
ARC
  5
D9F
330
1F
100
AcDbEntity
  8
Innenkanten
100
AcDbCircle
 10
330.5888604248822
 20
181.1696524442851
 30
0.0
 40
7.000000000000002
100
AcDbArc
 50
343.0422366999947
 51
16.95776330000521
  0
LINE
  5
DA0
330
1F
100
AcDbEntity
  8
Innenkanten
100
AcDbLine
 10
335.5888604248822
 20
184.1696524442851
 30
0.0
 11
335.5888604248822
 21
178.1696524442851
 31
0.0
  0
ARC
  5
DA1
330
1F
100
AcDbEntity
  8
Innenkanten
100
AcDbCircle
 10
336.3279805665067
 20
179.4196524442851
 30
0.0
 40
1.0
100
AcDbArc
 50
270.0
 51
343.0422366999947
  0
LINE
  5
DA2
330
1F
100
AcDbEntity
  8
Innenkanten
100
AcDbLine
 10
335.5888604248822
 20
178.4196524442851
 30
0.0
 11
336.3279805665067
 21
178.4196524442851
 31
0.0
  0
LINE
  5
DA3
330
1F
100
AcDbEntity
  8
Innenkanten
100
AcDbLine
 10
335.3388604248822
 20
178.1696524442851
 30
0.0
 11
335.5888604248822
 21
178.1696524442851
 31
0.0
  0
ARC
  5
DA4
330
1F
100
AcDbEntity
  8
Innenkanten
100
AcDbCircle
 10
336.3279805665067
 20
182.9196524442851
 30
0.0
 40
1.000000000000002
100
AcDbArc
 50
16.95776330000521
 51
90.0
  0
LINE
  5
DA5
330
1F
100
AcDbEntity
  8
Innenkanten
100
AcDbLine
 10
336.8388604248822
 20
181.9196524442851
 30
0.0
 11
337.5888604248823
 21
181.1696524442851
 31
0.0
  0
LINE
  5
DA6
330
1F
100
AcDbEntity
  8
Innenkanten
100
AcDbLine
 10
336.8388604248822
 20
180.4196524442851
 30
0.0
 11
337.5888604248823
 21
181.1696524442851
 31
0.0
  0
LINE
  5
DA7
330
1F
100
AcDbEntity
  8
Innenkanten
100
AcDbLine
 10
335.5888604248822
 20
183.9196524442851
 30
0.0
 11
336.3279805665067
 21
183.9196524442851
 31
0.0
  0
LINE
  5
DA8
330
1F
100
AcDbEntity
  8
Innenkanten
100
AcDbLine
 10
335.5888604248822
 20
184.1696524442851
 30
0.0
 11
335.3388604248822
 21
184.1696524442851
 31
0.0
  0
LINE
  5
DA9
330
1F
100
AcDbEntity
  8
0
100
AcDbLine
 10
338.0888604248823
 20
182.1298075526766
 30
0.0
 11
340.5888604248823
 21
182.1298075526766
 31
0.0
  0
LINE
  5
DAA
102
{ACAD_REACTORS
330
F5F
102
}
330
1F
100
AcDbEntity
  8
0
100
AcDbLine
 10
333.0888604248822
 20
206.1298075526766
 30
0.0
 11
338.0888604248823
 21
206.1298075526766
 31
0.0
  0
LINE
  5
DAB
330
1F
100
AcDbEntity
  8
Innenkanten
100
AcDbLine
 10
316.0888604248822
 20
200.5298075526766
 30
0.0
 11
333.0888604248822
 21
200.5298075526766
 31
0.0
  0
LINE
  5
DAC
330
1F
100
AcDbEntity
  8
0
100
AcDbLine
 10
316.0888604248822
 20
206.1298075526766
 30
0.0
 11
333.0888604248822
 21
206.1298075526766
 31
0.0
  0
LINE
  5
DAD
330
1F
100
AcDbEntity
  8
0
100
AcDbLine
 10
338.0888604248823
 20
202.1298075526766
 30
0.0
 11
338.0888604248823
 21
206.1298075526766
 31
0.0
  0
LINE
  5
DAE
102
{ACAD_REACTORS
330
F5F
102
}
330
1F
100
AcDbEntity
  8
0
100
AcDbLine
 10
344.0888604248822
 20
194.6298075526766
 30
0.0
 11
354.0888604248822
 21
194.6298075526766
 31
0.0
  0
LINE
  5
DAF
330
1F
100
AcDbEntity
  8
0
100
AcDbLine
 10
341.2138604248823
 20
189.1298075526766
 30
0.0
 11
354.0888604248822
 21
189.1298075526766
 31
0.0
  0
LINE
  5
DB0
102
{ACAD_REACTORS
330
FFE
102
}
330
1F
100
AcDbEntity
  8
0
100
AcDbLine
 10
340.5888604248823
 20
192.1298075526766
 30
0.0
 11
340.5888604248823
 21
202.1298075526766
 31
0.0
  0
LINE
  5
DB1
330
1F
100
AcDbEntity
  8
0
100
AcDbLine
 10
341.2138604248823
 20
192.1298075526766
 30
0.0
 11
341.2138604248823
 21
195.6298075526766
 31
0.0
  0
LINE
  5
DB2
330
1F
100
AcDbEntity
  8
0
100
AcDbLine
 10
341.2138604248823
 20
188.6298075526766
 30
0.0
 11
340.5888604248823
 21
188.6298075526766
 31
0.0
  0
LINE
  5
DB3
330
1F
100
AcDbEntity
  8
Innenkanten
100
AcDbLine
 10
335.3388604248822
 20
185.6298075526766
 30
0.0
 11
338.0888604248823
 21
185.6298075526766
 31
0.0
  0
LINE
  5
DB4
330
1F
100
AcDbEntity
  8
0
100
AcDbLine
 10
341.2138604248823
 20
192.1298075526766
 30
0.0
 11
341.2138604248823
 21
188.6298075526766
 31
0.0
  0
LINE
  5
DB5
330
1F
100
AcDbEntity
  8
0
100
AcDbLine
 10
341.2138604248823
 20
195.6298075526766
 30
0.0
 11
340.5888604248823
 21
195.6298075526766
 31
0.0
  0
LINE
  5
DB6
330
1F
100
AcDbEntity
  8
0
100
AcDbLine
 10
338.0888604248823
 20
202.1298075526766
 30
0.0
 11
340.5888604248823
 21
202.1298075526766
 31
0.0
  0
LINE
  5
DB7
330
1F
100
AcDbEntity
  8
0
100
AcDbLine
 10
341.2138604248823
 20
195.1298075526766
 30
0.0
 11
344.0888604248822
 21
195.1298075526766
 31
0.0
  0
LINE
  5
DB8
330
1F
100
AcDbEntity
  8
0
100
AcDbLine
 10
344.0888604248822
 20
194.6298075526766
 30
0.0
 11
344.0888604248822
 21
195.1298075526766
 31
0.0
  0
LINE
  5
DB9
330
1F
100
AcDbEntity
  8
0
100
AcDbLine
 10
354.0888604248822
 20
189.1298075526766
 30
0.0
 11
354.0888604248822
 21
194.6298075526766
 31
0.0
  0
LINE
  5
DBA
102
{ACAD_REACTORS
330
10B0
102
}
330
1F
100
AcDbEntity
  8
0
100
AcDbLine
 10
192.8748676294718
 20
178.6298075526766
 30
0.0
 11
192.8748676294718
 21
205.6298075526766
 31
0.0
  0
LINE
  5
DBB
102
{ACAD_REACTORS
330
10B0
102
}
330
1F
100
AcDbEntity
  8
0
100
AcDbLine
 10
164.8748676294718
 20
178.6298075526766
 30
0.0
 11
164.8748676294718
 21
205.6298075526766
 31
0.0
  0
CIRCLE
  5
DBC
330
1F
100
AcDbEntity
  8
Innenkanten
100
AcDbCircle
 10
178.8748676294718
 20
192.1298075526766
 30
0.0
 40
10.0
  0
ARC
  5
DBD
330
1F
100
AcDbEntity
  8
Innenkanten
100
AcDbCircle
 10
164.8748676294718
 20
178.1298075526766
 30
0.0
 40
7.5
100
AcDbArc
 50
0.0
 51
90.0
  0
LINE
  5
DBE
102
{ACAD_REACTORS
330
10FE
102
}
330
1F
100
AcDbEntity
  8
Mittellinie
100
AcDbLine
 10
178.8748676294718
 20
157.0402259499536
 30
0.0
 11
178.8748676294718
 21
210.6135213528497
 31
0.0
  0
CIRCLE
  5
DBF
330
1F
100
AcDbEntity
  8
Innenkanten
100
AcDbCircle
 10
190.5421295190499
 20
180.4625456630986
 30
0.0
 40
1.450000000000003
  0
ARC
  5
DC0
330
1F
100
AcDbEntity
  8
Mittellinie
100
AcDbCircle
 10
178.8748676294718
 20
192.1298075526766
 30
0.0
 40
16.5
100
AcDbArc
 50
307.520811521872
 51
322.5914963371939
  0
LINE
  5
DC1
102
{ACAD_REACTORS
330
10DB
102
}
330
1F
100
AcDbEntity
  8
0
100
AcDbLine
 10
165.3748676294718
 20
178.1298075526766
 30
0.0
 11
192.3748676294718
 21
178.1298075526766
 31
0.0
  0
LINE
  5
DC2
330
1F
100
AcDbEntity
  8
Mittellinie
100
AcDbLine
 10
192.237371185473
 20
178.7673039966753
 30
0.0
 11
188.9755444964872
 21
182.0291306856612
 31
0.0
  0
LINE
  5
DC3
330
1F
100
AcDbEntity
  8
0
100
AcDbLine
 10
183.2923102434873
 20
161.0929117613704
 30
0.0
 11
183.2923102434873
 21
171.1298075526766
 31
0.0
  0
LINE
  5
DC4
330
1F
100
AcDbEntity
  8
0
100
AcDbLine
 10
174.3058064822404
 20
161.0929117613704
 30
0.0
 11
174.3058064822404
 21
171.1298075526766
 31
0.0
  0
LINE
  5
DC5
330
1F
100
AcDbEntity
  8
0
100
AcDbLine
 10
183.2923102434873
 20
161.0929117613704
 30
0.0
 11
174.3058064822404
 21
161.0929117613704
 31
0.0
  0
LINE
  5
DC6
330
1F
100
AcDbEntity
  8
Innenkanten
100
AcDbLine
 10
169.8248676294718
 20
177.6298075526766
 30
0.0
 11
185.8248676294718
 21
177.6298075526766
 31
0.0
  0
LINE
  5
DC7
102
{ACAD_REACTORS
330
113A
102
}
330
1F
100
AcDbEntity
  8
0
100
AcDbLine
 10
170.8248676294718
 20
171.1298075526766
 30
0.0
 11
184.8248676294718
 21
171.1298075526766
 31
0.0
  0
LINE
  5
DC8
330
1F
100
AcDbEntity
  8
0
100
AcDbLine
 10
169.8248676294718
 20
172.1298075526766
 30
0.0
 11
169.8248676294718
 21
178.1298075526766
 31
0.0
  0
ARC
  5
DC9
330
1F
100
AcDbEntity
  8
0
100
AcDbCircle
 10
170.8248676294718
 20
172.1298075526766
 30
0.0
 40
1.0
100
AcDbArc
 50
180.0
 51
270.0
  0
LINE
  5
DCA
330
1F
100
AcDbEntity
  8
Mittellinie
100
AcDbLine
 10
170.4811787816967
 20
183.7361187049015
 30
0.0
 11
165.2440640993862
 21
178.499004022591
 31
0.0
  0
ARC
  5
DCB
330
1F
100
AcDbEntity
  8
Mittellinie
100
AcDbCircle
 10
178.8748676294718
 20
192.1298075526766
 30
0.0
 40
15.49999999999999
100
AcDbArc
 50
211.4783748240374
 51
238.1687358262176
  0
CIRCLE
  5
DCC
330
1F
100
AcDbEntity
  8
Innenkanten
100
AcDbCircle
 10
167.9147125210803
 20
181.1696524442851
 30
0.0
 40
2.75
  0
ARC
  5
DCD
330
1F
100
AcDbEntity
  8
Innenkanten
100
AcDbCircle
 10
167.9147125210803
 20
179.0483321007255
 30
0.0
 40
1.400000000000002
100
AcDbArc
 50
45.00000000000007
 51
134.9999999999998
  0
ARC
  5
DCE
330
1F
100
AcDbEntity
  8
Innenkanten
100
AcDbCircle
 10
167.9147125210803
 20
183.2909727878448
 30
0.0
 40
1.400000000000002
100
AcDbArc
 50
225.0
 51
315.0
  0
ARC
  5
DCF
330
1F
100
AcDbEntity
  8
Innenkanten
100
AcDbCircle
 10
170.0360328646399
 20
181.1696524442851
 30
0.0
 40
1.400000000000002
100
AcDbArc
 50
134.9999999999998
 51
225.0
  0
CIRCLE
  5
DD0
330
1F
100
AcDbEntity
  8
Innenkanten
100
AcDbCircle
 10
167.9147125210803
 20
181.1696524442851
 30
0.0
 40
3.0
  0
ARC
  5
DD1
330
1F
100
AcDbEntity
  8
0
100
AcDbCircle
 10
165.3748676294718
 20
178.6298075526766
 30
0.0
 40
0.5
100
AcDbArc
 50
180.0
 51
270.0
  0
ARC
  5
DD2
330
1F
100
AcDbEntity
  8
Innenkanten
100
AcDbCircle
 10
165.7933921775207
 20
181.1696524442851
 30
0.0
 40
1.400000000000002
100
AcDbArc
 50
315.0
 51
45.00000000000007
  0
LINE
  5
DD3
330
1F
100
AcDbEntity
  8
Innenkanten
100
AcDbLine
 10
166.7833416711818
 20
180.1797029506239
 30
0.0
 11
166.9247630274192
 21
180.0382815943866
 31
0.0
  0
LINE
  5
DD4
330
1F
100
AcDbEntity
  8
Innenkanten
100
AcDbLine
 10
166.9247630274192
 20
182.3010232941836
 30
0.0
 11
166.7833416711818
 21
182.1596019379463
 31
0.0
  0
LINE
  5
DD5
330
1F
100
AcDbEntity
  8
Innenkanten
100
AcDbLine
 10
169.0460833709788
 20
180.1797029506239
 30
0.0
 11
168.9046620147415
 21
180.0382815943866
 31
0.0
  0
LINE
  5
DD6
330
1F
100
AcDbEntity
  8
Innenkanten
100
AcDbLine
 10
168.9046620147415
 20
182.3010232941836
 30
0.0
 11
169.0460833709788
 21
182.1596019379463
 31
0.0
  0
LINE
  5
DD7
330
1F
100
AcDbEntity
  8
0
100
AcDbLine
 10
185.8248676294718
 20
172.1298075526766
 30
0.0
 11
185.8248676294718
 21
178.1298075526766
 31
0.0
  0
LINE
  5
DD8
330
1F
100
AcDbEntity
  8
0
100
AcDbLine
 10
184.0420350334287
 20
169.5164493276168
 30
0.0
 11
183.2920350334287
 21
169.5164493276168
 31
0.0
  0
LINE
  5
DD9
330
1F
100
AcDbEntity
  8
0
100
AcDbLine
 10
186.2920350334287
 20
168.7664493276168
 30
0.0
 11
183.2920350334287
 21
168.7664493276168
 31
0.0
  0
LINE
  5
DDA
330
1F
100
AcDbEntity
  8
Innenkanten
100
AcDbLine
 10
184.7920350334287
 20
171.1298075526766
 30
0.0
 11
184.7920350334287
 21
168.7664493276168
 31
0.0
  0
LINE
  5
DDB
330
1F
100
AcDbEntity
  8
0
100
AcDbLine
 10
184.0420350334287
 20
171.1298075526766
 30
0.0
 11
184.0420350334287
 21
169.5164493276168
 31
0.0
  0
LINE
  5
DDC
330
1F
100
AcDbEntity
  8
0
100
AcDbLine
 10
186.2920350334287
 20
173.2664493276167
 30
0.0
 11
186.2920350334287
 21
168.7664493276168
 31
0.0
  0
ARC
  5
DDD
330
1F
100
AcDbEntity
  8
0
100
AcDbCircle
 10
184.8248676294718
 20
172.1298075526766
 30
0.0
 40
1.0
100
AcDbArc
 50
270.0
 51
0.0
  0
LINE
  5
DDE
330
1F
100
AcDbEntity
  8
0
100
AcDbLine
 10
186.2920350334287
 20
173.2664493276167
 30
0.0
 11
185.8248676294718
 21
173.2664493276167
 31
0.0
  0
ARC
  5
DDF
330
1F
100
AcDbEntity
  8
0
100
AcDbCircle
 10
192.3748676294718
 20
178.6298075526766
 30
0.0
 40
0.5
100
AcDbArc
 50
270.0
 51
0.0
  0
LINE
  5
DE0
102
{ACAD_REACTORS
330
10DB
102
}
330
1F
100
AcDbEntity
  8
0
100
AcDbLine
 10
192.3748676294718
 20
206.1298075526766
 30
0.0
 11
165.3748676294718
 21
206.1298075526766
 31
0.0
  0
CIRCLE
  5
DE1
330
1F
100
AcDbEntity
  8
Innenkanten
100
AcDbCircle
 10
189.8350227378633
 20
203.0899626610681
 30
0.0
 40
2.75
  0
LINE
  5
DE2
330
1F
100
AcDbEntity
  8
Mittellinie
100
AcDbLine
 10
187.2685564772469
 20
200.5234964004517
 30
0.0
 11
192.5056711595574
 21
205.7606110827622
 31
0.0
  0
ARC
  5
DE3
330
1F
100
AcDbEntity
  8
Mittellinie
100
AcDbCircle
 10
178.8748676294718
 20
192.1298075526766
 30
0.0
 40
15.5
100
AcDbArc
 50
31.47837482403744
 51
58.16873582621775
  0
CIRCLE
  5
DE4
330
1F
100
AcDbEntity
  8
Innenkanten
100
AcDbCircle
 10
189.8350227378633
 20
203.0899626610681
 30
0.0
 40
3.0
  0
ARC
  5
DE5
330
1F
100
AcDbEntity
  8
Innenkanten
100
AcDbCircle
 10
192.8748676294718
 20
206.1298075526766
 30
0.0
 40
7.5
100
AcDbArc
 50
180.0
 51
270.0
  0
CIRCLE
  5
DE6
330
1F
100
AcDbEntity
  8
Innenkanten
100
AcDbCircle
 10
167.2076057398938
 20
203.7970694422546
 30
0.0
 40
1.450000000000003
  0
ARC
  5
DE7
102
{ACAD_REACTORS
330
1118
102
}
330
1F
100
AcDbEntity
  8
Mittellinie
100
AcDbCircle
 10
178.8748676294718
 20
192.1298075526766
 30
0.0
 40
16.5
100
AcDbArc
 50
127.520811521872
 51
142.5914963371939
  0
ARC
  5
DE8
330
1F
100
AcDbEntity
  8
Innenkanten
100
AcDbCircle
 10
189.8350227378633
 20
205.2112830046277
 30
0.0
 40
1.400000000000002
100
AcDbArc
 50
225.0
 51
315.0
  0
LINE
  5
DE9
330
1F
100
AcDbEntity
  8
Innenkanten
100
AcDbLine
 10
190.9663935877618
 20
204.0799121547292
 30
0.0
 11
190.8249722315245
 21
204.2213335109666
 31
0.0
  0
LINE
  5
DEA
330
1F
100
AcDbEntity
  8
Innenkanten
100
AcDbLine
 10
188.7036518879648
 20
204.0799121547292
 30
0.0
 11
188.8450732442021
 21
204.2213335109666
 31
0.0
  0
LINE
  5
DEB
102
{ACAD_REACTORS
330
10FE
102
}
330
1F
100
AcDbEntity
  8
Mittellinie
100
AcDbLine
 10
165.5123640734705
 20
205.4923111086779
 30
0.0
 11
168.7741907624564
 21
202.230484419692
 31
0.0
  0
CIRCLE
  5
DEC
330
1F
100
AcDbEntity
  8
Innenkanten
100
AcDbCircle
 10
178.8748676294718
 20
192.1298075526766
 30
0.0
 40
3.0
  0
CIRCLE
  5
DED
330
1F
100
AcDbEntity
  8
Innenkanten
100
AcDbCircle
 10
178.8748676294718
 20
192.1298075526766
 30
0.0
 40
3.5
  0
LINE
  5
DEE
330
1F
100
AcDbEntity
  8
Innenkanten
100
AcDbLine
 10
180.5331800246495
 20
194.6298075526766
 30
0.0
 11
177.2165552342941
 21
194.6298075526766
 31
0.0
  0
ARC
  5
DEF
330
1F
100
AcDbEntity
  8
Innenkanten
100
AcDbCircle
 10
189.8350227378633
 20
200.9686423175085
 30
0.0
 40
1.400000000000003
100
AcDbArc
 50
45.00000000000007
 51
134.9999999999998
  0
ARC
  5
DF0
330
1F
100
AcDbEntity
  8
Innenkanten
100
AcDbCircle
 10
187.7137023943037
 20
203.0899626610681
 30
0.0
 40
1.400000000000002
100
AcDbArc
 50
315.0
 51
45.00000000000007
  0
LINE
  5
DF1
330
1F
100
AcDbEntity
  8
Innenkanten
100
AcDbLine
 10
188.8450732442021
 20
201.9585918111697
 30
0.0
 11
188.7036518879648
 21
202.1000131674069
 31
0.0
  0
ARC
  5
DF2
330
1F
100
AcDbEntity
  8
Innenkanten
100
AcDbCircle
 10
191.9563430814229
 20
203.0899626610681
 30
0.0
 40
1.399999999999999
100
AcDbArc
 50
135.0
 51
225.0
  0
LINE
  5
DF3
330
1F
100
AcDbEntity
  8
Innenkanten
100
AcDbLine
 10
190.8249722315245
 20
201.9585918111697
 30
0.0
 11
190.9663935877618
 21
202.1000131674069
 31
0.0
  0
ARC
  5
DF4
330
1F
100
AcDbEntity
  8
0
100
AcDbCircle
 10
165.3748676294718
 20
205.6298075526766
 30
0.0
 40
0.5
100
AcDbArc
 50
90.0
 51
180.0
  0
ARC
  5
DF5
330
1F
100
AcDbEntity
  8
0
100
AcDbCircle
 10
192.3748676294718
 20
205.6298075526766
 30
0.0
 40
0.5
100
AcDbArc
 50
0.0
 51
90.0
  0
LINE
  5
EA2
330
1F
100
AcDbEntity
  8
0
100
AcDbLine
 10
106.1631646522276
 20
192.1298075526766
 30
0.0
 11
106.1631646522276
 21
205.6298075526766
 31
0.0
  0
LINE
  5
EA3
330
1F
100
AcDbEntity
  8
Innenkanten
100
AcDbLine
 10
128.1139506293479
 20
167.9552304791374
 30
0.0
 11
122.3349587042516
 21
173.1298075526766
 31
0.0
  0
ARC
  5
EA4
330
1F
100
AcDbEntity
  8
0
100
AcDbCircle
 10
57.66871751739177
 20
178.1051620567787
 30
0.0
 40
10.0
100
AcDbArc
 50
219.3549794573736
 51
270.0
  0
ARC
  5
EA5
330
1F
100
AcDbEntity
  8
0
100
AcDbCircle
 10
119.1646597157628
 20
169.3551620567788
 30
0.0
 40
2.499999999999996
100
AcDbArc
 50
150.0
 51
209.9999999999999
  0
LINE
  5
EA6
330
1F
100
AcDbEntity
  8
0
100
AcDbLine
 10
122.3349587042516
 20
168.1051620567787
 30
0.0
 11
122.3349587042516
 21
180.6298075526766
 31
0.0
  0
LINE
  5
EA7
330
1F
100
AcDbEntity
  8
0
100
AcDbLine
 10
120.9683072982329
 20
181.3911246693452
 30
0.0
 11
120.9683072982329
 21
167.3509204683551
 31
0.0
  0
LINE
  5
EA8
330
1F
100
AcDbEntity
  8
0
100
AcDbLine
 10
119.4683072982329
 20
181.3911246693452
 30
0.0
 11
119.4683072982329
 21
167.3509204683551
 31
0.0
  0
ARC
  5
EA9
330
1F
100
AcDbEntity
  8
0
100
AcDbCircle
 10
120.0846597175509
 20
169.3551620567788
 30
0.0
 40
2.499999999999996
100
AcDbArc
 50
150.0
 51
209.9999999999999
  0
ARC
  5
EAA
330
1F
100
AcDbEntity
  8
0
100
AcDbCircle
 10
114.8345326968406
 20
169.3551620567788
 30
0.0
 40
2.499999999999999
100
AcDbArc
 50
330.0
 51
29.99999999999994
  0
LINE
  5
EAB
330
1F
100
AcDbEntity
  8
0
100
AcDbLine
 10
115.4683072982329
 20
181.3911246693452
 30
0.0
 11
115.4683072982329
 21
167.3509204683551
 31
0.0
  0
LINE
  5
EAC
330
1F
100
AcDbEntity
  8
0
100
AcDbLine
 10
113.9683072982329
 20
181.3911246693452
 30
0.0
 11
113.9683072982329
 21
167.3509204683551
 31
0.0
  0
LINE
  5
EAD
330
1F
100
AcDbEntity
  8
0
100
AcDbLine
 10
128.1139506293479
 20
160.9591547549713
 30
0.0
 11
128.1139506293479
 21
181.4012304791374
 31
0.0
  0
LINE
  5
EAE
330
1F
100
AcDbEntity
  8
0
100
AcDbLine
 10
128.8639506293479
 20
160.9591547549713
 30
0.0
 11
128.8639506293479
 21
181.4012304791374
 31
0.0
  0
LINE
  5
EAF
330
1F
100
AcDbEntity
  8
0
100
AcDbLine
 10
136.1442629385609
 20
160.9591547549713
 30
0.0
 11
136.1442629385609
 21
181.4012304791374
 31
0.0
  0
LINE
  5
EB0
330
1F
100
AcDbEntity
  8
0
100
AcDbLine
 10
143.2692629385609
 20
170.8427304791374
 30
0.0
 11
143.2692629385609
 21
168.2927304791373
 31
0.0
  0
LINE
  5
EB1
330
1F
100
AcDbEntity
  8
0
100
AcDbLine
 10
113.9683072982329
 20
168.1051620567787
 30
0.0
 11
57.66871751739177
 21
168.1051620567787
 31
0.0
  0
LINE
  5
EB2
330
1F
100
AcDbEntity
  8
0
100
AcDbLine
 10
143.2692629385609
 20
161.8427304791373
 30
0.0
 11
136.1442629385609
 21
161.8427304791373
 31
0.0
  0
LINE
  5
EB3
330
1F
100
AcDbEntity
  8
0
100
AcDbLine
 10
143.2692629385609
 20
164.3927304791374
 30
0.0
 11
136.1442629385609
 21
164.3927304791374
 31
0.0
  0
LINE
  5
EB4
330
1F
100
AcDbEntity
  8
0
100
AcDbLine
 10
143.2692629385609
 20
165.0677304791374
 30
0.0
 11
136.1442629385609
 21
165.0677304791374
 31
0.0
  0
LINE
  5
EB5
330
1F
100
AcDbEntity
  8
0
100
AcDbLine
 10
143.2692629385609
 20
168.2927304791373
 30
0.0
 11
136.1442629385609
 21
168.2927304791373
 31
0.0
  0
LINE
  5
EB6
330
1F
100
AcDbEntity
  8
0
100
AcDbLine
 10
143.2692629385609
 20
167.6177304791374
 30
0.0
 11
136.1442629385609
 21
167.6177304791374
 31
0.0
  0
LINE
  5
EB7
330
1F
100
AcDbEntity
  8
0
100
AcDbLine
 10
143.2692629385609
 20
164.3927304791374
 30
0.0
 11
143.2692629385609
 21
161.8427304791373
 31
0.0
  0
LINE
  5
EB8
330
1F
100
AcDbEntity
  8
0
100
AcDbLine
 10
143.2692629385609
 20
167.6177304791374
 30
0.0
 11
143.2692629385609
 21
165.0677304791374
 31
0.0
  0
LINE
  5
EB9
330
1F
100
AcDbEntity
  8
0
100
AcDbLine
 10
122.3349587042516
 20
168.1051620567787
 30
0.0
 11
128.1139506293479
 21
160.9591547549713
 31
0.0
  0
LINE
  5
EBA
330
1F
100
AcDbEntity
  8
0
100
AcDbLine
 10
128.1139506293479
 20
160.9591547549713
 30
0.0
 11
136.1442629385609
 21
160.9591547549713
 31
0.0
  0
LINE
  5
EBB
330
1F
100
AcDbEntity
  8
0
100
AcDbLine
 10
122.3349587042516
 20
168.1051620567787
 30
0.0
 11
120.9683072982329
 21
168.1051620567787
 31
0.0
  0
LINE
  5
EBC
330
1F
100
AcDbEntity
  8
0
100
AcDbLine
 10
120.9683072982329
 20
167.3551620567788
 30
0.0
 11
119.4683072982329
 21
167.3551620567788
 31
0.0
  0
LINE
  5
EBD
330
1F
100
AcDbEntity
  8
0
100
AcDbLine
 10
119.4683072982329
 20
168.1051620567787
 30
0.0
 11
117.9195962080898
 21
168.1051620567787
 31
0.0
  0
LINE
  5
EBE
330
1F
100
AcDbEntity
  8
0
100
AcDbLine
 10
116.9995962063017
 20
168.1051620567787
 30
0.0
 11
115.4683072982329
 21
168.1051620567787
 31
0.0
  0
LINE
  5
EBF
330
1F
100
AcDbEntity
  8
0
100
AcDbLine
 10
115.4683072982329
 20
167.3551620567788
 30
0.0
 11
113.9683072982329
 21
167.3551620567788
 31
0.0
  0
LINE
  5
EC0
330
1F
100
AcDbEntity
  8
Innenkanten
100
AcDbLine
 10
109.9131646522276
 20
175.5798075526766
 30
0.0
 11
109.1631646522276
 21
174.8298075526766
 31
0.0
  0
LINE
  5
EC1
330
1F
100
AcDbEntity
  8
Innenkanten
100
AcDbLine
 10
110.3131646522276
 20
174.8298075526766
 30
0.0
 11
108.0131646522276
 21
174.8298075526766
 31
0.0
  0
LINE
  5
EC2
330
1F
100
AcDbEntity
  8
Innenkanten
100
AcDbLine
 10
111.1631646522276
 20
176.1298075526766
 30
0.0
 11
107.1631646522276
 21
176.1298075526766
 31
0.0
  0
LINE
  5
EC3
330
1F
100
AcDbEntity
  8
Mittellinie
100
AcDbLine
 10
109.5399618784026
 20
192.1298075526766
 30
0.0
 11
2.16423004932426
 21
192.1298075526766
 31
0.0
  0
LINE
  5
EC4
330
1F
100
AcDbEntity
  8
0
100
AcDbLine
 10
106.1631646522276
 20
182.1298075526766
 30
0.0
 11
111.6631646522276
 21
182.1298075526766
 31
0.0
  0
LINE
  5
EC5
330
1F
100
AcDbEntity
  8
0
100
AcDbLine
 10
112.1631646522276
 20
174.6298075526766
 30
0.0
 11
96.16316465222764
 21
174.6298075526766
 31
0.0
  0
LINE
  5
EC6
330
1F
100
AcDbEntity
  8
0
100
AcDbLine
 10
95.66316465222763
 20
178.1298075526766
 30
0.0
 11
112.1631646522276
 21
178.1298075526766
 31
0.0
  0
LINE
  5
EC7
330
1F
100
AcDbEntity
  8
0
100
AcDbLine
 10
112.1631646522276
 20
173.6298075526766
 30
0.0
 11
99.66316465222764
 21
173.6298075526766
 31
0.0
  0
LINE
  5
EC8
330
1F
100
AcDbEntity
  8
0
100
AcDbLine
 10
113.9683072982329
 20
173.1051620567787
 30
0.0
 11
57.66871751739177
 21
173.1051620567787
 31
0.0
  0
LINE
  5
EC9
330
1F
100
AcDbEntity
  8
0
100
AcDbLine
 10
143.2692629385609
 20
177.2927304791373
 30
0.0
 11
136.1442629385609
 21
177.2927304791373
 31
0.0
  0
LINE
  5
ECA
330
1F
100
AcDbEntity
  8
0
100
AcDbLine
 10
143.2692629385609
 20
177.9677304791374
 30
0.0
 11
136.1442629385609
 21
177.9677304791374
 31
0.0
  0
LINE
  5
ECB
330
1F
100
AcDbEntity
  8
0
100
AcDbLine
 10
143.2692629385609
 20
180.5177304791374
 30
0.0
 11
136.1442629385609
 21
180.5177304791374
 31
0.0
  0
LINE
  5
ECC
330
1F
100
AcDbEntity
  8
0
100
AcDbLine
 10
143.2692629385609
 20
171.5177304791374
 30
0.0
 11
136.1442629385609
 21
171.5177304791374
 31
0.0
  0
LINE
  5
ECD
330
1F
100
AcDbEntity
  8
0
100
AcDbLine
 10
143.2692629385609
 20
170.8427304791374
 30
0.0
 11
136.1442629385609
 21
170.8427304791374
 31
0.0
  0
LINE
  5
ECE
330
1F
100
AcDbEntity
  8
0
100
AcDbLine
 10
143.2692629385609
 20
174.0677304791374
 30
0.0
 11
136.1442629385609
 21
174.0677304791374
 31
0.0
  0
LINE
  5
ECF
330
1F
100
AcDbEntity
  8
0
100
AcDbLine
 10
143.2692629385609
 20
174.7427304791374
 30
0.0
 11
136.1442629385609
 21
174.7427304791374
 31
0.0
  0
LINE
  5
ED0
330
1F
100
AcDbEntity
  8
0
100
AcDbLine
 10
143.2692629385609
 20
177.2927304791373
 30
0.0
 11
143.2692629385609
 21
174.7427304791374
 31
0.0
  0
LINE
  5
ED1
330
1F
100
AcDbEntity
  8
0
100
AcDbLine
 10
143.2692629385609
 20
174.0677304791374
 30
0.0
 11
143.2692629385609
 21
171.5177304791374
 31
0.0
  0
LINE
  5
ED2
330
1F
100
AcDbEntity
  8
0
100
AcDbLine
 10
143.2692629385609
 20
180.5177304791374
 30
0.0
 11
143.2692629385609
 21
177.9677304791374
 31
0.0
  0
LINE
  5
ED3
330
1F
100
AcDbEntity
  8
0
100
AcDbLine
 10
128.1139506293479
 20
181.4012304791374
 30
0.0
 11
122.3349587042516
 21
180.6298075526766
 31
0.0
  0
LINE
  5
ED4
330
1F
100
AcDbEntity
  8
0
100
AcDbLine
 10
136.1442629385609
 20
181.4012304791374
 30
0.0
 11
128.1139506293479
 21
181.4012304791374
 31
0.0
  0
ARC
  5
ED5
330
1F
100
AcDbEntity
  8
0
100
AcDbCircle
 10
111.6631646522276
 20
181.6298075526766
 30
0.0
 40
0.5
100
AcDbArc
 50
0.000000000000007
 51
90.0
  0
LINE
  5
ED6
330
1F
100
AcDbEntity
  8
0
100
AcDbLine
 10
122.3349587042516
 20
173.1051620567787
 30
0.0
 11
120.9683072982329
 21
173.1051620567787
 31
0.0
  0
ARC
  5
ED7
330
1F
100
AcDbEntity
  8
0
100
AcDbCircle
 10
115.7545326986287
 20
171.8551620567787
 30
0.0
 40
2.499999999999999
100
AcDbArc
 50
330.0
 51
29.99999999999994
  0
ARC
  5
ED8
330
1F
100
AcDbEntity
  8
0
100
AcDbCircle
 10
120.0846597175509
 20
171.8551620567787
 30
0.0
 40
2.499999999999996
100
AcDbArc
 50
150.0
 51
209.9999999999999
  0
LINE
  5
ED9
330
1F
100
AcDbEntity
  8
0
100
AcDbLine
 10
119.4683072982329
 20
173.1051620567787
 30
0.0
 11
117.9195962080898
 21
173.1051620567787
 31
0.0
  0
LINE
  5
EDA
330
1F
100
AcDbEntity
  8
0
100
AcDbLine
 10
122.3349587042516
 20
175.6298075526766
 30
0.0
 11
120.9683072982329
 21
175.6298075526766
 31
0.0
  0
LINE
  5
EDB
330
1F
100
AcDbEntity
  8
0
100
AcDbLine
 10
122.3349587042516
 20
180.6298075526766
 30
0.0
 11
120.9683072982329
 21
180.6298075526766
 31
0.0
  0
ARC
  5
EDC
330
1F
100
AcDbEntity
  8
0
100
AcDbCircle
 10
115.7545326986287
 20
179.3798075526766
 30
0.0
 40
2.499999999999999
100
AcDbArc
 50
330.0
 51
29.99999999999994
  0
ARC
  5
EDD
330
1F
100
AcDbEntity
  8
0
100
AcDbCircle
 10
120.0846597175509
 20
179.3798075526766
 30
0.0
 40
2.499999999999996
100
AcDbArc
 50
150.0
 51
209.9999999999999
  0
ARC
  5
EDE
330
1F
100
AcDbEntity
  8
0
100
AcDbCircle
 10
120.0846597175509
 20
176.8798075526766
 30
0.0
 40
2.499999999999996
100
AcDbArc
 50
150.0
 51
209.9999999999999
  0
LINE
  5
EDF
330
1F
100
AcDbEntity
  8
0
100
AcDbLine
 10
120.9683072982329
 20
181.3798075526766
 30
0.0
 11
119.4683072982329
 21
181.3798075526766
 31
0.0
  0
LINE
  5
EE0
330
1F
100
AcDbEntity
  8
0
100
AcDbLine
 10
119.4683072982329
 20
175.6298075526766
 30
0.0
 11
117.9195962080898
 21
175.6298075526766
 31
0.0
  0
LINE
  5
EE1
330
1F
100
AcDbEntity
  8
0
100
AcDbLine
 10
119.4683072982329
 20
180.6298075526766
 30
0.0
 11
117.9195962080898
 21
180.6298075526766
 31
0.0
  0
LINE
  5
EE2
330
1F
100
AcDbEntity
  8
Innenkanten
100
AcDbLine
 10
110.9131646522276
 20
176.1298075526766
 30
0.0
 11
110.9131646522276
 21
175.4298075526766
 31
0.0
  0
LINE
  5
EE3
330
1F
100
AcDbEntity
  8
Innenkanten
100
AcDbLine
 10
111.1631646522276
 20
176.1298075526766
 30
0.0
 11
111.1631646522276
 21
174.6298075526766
 31
0.0
  0
LINE
  5
EE4
330
1F
100
AcDbEntity
  8
0
100
AcDbLine
 10
112.1631646522276
 20
181.6298075526766
 30
0.0
 11
112.1631646522276
 21
173.6298075526766
 31
0.0
  0
LINE
  5
EE5
330
1F
100
AcDbEntity
  8
0
100
AcDbLine
 10
116.9995962063017
 20
173.1051620567787
 30
0.0
 11
115.4683072982329
 21
173.1051620567787
 31
0.0
  0
ARC
  5
EE6
330
1F
100
AcDbEntity
  8
0
100
AcDbCircle
 10
114.8345326968406
 20
171.8551620567787
 30
0.0
 40
2.499999999999999
100
AcDbArc
 50
330.0
 51
29.99999999999994
  0
ARC
  5
EE7
330
1F
100
AcDbEntity
  8
Innenkanten
100
AcDbCircle
 10
110.3131646522276
 20
175.4298075526766
 30
0.0
 40
0.5999999999999945
100
AcDbArc
 50
270.0
 51
0.000000000000007
  0
LINE
  5
EE8
330
1F
100
AcDbEntity
  8
0
100
AcDbLine
 10
113.9683072982329
 20
175.6298075526766
 30
0.0
 11
112.1631646522276
 21
175.6298075526766
 31
0.0
  0
LINE
  5
EE9
330
1F
100
AcDbEntity
  8
0
100
AcDbLine
 10
113.9683072982329
 20
180.6298075526766
 30
0.0
 11
112.1631646522276
 21
180.6298075526766
 31
0.0
  0
ARC
  5
EEA
330
1F
100
AcDbEntity
  8
0
100
AcDbCircle
 10
119.1646597157628
 20
176.8798075526766
 30
0.0
 40
2.499999999999996
100
AcDbArc
 50
150.0
 51
209.9999999999999
  0
LINE
  5
EEB
330
1F
100
AcDbEntity
  8
0
100
AcDbLine
 10
116.9995962063017
 20
180.6298075526766
 30
0.0
 11
115.4683072982329
 21
180.6298075526766
 31
0.0
  0
LINE
  5
EEC
330
1F
100
AcDbEntity
  8
0
100
AcDbLine
 10
116.9995962063017
 20
175.6298075526766
 30
0.0
 11
115.4683072982329
 21
175.6298075526766
 31
0.0
  0
ARC
  5
EED
330
1F
100
AcDbEntity
  8
0
100
AcDbCircle
 10
114.8345326968406
 20
179.3798075526766
 30
0.0
 40
2.499999999999999
100
AcDbArc
 50
330.0
 51
29.99999999999994
  0
ARC
  5
EEE
330
1F
100
AcDbEntity
  8
0
100
AcDbCircle
 10
114.8345326968406
 20
176.8798075526766
 30
0.0
 40
2.499999999999999
100
AcDbArc
 50
330.0
 51
29.99999999999994
  0
LINE
  5
EEF
330
1F
100
AcDbEntity
  8
0
100
AcDbLine
 10
115.4683072982329
 20
181.3798075526766
 30
0.0
 11
113.9683072982329
 21
181.3798075526766
 31
0.0
  0
LINE
  5
EF0
330
1F
100
AcDbEntity
  8
0
100
AcDbLine
 10
13.66316465222763
 20
194.6298075526766
 30
0.0
 11
3.663164652227635
 21
194.6298075526766
 31
0.0
  0
LINE
  5
EF1
330
1F
100
AcDbEntity
  8
0
100
AcDbLine
 10
16.53816465222763
 20
189.1298075526766
 30
0.0
 11
3.663164652227635
 21
189.1298075526766
 31
0.0
  0
LINE
  5
EF2
330
1F
100
AcDbEntity
  8
Innenkanten
100
AcDbLine
 10
48.16316465222763
 20
177.6298075526766
 30
0.0
 11
34.16316465222763
 21
177.6298075526766
 31
0.0
  0
LINE
  5
EF3
330
1F
100
AcDbEntity
  8
Innenkanten
100
AcDbLine
 10
41.66316465222763
 20
183.7298075526766
 30
0.0
 11
24.66316465222763
 21
183.7298075526766
 31
0.0
  0
LINE
  5
EF4
330
1F
100
AcDbEntity
  8
0
100
AcDbLine
 10
41.66316465222763
 20
206.1298075526766
 30
0.0
 11
24.66316465222763
 21
206.1298075526766
 31
0.0
  0
LINE
  5
EF5
330
1F
100
AcDbEntity
  8
0
100
AcDbLine
 10
105.6631646522276
 20
178.1298075526766
 30
0.0
 11
19.66316465222758
 21
178.1298075526766
 31
0.0
  0
LINE
  5
EF6
330
1F
100
AcDbEntity
  8
0
100
AcDbLine
 10
47.16316465222763
 20
171.1298075526766
 30
0.0
 11
35.16316465222763
 21
171.1298075526766
 31
0.0
  0
LINE
  5
EF7
330
1F
100
AcDbEntity
  8
Innenkanten
100
AcDbLine
 10
81.66316465222763
 20
178.1298075526766
 30
0.0
 11
81.66316465222763
 21
206.1298075526766
 31
0.0
  0
LINE
  5
EF8
330
1F
100
AcDbEntity
  8
Innenkanten
100
AcDbLine
 10
82.16316465222764
 20
178.1298075526766
 30
0.0
 11
82.16316465222764
 21
206.1298075526766
 31
0.0
  0
LINE
  5
EF9
330
1F
100
AcDbEntity
  8
Innenkanten
100
AcDbLine
 10
41.66316465222763
 20
206.1298075526766
 30
0.0
 11
41.66316465222763
 21
178.1298075526766
 31
0.0
  0
LINE
  5
EFA
330
1F
100
AcDbEntity
  8
0
100
AcDbLine
 10
106.1631646522276
 20
192.1298075526766
 30
0.0
 11
106.1631646522276
 21
174.6298075526766
 31
0.0
  0
LINE
  5
EFB
330
1F
100
AcDbEntity
  8
Innenkanten
100
AcDbLine
 10
107.4131646522276
 20
176.1298075526766
 30
0.0
 11
107.4131646522276
 21
175.4298075526766
 31
0.0
  0
LINE
  5
EFC
330
1F
100
AcDbEntity
  8
Innenkanten
100
AcDbLine
 10
108.4131646522276
 20
175.5798075526766
 30
0.0
 11
109.1631646522276
 21
174.8298075526766
 31
0.0
  0
LINE
  5
EFD
330
1F
100
AcDbEntity
  8
Innenkanten
100
AcDbLine
 10
107.1631646522276
 20
176.1298075526766
 30
0.0
 11
107.1631646522276
 21
174.6298075526766
 31
0.0
  0
LINE
  5
EFE
330
1F
100
AcDbEntity
  8
Mittellinie
100
AcDbLine
 10
109.1631646522276
 20
173.7028009579035
 30
0.0
 11
109.1631646522276
 21
177.0671419776728
 31
0.0
  0
ARC
  5
EFF
330
1F
100
AcDbEntity
  8
Innenkanten
100
AcDbCircle
 10
108.0131646522276
 20
175.4298075526766
 30
0.0
 40
0.6000000000000015
100
AcDbArc
 50
180.0
 51
270.0
  0
LINE
  5
F00
330
1F
100
AcDbEntity
  8
0
100
AcDbLine
 10
95.66316465222763
 20
178.1298075526766
 30
0.0
 11
95.66316465222763
 21
175.1298075526766
 31
0.0
  0
LINE
  5
F01
330
1F
100
AcDbEntity
  8
0
100
AcDbLine
 10
99.66316465222764
 20
174.6298075526766
 30
0.0
 11
99.66316465222764
 21
173.6298075526766
 31
0.0
  0
ARC
  5
F02
330
1F
100
AcDbEntity
  8
0
100
AcDbCircle
 10
96.16316465222764
 20
175.1298075526766
 30
0.0
 40
0.5
100
AcDbArc
 50
180.0
 51
270.0
  0
ARC
  5
F03
330
1F
100
AcDbEntity
  8
0
100
AcDbCircle
 10
49.16316465222763
 20
171.1298075526766
 30
0.0
 40
0.9999999999999984
100
AcDbArc
 50
39.3549794573737
 51
60.00000000000062
  0
ARC
  5
F04
330
1F
100
AcDbEntity
  8
0
100
AcDbCircle
 10
49.16316465222763
 20
171.1298075526766
 30
0.0
 40
6.0
100
AcDbArc
 50
39.3549794573737
 51
85.21980815280027
  0
ARC
  5
F05
330
1F
100
AcDbEntity
  8
0
100
AcDbCircle
 10
57.66871751739177
 20
178.1051620567787
 30
0.0
 40
5.0
100
AcDbArc
 50
219.3549794573736
 51
270.0
  0
LINE
  5
F06
330
1F
100
AcDbEntity
  8
Mittellinie
100
AcDbLine
 10
44.16316465222763
 20
181.2905077356764
 30
0.0
 11
44.16316465222763
 21
171.373781065443
 31
0.0
  0
LINE
  5
F07
330
1F
100
AcDbEntity
  8
0
100
AcDbLine
 10
48.16316465222763
 20
178.1298075526766
 30
0.0
 11
48.16316465222763
 21
172.1298075526766
 31
0.0
  0
LINE
  5
F08
330
1F
100
AcDbEntity
  8
0
100
AcDbLine
 10
49.66316465222764
 20
177.1089379242273
 30
0.0
 11
49.66316465222764
 21
171.995832956461
 31
0.0
  0
LINE
  5
F09
330
1F
100
AcDbEntity
  8
Innenkanten
100
AcDbLine
 10
46.16316465222763
 20
172.6298075526766
 30
0.0
 11
42.16316465222763
 21
172.6298075526766
 31
0.0
  0
ARC
  5
F0A
330
1F
100
AcDbEntity
  8
0
100
AcDbCircle
 10
45.31316465222767
 20
171.9298075526766
 30
0.0
 40
0.5999999999999945
100
AcDbArc
 50
270.0
 51
0.000000000000007
  0
LINE
  5
F0B
330
1F
100
AcDbEntity
  8
Innenkanten
100
AcDbLine
 10
46.16316465222763
 20
172.6298075526766
 30
0.0
 11
46.16316465222763
 21
171.1298075526766
 31
0.0
  0
LINE
  5
F0C
330
1F
100
AcDbEntity
  8
0
100
AcDbLine
 10
48.16316465222763
 20
175.1089379242273
 30
0.0
 11
49.66316465222764
 21
175.1089379242273
 31
0.0
  0
LINE
  5
F0D
330
1F
100
AcDbEntity
  8
0
100
AcDbLine
 10
45.91316465222763
 20
172.6298075526766
 30
0.0
 11
45.91316465222763
 21
171.9298075526766
 31
0.0
  0
ARC
  5
F0E
330
1F
100
AcDbEntity
  8
0
100
AcDbCircle
 10
47.16316465222763
 20
172.1298075526766
 30
0.0
 40
1.0
100
AcDbArc
 50
270.0
 51
0.000000000000007
  0
LINE
  5
F0F
330
1F
100
AcDbEntity
  8
0
100
AcDbLine
 10
48.16316465222763
 20
174.1089379242273
 30
0.0
 11
49.66316465222764
 21
174.1089379242273
 31
0.0
  0
LINE
  5
F10
330
1F
100
AcDbEntity
  8
0
100
AcDbLine
 10
48.16316465222763
 20
173.1089379242273
 30
0.0
 11
49.66316465222764
 21
173.1089379242273
 31
0.0
  0
LINE
  5
F11
330
1F
100
AcDbEntity
  8
Innenkanten
100
AcDbLine
 10
43.41316465222763
 20
172.0798075526766
 30
0.0
 11
44.16316465222763
 21
171.3298075526766
 31
0.0
  0
LINE
  5
F12
330
1F
100
AcDbEntity
  8
Innenkanten
100
AcDbLine
 10
42.16316465222763
 20
172.6298075526766
 30
0.0
 11
42.16316465222763
 21
171.1298075526766
 31
0.0
  0
LINE
  5
F13
330
1F
100
AcDbEntity
  8
Innenkanten
100
AcDbLine
 10
44.91316465222763
 20
172.0798075526766
 30
0.0
 11
44.16316465222763
 21
171.3298075526766
 31
0.0
  0
LINE
  5
F14
330
1F
100
AcDbEntity
  8
0
100
AcDbLine
 10
42.41316465222763
 20
172.6298075526766
 30
0.0
 11
42.41316465222763
 21
171.9298075526766
 31
0.0
  0
LINE
  5
F15
330
1F
100
AcDbEntity
  8
0
100
AcDbLine
 10
45.31316465222767
 20
171.3298075526766
 30
0.0
 11
43.0131646522276
 21
171.3298075526766
 31
0.0
  0
ARC
  5
F16
330
1F
100
AcDbEntity
  8
0
100
AcDbCircle
 10
43.0131646522276
 20
171.9298075526766
 30
0.0
 40
0.6000000000000015
100
AcDbArc
 50
180.0
 51
270.0
  0
LINE
  5
F17
330
1F
100
AcDbEntity
  8
0
100
AcDbLine
 10
48.16316465222763
 20
176.1089379242273
 30
0.0
 11
49.66316465222764
 21
176.1089379242273
 31
0.0
  0
LINE
  5
F18
330
1F
100
AcDbEntity
  8
0
100
AcDbLine
 10
105.6631646522276
 20
206.1298075526766
 30
0.0
 11
41.66316465222763
 21
206.1298075526766
 31
0.0
  0
LINE
  5
F19
102
{ACAD_REACTORS
330
114B
102
}
330
1F
100
AcDbEntity
  8
Innenkanten
100
AcDbLine
 10
103.4631646522276
 20
182.4711243068613
 30
0.0
 11
103.4631646522276
 21
178.1711243068613
 31
0.0
  0
LINE
  5
F1A
102
{ACAD_REACTORS
330
114B
102
}
330
1F
100
AcDbEntity
  8
Innenkanten
100
AcDbLine
 10
103.1631646522276
 20
183.7298075526766
 30
0.0
 11
103.1631646522276
 21
178.1298075526766
 31
0.0
  0
LINE
  5
F1B
102
{ACAD_REACTORS
330
114B
102
}
330
1F
100
AcDbEntity
  8
Innenkanten
100
AcDbLine
 10
103.1631646522276
 20
183.7298075526766
 30
0.0
 11
106.1631646522276
 21
183.7298075526766
 31
0.0
  0
LINE
  5
F1C
102
{ACAD_REACTORS
330
114B
102
}
330
1F
100
AcDbEntity
  8
Innenkanten
100
AcDbLine
 10
103.4631646522276
 20
182.4711243068613
 30
0.0
 11
103.1631646522276
 21
182.4711243068613
 31
0.0
  0
LINE
  5
F1D
102
{ACAD_REACTORS
330
114B
102
}
330
1F
100
AcDbEntity
  8
Mittellinie
100
AcDbLine
 10
105.9918022884597
 20
180.3211243068613
 30
0.0
 11
102.1580342270593
 21
180.3211243068613
 31
0.0
  0
ARC
  5
F1E
330
1F
100
AcDbEntity
  8
0
100
AcDbCircle
 10
105.6631646522276
 20
205.6298075526766
 30
0.0
 40
0.5
100
AcDbArc
 50
0.000000000000007
 51
90.0
  0
LINE
  5
F1F
102
{ACAD_REACTORS
330
114B
102
}
330
1F
100
AcDbEntity
  8
Innenkanten
100
AcDbLine
 10
103.4631646522276
 20
178.1711243068613
 30
0.0
 11
103.1631646522276
 21
178.1711243068613
 31
0.0
  0
ARC
  5
F20
102
{ACAD_REACTORS
330
114B
102
}
330
1F
100
AcDbEntity
  8
Innenkanten
100
AcDbCircle
 10
104.1631646522276
 20
179.1711243068613
 30
0.0
 40
0.5999999999999996
100
AcDbArc
 50
270.0
 51
0.0
  0
LINE
  5
F21
102
{ACAD_REACTORS
330
114B
102
}
330
1F
100
AcDbEntity
  8
Innenkanten
100
AcDbLine
 10
103.4631646522276
 20
178.5711243068613
 30
0.0
 11
104.1631646522276
 21
178.5711243068613
 31
0.0
  0
LINE
  5
F22
102
{ACAD_REACTORS
330
114B
102
}
330
1F
100
AcDbEntity
  8
Innenkanten
100
AcDbLine
 10
104.0131646522276
 20
181.0711243068612
 30
0.0
 11
104.7631646522276
 21
180.3211243068613
 31
0.0
  0
ARC
  5
F23
102
{ACAD_REACTORS
330
114B
102
}
330
1F
100
AcDbEntity
  8
Innenkanten
100
AcDbCircle
 10
104.1631646522276
 20
181.4711243068613
 30
0.0
 40
0.6000000000000015
100
AcDbArc
 50
0.0
 51
90.00000000000003
  0
LINE
  5
F24
102
{ACAD_REACTORS
330
114B
102
}
330
1F
100
AcDbEntity
  8
Innenkanten
100
AcDbLine
 10
103.4631646522276
 20
182.0711243068613
 30
0.0
 11
104.1631646522276
 21
182.0711243068613
 31
0.0
  0
LINE
  5
F25
102
{ACAD_REACTORS
330
114B
102
}
330
1F
100
AcDbEntity
  8
Innenkanten
100
AcDbLine
 10
104.0131646522276
 20
179.5711243068613
 30
0.0
 11
104.7631646522276
 21
180.3211243068613
 31
0.0
  0
LINE
  5
F26
102
{ACAD_REACTORS
330
114B
102
}
330
1F
100
AcDbEntity
  8
Innenkanten
100
AcDbLine
 10
104.7631646522276
 20
179.1711243068613
 30
0.0
 11
104.7631646522276
 21
181.4711243068613
 31
0.0
  0
LINE
  5
F27
330
1F
100
AcDbEntity
  8
Innenkanten
100
AcDbLine
 10
24.66316465222763
 20
206.1298075526766
 30
0.0
 11
24.66316465222763
 21
178.1298075526766
 31
0.0
  0
LINE
  5
F28
330
1F
100
AcDbEntity
  8
0
100
AcDbLine
 10
17.16316465222758
 20
192.1298075526766
 30
0.0
 11
17.16316465222758
 21
202.1298075526766
 31
0.0
  0
LINE
  5
F29
330
1F
100
AcDbEntity
  8
0
100
AcDbLine
 10
16.53816465222763
 20
192.1298075526766
 30
0.0
 11
16.53816465222763
 21
195.6298075526766
 31
0.0
  0
LINE
  5
F2A
330
1F
100
AcDbEntity
  8
0
100
AcDbLine
 10
19.66316465222758
 20
202.1298075526766
 30
0.0
 11
19.66316465222758
 21
178.1298075526766
 31
0.0
  0
LINE
  5
F2B
330
1F
100
AcDbEntity
  8
0
100
AcDbLine
 10
34.16316465222763
 20
178.1298075526766
 30
0.0
 11
34.16316465222763
 21
172.1298075526766
 31
0.0
  0
ARC
  5
F2C
330
1F
100
AcDbEntity
  8
0
100
AcDbCircle
 10
35.16316465222763
 20
172.1298075526766
 30
0.0
 40
1.0
100
AcDbArc
 50
180.0
 51
270.0
  0
LINE
  5
F2D
102
{ACAD_REACTORS
330
1149
330
114A
102
}
330
1F
100
AcDbEntity
  8
Innenkanten
100
AcDbLine
 10
22.16316465222763
 20
200.0899626610681
 30
0.0
 11
22.16316465222763
 21
206.0899626610681
 31
0.0
  0
ARC
  5
F2E
102
{ACAD_REACTORS
330
1149
330
114A
102
}
330
1F
100
AcDbEntity
  8
Innenkanten
100
AcDbCircle
 10
27.16316465222763
 20
203.0899626610681
 30
0.0
 40
7.000000000000002
100
AcDbArc
 50
163.0422366999947
 51
196.9577633000052
  0
LINE
  5
F2F
102
{ACAD_REACTORS
330
114A
102
}
330
1F
100
AcDbEntity
  8
Innenkanten
100
AcDbLine
 10
22.41316465222763
 20
198.6298075526766
 30
0.0
 11
22.41316465222763
 21
206.1298075526766
 31
0.0
  0
LINE
  5
F30
102
{ACAD_REACTORS
330
1149
330
114A
102
}
330
1F
100
AcDbEntity
  8
Mittellinie
100
AcDbLine
 10
25.42350662383205
 20
203.0899626610681
 30
0.0
 11
17.32432946430117
 21
203.0899626610681
 31
0.0
  0
LINE
  5
F31
102
{ACAD_REACTORS
330
1149
330
114A
102
}
330
1F
100
AcDbEntity
  8
Innenkanten
100
AcDbLine
 10
20.91316465222763
 20
203.8399626610681
 30
0.0
 11
20.16316465222757
 21
203.0899626610681
 31
0.0
  0
LINE
  5
F32
102
{ACAD_REACTORS
330
1149
330
114A
102
}
330
1F
100
AcDbEntity
  8
Innenkanten
100
AcDbLine
 10
20.91316465222763
 20
202.3399626610681
 30
0.0
 11
20.16316465222757
 21
203.0899626610681
 31
0.0
  0
LINE
  5
F33
102
{ACAD_REACTORS
330
1149
330
114A
102
}
330
1F
100
AcDbEntity
  8
Innenkanten
100
AcDbLine
 10
22.41316465222763
 20
206.0899626610681
 30
0.0
 11
22.16316465222763
 21
206.0899626610681
 31
0.0
  0
LINE
  5
F34
102
{ACAD_REACTORS
330
1149
330
114A
102
}
330
1F
100
AcDbEntity
  8
Innenkanten
100
AcDbLine
 10
22.16316465222763
 20
205.8399626610681
 30
0.0
 11
21.42404451060315
 21
205.8399626610681
 31
0.0
  0
ARC
  5
F35
102
{ACAD_REACTORS
330
1149
330
114A
102
}
330
1F
100
AcDbEntity
  8
Innenkanten
100
AcDbCircle
 10
21.42404451060315
 20
204.8399626610681
 30
0.0
 40
1.0
100
AcDbArc
 50
90.00000000000003
 51
163.0422366999947
  0
LINE
  5
F36
330
1F
100
AcDbEntity
  8
0
100
AcDbLine
 10
19.66316465222758
 20
182.1298075526766
 30
0.0
 11
17.16316465222758
 21
182.1298075526766
 31
0.0
  0
LINE
  5
F37
102
{ACAD_REACTORS
330
1149
330
114A
102
}
330
1F
100
AcDbEntity
  8
Innenkanten
100
AcDbLine
 10
22.16316465222763
 20
200.0899626610681
 30
0.0
 11
22.41316465222763
 21
200.0899626610681
 31
0.0
  0
LINE
  5
F38
102
{ACAD_REACTORS
330
1149
330
114A
102
}
330
1F
100
AcDbEntity
  8
Innenkanten
100
AcDbLine
 10
22.16316465222763
 20
200.3399626610681
 30
0.0
 11
21.42404451060315
 21
200.3399626610681
 31
0.0
  0
ARC
  5
F39
102
{ACAD_REACTORS
330
1149
330
114A
102
}
330
1F
100
AcDbEntity
  8
Innenkanten
100
AcDbCircle
 10
21.42404451060315
 20
201.3399626610681
 30
0.0
 40
1.000000000000002
100
AcDbArc
 50
196.9577633000052
 51
270.0
  0
LINE
  5
F3A
102
{ACAD_REACTORS
330
1149
330
114A
102
}
330
1F
100
AcDbEntity
  8
Innenkanten
100
AcDbLine
 10
22.41316465222763
 20
198.6298075526766
 30
0.0
 11
19.66316465222758
 21
198.6298075526766
 31
0.0
  0
LINE
  5
F3B
330
1F
100
AcDbEntity
  8
0
100
AcDbLine
 10
16.53816465222763
 20
192.1298075526766
 30
0.0
 11
16.53816465222763
 21
188.6298075526766
 31
0.0
  0
LINE
  5
F3C
330
1F
100
AcDbEntity
  8
0
100
AcDbLine
 10
17.16316465222758
 20
192.1298075526766
 30
0.0
 11
17.16316465222758
 21
182.1298075526766
 31
0.0
  0
LINE
  5
F3D
330
1F
100
AcDbEntity
  8
0
100
AcDbLine
 10
16.53816465222763
 20
188.6298075526766
 30
0.0
 11
17.16316465222758
 21
188.6298075526766
 31
0.0
  0
LINE
  5
F3E
330
1F
100
AcDbEntity
  8
0
100
AcDbLine
 10
16.53816465222763
 20
195.1298075526766
 30
0.0
 11
13.66316465222763
 21
195.1298075526766
 31
0.0
  0
LINE
  5
F3F
330
1F
100
AcDbEntity
  8
0
100
AcDbLine
 10
13.66316465222763
 20
194.6298075526766
 30
0.0
 11
13.66316465222763
 21
195.1298075526766
 31
0.0
  0
LINE
  5
F40
330
1F
100
AcDbEntity
  8
0
100
AcDbLine
 10
19.66316465222758
 20
202.1298075526766
 30
0.0
 11
17.16316465222758
 21
202.1298075526766
 31
0.0
  0
LINE
  5
F41
330
1F
100
AcDbEntity
  8
0
100
AcDbLine
 10
24.66316465222763
 20
206.1298075526766
 30
0.0
 11
19.66316465222758
 21
206.1298075526766
 31
0.0
  0
LINE
  5
F42
330
1F
100
AcDbEntity
  8
0
100
AcDbLine
 10
19.66316465222758
 20
202.1298075526766
 30
0.0
 11
19.66316465222758
 21
206.1298075526766
 31
0.0
  0
LINE
  5
F43
330
1F
100
AcDbEntity
  8
0
100
AcDbLine
 10
16.53816465222763
 20
195.6298075526766
 30
0.0
 11
17.16316465222758
 21
195.6298075526766
 31
0.0
  0
LINE
  5
F44
330
1F
100
AcDbEntity
  8
0
100
AcDbLine
 10
3.663164652227635
 20
189.1298075526766
 30
0.0
 11
3.663164652227635
 21
194.6298075526766
 31
0.0
  0
DIMENSION
  5
F48
102
{ACAD_XDICTIONARY
360
F55
102
}
102
{ACAD_REACTORS
330
F5F
102
}
330
1F
100
AcDbEntity
  8
Bemaßung
100
AcDbDimension
  2
*D1
 10
338.0888604248823
 20
216.6886419045137
 30
0.0
 11
346.0888604248823
 21
216.6886419045137
 31
0.0
 70
   160
 71
     5
 42
15.99999999999994
  3
ISO-25
100
AcDbAlignedDimension
 13
354.0888604248822
 23
194.6298075526766
 33
0.0
 14
338.0888604248823
 24
206.1298075526766
 34
0.0
100
AcDbRotatedDimension
  0
DIMENSION
  5
F99
102
{ACAD_XDICTIONARY
360
FA8
102
}
102
{ACAD_REACTORS
330
FB4
102
}
330
1F
100
AcDbEntity
  8
Bemaßung
100
AcDbDimension
  2
*D2
 10
333.0888604248822
 20
210.8549652316099
 30
0.0
 11
335.5888604248823
 21
212.7299652316099
 31
0.0
 70
    32
 71
     5
 42
5.000000000000056
  3
ISO-25
100
AcDbAlignedDimension
 13
338.0888604248823
 23
206.1298075526766
 33
0.0
 14
333.0888604248822
 24
206.1298075526766
 34
0.0
100
AcDbRotatedDimension
  0
DIMENSION
  5
FC0
102
{ACAD_XDICTIONARY
360
FCF
102
}
102
{ACAD_REACTORS
330
FDB
102
}
330
1F
100
AcDbEntity
  8
Bemaßung
100
AcDbDimension
  2
*D3
 10
338.0888604248823
 20
169.8989488946521
 30
0.0
 11
329.755527091549
 21
171.9822822279854
 31
0.0
 70
    32
 71
     5
 42
2.5
  3
ISO-25
100
AcDbAlignedDimension
 13
340.5888604248823
 23
182.1298075526766
 33
0.0
 14
338.0888604248823
 24
178.1298075526766
 34
0.0
100
AcDbRotatedDimension
  0
DIMENSION
  5
FE7
102
{ACAD_XDICTIONARY
360
FF4
102
}
102
{ACAD_REACTORS
330
FFE
102
}
330
1F
100
AcDbEntity
  8
Bemaßung
100
AcDbDimension
  2
*D4
 10
363.8757410280463
 20
182.1298075526766
 30
0.0
 11
362.0007410280463
 21
192.1298075526767
 31
0.0
 70
    32
 71
     5
 42
20.0
  3
ISO-25
100
AcDbAlignedDimension
 13
340.5888604248823
 23
202.1298075526766
 33
0.0
 14
340.5888604248823
 24
182.1298075526766
 34
0.0
 50
90.0
100
AcDbRotatedDimension
  0
DIMENSION
  5
1008
102
{ACAD_XDICTIONARY
360
1015
102
}
102
{ACAD_REACTORS
330
101F
102
}
330
1F
100
AcDbEntity
  8
Bemaßung
100
AcDbDimension
  2
*D5
 10
249.0888604248822
 20
216.6886419045137
 30
0.0
 11
293.5888604248823
 21
218.5636419045136
 31
0.0
 70
    32
 71
     5
 42
89.00000000000005
  3
ISO-25
100
AcDbAlignedDimension
 13
338.0888604248823
 23
206.1298075526766
 33
0.0
 14
249.0888604248822
 24
205.6298075526766
 34
0.0
100
AcDbRotatedDimension
  0
DIMENSION
  5
102A
330
1F
100
AcDbEntity
  8
Bemaßung
100
AcDbDimension
  2
*D6
 10
275.5888604248823
 20
210.8549652316099
 30
0.0
 11
262.3388604248822
 21
212.9382985649433
 31
0.0
 70
    32
 71
     5
 42
26.5
  3
ISO-25
100
AcDbAlignedDimension
 13
249.0888604248822
 23
205.6298075526766
 33
0.0
 14
275.5888604248823
 24
206.1298075526766
 34
0.0
100
AcDbRotatedDimension
  0
DIMENSION
  5
1099
102
{ACAD_XDICTIONARY
360
10A6
102
}
102
{ACAD_REACTORS
330
10B0
102
}
330
1F
100
AcDbEntity
  8
Bemaßung
100
AcDbDimension
  2
*D7
 10
192.8748676294718
 20
216.6886419045137
 30
0.0
 11
178.8748676294718
 21
218.5636419045136
 31
0.0
 70
    32
 71
     5
 42
28.0
  3
ISO-25
100
AcDbAlignedDimension
 13
164.8748676294718
 23
205.6298075526766
 33
0.0
 14
192.8748676294718
 24
205.6298075526766
 34
0.0
100
AcDbRotatedDimension
  0
DIMENSION
  5
10C4
102
{ACAD_XDICTIONARY
360
10D1
102
}
102
{ACAD_REACTORS
330
10DB
102
}
330
1F
100
AcDbEntity
  8
Bemaßung
100
AcDbDimension
  2
*D8
 10
156.3023737844837
 20
178.1298075526766
 30
0.0
 11
154.4273737844837
 21
192.1298075526766
 31
0.0
 70
    32
 71
     5
 42
28.0
  3
ISO-25
100
AcDbAlignedDimension
 13
165.3748676294718
 23
206.1298075526766
 33
0.0
 14
165.3748676294718
 24
178.1298075526766
 34
0.0
 50
90.0
100
AcDbRotatedDimension
  0
DIMENSION
  5
10E5
102
{ACAD_XDICTIONARY
360
10F3
102
}
102
{ACAD_REACTORS
330
10FE
102
}
330
1F
100
AcDbEntity
  8
Bemaßung
100
AcDbDimension
  2
*D9
 10
168.7741907624564
 20
202.230484419692
 30
0.0
 11
171.0610195580371
 21
210.9941055410569
 31
0.0
 70
    34
 71
     5
 42
0.7853981633974483
  3
ISO-25
100
AcDb2LineAngularDimension
 13
178.8748676294718
 23
157.0402259499536
 33
0.0
 14
178.8748676294718
 24
210.6135213528497
 34
0.0
 15
165.5123640734705
 25
205.4923111086779
 35
0.0
 16
174.0754388063872
 26
210.041519767739
 36
0.0
  0
DIMENSION
  5
1109
102
{ACAD_XDICTIONARY
360
1112
102
}
102
{ACAD_REACTORS
330
1118
102
}
330
1F
100
AcDbEntity
  8
Bemaßung
100
AcDbDimension
  2
*D10
 10
191.8374823936328
 20
181.9209575451609
 30
0.0
 11
184.8581659639589
 21
187.417595058645
 31
0.0
 70
   163
 71
     5
 42
33.0
  3
ISO-25
100
AcDbDiametricDimension
 15
165.9122528653106
 25
202.3386575601922
 35
0.0
 40
0.0
1001
ACAD
1000
DSTYLE
1002
{
1070
   279
1070
     1
1070
   288
1070
     1
1002
}
  0
DIMENSION
  5
1123
102
{ACAD_XDICTIONARY
360
1130
102
}
102
{ACAD_REACTORS
330
113A
102
}
330
1F
100
AcDbEntity
  8
Bemaßung
100
AcDbDimension
  2
*D11
 10
199.87357449469
 20
171.1298075526766
 30
0.0
 11
197.99857449469
 21
181.6298075526766
 31
0.0
 70
    32
 71
     5
 42
21.00000000000002
  3
ISO-25
100
AcDbAlignedDimension
 13
197.1724287787316
 23
192.1298075526766
 33
0.0
 14
184.8248676294718
 24
171.1298075526766
 34
0.0
 50
90.0
100
AcDbRotatedDimension
  0
LINE
  5
1180
330
1F
100
AcDbEntity
  8
0
100
AcDbLine
 10
164.8748676294719
 20
114.2172234932155
 30
0.0
 11
164.8748676294718
 21
30.21722349321561
 31
0.0
  0
ARC
  5
1182
330
1F
100
AcDbEntity
  8
0
100
AcDbCircle
 10
177.624867629472
 20
126.3289191103525
 30
0.0
 40
1.43840559351393
100
AcDbArc
 50
209.6553038126298
 51
330.3446961873687
  0
ARC
  5
1183
330
1F
100
AcDbEntity
  8
0
100
AcDbCircle
 10
177.624867629472
 20
124.6565810537231
 30
0.0
 40
1.576494179042209
100
AcDbArc
 50
37.54278035412379
 51
142.4572196458808
  0
LINE
  5
1184
330
1F
100
AcDbEntity
  8
0
100
AcDbLine
 10
187.124867629472
 20
120.6172234932155
 30
0.0
 11
170.624867629472
 21
120.6172234932155
 31
0.0
  0
LINE
  5
1186
330
1F
100
AcDbEntity
  8
0
100
AcDbLine
 10
164.8748676294719
 20
114.2172234932155
 30
0.0
 11
192.8748676294719
 21
114.2172234932155
 31
0.0
  0
LINE
  5
1187
330
1F
100
AcDbEntity
  8
0
100
AcDbLine
 10
170.624867629472
 20
114.2172234932155
 30
0.0
 11
170.624867629472
 21
120.6172234932155
 31
0.0
  0
LINE
  5
1188
330
1F
100
AcDbEntity
  8
0
100
AcDbLine
 10
176.3748676294719
 20
120.6172234932155
 30
0.0
 11
176.3748676294719
 21
125.6172234932155
 31
0.0
  0
LINE
  5
1189
330
1F
100
AcDbEntity
  8
0
100
AcDbLine
 10
187.124867629472
 20
114.2172234932155
 30
0.0
 11
187.124867629472
 21
120.6172234932155
 31
0.0
  0
LINE
  5
118A
330
1F
100
AcDbEntity
  8
Mittellinie
100
AcDbLine
 10
190.3748676294718
 20
115.2534176677989
 30
0.0
 11
190.3748676294718
 21
109.0967648742762
 31
0.0
  0
LINE
  5
118B
330
1F
100
AcDbEntity
  8
0
100
AcDbLine
 10
181.3748676294719
 20
120.6172234932155
 30
0.0
 11
181.3748676294719
 21
125.6172234932155
 31
0.0
  0
ARC
  5
118C
330
1F
100
AcDbEntity
  8
0
100
AcDbCircle
 10
180.1248676294719
 20
123.3383909028242
 30
0.0
 40
2.59914947146739
100
AcDbArc
 50
61.25406575138867
 51
118.7459342486113
  0
LINE
  5
118D
330
1F
100
AcDbEntity
  8
Innenkanten
100
AcDbLine
 10
191.6748676294719
 20
112.0172234932155
 30
0.0
 11
189.0748676294719
 21
112.0172234932155
 31
0.0
  0
LINE
  5
118E
330
1F
100
AcDbEntity
  8
Innenkanten
100
AcDbLine
 10
192.8748676294719
 20
110.2172234932155
 30
0.0
 11
187.8748676294719
 21
110.2172234932155
 31
0.0
  0
LINE
  5
118F
330
1F
100
AcDbEntity
  8
Innenkanten
100
AcDbLine
 10
192.3748676294719
 20
110.7172234932155
 30
0.0
 11
188.3748676294719
 21
110.7172234932155
 31
0.0
  0
LINE
  5
1190
330
1F
100
AcDbEntity
  8
Innenkanten
100
AcDbLine
 10
188.5748676294719
 20
111.5172234932155
 30
0.0
 11
188.5748676294719
 21
110.7172234932155
 31
0.0
  0
LINE
  5
1191
330
1F
100
AcDbEntity
  8
Innenkanten
100
AcDbLine
 10
188.3748676294719
 20
110.7172234932155
 30
0.0
 11
188.3748676294719
 21
110.2172234932155
 31
0.0
  0
ARC
  5
1192
330
1F
100
AcDbEntity
  8
Innenkanten
100
AcDbCircle
 10
189.0748676294719
 20
111.5172234932155
 30
0.0
 40
0.5
100
AcDbArc
 50
90.00000000000003
 51
180.0
  0
LINE
  5
1193
330
1F
100
AcDbEntity
  8
Innenkanten
100
AcDbLine
 10
187.8748676294719
 20
110.2172234932155
 30
0.0
 11
187.8748676294719
 21
114.2172234932155
 31
0.0
  0
LINE
  5
1194
330
1F
100
AcDbEntity
  8
Innenkanten
100
AcDbLine
 10
192.1748676294718
 20
111.5172234932155
 30
0.0
 11
192.1748676294719
 21
110.7172234932155
 31
0.0
  0
LINE
  5
1195
330
1F
100
AcDbEntity
  8
Innenkanten
100
AcDbLine
 10
192.3748676294719
 20
110.7172234932155
 30
0.0
 11
192.3748676294719
 21
110.2172234932155
 31
0.0
  0
ARC
  5
1196
330
1F
100
AcDbEntity
  8
Innenkanten
100
AcDbCircle
 10
191.6748676294719
 20
111.5172234932155
 30
0.0
 40
0.5
100
AcDbArc
 50
0.0
 51
90.00000000000003
  0
LINE
  5
1197
330
1F
100
AcDbEntity
  8
Innenkanten
100
AcDbLine
 10
176.3748676294718
 20
19.11722349321553
 30
0.0
 11
176.3748676294718
 21
9.117223493215533
 31
0.0
  0
LINE
  5
1198
330
1F
100
AcDbEntity
  8
0
100
AcDbLine
 10
181.8748676294718
 20
9.117223493215533
 30
0.0
 11
181.8748676294718
 21
22.11722349321553
 31
0.0
  0
LINE
  5
119B
330
1F
100
AcDbEntity
  8
0
100
AcDbLine
 10
175.3748676294718
 20
22.11722349321553
 30
0.0
 11
182.3748676294718
 21
22.11722349321553
 31
0.0
  0
LINE
  5
119C
330
1F
100
AcDbEntity
  8
0
100
AcDbLine
 10
164.8748676294719
 20
25.21722349321555
 30
0.0
 11
192.8748676294718
 21
25.21722349321555
 31
0.0
  0
LINE
  5
119D
330
1F
100
AcDbEntity
  8
0
100
AcDbLine
 10
168.8748676294718
 20
22.61722349321553
 30
0.0
 11
188.8748676294718
 21
22.61722349321553
 31
0.0
  0
LINE
  5
119E
330
1F
100
AcDbEntity
  8
Innenkanten
100
AcDbLine
 10
164.8748676294718
 20
95.21722349321555
 30
0.0
 11
164.8748676294718
 21
95.21722349321555
 31
0.0
  0
LINE
  5
11A2
330
1F
100
AcDbEntity
  8
0
100
AcDbLine
 10
164.8748676294719
 20
25.21722349321555
 30
0.0
 11
164.8748676294719
 21
30.21722349321555
 31
0.0
  0
LINE
  5
11A7
330
1F
100
AcDbEntity
  8
0
100
AcDbLine
 10
168.8748676294718
 20
22.61722349321553
 30
0.0
 11
168.8748676294718
 21
25.21722349321555
 31
0.0
  0
LINE
  5
11A8
330
1F
100
AcDbEntity
  8
0
100
AcDbLine
 10
175.8748676294718
 20
19.11722349321553
 30
0.0
 11
175.8748676294718
 21
22.11722349321553
 31
0.0
  0
LINE
  5
11A9
330
1F
100
AcDbEntity
  8
0
100
AcDbLine
 10
175.3748676294718
 20
22.11722349321553
 30
0.0
 11
175.3748676294718
 21
22.61722349321553
 31
0.0
  0
LINE
  5
11AD
330
1F
100
AcDbEntity
  8
0
100
AcDbLine
 10
182.3748676294718
 20
22.11722349321553
 30
0.0
 11
182.3748676294718
 21
22.61722349321553
 31
0.0
  0
LINE
  5
11AE
330
1F
100
AcDbEntity
  8
0
100
AcDbLine
 10
188.8748676294718
 20
22.61722349321553
 30
0.0
 11
188.8748676294718
 21
25.21722349321555
 31
0.0
  0
LINE
  5
11AF
330
1F
100
AcDbEntity
  8
0
100
AcDbLine
 10
175.8748676294718
 20
9.113222774321911
 30
0.0
 11
181.8748676294718
 21
9.117223493215533
 31
0.0
  0
LINE
  5
11B4
330
1F
100
AcDbEntity
  8
Mittellinie
100
AcDbLine
 10
178.8748676294718
 20
130.0425355515017
 30
0.0
 11
178.8748676294718
 21
7.173710506752172
 31
0.0
  0
LINE
  5
11DE
330
1F
100
AcDbEntity
  8
Innenkanten
100
AcDbLine
 10
192.8748676294718
 20
47.21722349321561
 30
0.0
 11
164.8748676294718
 21
47.21722349321561
 31
0.0
  0
LINE
  5
11E0
330
1F
100
AcDbEntity
  8
Innenkanten
100
AcDbLine
 10
192.8748676294718
 20
30.21722349321561
 30
0.0
 11
164.8748676294718
 21
30.21722349321561
 31
0.0
  0
LINE
  5
11E4
330
1F
100
AcDbEntity
  8
Innenkanten
100
AcDbLine
 10
170.4748676294718
 20
47.21722349321561
 30
0.0
 11
170.4748676294718
 21
30.21722349321561
 31
0.0
  0
LINE
  5
11EC
330
1F
100
AcDbEntity
  8
Mittellinie
100
AcDbLine
 10
189.8350227378633
 20
30.97756546482003
 30
0.0
 11
189.8350227378633
 21
22.87838830528915
 31
0.0
  0
LINE
  5
11ED
330
1F
100
AcDbEntity
  8
Innenkanten
100
AcDbLine
 10
187.0850227378633
 20
27.71722349321561
 30
0.0
 11
187.0850227378633
 21
26.97810335159113
 31
0.0
  0
LINE
  5
11EE
330
1F
100
AcDbEntity
  8
Innenkanten
100
AcDbLine
 10
192.5850227378633
 20
27.71722349321561
 30
0.0
 11
192.5850227378633
 21
26.97810335159113
 31
0.0
  0
LINE
  5
11EF
330
1F
100
AcDbEntity
  8
Innenkanten
100
AcDbLine
 10
185.3748676294718
 20
27.96722349321561
 30
0.0
 11
185.3748676294718
 21
25.21722349321555
 31
0.0
  0
ARC
  5
11F1
330
1F
100
AcDbEntity
  8
Innenkanten
100
AcDbCircle
 10
189.8350227378633
 20
32.71722349321561
 30
0.0
 40
7.000000000000002
100
AcDbArc
 50
253.0422366999947
 51
286.9577633000052
  0
ARC
  5
11F3
330
1F
100
AcDbEntity
  8
Innenkanten
100
AcDbCircle
 10
188.0850227378633
 20
26.97810335159113
 30
0.0
 40
1.000000000000002
100
AcDbArc
 50
180.0
 51
253.0422366999947
  0
LINE
  5
11F5
330
1F
100
AcDbEntity
  8
Innenkanten
100
AcDbLine
 10
190.5850227378633
 20
26.46722349321561
 30
0.0
 11
189.8350227378633
 21
25.71722349321555
 31
0.0
  0
LINE
  5
11F6
330
1F
100
AcDbEntity
  8
Innenkanten
100
AcDbLine
 10
189.0850227378633
 20
26.46722349321561
 30
0.0
 11
189.8350227378633
 21
25.71722349321555
 31
0.0
  0
ARC
  5
11F7
330
1F
100
AcDbEntity
  8
Innenkanten
100
AcDbCircle
 10
191.5850227378633
 20
26.97810335159113
 30
0.0
 40
1.0
100
AcDbArc
 50
286.9577633000052
 51
0.0
  0
LINE
  5
11F9
330
1F
100
AcDbEntity
  8
Innenkanten
100
AcDbLine
 10
186.8350227378633
 20
27.71722349321561
 30
0.0
 11
192.8350227378633
 21
27.71722349321561
 31
0.0
  0
LINE
  5
11FA
330
1F
100
AcDbEntity
  8
Innenkanten
100
AcDbLine
 10
185.3748676294718
 20
27.96722349321561
 30
0.0
 11
192.8748676294718
 21
27.96722349321561
 31
0.0
  0
LINE
  5
11FB
330
1F
100
AcDbEntity
  8
Innenkanten
100
AcDbLine
 10
186.8350227378633
 20
27.71722349321561
 30
0.0
 11
186.8350227378633
 21
27.96722349321561
 31
0.0
  0
LINE
  5
11FC
330
1F
100
AcDbEntity
  8
Innenkanten
100
AcDbLine
 10
192.8350227378633
 20
27.96722349321561
 30
0.0
 11
192.8350227378633
 21
27.71722349321561
 31
0.0
  0
LINE
  5
11FD
330
1F
100
AcDbEntity
  8
Innenkanten
100
AcDbLine
 10
164.8748676294718
 20
87.71722349321562
 30
0.0
 11
192.8748676294718
 21
87.71722349321562
 31
0.0
  0
LINE
  5
11FE
330
1F
100
AcDbEntity
  8
Innenkanten
100
AcDbLine
 10
164.8748676294718
 20
87.21722349321561
 30
0.0
 11
192.8748676294718
 21
87.21722349321561
 31
0.0
  0
LINE
  5
1204
330
1F
100
AcDbEntity
  8
Innenkanten
100
AcDbLine
 10
181.3748676294718
 20
19.11722349321554
 30
0.0
 11
181.3748676294718
 21
9.117223493215533
 31
0.0
  0
LINE
  5
1205
330
1F
100
AcDbEntity
  8
0
100
AcDbLine
 10
175.8748676294718
 20
19.11722349321553
 30
0.0
 11
175.8748676294718
 21
9.113222774321911
 31
0.0
  0
LINE
  5
1206
330
1F
100
AcDbEntity
  8
Innenkanten
100
AcDbLine
 10
176.3748676294718
 20
19.11722349321553
 30
0.0
 11
181.3748676294718
 21
19.11722349321553
 31
0.0
  0
LINE
  5
1207
330
1F
100
AcDbEntity
  8
0
100
AcDbLine
 10
181.3748676294718
 20
19.11722349321553
 30
0.0
 11
181.3748676294718
 21
19.11722349321554
 31
0.0
  0
LINE
  5
1209
330
1F
100
AcDbEntity
  8
Innenkanten
100
AcDbLine
 10
181.3748676294718
 20
19.11722349321553
 30
0.0
 11
176.3748676294718
 21
9.117223493215533
 31
0.0
  0
LINE
  5
120A
330
1F
100
AcDbEntity
  8
Innenkanten
100
AcDbLine
 10
176.3748676294718
 20
19.11722349321553
 30
0.0
 11
181.3748676294718
 21
9.117223493215533
 31
0.0
  0
LINE
  5
120F
330
1F
100
AcDbEntity
  8
0
100
AcDbLine
 10
249.5888604248822
 20
206.1298075526766
 30
0.0
 11
316.0888604248822
 21
206.1298075526766
 31
0.0
  0
LINE
  5
1213
330
1F
100
AcDbEntity
  8
0
100
AcDbLine
 10
192.8748676294719
 20
114.2172234932155
 30
0.0
 11
192.8748676294719
 21
25.21722349321555
 31
0.0
  0
LINE
  5
1214
330
1F
100
AcDbEntity
  8
0
100
AcDbLine
 10
192.8748676294719
 20
25.21722349321555
 30
0.0
 11
192.8748676294719
 21
25.21722349321555
 31
0.0
  0
VIEWPORT
  5
8B
330
1B
100
AcDbEntity
 67
     1
  8
0
100
AcDbViewport
 10
161.8398598362515
 20
108.2173028320325
 30
0.0
 40
378.8137294632714
 41
236.1272246987725
 68
     1
 69
     1
 12
161.8398598362515
 22
108.2173028320325
 13
0.0
 23
0.0
 14
10.0
 24
10.0
 15
10.0
 25
10.0
 16
0.0
 26
0.0
 36
1.0
 17
0.0
 27
0.0
 37
0.0
 42
50.0
 43
0.0
 44
0.0
 45
236.1272246987725
 50
0.0
 51
0.0
 72
   100
 90
    32800
  1

281
     0
 71
     1
 74
     0
110
0.0
120
0.0
130
0.0
111
1.0
121
0.0
131
0.0
112
0.0
122
1.0
132
0.0
 79
     0
146
0.0
  0
VIEWPORT
  5
8D
330
1B
100
AcDbEntity
 67
     1
  8
Innenkanten
100
AcDbViewport
 10
144.8189405105825
 20
101.2798040971653
 30
0.0
 40
297.5205430612212
 41
209.3863215039608
 68
     2
 69
     2
 12
186.2760975311661
 22
192.1437551548887
 13
0.0
 23
0.0
 14
10.0
 24
10.0
 15
10.0
 25
10.0
 16
0.0
 26
0.0
 36
1.0
 17
0.0
 27
0.0
 37
0.0
 42
50.0
 43
0.0
 44
0.0
 45
55.32090921311549
 50
0.0
 51
0.0
 72
   100
 90
    32864
  1

281
     0
 71
     1
 74
     0
110
178.8748676294718
120
192.1298075526766
130
0.0
111
1.0
121
0.0
131
0.0
112
0.0
122
1.0
132
0.0
 79
     0
146
0.0
  0
ENDSEC
  0
SECTION
  2
OBJECTS
  0
DICTIONARY
  5
C
330
0
100
AcDbDictionary
281
     1
  3
ACAD_GROUP
350
D
  3
ACAD_LAYOUT
350
1A
  3
ACAD_MLINESTYLE
350
17
  3
ACAD_PLOTSETTINGS
350
19
  3
ACAD_PLOTSTYLENAME
350
E
  3
AcDbVariableDictionary
350
50
  3
DWGPROPS
350
A6A
  0
DICTIONARY
  5
F55
330
F48
100
AcDbDictionary
280
     1
281
     1
  3
ACAD_DIMASSOC
360
F5F
  0
DICTIONARY
  5
FA8
330
F99
100
AcDbDictionary
280
     1
281
     1
  3
ACAD_DIMASSOC
360
FB4
  0
DICTIONARY
  5
FCF
330
FC0
100
AcDbDictionary
280
     1
281
     1
  3
ACAD_DIMASSOC
360
FDB
  0
DICTIONARY
  5
FF4
330
FE7
100
AcDbDictionary
280
     1
281
     1
  3
ACAD_DIMASSOC
360
FFE
  0
DICTIONARY
  5
1015
330
1008
100
AcDbDictionary
280
     1
281
     1
  3
ACAD_DIMASSOC
360
101F
  0
DICTIONARY
  5
10A6
330
1099
100
AcDbDictionary
280
     1
281
     1
  3
ACAD_DIMASSOC
360
10B0
  0
DICTIONARY
  5
10D1
330
10C4
100
AcDbDictionary
280
     1
281
     1
  3
ACAD_DIMASSOC
360
10DB
  0
DICTIONARY
  5
10F3
330
10E5
100
AcDbDictionary
280
     1
281
     1
  3
ACAD_DIMASSOC
360
10FE
  0
DICTIONARY
  5
1112
330
1109
100
AcDbDictionary
280
     1
281
     1
  3
ACAD_DIMASSOC
360
1118
  0
DICTIONARY
  5
1130
330
1123
100
AcDbDictionary
280
     1
281
     1
  3
ACAD_DIMASSOC
360
113A
  0
DICTIONARY
  5
D
102
{ACAD_REACTORS
330
C
102
}
330
C
100
AcDbDictionary
281
     1
  3
*A1
350
2A6
  3
*A10
350
8E3
  3
*A11
350
8ED
  3
*A12
350
93F
  3
*A13
350
8F6
  3
*A14
350
905
  3
*A15
350
90F
  3
*A16
350
91E
  3
*A17
350
92D
  3
*A18
350
936
  3
*A19
350
94E
  3
*A2
350
114B
  3
*A20
350
3BE
  3
*A21
350
331
  3
*A22
350
369
  3
*A23
350
A71
  3
*A24
350
1149
  3
*A25
350
114A
  3
*A3
350
413
  3
*A4
350
8E4
  3
*A5
350
85A
  3
*A6
350
869
  3
*A7
350
885
  3
*A8
350
886
  3
*A9
350
8D4
  0
DICTIONARY
  5
1A
102
{ACAD_REACTORS
330
C
102
}
330
C
100
AcDbDictionary
281
     1
  3
Layout1
350
1E
  3
Layout2
350
26
  3
Model
350
22
  0
DICTIONARY
  5
17
102
{ACAD_REACTORS
330
C
102
}
330
C
100
AcDbDictionary
281
     1
  3
Standard
350
18
  0
DICTIONARY
  5
19
102
{ACAD_REACTORS
330
C
102
}
330
C
100
AcDbDictionary
281
     1
  0
ACDBDICTIONARYWDFLT
  5
E
102
{ACAD_REACTORS
330
C
102
}
330
C
100
AcDbDictionary
281
     1
  3
Normal
350
F
100
AcDbDictionaryWithDefault
340
F
  0
DICTIONARY
  5
50
102
{ACAD_REACTORS
330
C
102
}
330
C
100
AcDbDictionary
281
     1
  3
DIMASSOC
350
52
  3
HIDETEXT
350
51
  0
XRECORD
  5
A6A
102
{ACAD_REACTORS
330
C
102
}
330
C
100
AcDbXrecord
280
     1
  1
DWGPROPS COOKIE
  2

  3

  4

  6

  7

  8

  9

300
=
301
=
302
=
303
=
304
=
305
=
306
=
307
=
308
=
309
=
 40
0.587026388888889
 41
2452181.498615972
 42
2452184.61255463
  1

 90
        0
  0
DIMASSOC
  5
F5F
102
{ACAD_REACTORS
330
F55
102
}
330
F55
100
AcDbDimAssoc
330
F48
 90
        3
 70
     0
 71
     0
  1
AcDbOsnapPointRef
 72
     1
331
DAE
 73
     2
 91
        0
 40
1.0
 10
354.0888604248822
 20
194.6298075526766
 30
0.0
 75
     0
  1
AcDbOsnapPointRef
 72
     1
331
DAA
 73
     2
 91
        0
 40
1.0
 10
338.0888604248823
 20
206.1298075526766
 30
0.0
 75
     0
  0
DIMASSOC
  5
FB4
102
{ACAD_REACTORS
330
FA8
102
}
330
FA8
100
AcDbDimAssoc
330
F99
 90
        2
 70
     0
 71
     0
  1
AcDbOsnapPointRef
 72
     8
331
D81
 73
     2
 91
        0
 40
-0.000000000000001
 10
333.0888604248822
 20
206.1298075526766
 30
0.0
 75
     1
  1
AcDbOsnapPointRef
 72
     0
 40
0.0
 10
305.5888604248823
 20
206.1298075526766
 30
0.0
 75
     0
  0
DIMASSOC
  5
FDB
102
{ACAD_REACTORS
330
FCF
102
}
330
FCF
100
AcDbDimAssoc
330
FC0
 90
        3
 70
     0
 71
     0
  1
AcDbOsnapPointRef
 72
     1
331
D83
 73
     2
 91
        0
 40
1.0
 10
340.5888604248823
 20
182.1298075526766
 30
0.0
 75
     0
  1
AcDbOsnapPointRef
 72
     1
331
C39
 73
     2
 91
        0
 40
1.0
 10
338.0888604248823
 20
178.1298075526766
 30
0.0
 75
     0
  0
DIMASSOC
  5
FFE
102
{ACAD_REACTORS
330
FF4
102
}
330
FF4
100
AcDbDimAssoc
330
FE7
 90
        1
 70
     0
 71
     0
  1
AcDbOsnapPointRef
 72
     1
331
DB0
 73
     2
 91
        0
 40
1.0
 10
340.5888604248823
 20
202.1298075526766
 30
0.0
 75
     0
  0
DIMASSOC
  5
101F
102
{ACAD_REACTORS
330
1015
102
}
330
1015
100
AcDbDimAssoc
330
1008
 90
        2
 70
     0
 71
     0
  1
AcDbOsnapPointRef
 72
     1
331
D70
 73
     2
 91
        0
 40
1.0
 10
249.0888604248822
 20
205.6298075526766
 30
0.0
 75
     0
  0
DIMASSOC
  5
10B0
102
{ACAD_REACTORS
330
10A6
102
}
330
10A6
100
AcDbDimAssoc
330
1099
 90
        3
 70
     0
 71
     0
  1
AcDbOsnapPointRef
 72
     1
331
DBB
 73
     2
 91
        0
 40
1.0
 10
164.8748676294718
 20
205.6298075526766
 30
0.0
 75
     0
  1
AcDbOsnapPointRef
 72
     1
331
DBA
 73
     2
 91
        0
 40
1.0
 10
192.8748676294718
 20
205.6298075526766
 30
0.0
 75
     0
  0
DIMASSOC
  5
10DB
102
{ACAD_REACTORS
330
10D1
102
}
330
10D1
100
AcDbDimAssoc
330
10C4
 90
        3
 70
     0
 71
     0
  1
AcDbOsnapPointRef
 72
     1
331
DE0
 73
     2
 91
        0
 40
1.0
 10
165.3748676294718
 20
206.1298075526766
 30
0.0
 75
     0
  1
AcDbOsnapPointRef
 72
    13
331
DC1
 73
     2
 91
        0
 40
0.0
 10
165.3748676294718
 20
178.1298075526766
 30
0.0
 75
     0
  0
DIMASSOC
  5
10FE
102
{ACAD_REACTORS
330
10F3
102
}
330
10F3
100
AcDbDimAssoc
330
10E5
 90
       15
 70
     0
 71
     0
  1
AcDbOsnapPointRef
 72
    13
331
DBE
 73
     2
 91
        0
 40
0.0
 10
178.8748676294718
 20
157.0402259499536
 30
0.0
 75
     0
  1
AcDbOsnapPointRef
 72
     1
331
DBE
 73
     2
 91
        0
 40
1.0
 10
178.8748676294718
 20
210.6135213528497
 30
0.0
 75
     0
  1
AcDbOsnapPointRef
 72
    13
331
DEB
 73
     2
 91
        0
 40
0.0
 10
165.5123640734705
 20
205.4923111086779
 30
0.0
 75
     0
  1
AcDbOsnapPointRef
 72
     1
331
DEB
 73
     2
 91
        0
 40
1.0
 10
168.7741907624564
 20
202.230484419692
 30
0.0
 75
     0
  0
DIMASSOC
  5
1118
102
{ACAD_REACTORS
330
1112
102
}
330
1112
100
AcDbDimAssoc
330
1109
 90
        2
 70
     0
 71
     0
  1
AcDbOsnapPointRef
 72
     3
331
DE7
 73
     2
 91
        0
 40
0.0
 10
178.8748676294718
 20
192.1298075526766
 30
0.0
 75
     0
  0
DIMASSOC
  5
113A
102
{ACAD_REACTORS
330
1130
102
}
330
1130
100
AcDbDimAssoc
330
1123
 90
        3
 70
     0
 71
     0
  1
AcDbOsnapPointRef
 72
     1
331
D7F
 73
     2
 91
        0
 40
1.0
 10
197.1724287787316
 20
192.1298075526766
 30
0.0
 75
     0
  1
AcDbOsnapPointRef
 72
     1
331
DC7
 73
     2
 91
        0
 40
1.0
 10
184.8248676294718
 20
171.1298075526766
 30
0.0
 75
     0
  0
GROUP
  5
2A6
102
{ACAD_REACTORS
330
D
102
}
330
D
100
AcDbGroup
300

 70
     1
 71
     1
  0
GROUP
  5
8E3
102
{ACAD_REACTORS
330
D
102
}
330
D
100
AcDbGroup
300

 70
     1
 71
     1
  0
GROUP
  5
8ED
102
{ACAD_REACTORS
330
D
102
}
330
D
100
AcDbGroup
300

 70
     1
 71
     1
  0
GROUP
  5
93F
102
{ACAD_REACTORS
330
D
102
}
330
D
100
AcDbGroup
300

 70
     1
 71
     1
  0
GROUP
  5
8F6
102
{ACAD_REACTORS
330
D
102
}
330
D
100
AcDbGroup
300

 70
     1
 71
     1
  0
GROUP
  5
905
102
{ACAD_REACTORS
330
D
102
}
330
D
100
AcDbGroup
300

 70
     1
 71
     1
  0
GROUP
  5
90F
102
{ACAD_REACTORS
330
D
102
}
330
D
100
AcDbGroup
300

 70
     1
 71
     1
  0
GROUP
  5
91E
102
{ACAD_REACTORS
330
D
102
}
330
D
100
AcDbGroup
300

 70
     1
 71
     1
  0
GROUP
  5
92D
102
{ACAD_REACTORS
330
D
102
}
330
D
100
AcDbGroup
300

 70
     1
 71
     1
  0
GROUP
  5
936
102
{ACAD_REACTORS
330
D
102
}
330
D
100
AcDbGroup
300

 70
     1
 71
     1
  0
GROUP
  5
94E
102
{ACAD_REACTORS
330
D
102
}
330
D
100
AcDbGroup
300

 70
     1
 71
     1
  0
GROUP
  5
114B
102
{ACAD_REACTORS
330
D
102
}
330
D
100
AcDbGroup
300

 70
     1
 71
     1
340
F1B
340
F1D
340
F1A
340
F1F
340
F1C
340
F19
340
F23
340
F24
340
F26
340
F25
340
F22
340
F21
340
F20
  0
GROUP
  5
3BE
102
{ACAD_REACTORS
330
D
102
}
330
D
100
AcDbGroup
300

 70
     1
 71
     1
  0
GROUP
  5
331
102
{ACAD_REACTORS
330
D
102
}
330
D
100
AcDbGroup
300

 70
     1
 71
     1
  0
GROUP
  5
369
102
{ACAD_REACTORS
330
D
102
}
330
D
100
AcDbGroup
300

 70
     1
 71
     1
  0
GROUP
  5
A71
102
{ACAD_REACTORS
330
D
102
}
330
D
100
AcDbGroup
300

 70
     1
 71
     1
  0
GROUP
  5
1149
102
{ACAD_REACTORS
330
D
102
}
330
D
100
AcDbGroup
300

 70
     1
 71
     1
340
F3A
340
F2D
340
F2E
340
F34
340
F35
340
F32
340
F31
340
F33
340
F38
340
F39
340
F37
340
F30
  0
GROUP
  5
114A
102
{ACAD_REACTORS
330
D
102
}
330
D
100
AcDbGroup
300

 70
     1
 71
     1
340
F3A
340
F2D
340
F2E
340
F34
340
F35
340
F32
340
F31
340
F33
340
F38
340
F39
340
F37
340
F30
340
F2F
  0
GROUP
  5
413
102
{ACAD_REACTORS
330
D
102
}
330
D
100
AcDbGroup
300

 70
     1
 71
     1
  0
GROUP
  5
8E4
102
{ACAD_REACTORS
330
D
102
}
330
D
100
AcDbGroup
300

 70
     1
 71
     1
  0
GROUP
  5
85A
102
{ACAD_REACTORS
330
D
102
}
330
D
100
AcDbGroup
300

 70
     1
 71
     1
  0
GROUP
  5
869
102
{ACAD_REACTORS
330
D
102
}
330
D
100
AcDbGroup
300

 70
     1
 71
     1
  0
GROUP
  5
885
102
{ACAD_REACTORS
330
D
102
}
330
D
100
AcDbGroup
300

 70
     1
 71
     1
  0
GROUP
  5
886
102
{ACAD_REACTORS
330
D
102
}
330
D
100
AcDbGroup
300

 70
     1
 71
     1
  0
GROUP
  5
8D4
102
{ACAD_REACTORS
330
D
102
}
330
D
100
AcDbGroup
300

 70
     1
 71
     1
  0
LAYOUT
  5
1E
102
{ACAD_REACTORS
330
1A
102
}
330
1A
100
AcDbPlotSettings
  1

  2
EPSON Stylus COLOR 1520
  4
A4
  6

 40
3.757083177566528
 41
14.7637300491333
 42
3.757080078125
 43
3.757080078125
 44
209.9733276367187
 45
296.9683227539062
 46
0.0
 47
0.0
 48
0.0
 49
0.0
140
0.0
141
0.0
142
1.0
143
1.0
 70
   688
 72
     1
 73
     1
 74
     5
  7

 75
    16
147
1.0
148
0.0
149
0.0
100
AcDbLayout
  1
Layout1
 70
     1
 71
     1
 10
-3.757080078125
 20
-3.757083177566528
 11
293.2112426757812
 21
206.2162444591522
 12
0.0
 22
0.0
 32
0.0
 14
-3.941331020028087
 24
-3.413356654815061
 34
0.0
 15
293.5792120411931
 25
205.9729648491457
 35
0.0
146
0.0
 13
0.0
 23
0.0
 33
0.0
 16
1.0
 26
0.0
 36
0.0
 17
0.0
 27
1.0
 37
0.0
 76
     0
330
1B
331
8B
  0
LAYOUT
  5
26
102
{ACAD_REACTORS
330
1A
102
}
330
1A
100
AcDbPlotSettings
  1

  2
EPSON Stylus COLOR 1520
  4
A4
  6

 40
3.757083177566528
 41
14.7637300491333
 42
3.757080078125
 43
3.757080078125
 44
209.9733276367187
 45
296.9683227539062
 46
0.0
 47
0.0
 48
0.0
 49
0.0
140
0.0
141
0.0
142
1.0
143
1.0
 70
   688
 72
     1
 73
     1
 74
     5
  7

 75
    16
147
1.0
148
0.0
149
0.0
100
AcDbLayout
  1
Layout2
 70
     1
 71
     2
 10
-3.757080078125
 20
-3.757083177566528
 11
293.2112426757812
 21
206.2162444591522
 12
0.0
 22
0.0
 32
0.0
 14
27.8447512626648
 24
20.24591643810271
 34
0.0
 15
250.6027613639831
 25
182.2132479429244
 35
0.0
146
0.0
 13
0.0
 23
0.0
 33
0.0
 16
1.0
 26
0.0
 36
0.0
 17
0.0
 27
1.0
 37
0.0
 76
     0
330
23
331
91
  0
LAYOUT
  5
22
102
{ACAD_REACTORS
330
1A
102
}
330
1A
100
AcDbPlotSettings
  1

  2
EPSON Stylus COLOR 1520
  4
A4
  6

 40
3.757083177566528
 41
14.7637300491333
 42
3.757080078125
 43
3.757080078125
 44
209.9733276367187
 45
296.9683227539062
 46
0.0
 47
0.0
 48
0.0
 49
0.0
140
0.0
141
0.0
142
1.0
143
1.0
 70
 11952
 72
     1
 73
     1
 74
     0
  7

 75
     0
147
1.0
148
-89.73529411764705
149
0.0
100
AcDbLayout
  1
Model
 70
     1
 71
     0
 10
0.0
 20
0.0
 11
12.0
 21
9.0
 12
0.0
 22
0.0
 32
0.0
 14
0.0
 24
0.0
 34
0.0
 15
0.0
 25
0.0
 35
0.0
146
0.0
 13
0.0
 23
0.0
 33
0.0
 16
1.0
 26
0.0
 36
0.0
 17
0.0
 27
1.0
 37
0.0
 76
     0
330
1F
  0
MLINESTYLE
  5
18
102
{ACAD_REACTORS
330
17
102
}
330
17
100
AcDbMlineStyle
  2
STANDARD
 70
     0
  3

 62
   256
 51
90.0
 52
90.0
 71
     2
 49
0.5
 62
   256
  6
BYLAYER
 49
-0.5
 62
   256
  6
BYLAYER
  0
ACDBPLACEHOLDER
  5
F
102
{ACAD_REACTORS
330
E
102
}
330
E
  0
DICTIONARYVAR
  5
52
102
{ACAD_REACTORS
330
50
102
}
330
50
100
DictionaryVariables
280
     0
  1
2
  0
DICTIONARYVAR
  5
51
102
{ACAD_REACTORS
330
50
102
}
330
50
100
DictionaryVariables
280
     0
  1
1
  0
ENDSEC
  0
EOF
