  0
SECTION
  2
HEADER
  9
$ACADVER
  1
AC1015
  9
$ACADMAINTVER
 70
    13
  9
$DWGCODEPAGE
  3
ANSI_1252
  9
$INSBASE
 10
0.0
 20
0.0
 30
0.0
  9
$EXTMIN
 10
-574.4190063277506
 20
-410.5096251724653
 30
0.0
  9
$EXTMAX
 10
880.256649124376
 20
311.6137338681314
 30
0.0
  9
$LIMMIN
 10
0.0
 20
0.0
  9
$LIMMAX
 10
420.0
 20
297.0
  9
$ORTHOMODE
 70
     1
  9
$REGENMODE
 70
     1
  9
$FILLMODE
 70
     1
  9
$QTEXTMODE
 70
     0
  9
$MIRRTEXT
 70
     1
  9
$LTSCALE
 40
1.0
  9
$ATTMODE
 70
     1
  9
$TEXTSIZE
 40
26.5350450929028
  9
$TRACEWID
 40
1.0
  9
$TEXTSTYLE
  7
Standard
  9
$CLAYER
  8
0
  9
$CELTYPE
  6
ByLayer
  9
$CECOLOR
 62
   256
  9
$CELTSCALE
 40
1.0
  9
$DISPSILH
 70
     0
  9
$DIMSCALE
 40
1.0
  9
$DIMASZ
 40
2.5
  9
$DIMEXO
 40
0.625
  9
$DIMDLI
 40
3.75
  9
$DIMRND
 40
0.0
  9
$DIMDLE
 40
0.0
  9
$DIMEXE
 40
1.25
  9
$DIMTP
 40
0.0
  9
$DIMTM
 40
0.0
  9
$DIMTXT
 40
2.5
  9
$DIMCEN
 40
2.5
  9
$DIMTSZ
 40
0.0
  9
$DIMTOL
 70
     0
  9
$DIMLIM
 70
     0
  9
$DIMTIH
 70
     0
  9
$DIMTOH
 70
     0
  9
$DIMSE1
 70
     0
  9
$DIMSE2
 70
     0
  9
$DIMTAD
 70
     1
  9
$DIMZIN
 70
     8
  9
$DIMBLK
  1

  9
$DIMASO
 70
     1
  9
$DIMSHO
 70
     1
  9
$DIMPOST
  1

  9
$DIMAPOST
  1

  9
$DIMALT
 70
     0
  9
$DIMALTD
 70
     3
  9
$DIMALTF
 40
0.03937007874016
  9
$DIMLFAC
 40
1.0
  9
$DIMTOFL
 70
     1
  9
$DIMTVP
 40
0.0
  9
$DIMTIX
 70
     0
  9
$DIMSOXD
 70
     0
  9
$DIMSAH
 70
     0
  9
$DIMBLK1
  1

  9
$DIMBLK2
  1

  9
$DIMSTYLE
  2
ISO-25
  9
$DIMCLRD
 70
     0
  9
$DIMCLRE
 70
     0
  9
$DIMCLRT
 70
     0
  9
$DIMTFAC
 40
1.0
  9
$DIMGAP
 40
0.625
  9
$DIMJUST
 70
     0
  9
$DIMSD1
 70
     0
  9
$DIMSD2
 70
     0
  9
$DIMTOLJ
 70
     0
  9
$DIMTZIN
 70
     8
  9
$DIMALTZ
 70
     0
  9
$DIMALTTZ
 70
     0
  9
$DIMUPT
 70
     0
  9
$DIMDEC
 70
     2
  9
$DIMTDEC
 70
     2
  9
$DIMALTU
 70
     2
  9
$DIMALTTD
 70
     3
  9
$DIMTXSTY
  7
Standard
  9
$DIMAUNIT
 70
     0
  9
$DIMADEC
 70
     0
  9
$DIMALTRND
 40
0.0
  9
$DIMAZIN
 70
     0
  9
$DIMDSEP
 70
    44
  9
$DIMATFIT
 70
     3
  9
$DIMFRAC
 70
     0
  9
$DIMLDRBLK
  1

  9
$DIMLUNIT
 70
     2
  9
$DIMLWD
 70
    -2
  9
$DIMLWE
 70
    -2
  9
$DIMTMOVE
 70
     0
  9
$LUNITS
 70
     2
  9
$LUPREC
 70
     4
  9
$SKETCHINC
 40
1.0
  9
$FILLETRAD
 40
3.0
  9
$AUNITS
 70
     0
  9
$AUPREC
 70
     0
  9
$MENU
  1
.
  9
$ELEVATION
 40
0.0
  9
$PELEVATION
 40
0.0
  9
$THICKNESS
 40
0.0
  9
$LIMCHECK
 70
     0
  9
$CHAMFERA
 40
10.0
  9
$CHAMFERB
 40
10.0
  9
$CHAMFERC
 40
20.0
  9
$CHAMFERD
 40
0.0
  9
$SKPOLY
 70
     0
  9
$TDCREATE
 40
2452181.456949305
  9
$TDUCREATE
 40
2452181.415282638
  9
$TDUPDATE
 40
2452321.503435995
  9
$TDUUPDATE
 40
2452321.461769328
  9
$TDINDWG
 40
1.1551181713
  9
$TDUSRTIMER
 40
1.1551086806
  9
$USRTIMER
 70
     1
  9
$ANGBASE
 50
0.0
  9
$ANGDIR
 70
     0
  9
$PDMODE
 70
     0
  9
$PDSIZE
 40
0.0
  9
$PLINEWID
 40
0.0
  9
$SPLFRAME
 70
     0
  9
$SPLINETYPE
 70
     6
  9
$SPLINESEGS
 70
     8
  9
$HANDSEED
  5
43A0
  9
$SURFTAB1
 70
     6
  9
$SURFTAB2
 70
     6
  9
$SURFTYPE
 70
     6
  9
$SURFU
 70
     6
  9
$SURFV
 70
     6
  9
$UCSBASE
  2

  9
$UCSNAME
  2

  9
$UCSORG
 10
-678.9221681257122
 20
-342.8737432813718
 30
0.0
  9
$UCSXDIR
 10
1.0
 20
0.0
 30
0.0
  9
$UCSYDIR
 10
0.0
 20
1.0
 30
0.0
  9
$UCSORTHOREF
  2

  9
$UCSORTHOVIEW
 70
     0
  9
$UCSORGTOP
 10
0.0
 20
0.0
 30
0.0
  9
$UCSORGBOTTOM
 10
0.0
 20
0.0
 30
0.0
  9
$UCSORGLEFT
 10
0.0
 20
0.0
 30
0.0
  9
$UCSORGRIGHT
 10
0.0
 20
0.0
 30
0.0
  9
$UCSORGFRONT
 10
0.0
 20
0.0
 30
0.0
  9
$UCSORGBACK
 10
0.0
 20
0.0
 30
0.0
  9
$PUCSBASE
  2

  9
$PUCSNAME
  2

  9
$PUCSORG
 10
0.0
 20
0.0
 30
0.0
  9
$PUCSXDIR
 10
1.0
 20
0.0
 30
0.0
  9
$PUCSYDIR
 10
0.0
 20
1.0
 30
0.0
  9
$PUCSORTHOREF
  2

  9
$PUCSORTHOVIEW
 70
     0
  9
$PUCSORGTOP
 10
0.0
 20
0.0
 30
0.0
  9
$PUCSORGBOTTOM
 10
0.0
 20
0.0
 30
0.0
  9
$PUCSORGLEFT
 10
0.0
 20
0.0
 30
0.0
  9
$PUCSORGRIGHT
 10
0.0
 20
0.0
 30
0.0
  9
$PUCSORGFRONT
 10
0.0
 20
0.0
 30
0.0
  9
$PUCSORGBACK
 10
0.0
 20
0.0
 30
0.0
  9
$USERI1
 70
     0
  9
$USERI2
 70
     0
  9
$USERI3
 70
     0
  9
$USERI4
 70
     0
  9
$USERI5
 70
     0
  9
$USERR1
 40
0.0
  9
$USERR2
 40
0.0
  9
$USERR3
 40
0.0
  9
$USERR4
 40
0.0
  9
$USERR5
 40
0.0
  9
$WORLDVIEW
 70
     1
  9
$SHADEDGE
 70
     3
  9
$SHADEDIF
 70
    70
  9
$TILEMODE
 70
     1
  9
$MAXACTVP
 70
    64
  9
$PINSBASE
 10
0.0
 20
0.0
 30
0.0
  9
$PLIMCHECK
 70
     0
  9
$PEXTMIN
 10
-3.400241753399768
 20
-2.934382174902054
 30
0.0
  9
$PEXTMAX
 10
292.8544043510557
 20
206.1211149578283
 30
0.0
  9
$PLIMMIN
 10
-3.757080078125
 20
-3.757083177566528
  9
$PLIMMAX
 10
293.2112426757812
 20
206.2162444591522
  9
$UNITMODE
 70
     0
  9
$VISRETAIN
 70
     1
  9
$PLINEGEN
 70
     0
  9
$PSLTSCALE
 70
     1
  9
$TREEDEPTH
 70
  3020
  9
$CMLSTYLE
  2
Standard
  9
$CMLJUST
 70
     0
  9
$CMLSCALE
 40
20.0
  9
$PROXYGRAPHICS
 70
     1
  9
$MEASUREMENT
 70
     1
  9
$CELWEIGHT
370
    -1
  9
$ENDCAPS
280
     0
  9
$JOINSTYLE
280
     0
  9
$LWDISPLAY
290
     0
  9
$INSUNITS
 70
     4
  9
$HYPERLINKBASE
  1

  9
$STYLESHEET
  1

  9
$XEDIT
290
     1
  9
$CEPSNTYPE
380
     0
  9
$PSTYLEMODE
290
     1
  9
$FINGERPRINTGUID
  2
{F84AA5D3-2765-4D6B-8594-ABD9F52FB735}
  9
$VERSIONGUID
  2
{D7F3D7DD-4678-4E88-8D91-221EDE6C06B3}
  9
$EXTNAMES
290
     1
  9
$PSVPSCALE
 40
0.0
  9
$OLESTARTUP
290
     0
  0
ENDSEC
  0
SECTION
  2
CLASSES
  0
CLASS
  1
ACDBDICTIONARYWDFLT
  2
AcDbDictionaryWithDefault
  3
AutoCAD 2000
 90
        0
280
     0
281
     0
  0
CLASS
  1
ACDBPLACEHOLDER
  2
AcDbPlaceHolder
  3
AutoCAD 2000
 90
        0
280
     0
281
     0
  0
CLASS
  1
LAYOUT
  2
AcDbLayout
  3
AutoCAD 2000
 90
        0
280
     0
281
     0
  0
CLASS
  1
DICTIONARYVAR
  2
AcDbDictionaryVar
  3
AutoCAD 2000
 90
        0
280
     0
281
     0
  0
CLASS
  1
DIMASSOC
  2
AcDbDimAssoc
  3
"AcDbDimAssoc|Product Desc:     AcDim ARX App For Dimension|Company:          Autodesk, Inc.|WEB Address:      www.autodesk.com"
 90
        0
280
     0
281
     0
  0
ENDSEC
  0
SECTION
  2
TABLES
  0
TABLE
  2
VPORT
  5
8
330
0
100
AcDbSymbolTable
 70
     2
  0
VPORT
  5
439F
330
8
100
AcDbSymbolTableRecord
100
AcDbViewportTableRecord
  2
*Active
 70
     0
 10
0.0
 20
0.0
 11
1.0
 21
1.0
 12
314.8100473914136
 22
-49.42933109761156
 13
0.0
 23
0.0
 14
10.0
 24
10.0
 15
10.0
 25
10.0
 16
0.0
 26
0.0
 36
1.0
 17
0.0
 27
0.0
 37
0.0
 40
1010.428806336312
 41
1.748863636363636
 42
50.0
 43
0.0
 44
0.0
 50
0.0
 51
0.0
 71
     0
 72
   100
 73
     1
 74
     3
 75
     1
 76
     0
 77
     0
 78
     0
281
     0
 65
     1
110
-678.9221681257122
120
-342.8737432813718
130
0.0
111
1.0
121
0.0
131
0.0
112
0.0
122
1.0
132
0.0
 79
     0
146
0.0
  0
ENDTAB
  0
TABLE
  2
LTYPE
  5
5
330
0
100
AcDbSymbolTable
 70
     5
  0
LTYPE
  5
14
330
5
100
AcDbSymbolTableRecord
100
AcDbLinetypeTableRecord
  2
ByBlock
 70
     0
  3

 72
    65
 73
     0
 40
0.0
  0
LTYPE
  5
15
330
5
100
AcDbSymbolTableRecord
100
AcDbLinetypeTableRecord
  2
ByLayer
 70
     0
  3

 72
    65
 73
     0
 40
0.0
  0
LTYPE
  5
16
330
5
100
AcDbSymbolTableRecord
100
AcDbLinetypeTableRecord
  2
Continuous
 70
     0
  3
Solid line
 72
    65
 73
     0
 40
0.0
  0
LTYPE
  5
2D
330
5
100
AcDbSymbolTableRecord
100
AcDbLinetypeTableRecord
  2
MITTE
 70
     0
  3
Mitte ____ _ ____ _ ____ _ ____ _ ____ _ ____
 72
    65
 73
     4
 40
50.8
 49
31.75
 74
     0
 49
-6.349999999999999
 74
     0
 49
6.349999999999999
 74
     0
 49
-6.349999999999999
 74
     0
  0
LTYPE
  5
39
330
5
100
AcDbSymbolTableRecord
100
AcDbLinetypeTableRecord
  2
VERDECKT
 70
     0
  3
Verdeckt __ __ __ __ __ __ __ __ __ __ __ __ __
 72
    65
 73
     2
 40
9.524999999999998
 49
6.349999999999999
 74
     0
 49
-3.174999999999999
 74
     0
  0
LTYPE
  5
AE7
330
5
100
AcDbSymbolTableRecord
100
AcDbLinetypeTableRecord
  2
CENTER
 70
     0
  3
____ _ ____ _ ____ _ ____ _ ____ _ ____ _ ____
 72
    65
 73
     4
 40
17.5
 49
13.0
 74
     0
 49
-1.5
 74
     0
 49
1.5
 74
     0
 49
-1.5
 74
     0
  0
LTYPE
  5
306A
330
5
100
AcDbSymbolTableRecord
100
AcDbLinetypeTableRecord
  2
DASHED
 70
     0
  3
__ __ __ __ __ __ __ __ __ __ __ __ __ __ __
 72
    65
 73
     2
 40
3.5
 49
2.0
 74
     0
 49
-1.5
 74
     0
  0
ENDTAB
  0
TABLE
  2
LAYER
  5
2
330
0
100
AcDbSymbolTable
 70
     6
  0
LAYER
  5
10
330
2
100
AcDbSymbolTableRecord
100
AcDbLayerTableRecord
  2
0
 70
     0
 62
     7
  6
Continuous
370
    35
390
F
  0
LAYER
  5
2E
330
2
100
AcDbSymbolTableRecord
100
AcDbLayerTableRecord
  2
Mittellinie
 70
     0
 62
     3
  6
MITTE
370
    18
390
F
  0
LAYER
  5
3A
330
2
100
AcDbSymbolTableRecord
100
AcDbLayerTableRecord
  2
Unsichtbar
 70
     0
 62
     5
  6
VERDECKT
370
    18
390
F
  0
LAYER
  5
87
330
2
100
AcDbSymbolTableRecord
100
AcDbLayerTableRecord
  2
Innenkanten
 70
     0
 62
     1
  6
Continuous
370
    25
390
F
  0
LAYER
  5
46F
330
2
100
AcDbSymbolTableRecord
100
AcDbLayerTableRecord
  2
Defpoints
 70
     0
 62
     6
  6
Continuous
290
     0
370
    15
390
F
  0
LAYER
  5
9F1
330
2
100
AcDbSymbolTableRecord
100
AcDbLayerTableRecord
  2
Bemaßung
 70
     0
 62
     6
  6
Continuous
370
    15
390
F
  0
ENDTAB
  0
TABLE
  2
STYLE
  5
3
330
0
100
AcDbSymbolTable
 70
     2
  0
STYLE
  5
11
330
3
100
AcDbSymbolTableRecord
100
AcDbTextStyleTableRecord
  2
Standard
 70
     0
 40
0.0
 41
1.0
 50
0.0
 71
     0
 42
26.5350450929028
  3
txt
  4

  0
STYLE
  5
2C
330
3
100
AcDbSymbolTableRecord
100
AcDbTextStyleTableRecord
  2

 70
     1
 40
0.0
 41
1.0
 50
0.0
 71
     0
 42
2.5
  3
ltypeshp.shx
  4

  0
ENDTAB
  0
TABLE
  2
VIEW
  5
6
330
0
100
AcDbSymbolTable
 70
     1
  0
VIEW
  5
81C
330
6
100
AcDbSymbolTableRecord
100
AcDbViewTableRecord
  2
tom
 70
     0
 40
127.2859585283894
 10
166.2856675397948
 20
206.2562233711272
 41
204.2020725054376
 11
0.0
 21
0.0
 31
1.0
 12
0.0
 22
0.0
 32
0.0
 42
50.0
 43
0.0
 44
0.0
 50
0.0
 71
     0
281
     0
 72
     1
110
-53.08748352590964
120
3.820899076262548
130
0.0
111
1.0
121
0.0
131
0.0
112
0.0
122
1.0
132
0.0
 79
     0
146
0.0
  0
ENDTAB
  0
TABLE
  2
UCS
  5
7
330
0
100
AcDbSymbolTable
 70
     0
  0
ENDTAB
  0
TABLE
  2
APPID
  5
9
330
0
100
AcDbSymbolTable
 70
     1
  0
APPID
  5
12
330
9
100
AcDbSymbolTableRecord
100
AcDbRegAppTableRecord
  2
ACAD
 70
     0
  0
ENDTAB
  0
TABLE
  2
DIMSTYLE
  5
A
330
0
100
AcDbSymbolTable
 70
     2
100
AcDbDimStyleTable
 71
     1
340
27
  0
DIMSTYLE
105
27
102
{ACAD_REACTORS
330
3663
330
3684
330
36AB
330
36CC
330
36ED
330
3730
330
3751
330
3773
330
3795
330
37B6
330
37D7
330
37FB
330
3810
330
3825
330
3848
330
4357
102
}
330
A
100
AcDbSymbolTableRecord
100
AcDbDimStyleTableRecord
  2
ISO-25
 70
     0
 41
2.5
 42
0.625
 43
3.75
 44
1.25
 73
     0
 74
     0
 77
     1
 78
     8
140
2.5
141
2.5
143
0.03937007874016
147
0.625
171
     3
172
     1
271
     2
272
     2
274
     3
278
    44
283
     0
284
     8
340
11
  0
DIMSTYLE
105
AE8
330
A
100
AcDbSymbolTableRecord
100
AcDbDimStyleTableRecord
  2
STANDARD
 70
     0
 41
2.5
 73
     0
 77
     1
140
2.5
141
-0.09
147
0.2
176
     6
178
     6
271
     0
272
     0
279
     1
289
     2
340
11
371
    15
  0
ENDTAB
  0
TABLE
  2
BLOCK_RECORD
  5
1
330
0
100
AcDbSymbolTable
 70
    37
  0
BLOCK_RECORD
  5
1F
330
1
100
AcDbSymbolTableRecord
100
AcDbBlockTableRecord
  2
*Model_Space
340
22
  0
BLOCK_RECORD
  5
FEA
330
1
100
AcDbSymbolTableRecord
100
AcDbBlockTableRecord
  2
*Paper_Space
340
FEB
  0
BLOCK_RECORD
  5
3664
330
1
100
AcDbSymbolTableRecord
100
AcDbBlockTableRecord
  2
*D0
340
0
  0
BLOCK_RECORD
  5
3685
330
1
100
AcDbSymbolTableRecord
100
AcDbBlockTableRecord
  2
*D1
340
0
  0
BLOCK_RECORD
  5
36AC
330
1
100
AcDbSymbolTableRecord
100
AcDbBlockTableRecord
  2
*D2
340
0
  0
BLOCK_RECORD
  5
36CD
330
1
100
AcDbSymbolTableRecord
100
AcDbBlockTableRecord
  2
*D3
340
0
  0
BLOCK_RECORD
  5
36EE
330
1
100
AcDbSymbolTableRecord
100
AcDbBlockTableRecord
  2
*D4
340
0
  0
BLOCK_RECORD
  5
3731
330
1
100
AcDbSymbolTableRecord
100
AcDbBlockTableRecord
  2
*D6
340
0
  0
BLOCK_RECORD
  5
3752
330
1
100
AcDbSymbolTableRecord
100
AcDbBlockTableRecord
  2
*D7
340
0
  0
BLOCK_RECORD
  5
3774
330
1
100
AcDbSymbolTableRecord
100
AcDbBlockTableRecord
  2
*D8
340
0
  0
BLOCK_RECORD
  5
3796
330
1
100
AcDbSymbolTableRecord
100
AcDbBlockTableRecord
  2
*D9
340
0
  0
BLOCK_RECORD
  5
37B7
330
1
100
AcDbSymbolTableRecord
100
AcDbBlockTableRecord
  2
*D10
340
0
  0
BLOCK_RECORD
  5
37D8
330
1
100
AcDbSymbolTableRecord
100
AcDbBlockTableRecord
  2
*D11
340
0
  0
BLOCK_RECORD
  5
37FC
330
1
100
AcDbSymbolTableRecord
100
AcDbBlockTableRecord
  2
*D12
340
0
  0
BLOCK_RECORD
  5
3811
330
1
100
AcDbSymbolTableRecord
100
AcDbBlockTableRecord
  2
*D13
340
0
  0
BLOCK_RECORD
  5
3826
330
1
100
AcDbSymbolTableRecord
100
AcDbBlockTableRecord
  2
*D14
340
0
  0
BLOCK_RECORD
  5
3849
330
1
100
AcDbSymbolTableRecord
100
AcDbBlockTableRecord
  2
*D15
340
0
  0
BLOCK_RECORD
  5
3D97
330
1
100
AcDbSymbolTableRecord
100
AcDbBlockTableRecord
  2
A$C3B0E2FE1
340
0
  0
BLOCK_RECORD
  5
3ECF
330
1
100
AcDbSymbolTableRecord
100
AcDbBlockTableRecord
  2
A$C48917F5A
340
0
  0
BLOCK_RECORD
  5
3F46
330
1
100
AcDbSymbolTableRecord
100
AcDbBlockTableRecord
  2
A$C0F5F1329
340
0
  0
BLOCK_RECORD
  5
4358
330
1
100
AcDbSymbolTableRecord
100
AcDbBlockTableRecord
  2
*D35
340
0
  0
ENDTAB
  0
ENDSEC
  0
SECTION
  2
BLOCKS
  0
BLOCK
  5
20
330
1F
100
AcDbEntity
  8
0
100
AcDbBlockBegin
  2
*Model_Space
 70
     0
 10
0.0
 20
0.0
 30
0.0
  3
*Model_Space
  1

  0
ENDBLK
  5
21
330
1F
100
AcDbEntity
  8
0
100
AcDbBlockEnd
  0
BLOCK
  5
FEC
330
FEA
100
AcDbEntity
 67
     1
  8
0
100
AcDbBlockBegin
  2
*Paper_Space
 70
     0
 10
0.0
 20
0.0
 30
0.0
  3
*Paper_Space
  1

  0
ENDBLK
  5
FED
330
FEA
100
AcDbEntity
 67
     1
  8
0
100
AcDbBlockEnd
  0
BLOCK
  5
366E
330
3664
100
AcDbEntity
  8
0
100
AcDbBlockBegin
  2
*D0
 70
     1
 10
0.0
 20
0.0
 30
0.0
  3
*D0
  1

  0
LINE
  5
367B
330
3664
100
AcDbEntity
  8
Bemaßung
 62
     0
370
    -2
100
AcDbLine
 10
758.7005389302237
 20
281.5686592553508
 30
0.0
 11
758.7005389302237
 21
295.7764917622071
 31
0.0
  0
LINE
  5
367C
330
3664
100
AcDbEntity
  8
Bemaßung
 62
     0
370
    -2
100
AcDbLine
 10
740.7005389302237
 20
281.5686592553508
 30
0.0
 11
740.7005389302237
 21
295.7764917622071
 31
0.0
  0
LINE
  5
367D
330
3664
100
AcDbEntity
  8
Bemaßung
 62
     0
370
    -2
100
AcDbLine
 10
756.2005389302237
 20
294.5264917622071
 30
0.0
 11
743.2005389302237
 21
294.5264917622071
 31
0.0
  0
SOLID
  5
367E
330
3664
100
AcDbEntity
  8
Bemaßung
 62
     0
100
AcDbTrace
 10
756.2005389302237
 20
294.9431584288737
 30
0.0
 11
756.2005389302237
 21
294.1098250955404
 31
0.0
 12
758.7005389302237
 22
294.5264917622071
 32
0.0
 13
758.7005389302237
 23
294.5264917622071
 33
0.0
  0
SOLID
  5
367F
330
3664
100
AcDbEntity
  8
Bemaßung
 62
     0
100
AcDbTrace
 10
743.2005389302237
 20
294.9431584288737
 30
0.0
 11
743.2005389302237
 21
294.1098250955404
 31
0.0
 12
740.7005389302237
 22
294.5264917622071
 32
0.0
 13
740.7005389302237
 23
294.5264917622071
 33
0.0
  0
MTEXT
  5
3680
330
3664
100
AcDbEntity
  8
Bemaßung
 62
     0
100
AcDbMText
 10
749.7005389302237
 20
296.4014917622071
 30
0.0
 40
2.5
 41
0.0
 71
     5
 72
     1
  1
18
 73
     1
 44
1.0
  0
POINT
  5
3681
330
3664
100
AcDbEntity
  8
Defpoints
 62
     0
100
AcDbPoint
 10
758.7005389302237
 20
280.9436592553509
 30
0.0
  0
POINT
  5
3682
330
3664
100
AcDbEntity
  8
Defpoints
 62
     0
100
AcDbPoint
 10
740.7005389302237
 20
280.9436592553509
 30
0.0
  0
POINT
  5
3683
330
3664
100
AcDbEntity
  8
Defpoints
 62
     0
100
AcDbPoint
 10
740.7005389302237
 20
294.5264917622071
 30
0.0
  0
ENDBLK
  5
366F
330
3664
100
AcDbEntity
  8
0
100
AcDbBlockEnd
  0
BLOCK
  5
3691
330
3685
100
AcDbEntity
  8
0
100
AcDbBlockBegin
  2
*D1
 70
     1
 10
0.0
 20
0.0
 30
0.0
  3
*D1
  1

  0
LINE
  5
36A0
330
3685
100
AcDbEntity
  8
Bemaßung
 62
     0
370
    -2
100
AcDbLine
 10
761.7005389302237
 20
250.7186612553508
 30
0.0
 11
761.7005389302237
 21
295.7764917622071
 31
0.0
  0
LINE
  5
36A1
330
3685
100
AcDbEntity
  8
Bemaßung
 62
     0
370
    -2
100
AcDbLine
 10
758.7005389302237
 20
250.7186612553508
 30
0.0
 11
758.7005389302237
 21
295.7764917622071
 31
0.0
  0
LINE
  5
36A2
330
3685
100
AcDbEntity
  8
Bemaßung
 62
     0
370
    -2
100
AcDbLine
 10
764.2005389302237
 20
294.5264917622071
 30
0.0
 11
766.7005389302237
 21
294.5264917622071
 31
0.0
  0
LINE
  5
36A3
330
3685
100
AcDbEntity
  8
Bemaßung
 62
     0
370
    -2
100
AcDbLine
 10
756.2005389302237
 20
294.5264917622071
 30
0.0
 11
753.7005389302237
 21
294.5264917622071
 31
0.0
  0
LINE
  5
36A4
330
3685
100
AcDbEntity
  8
Bemaßung
 62
     0
370
    -2
100
AcDbLine
 10
761.7005389302237
 20
294.5264917622071
 30
0.0
 11
758.7005389302237
 21
294.5264917622071
 31
0.0
  0
SOLID
  5
36A5
330
3685
100
AcDbEntity
  8
Bemaßung
 62
     0
100
AcDbTrace
 10
764.2005389302237
 20
294.9431584288737
 30
0.0
 11
764.2005389302237
 21
294.1098250955404
 31
0.0
 12
761.7005389302237
 22
294.5264917622071
 32
0.0
 13
761.7005389302237
 23
294.5264917622071
 33
0.0
  0
SOLID
  5
36A6
330
3685
100
AcDbEntity
  8
Bemaßung
 62
     0
100
AcDbTrace
 10
756.2005389302237
 20
294.9431584288737
 30
0.0
 11
756.2005389302237
 21
294.1098250955404
 31
0.0
 12
758.7005389302237
 22
294.5264917622071
 32
0.0
 13
758.7005389302237
 23
294.5264917622071
 33
0.0
  0
MTEXT
  5
36A7
330
3685
100
AcDbEntity
  8
Bemaßung
 62
     0
100
AcDbMText
 10
760.2005389302237
 20
296.4014917622071
 30
0.0
 40
2.5
 41
0.0
 71
     5
 72
     1
  1
3
 73
     1
 44
1.0
  0
POINT
  5
36A8
330
3685
100
AcDbEntity
  8
Defpoints
 62
     0
100
AcDbPoint
 10
761.7005389302237
 20
250.0936612553508
 30
0.0
  0
POINT
  5
36A9
330
3685
100
AcDbEntity
  8
Defpoints
 62
     0
100
AcDbPoint
 10
758.7005389302237
 20
250.0936612553508
 30
0.0
  0
POINT
  5
36AA
330
3685
100
AcDbEntity
  8
Defpoints
 62
     0
100
AcDbPoint
 10
758.7005389302237
 20
294.5264917622071
 30
0.0
  0
ENDBLK
  5
3692
330
3685
100
AcDbEntity
  8
0
100
AcDbBlockEnd
  0
BLOCK
  5
36B6
330
36AC
100
AcDbEntity
  8
0
100
AcDbBlockBegin
  2
*D2
 70
     1
 10
0.0
 20
0.0
 30
0.0
  3
*D2
  1

  0
LINE
  5
36C3
330
36AC
100
AcDbEntity
  8
Bemaßung
 62
     0
370
    -2
100
AcDbLine
 10
762.7005389302237
 20
213.5686582553509
 30
0.0
 11
762.7005389302237
 21
274.9444459328387
 31
0.0
  0
LINE
  5
36C4
330
36AC
100
AcDbEntity
  8
Bemaßung
 62
     0
370
    -2
100
AcDbLine
 10
837.7005389302237
 20
211.0686582553508
 30
0.0
 11
837.7005389302237
 21
274.9444459328387
 31
0.0
  0
LINE
  5
36C5
330
36AC
100
AcDbEntity
  8
Bemaßung
 62
     0
370
    -2
100
AcDbLine
 10
765.2005389302237
 20
273.6944459328388
 30
0.0
 11
835.2005389302236
 21
273.6944459328388
 31
0.0
  0
SOLID
  5
36C6
330
36AC
100
AcDbEntity
  8
Bemaßung
 62
     0
100
AcDbTrace
 10
765.2005389302237
 20
274.1111125995054
 30
0.0
 11
765.2005389302237
 21
273.2777792661721
 31
0.0
 12
762.7005389302237
 22
273.6944459328388
 32
0.0
 13
762.7005389302237
 23
273.6944459328388
 33
0.0
  0
SOLID
  5
36C7
330
36AC
100
AcDbEntity
  8
Bemaßung
 62
     0
100
AcDbTrace
 10
835.2005389302236
 20
274.1111125995054
 30
0.0
 11
835.2005389302236
 21
273.2777792661721
 31
0.0
 12
837.7005389302237
 22
273.6944459328388
 32
0.0
 13
837.7005389302237
 23
273.6944459328388
 33
0.0
  0
MTEXT
  5
36C8
330
36AC
100
AcDbEntity
  8
Bemaßung
 62
     0
100
AcDbMText
 10
800.2005389302237
 20
275.5694459328387
 30
0.0
 40
2.5
 41
0.0
 71
     5
 72
     1
  1
75
 73
     1
 44
1.0
  0
POINT
  5
36C9
330
36AC
100
AcDbEntity
  8
Defpoints
 62
     0
100
AcDbPoint
 10
762.7005389302237
 20
212.9436582553509
 30
0.0
  0
POINT
  5
36CA
330
36AC
100
AcDbEntity
  8
Defpoints
 62
     0
100
AcDbPoint
 10
837.7005389302237
 20
210.4436582553509
 30
0.0
  0
POINT
  5
36CB
330
36AC
100
AcDbEntity
  8
Defpoints
 62
     0
100
AcDbPoint
 10
837.7005389302237
 20
273.6944459328388
 30
0.0
  0
ENDBLK
  5
36B7
330
36AC
100
AcDbEntity
  8
0
100
AcDbBlockEnd
  0
BLOCK
  5
36D7
330
36CD
100
AcDbEntity
  8
0
100
AcDbBlockBegin
  2
*D3
 70
     1
 10
0.0
 20
0.0
 30
0.0
  3
*D3
  1

  0
LINE
  5
36E4
330
36CD
100
AcDbEntity
  8
Bemaßung
 62
     0
370
    -2
100
AcDbLine
 10
837.7005389302237
 20
211.0686582553508
 30
0.0
 11
837.7005389302237
 21
309.7387338681314
 31
0.0
  0
LINE
  5
36E5
330
36CD
100
AcDbEntity
  8
Bemaßung
 62
     0
370
    -2
100
AcDbLine
 10
758.7005389302237
 20
281.5686592553508
 30
0.0
 11
758.7005389302237
 21
309.7387338681314
 31
0.0
  0
LINE
  5
36E6
330
36CD
100
AcDbEntity
  8
Bemaßung
 62
     0
370
    -2
100
AcDbLine
 10
835.2005389302236
 20
308.4887338681314
 30
0.0
 11
761.2005389302237
 21
308.4887338681314
 31
0.0
  0
SOLID
  5
36E7
330
36CD
100
AcDbEntity
  8
Bemaßung
 62
     0
100
AcDbTrace
 10
835.2005389302236
 20
308.9054005347981
 30
0.0
 11
835.2005389302236
 21
308.0720672014647
 31
0.0
 12
837.7005389302237
 22
308.4887338681314
 32
0.0
 13
837.7005389302237
 23
308.4887338681314
 33
0.0
  0
SOLID
  5
36E8
330
36CD
100
AcDbEntity
  8
Bemaßung
 62
     0
100
AcDbTrace
 10
761.2005389302237
 20
308.9054005347981
 30
0.0
 11
761.2005389302237
 21
308.0720672014647
 31
0.0
 12
758.7005389302237
 22
308.4887338681314
 32
0.0
 13
758.7005389302237
 23
308.4887338681314
 33
0.0
  0
MTEXT
  5
36E9
330
36CD
100
AcDbEntity
  8
Bemaßung
 62
     0
100
AcDbMText
 10
798.2005389302237
 20
310.3637338681314
 30
0.0
 40
2.5
 41
0.0
 71
     5
 72
     1
  1
79
 73
     1
 44
1.0
  0
POINT
  5
36EA
330
36CD
100
AcDbEntity
  8
Defpoints
 62
     0
100
AcDbPoint
 10
837.7005389302237
 20
210.4436582553509
 30
0.0
  0
POINT
  5
36EB
330
36CD
100
AcDbEntity
  8
Defpoints
 62
     0
100
AcDbPoint
 10
758.7005389302237
 20
280.9436592553509
 30
0.0
  0
POINT
  5
36EC
330
36CD
100
AcDbEntity
  8
Defpoints
 62
     0
100
AcDbPoint
 10
758.7005389302237
 20
308.4887338681314
 30
0.0
  0
ENDBLK
  5
36D8
330
36CD
100
AcDbEntity
  8
0
100
AcDbBlockEnd
  0
BLOCK
  5
36F8
330
36EE
100
AcDbEntity
  8
0
100
AcDbBlockBegin
  2
*D4
 70
     1
 10
0.0
 20
0.0
 30
0.0
  3
*D4
  1

  0
LINE
  5
40B4
330
36EE
100
AcDbEntity
  8
Bemaßung
 62
     0
370
    -2
100
AcDbLine
 10
418.700522930224
 20
192.7823439136489
 30
0.0
 11
418.700522930224
 21
309.7387338681314
 31
0.0
  0
LINE
  5
40B5
330
36EE
100
AcDbEntity
  8
Bemaßung
 62
     0
370
    -2
100
AcDbLine
 10
758.7005389302237
 20
281.5686592553508
 30
0.0
 11
758.7005389302237
 21
309.7387338681314
 31
0.0
  0
LINE
  5
40B6
330
36EE
100
AcDbEntity
  8
Bemaßung
 62
     0
370
    -2
100
AcDbLine
 10
421.2005229302239
 20
308.4887338681314
 30
0.0
 11
756.2005389302237
 21
308.4887338681314
 31
0.0
  0
SOLID
  5
40B7
330
36EE
100
AcDbEntity
  8
Bemaßung
 62
     0
100
AcDbTrace
 10
421.2005229302239
 20
308.9054005347981
 30
0.0
 11
421.2005229302239
 21
308.0720672014647
 31
0.0
 12
418.700522930224
 22
308.4887338681314
 32
0.0
 13
418.700522930224
 23
308.4887338681314
 33
0.0
  0
SOLID
  5
40B8
330
36EE
100
AcDbEntity
  8
Bemaßung
 62
     0
100
AcDbTrace
 10
756.2005389302237
 20
308.9054005347981
 30
0.0
 11
756.2005389302237
 21
308.0720672014647
 31
0.0
 12
758.7005389302237
 22
308.4887338681314
 32
0.0
 13
758.7005389302237
 23
308.4887338681314
 33
0.0
  0
MTEXT
  5
40B9
330
36EE
100
AcDbEntity
  8
Bemaßung
 62
     0
100
AcDbMText
 10
588.7005309302238
 20
310.3637338681314
 30
0.0
 40
2.5
 41
0.0
 71
     5
 72
     1
  1
340
 73
     1
 44
1.0
  0
POINT
  5
40BA
330
36EE
100
AcDbEntity
  8
Defpoints
 62
     0
100
AcDbPoint
 10
418.700522930224
 20
192.1573439136489
 30
0.0
  0
POINT
  5
40BB
330
36EE
100
AcDbEntity
  8
Defpoints
 62
     0
100
AcDbPoint
 10
758.7005389302237
 20
280.9436592553509
 30
0.0
  0
POINT
  5
40BC
330
36EE
100
AcDbEntity
  8
Defpoints
 62
     0
100
AcDbPoint
 10
758.7005389302237
 20
308.4887338681314
 30
0.0
  0
ENDBLK
  5
36F9
330
36EE
100
AcDbEntity
  8
0
100
AcDbBlockEnd
  0
BLOCK
  5
373B
330
3731
100
AcDbEntity
  8
0
100
AcDbBlockBegin
  2
*D6
 70
     1
 10
0.0
 20
0.0
 30
0.0
  3
*D6
  1

  0
LINE
  5
3748
330
3731
100
AcDbEntity
  8
Bemaßung
 62
     0
370
    -2
100
AcDbLine
 10
838.3255389302236
 20
210.4436582553509
 30
0.0
 11
865.4811006623859
 21
210.4436582553509
 31
0.0
  0
LINE
  5
3749
330
3731
100
AcDbEntity
  8
Bemaßung
 62
     0
370
    -2
100
AcDbLine
 10
838.3255389302236
 20
175.4436582553509
 30
0.0
 11
865.4811006623859
 21
175.4436582553509
 31
0.0
  0
LINE
  5
374A
330
3731
100
AcDbEntity
  8
Bemaßung
 62
     0
370
    -2
100
AcDbLine
 10
864.2311006623858
 20
207.9436582553508
 30
0.0
 11
864.2311006623858
 21
177.9436582553509
 31
0.0
  0
SOLID
  5
374B
330
3731
100
AcDbEntity
  8
Bemaßung
 62
     0
100
AcDbTrace
 10
863.8144339957191
 20
207.9436582553508
 30
0.0
 11
864.6477673290524
 21
207.9436582553508
 31
0.0
 12
864.2311006623858
 22
210.4436582553509
 32
0.0
 13
864.2311006623858
 23
210.4436582553509
 33
0.0
  0
SOLID
  5
374C
330
3731
100
AcDbEntity
  8
Bemaßung
 62
     0
100
AcDbTrace
 10
863.8144339957191
 20
177.9436582553509
 30
0.0
 11
864.6477673290524
 21
177.9436582553509
 31
0.0
 12
864.2311006623858
 22
175.4436582553509
 32
0.0
 13
864.2311006623858
 23
175.4436582553509
 33
0.0
  0
MTEXT
  5
374D
330
3731
100
AcDbEntity
  8
Bemaßung
 62
     0
100
AcDbMText
 10
862.3561006623859
 20
192.943658255351
 30
0.0
 40
2.5
 41
0.0
 71
     5
 72
     1
  1
35
 11
0.0000000000000001
 21
1.0
 31
0.0
 73
     1
 44
1.0
  0
POINT
  5
374E
330
3731
100
AcDbEntity
  8
Defpoints
 62
     0
100
AcDbPoint
 10
837.7005389302237
 20
210.4436582553509
 30
0.0
  0
POINT
  5
374F
330
3731
100
AcDbEntity
  8
Defpoints
 62
     0
100
AcDbPoint
 10
837.7005389302237
 20
175.4436582553509
 30
0.0
  0
POINT
  5
3750
330
3731
100
AcDbEntity
  8
Defpoints
 62
     0
100
AcDbPoint
 10
864.2311006623858
 20
175.4436582553509
 30
0.0
  0
ENDBLK
  5
373C
330
3731
100
AcDbEntity
  8
0
100
AcDbBlockEnd
  0
BLOCK
  5
375C
330
3752
100
AcDbEntity
  8
0
100
AcDbBlockBegin
  2
*D7
 70
     1
 10
0.0
 20
0.0
 30
0.0
  3
*D7
  1

  0
LINE
  5
3769
330
3752
100
AcDbEntity
  8
Bemaßung
 62
     0
370
    -2
100
AcDbLine
 10
762.3255389302237
 20
250.0936612553508
 30
0.0
 11
880.256649124376
 21
250.0936612553508
 31
0.0
  0
LINE
  5
376A
330
3752
100
AcDbEntity
  8
Bemaßung
 62
     0
370
    -2
100
AcDbLine
 10
762.3255389302237
 20
135.7936682553509
 30
0.0
 11
880.256649124376
 21
135.7936682553508
 31
0.0
  0
LINE
  5
376B
330
3752
100
AcDbEntity
  8
Bemaßung
 62
     0
370
    -2
100
AcDbLine
 10
879.0066491243761
 20
247.5936612553508
 30
0.0
 11
879.0066491243761
 21
138.2936682553508
 31
0.0
  0
SOLID
  5
376C
330
3752
100
AcDbEntity
  8
Bemaßung
 62
     0
100
AcDbTrace
 10
878.5899824577095
 20
247.5936612553508
 30
0.0
 11
879.4233157910426
 21
247.5936612553508
 31
0.0
 12
879.0066491243761
 22
250.0936612553508
 32
0.0
 13
879.0066491243761
 23
250.0936612553508
 33
0.0
  0
SOLID
  5
376D
330
3752
100
AcDbEntity
  8
Bemaßung
 62
     0
100
AcDbTrace
 10
878.5899824577095
 20
138.2936682553508
 30
0.0
 11
879.4233157910426
 21
138.2936682553508
 31
0.0
 12
879.0066491243761
 22
135.7936682553508
 32
0.0
 13
879.0066491243761
 23
135.7936682553508
 33
0.0
  0
MTEXT
  5
376E
330
3752
100
AcDbEntity
  8
Bemaßung
 62
     0
100
AcDbMText
 10
876.9233157910427
 20
192.943664755351
 30
0.0
 40
2.5
 41
0.0
 71
     5
 72
     1
  1
114,3
 11
0.0000000000000001
 21
1.0
 31
0.0
 73
     1
 44
1.0
  0
POINT
  5
376F
330
3752
100
AcDbEntity
  8
Defpoints
 62
     0
100
AcDbPoint
 10
761.7005389302237
 20
250.0936612553508
 30
0.0
  0
POINT
  5
3770
330
3752
100
AcDbEntity
  8
Defpoints
 62
     0
100
AcDbPoint
 10
761.7005389302237
 20
135.7936682553509
 30
0.0
  0
POINT
  5
3771
330
3752
100
AcDbEntity
  8
Defpoints
 62
     0
100
AcDbPoint
 10
879.0066491243761
 20
135.7936682553508
 30
0.0
  0
ENDBLK
  5
375D
330
3752
100
AcDbEntity
  8
0
100
AcDbBlockEnd
  0
BLOCK
  5
377E
330
3774
100
AcDbEntity
  8
0
100
AcDbBlockBegin
  2
*D8
 70
     1
 10
0.0
 20
0.0
 30
0.0
  3
*D8
  1

  0
LINE
  5
378B
330
3774
100
AcDbEntity
  8
Bemaßung
 62
     0
370
    -2
100
AcDbLine
 10
548.2005089302238
 20
37.3186582553509
 30
0.0
 11
548.2005089302238
 21
17.25058378856283
 31
0.0
  0
LINE
  5
378C
330
3774
100
AcDbEntity
  8
Bemaßung
 62
     0
370
    -2
100
AcDbLine
 10
758.7005389302237
 20
104.3186582553508
 30
0.0
 11
758.7005389302237
 21
17.25058378856283
 31
0.0
  0
LINE
  5
378D
330
3774
100
AcDbEntity
  8
Bemaßung
 62
     0
370
    -2
100
AcDbLine
 10
550.7005089302237
 20
18.50058378856283
 30
0.0
 11
756.2005389302237
 21
18.50058378856283
 31
0.0
  0
SOLID
  5
378E
330
3774
100
AcDbEntity
  8
Bemaßung
 62
     0
100
AcDbTrace
 10
550.7005089302237
 20
18.9172504552295
 30
0.0
 11
550.7005089302237
 21
18.08391712189616
 31
0.0
 12
548.2005089302238
 22
18.50058378856283
 32
0.0
 13
548.2005089302238
 23
18.50058378856283
 33
0.0
  0
SOLID
  5
378F
330
3774
100
AcDbEntity
  8
Bemaßung
 62
     0
100
AcDbTrace
 10
756.2005389302237
 20
18.9172504552295
 30
0.0
 11
756.2005389302237
 21
18.08391712189616
 31
0.0
 12
758.7005389302237
 22
18.50058378856283
 32
0.0
 13
758.7005389302237
 23
18.50058378856283
 33
0.0
  0
MTEXT
  5
3790
330
3774
100
AcDbEntity
  8
Bemaßung
 62
     0
100
AcDbMText
 10
653.4505239302237
 20
20.58391712189616
 30
0.0
 40
2.5
 41
0.0
 71
     5
 72
     1
  1
210,5
 73
     1
 44
1.0
  0
POINT
  5
3791
330
3774
100
AcDbEntity
  8
Defpoints
 62
     0
100
AcDbPoint
 10
548.2005089302238
 20
37.9436582553509
 30
0.0
  0
POINT
  5
3792
330
3774
100
AcDbEntity
  8
Defpoints
 62
     0
100
AcDbPoint
 10
758.7005389302237
 20
104.9436582553509
 30
0.0
  0
POINT
  5
3793
330
3774
100
AcDbEntity
  8
Defpoints
 62
     0
100
AcDbPoint
 10
758.7005389302237
 20
18.50058378856283
 30
0.0
  0
ENDBLK
  5
377F
330
3774
100
AcDbEntity
  8
0
100
AcDbBlockEnd
  0
BLOCK
  5
37A0
330
3796
100
AcDbEntity
  8
0
100
AcDbBlockBegin
  2
*D9
 70
     1
 10
0.0
 20
0.0
 30
0.0
  3
*D9
  1

  0
LINE
  5
37AD
330
3796
100
AcDbEntity
  8
Bemaßung
 62
     0
370
    -2
100
AcDbLine
 10
150.1908536722494
 20
267.4531648255841
 30
0.0
 11
150.1908536722494
 21
309.3220672014647
 31
0.0
  0
LINE
  5
37AE
330
3796
100
AcDbEntity
  8
Bemaßung
 62
     0
370
    -2
100
AcDbLine
 10
326.1908262758034
 20
267.4531578063968
 30
0.0
 11
326.1908262758034
 21
309.3220672014647
 31
0.0
  0
LINE
  5
37AF
330
3796
100
AcDbEntity
  8
Bemaßung
 62
     0
370
    -2
100
AcDbLine
 10
152.6908536722494
 20
308.0720672014647
 30
0.0
 11
323.6908262758035
 21
308.0720672014647
 31
0.0
  0
SOLID
  5
37B0
330
3796
100
AcDbEntity
  8
Bemaßung
 62
     0
100
AcDbTrace
 10
152.6908536722494
 20
308.4887338681314
 30
0.0
 11
152.6908536722494
 21
307.655400534798
 31
0.0
 12
150.1908536722494
 22
308.0720672014647
 32
0.0
 13
150.1908536722494
 23
308.0720672014647
 33
0.0
  0
SOLID
  5
37B1
330
3796
100
AcDbEntity
  8
Bemaßung
 62
     0
100
AcDbTrace
 10
323.6908262758035
 20
308.4887338681314
 30
0.0
 11
323.6908262758035
 21
307.655400534798
 31
0.0
 12
326.1908262758034
 22
308.0720672014647
 32
0.0
 13
326.1908262758034
 23
308.0720672014647
 33
0.0
  0
MTEXT
  5
37B2
330
3796
100
AcDbEntity
  8
Bemaßung
 62
     0
100
AcDbMText
 10
238.1908399740264
 20
309.9470672014647
 30
0.0
 40
2.5
 41
0.0
 71
     5
 72
     1
  1
176
 73
     1
 44
1.0
  0
POINT
  5
37B3
330
3796
100
AcDbEntity
  8
Defpoints
 62
     0
100
AcDbPoint
 10
150.1908536722494
 20
266.8281648255841
 30
0.0
  0
POINT
  5
37B4
330
3796
100
AcDbEntity
  8
Defpoints
 62
     0
100
AcDbPoint
 10
326.1908262758034
 20
266.8281578063968
 30
0.0
  0
POINT
  5
37B5
330
3796
100
AcDbEntity
  8
Defpoints
 62
     0
100
AcDbPoint
 10
326.1908262758034
 20
308.0720672014647
 30
0.0
  0
ENDBLK
  5
37A1
330
3796
100
AcDbEntity
  8
0
100
AcDbBlockEnd
  0
BLOCK
  5
37C1
330
37B7
100
AcDbEntity
  8
0
100
AcDbBlockBegin
  2
*D10
 70
     1
 10
0.0
 20
0.0
 30
0.0
  3
*D10
  1

  0
LINE
  5
37CE
330
37B7
100
AcDbEntity
  8
Bemaßung
 62
     0
370
    -2
100
AcDbLine
 10
163.5320537632145
 20
280.7943900134025
 30
0.0
 11
119.1911407337911
 21
280.7943900134026
 31
0.0
  0
LINE
  5
37CF
330
37B7
100
AcDbEntity
  8
Bemaßung
 62
     0
370
    -2
100
AcDbLine
 10
163.5320736722494
 20
104.7943848255841
 30
0.0
 11
119.1911407337911
 21
104.7943848255842
 31
0.0
  0
LINE
  5
37D0
330
37B7
100
AcDbEntity
  8
Bemaßung
 62
     0
370
    -2
100
AcDbLine
 10
120.4411407337911
 20
278.2943900134026
 30
0.0
 11
120.4411407337911
 21
107.2943848255841
 31
0.0
  0
SOLID
  5
37D1
330
37B7
100
AcDbEntity
  8
Bemaßung
 62
     0
100
AcDbTrace
 10
120.0244740671245
 20
278.2943900134026
 30
0.0
 11
120.8578074004578
 21
278.2943900134026
 31
0.0
 12
120.4411407337911
 22
280.7943900134026
 32
0.0
 13
120.4411407337911
 23
280.7943900134026
 33
0.0
  0
SOLID
  5
37D2
330
37B7
100
AcDbEntity
  8
Bemaßung
 62
     0
100
AcDbTrace
 10
120.0244740671244
 20
107.2943848255841
 30
0.0
 11
120.8578074004578
 21
107.2943848255841
 31
0.0
 12
120.4411407337911
 22
104.7943848255842
 32
0.0
 13
120.4411407337911
 23
104.7943848255842
 33
0.0
  0
MTEXT
  5
37D3
330
37B7
100
AcDbEntity
  8
Bemaßung
 62
     0
100
AcDbMText
 10
118.5661407337911
 20
192.7943874194934
 30
0.0
 40
2.5
 41
0.0
 71
     5
 72
     1
  1
176
 11
0.0000000000000001
 21
1.0
 31
0.0
 73
     1
 44
1.0
  0
POINT
  5
37D4
330
37B7
100
AcDbEntity
  8
Defpoints
 62
     0
100
AcDbPoint
 10
164.1570537632145
 20
280.7943900134025
 30
0.0
  0
POINT
  5
37D5
330
37B7
100
AcDbEntity
  8
Defpoints
 62
     0
100
AcDbPoint
 10
164.1570736722494
 20
104.7943848255841
 30
0.0
  0
POINT
  5
37D6
330
37B7
100
AcDbEntity
  8
Defpoints
 62
     0
100
AcDbPoint
 10
120.4411407337911
 20
104.7943848255842
 30
0.0
  0
ENDBLK
  5
37C2
330
37B7
100
AcDbEntity
  8
0
100
AcDbBlockEnd
  0
BLOCK
  5
37E3
330
37D8
100
AcDbEntity
  8
0
100
AcDbBlockBegin
  2
*D11
 70
     1
 10
0.0
 20
0.0
 30
0.0
  3
*D11
  1

  0
LINE
  5
3873
330
37D8
100
AcDbEntity
  8
Bemaßung
 62
     0
370
    -2
100
AcDbLine
 10
238.1908236722495
 20
299.9266288255842
 30
0.0
 11
238.1908236722494
 21
300.8059096362053
 31
0.0
  0
ARC
  5
3874
330
37D8
100
AcDbEntity
  8
Bemaßung
 62
     0
370
    -2
100
AcDbCircle
 10
238.1908236722495
 20
190.8744224130978
 30
0.0
 40
108.6814872231075
100
AcDbArc
 50
91.31800374369085
 51
133.6820005483148
  0
SOLID
  5
3875
330
37D8
100
AcDbEntity
  8
Bemaßung
 62
     0
100
AcDbTrace
 10
235.6861967421267
 20
299.9437949955769
 30
0.0
 11
235.6957813244993
 21
299.1105167825981
 31
0.0
 12
238.1908236722494
 22
299.5559096362053
 32
0.0
 13
238.1908236722494
 23
299.5559096362053
 33
0.0
  0
SOLID
  5
3876
330
37D8
100
AcDbEntity
  8
Bemaßung
 62
     0
100
AcDbTrace
 10
163.4206028725411
 20
269.1731544733509
 30
0.0
 11
162.8381634760736
 21
269.7691484279234
 31
0.0
 12
161.3414013105897
 22
267.7238332612346
 32
0.0
 13
161.3414013105897
 23
267.7238332612346
 33
0.0
  0
MTEXT
  5
3877
330
37D8
100
AcDbEntity
  8
Bemaßung
 62
     0
100
AcDbMText
 10
195.8826838458158
 20
293.0152965602289
 30
0.0
 40
2.5
 41
0.0
 71
     5
 72
     1
  1
45°
 11
0.9238795181779483
 21
0.3826834669688277
 31
0.0
 73
     1
 44
1.0
  0
POINT
  5
3878
330
37D8
100
AcDbEntity
  8
Defpoints
 62
     0
100
AcDbPoint
 10
210.0619823075488
 20
295.8526770590291
 30
0.0
  0
POINT
  5
3879
330
37D8
100
AcDbEntity
  8
Defpoints
 62
     0
100
AcDbPoint
 10
174.1969536722494
 20
254.8682828255842
 30
0.0
  0
POINT
  5
387A
330
37D8
100
AcDbEntity
  8
Defpoints
 62
     0
100
AcDbPoint
 10
238.1908236722495
 20
39.88744482558417
 30
0.0
  0
POINT
  5
387B
330
37D8
100
AcDbEntity
  8
Defpoints
 62
     0
100
AcDbPoint
 10
238.1908236722495
 20
299.3016288255841
 30
0.0
  0
POINT
  5
387C
330
37D8
100
AcDbEntity
  8
Defpoints
 62
     0
100
AcDbPoint
 10
160.8475336722494
 20
268.2177008255841
 30
0.0
  0
ENDBLK
  5
37E4
330
37D8
100
AcDbEntity
  8
0
100
AcDbBlockEnd
  0
BLOCK
  5
3802
330
37FC
100
AcDbEntity
  8
0
100
AcDbBlockBegin
  2
*D12
 70
     1
 10
0.0
 20
0.0
 30
0.0
  3
*D12
  1

  0
LINE
  5
380B
330
37FC
100
AcDbEntity
  8
Bemaßung
 62
     0
370
    -2
100
AcDbLine
 10
300.4564955639209
 20
140.8762493586545
 30
0.0
 11
163.3070406528218
 21
255.2337076974672
 31
0.0
  0
MTEXT
  5
380C
330
37FC
100
AcDbEntity
  8
Bemaßung
 62
     0
100
AcDbMText
 10
297.9770658553742
 20
145.3849213099967
 30
0.0
 40
2.5
 41
0.0
 71
     5
 72
     1
  1
\U+2205200
 11
0.7680388001992585
 21
-0.6404033115064941
 31
0.0
 73
     1
 44
1.0
  0
SOLID
  5
380D
330
37FC
100
AcDbEntity
  8
Bemaßung
 62
     0
100
AcDbTrace
 10
163.5738753659495
 20
255.553723864217
 30
0.0
 11
163.0402059396941
 21
254.9136915307176
 31
0.0
 12
161.3869436523236
 22
256.8347159762335
 32
0.0
 13
161.3869436523236
 23
256.8347159762335
 33
0.0
  0
POINT
  5
380E
330
37FC
100
AcDbEntity
  8
Defpoints
 62
     0
100
AcDbPoint
 10
161.3869436523236
 20
256.8347159762335
 30
0.0
  0
POINT
  5
380F
330
37FC
100
AcDbEntity
  8
Defpoints
 62
     0
100
AcDbPoint
 10
314.9947036921753
 20
128.7540536749347
 30
0.0
  0
ENDBLK
  5
3803
330
37FC
100
AcDbEntity
  8
0
100
AcDbBlockEnd
  0
BLOCK
  5
3817
330
3811
100
AcDbEntity
  8
0
100
AcDbBlockBegin
  2
*D13
 70
     1
 10
0.0
 20
0.0
 30
0.0
  3
*D13
  1

  0
LINE
  5
3820
330
3811
100
AcDbEntity
  8
Bemaßung
 62
     0
370
    -2
100
AcDbLine
 10
175.6380739687601
 20
138.3715414459409
 30
0.0
 11
323.0643590492604
 21
266.6370079683685
 31
0.0
  0
MTEXT
  5
3821
330
3811
100
AcDbEntity
  8
Bemaßung
 62
     0
100
AcDbMText
 10
178.1795207109142
 20
143.0679947307926
 30
0.0
 40
2.5
 41
0.0
 71
     5
 72
     1
  1
\U+2205230
 11
0.7544314255734309
 21
0.6563788723803052
 31
0.0
 73
     1
 44
1.0
  0
SOLID
  5
3822
330
3811
100
AcDbEntity
  8
Bemaßung
 62
     0
100
AcDbTrace
 10
322.7908678524353
 20
266.9513543956907
 30
0.0
 11
323.3378502460856
 21
266.3226615410462
 31
0.0
 12
324.950437613194
 22
268.2779551493192
 32
0.0
 13
324.950437613194
 23
268.2779551493192
 33
0.0
  0
POINT
  5
3823
330
3811
100
AcDbEntity
  8
Defpoints
 62
     0
100
AcDbPoint
 10
324.950437613194
 20
268.2779551493192
 30
0.0
  0
POINT
  5
3824
330
3811
100
AcDbEntity
  8
Defpoints
 62
     0
100
AcDbPoint
 10
151.4312097313049
 20
117.3108145018491
 30
0.0
  0
ENDBLK
  5
3818
330
3811
100
AcDbEntity
  8
0
100
AcDbBlockEnd
  0
BLOCK
  5
3830
330
3826
100
AcDbEntity
  8
0
100
AcDbBlockBegin
  2
*D14
 70
     1
 10
0.0
 20
0.0
 30
0.0
  3
*D14
  1

  0
LINE
  5
387D
330
3826
100
AcDbEntity
  8
Bemaßung
 62
     0
370
    -2
100
AcDbLine
 10
337.8081936722493
 20
192.7943848255841
 30
0.0
 11
351.9691746763419
 21
192.7943848255841
 31
0.0
  0
LINE
  5
387E
330
3826
100
AcDbEntity
  8
Bemaßung
 62
     0
370
    -2
100
AcDbLine
 10
262.8159436722494
 20
42.79439482558411
 30
0.0
 11
351.9691746763419
 21
42.79439482558408
 31
0.0
  0
LINE
  5
387F
330
3826
100
AcDbEntity
  8
Bemaßung
 62
     0
370
    -2
100
AcDbLine
 10
350.719174676342
 20
190.2943848255841
 30
0.0
 11
350.7191746763419
 21
45.29439482558408
 31
0.0
  0
SOLID
  5
3880
330
3826
100
AcDbEntity
  8
Bemaßung
 62
     0
100
AcDbTrace
 10
350.3025080096753
 20
190.2943848255841
 30
0.0
 11
351.1358413430087
 21
190.2943848255841
 31
0.0
 12
350.719174676342
 22
192.7943848255841
 32
0.0
 13
350.719174676342
 23
192.7943848255841
 33
0.0
  0
SOLID
  5
3881
330
3826
100
AcDbEntity
  8
Bemaßung
 62
     0
100
AcDbTrace
 10
350.3025080096752
 20
45.29439482558408
 30
0.0
 11
351.1358413430086
 21
45.29439482558408
 31
0.0
 12
350.7191746763419
 22
42.79439482558408
 32
0.0
 13
350.7191746763419
 23
42.79439482558408
 33
0.0
  0
MTEXT
  5
3882
330
3826
100
AcDbEntity
  8
Bemaßung
 62
     0
100
AcDbMText
 10
348.8441746763419
 20
117.7943898255841
 30
0.0
 40
2.5
 41
0.0
 71
     5
 72
     1
  1
150
 11
0.0000000000000001
 21
1.0
 31
0.0
 73
     1
 44
1.0
  0
POINT
  5
3883
330
3826
100
AcDbEntity
  8
Defpoints
 62
     0
100
AcDbPoint
 10
337.1831936722493
 20
192.7943848255841
 30
0.0
  0
POINT
  5
3884
330
3826
100
AcDbEntity
  8
Defpoints
 62
     0
100
AcDbPoint
 10
262.1909436722494
 20
42.79439482558411
 30
0.0
  0
POINT
  5
3885
330
3826
100
AcDbEntity
  8
Defpoints
 62
     0
100
AcDbPoint
 10
350.7191746763419
 20
42.79439482558408
 30
0.0
  0
ENDBLK
  5
3831
330
3826
100
AcDbEntity
  8
0
100
AcDbBlockEnd
  0
BLOCK
  5
3853
330
3849
100
AcDbEntity
  8
0
100
AcDbBlockBegin
  2
*D15
 70
     1
 10
0.0
 20
0.0
 30
0.0
  3
*D15
  1

  0
LINE
  5
3860
330
3849
100
AcDbEntity
  8
Bemaßung
 62
     0
370
    -2
100
AcDbLine
 10
209.1909736722494
 20
70.16938482558419
 30
0.0
 11
209.1909736722494
 21
17.93632813176145
 31
0.0
  0
LINE
  5
3861
330
3849
100
AcDbEntity
  8
Bemaßung
 62
     0
370
    -2
100
AcDbLine
 10
267.1910036722493
 20
70.16938482558419
 30
0.0
 11
267.1910036722493
 21
17.93632813176145
 31
0.0
  0
LINE
  5
3862
330
3849
100
AcDbEntity
  8
Bemaßung
 62
     0
370
    -2
100
AcDbLine
 10
211.6909736722494
 20
19.18632813176145
 30
0.0
 11
264.6910036722494
 21
19.18632813176145
 31
0.0
  0
SOLID
  5
3863
330
3849
100
AcDbEntity
  8
Bemaßung
 62
     0
100
AcDbTrace
 10
211.6909736722494
 20
19.60299479842812
 30
0.0
 11
211.6909736722494
 21
18.76966146509478
 31
0.0
 12
209.1909736722494
 22
19.18632813176145
 32
0.0
 13
209.1909736722494
 23
19.18632813176145
 33
0.0
  0
SOLID
  5
3864
330
3849
100
AcDbEntity
  8
Bemaßung
 62
     0
100
AcDbTrace
 10
264.6910036722494
 20
19.60299479842812
 30
0.0
 11
264.6910036722494
 21
18.76966146509478
 31
0.0
 12
267.1910036722493
 22
19.18632813176145
 32
0.0
 13
267.1910036722493
 23
19.18632813176145
 33
0.0
  0
MTEXT
  5
3865
330
3849
100
AcDbEntity
  8
Bemaßung
 62
     0
100
AcDbMText
 10
238.1909886722494
 20
21.06132813176145
 30
0.0
 40
2.5
 41
0.0
 71
     5
 72
     1
  1
58
 73
     1
 44
1.0
  0
POINT
  5
3866
330
3849
100
AcDbEntity
  8
Defpoints
 62
     0
100
AcDbPoint
 10
209.1909736722494
 20
70.79438482558419
 30
0.0
  0
POINT
  5
3867
330
3849
100
AcDbEntity
  8
Defpoints
 62
     0
100
AcDbPoint
 10
267.1910036722493
 20
70.79438482558419
 30
0.0
  0
POINT
  5
3868
330
3849
100
AcDbEntity
  8
Defpoints
 62
     0
100
AcDbPoint
 10
267.1910036722493
 20
19.18632813176145
 30
0.0
  0
ENDBLK
  5
3854
330
3849
100
AcDbEntity
  8
0
100
AcDbBlockEnd
  0
BLOCK
  5
3DAC
330
3D97
100
AcDbEntity
  8
0
100
AcDbBlockBegin
  2
A$C3B0E2FE1
 70
     0
 10
0.0
 20
0.0
 30
0.0
  3
A$C3B0E2FE1
  1

  0
LINE
  5
3D98
330
3D97
100
AcDbEntity
  8
0
  6
Continuous
 62
     3
100
AcDbLine
 10
678.9221700573222
 20
375.0733775002846
 30
0.0
 11
728.9221700573222
 21
375.0733775002846
 31
0.0
  0
LINE
  5
3D99
330
3D97
100
AcDbEntity
  8
0
  6
Continuous
 62
     3
100
AcDbLine
 10
696.6216900573222
 20
352.8737435002847
 30
0.0
 11
711.2216800573222
 21
352.8737435002847
 31
0.0
  0
LINE
  5
3D9A
330
3D97
100
AcDbEntity
  8
0
  6
Continuous
 62
     3
100
AcDbLine
 10
696.6216900573222
 20
343.8737435002847
 30
0.0
 11
711.2216800573222
 21
343.8737435002847
 31
0.0
  0
LINE
  5
3D9B
330
3D97
100
AcDbEntity
  8
0
  6
Continuous
 62
     3
100
AcDbLine
 10
696.6216900573222
 20
342.8737435002847
 30
0.0
 11
711.2216800573222
 21
342.8737435002847
 31
0.0
  0
LINE
  5
3D9C
330
3D97
100
AcDbEntity
  8
0
  6
Continuous
 62
     3
100
AcDbLine
 10
690.4218900573223
 20
359.5733735002846
 30
0.0
 11
717.4218800573222
 21
359.5733735002846
 31
0.0
  0
LINE
  5
3D9D
330
3D97
100
AcDbEntity
  8
0
  6
Continuous
 62
     3
100
AcDbLine
 10
691.2217000573223
 20
357.3737435002847
 30
0.0
 11
716.6216800573222
 21
357.3737435002847
 31
0.0
  0
LINE
  5
3D9E
330
3D97
100
AcDbEntity
  8
0
  6
Continuous
 62
     3
100
AcDbLine
 10
690.4218900573223
 20
359.5733735002846
 30
0.0
 11
690.4218900573223
 21
371.5734765002846
 31
0.0
  0
LINE
  5
3D9F
330
3D97
100
AcDbEntity
  8
0
  6
Continuous
 62
     3
100
AcDbLine
 10
695.9836900573223
 20
344.2420835002847
 30
0.0
 11
695.9836900573223
 21
357.3737435002847
 31
0.0
  0
LINE
  5
3DA0
330
3D97
100
AcDbEntity
  8
0
  6
Continuous
 62
     3
100
AcDbLine
 10
695.9836900573223
 20
353.2420835002846
 30
0.0
 11
696.6216900573222
 21
352.8737435002847
 31
0.0
  0
LINE
  5
3DA1
330
3D97
100
AcDbEntity
  8
0
  6
Continuous
 62
     3
100
AcDbLine
 10
695.9836900573223
 20
344.2420835002847
 30
0.0
 11
696.6216900573222
 21
343.8737435002847
 31
0.0
  0
LINE
  5
3DA2
330
3D97
100
AcDbEntity
  8
0
  6
Continuous
 62
     3
100
AcDbLine
 10
696.6216900573222
 20
342.8737435002847
 30
0.0
 11
696.6216900573222
 21
352.8737435002847
 31
0.0
  0
LINE
  5
3DA3
330
3D97
100
AcDbEntity
  8
0
  6
Continuous
 62
     3
100
AcDbLine
 10
691.2217000573223
 20
357.3737435002847
 30
0.0
 11
691.2217000573223
 21
359.5733735002846
 31
0.0
  0
LINE
  5
3DA4
330
3D97
100
AcDbEntity
  8
0
  6
Continuous
 62
     3
100
AcDbLine
 10
678.9221700573222
 20
371.5734765002846
 30
0.0
 11
678.9221700573222
 21
375.0733775002846
 31
0.0
  0
LINE
  5
3DA5
330
3D97
100
AcDbEntity
  8
0
  6
Continuous
 62
     3
100
AcDbLine
 10
717.4218800573222
 20
359.5733735002846
 30
0.0
 11
717.4218800573222
 21
371.5734765002846
 31
0.0
  0
LINE
  5
3DA6
330
3D97
100
AcDbEntity
  8
0
  6
Continuous
 62
     3
100
AcDbLine
 10
711.8596800573222
 20
344.2420835002847
 30
0.0
 11
711.8596800573222
 21
357.3737435002847
 31
0.0
  0
LINE
  5
3DA7
330
3D97
100
AcDbEntity
  8
0
  6
Continuous
 62
     3
100
AcDbLine
 10
711.8596800573222
 20
353.2420835002846
 30
0.0
 11
711.2216800573222
 21
352.8737435002847
 31
0.0
  0
LINE
  5
3DA8
330
3D97
100
AcDbEntity
  8
0
  6
Continuous
 62
     3
100
AcDbLine
 10
711.8596800573222
 20
344.2420835002847
 30
0.0
 11
711.2216800573222
 21
343.8737435002847
 31
0.0
  0
LINE
  5
3DA9
330
3D97
100
AcDbEntity
  8
0
  6
Continuous
 62
     3
100
AcDbLine
 10
711.2216800573222
 20
342.8737435002847
 30
0.0
 11
711.2216800573222
 21
352.8737435002847
 31
0.0
  0
LINE
  5
3DAA
330
3D97
100
AcDbEntity
  8
0
  6
Continuous
 62
     3
100
AcDbLine
 10
716.6216800573222
 20
357.3737435002847
 30
0.0
 11
716.6216800573222
 21
359.5733735002846
 31
0.0
  0
LINE
  5
3DAB
330
3D97
100
AcDbEntity
  8
0
  6
Continuous
 62
     3
100
AcDbLine
 10
728.9221700573222
 20
371.5734765002846
 30
0.0
 11
728.9221700573222
 21
375.0733775002846
 31
0.0
  0
ENDBLK
  5
3DAD
330
3D97
100
AcDbEntity
  8
0
100
AcDbBlockEnd
  0
BLOCK
  5
3F42
330
3ECF
100
AcDbEntity
  8
0
100
AcDbBlockBegin
  2
A$C48917F5A
 70
     0
 10
0.0
 20
0.0
 30
0.0
  3
A$C48917F5A
  1

  0
LINE
  5
3ED0
330
3ECF
100
AcDbEntity
  8
0
  6
Continuous
 62
     3
100
AcDbLine
 10
718.4221688813827
 20
434.4236034405045
 30
0.0
 11
718.4221688813827
 21
506.9236034405045
 31
0.0
  0
LINE
  5
3ED1
330
3ECF
100
AcDbEntity
  8
0
  6
Continuous
 62
     3
100
AcDbLine
 10
720.4221688813827
 20
399.4236074405045
 30
0.0
 11
720.4221688813827
 21
529.4236034405044
 31
0.0
  0
LINE
  5
3ED2
330
3ECF
100
AcDbEntity
  8
0
  6
Continuous
 62
     3
100
AcDbLine
 10
720.4221688813827
 20
399.4236074405045
 30
0.0
 11
720.4221688813827
 21
529.4236034405044
 31
0.0
  0
LINE
  5
3ED3
330
3ECF
100
AcDbEntity
  8
0
  6
Continuous
 62
     3
100
AcDbLine
 10
720.4221688813827
 20
399.4236074405045
 30
0.0
 11
720.4221688813827
 21
529.4236034405044
 31
0.0
  0
LINE
  5
3ED4
330
3ECF
100
AcDbEntity
  8
0
  6
Continuous
 62
     3
100
AcDbLine
 10
767.4221668813827
 20
376.4236074405045
 30
0.0
 11
767.4221668813827
 21
552.4236074405044
 31
0.0
  0
LINE
  5
3ED5
330
3ECF
100
AcDbEntity
  8
0
  6
Continuous
 62
     3
100
AcDbLine
 10
720.4221688813827
 20
376.4236074405045
 30
0.0
 11
720.4221688813827
 21
441.4236034405044
 31
0.0
  0
LINE
  5
3ED6
330
3ECF
100
AcDbEntity
  8
0
  6
Continuous
 62
     3
100
AcDbLine
 10
711.4221688813827
 20
421.9236034405045
 30
0.0
 11
711.4221688813827
 21
506.9236034405045
 31
0.0
  0
LINE
  5
3ED7
330
3ECF
100
AcDbEntity
  8
0
  6
Continuous
 62
     3
100
AcDbLine
 10
678.9221688813827
 20
406.4236034405045
 30
0.0
 11
678.9221688813827
 21
494.4236034405045
 31
0.0
  0
LINE
  5
3ED8
330
3ECF
100
AcDbEntity
  8
0
  6
Continuous
 62
     3
100
AcDbLine
 10
705.4221688813827
 20
421.9236034405045
 30
0.0
 11
705.4221688813827
 21
506.9236034405045
 31
0.0
  0
LINE
  5
3ED9
330
3ECF
100
AcDbEntity
  8
0
  6
Continuous
 62
     3
100
AcDbLine
 10
680.4221688813827
 20
406.4236034405045
 30
0.0
 11
680.4221688813827
 21
494.4236034405045
 31
0.0
  0
LINE
  5
3EDA
330
3ECF
100
AcDbEntity
  8
0
  6
Continuous
 62
     3
100
AcDbLine
 10
680.4221688813827
 20
406.4236034405045
 30
0.0
 11
680.4221688813827
 21
503.3426294405045
 31
0.0
  0
LINE
  5
3EDB
330
3ECF
100
AcDbEntity
  8
0
  6
Continuous
 62
     3
100
AcDbLine
 10
680.4221688813827
 20
430.0762184405045
 30
0.0
 11
705.4221688813827
 21
430.0762184405045
 31
0.0
  0
LINE
  5
3EDC
330
3ECF
100
AcDbEntity
  8
0
  6
Continuous
 62
     3
100
AcDbLine
 10
683.6221588813828
 20
384.3236014405044
 30
0.0
 11
713.2221688813828
 21
384.3236014405044
 31
0.0
  0
LINE
  5
3EDD
330
3ECF
100
AcDbEntity
  8
0
  6
Continuous
 62
     3
100
AcDbLine
 10
684.6221588813827
 20
383.3236014405045
 30
0.0
 11
712.2221688813827
 21
383.3236014405045
 31
0.0
  0
LINE
  5
3EDE
330
3ECF
100
AcDbEntity
  8
0
  6
Continuous
 62
     3
100
AcDbLine
 10
678.9221688813827
 20
406.4236034405045
 30
0.0
 11
717.9221688813827
 21
406.4236034405045
 31
0.0
  0
LINE
  5
3EDF
330
3ECF
100
AcDbEntity
  8
0
  6
Continuous
 62
     3
100
AcDbLine
 10
683.6221588813828
 20
399.6236044405045
 30
0.0
 11
713.2221688813828
 21
399.6236044405045
 31
0.0
  0
LINE
  5
3EE0
330
3ECF
100
AcDbEntity
  8
0
  6
Continuous
 62
     3
100
AcDbLine
 10
679.3721588813828
 20
405.4236034405045
 30
0.0
 11
717.9221688813827
 21
405.4236034405045
 31
0.0
  0
LINE
  5
3EE1
330
3ECF
100
AcDbEntity
  8
0
  6
Continuous
 62
     3
100
AcDbLine
 10
679.3721588813828
 20
402.6236044405045
 30
0.0
 11
717.4721688813828
 21
402.6236044405045
 31
0.0
  0
LINE
  5
3EE2
330
3ECF
100
AcDbEntity
  8
0
  6
Continuous
 62
     3
100
AcDbLine
 10
684.6221588813827
 20
383.3236014405045
 30
0.0
 11
684.6221588813827
 21
399.6236044405045
 31
0.0
  0
LINE
  5
3EE3
330
3ECF
100
AcDbEntity
  8
0
  6
Continuous
 62
     3
100
AcDbLine
 10
683.6221588813828
 20
384.3236014405044
 30
0.0
 11
683.6221588813828
 21
402.6236044405045
 31
0.0
  0
LINE
  5
3EE4
330
3ECF
100
AcDbEntity
  8
0
  6
CENTER
 62
     4
100
AcDbLine
 10
698.4221688813827
 20
376.5808494405045
 30
0.0
 11
698.4221688813827
 21
409.8827944405045
 31
0.0
  0
LINE
  5
3EE5
330
3ECF
100
AcDbEntity
  8
0
  6
Continuous
 62
     3
100
AcDbLine
 10
683.6221588813828
 20
384.3236014405044
 30
0.0
 11
684.6221588813827
 21
383.3236014405045
 31
0.0
  0
LINE
  5
3EE6
330
3ECF
100
AcDbEntity
  8
0
  6
Continuous
 62
     3
100
AcDbLine
 10
679.3721588813828
 20
402.6236044405045
 30
0.0
 11
679.3721588813828
 21
406.4236034405045
 31
0.0
  0
LINE
  5
3EE7
330
3ECF
100
AcDbEntity
  8
0
  6
Continuous
 62
     3
100
AcDbLine
 10
678.9221688813827
 20
430.9386334405045
 30
0.0
 11
680.4221688813827
 21
430.0762184405045
 31
0.0
  0
LINE
  5
3EE8
330
3ECF
100
AcDbEntity
  8
0
  6
CENTER
 62
     4
100
AcDbLine
 10
747.9221668813827
 20
342.8737434405045
 30
0.0
 11
747.9221668813827
 21
376.4236074405045
 31
0.0
  0
LINE
  5
3EE9
330
3ECF
100
AcDbEntity
  8
0
  6
Continuous
 62
     3
100
AcDbLine
 10
712.2221688813827
 20
383.3236014405045
 30
0.0
 11
712.2221688813827
 21
399.6236044405045
 31
0.0
  0
LINE
  5
3EEA
330
3ECF
100
AcDbEntity
  8
0
  6
Continuous
 62
     3
100
AcDbLine
 10
713.2221688813828
 20
384.3236014405044
 30
0.0
 11
713.2221688813828
 21
402.6236044405045
 31
0.0
  0
LINE
  5
3EEB
330
3ECF
100
AcDbEntity
  8
0
  6
Continuous
 62
     3
100
AcDbLine
 10
735.2219688813827
 20
362.2239734405045
 30
0.0
 11
760.6219728813828
 21
362.2239734405045
 31
0.0
  0
LINE
  5
3EEC
330
3ECF
100
AcDbEntity
  8
0
  6
Continuous
 62
     3
100
AcDbLine
 10
740.6219688813828
 20
357.7239734405045
 30
0.0
 11
755.2219708813827
 21
357.7239734405045
 31
0.0
  0
LINE
  5
3EED
330
3ECF
100
AcDbEntity
  8
0
  6
Continuous
 62
     3
100
AcDbLine
 10
734.4221688813827
 20
364.4236034405045
 30
0.0
 11
761.4221668813827
 21
364.4236034405045
 31
0.0
  0
LINE
  5
3EEE
330
3ECF
100
AcDbEntity
  8
0
  6
Continuous
 62
     3
100
AcDbLine
 10
740.6219688813828
 20
347.7239734405045
 30
0.0
 11
755.2219708813827
 21
347.7239734405045
 31
0.0
  0
LINE
  5
3EEF
330
3ECF
100
AcDbEntity
  8
0
  6
Continuous
 62
     3
100
AcDbLine
 10
740.6219688813828
 20
348.7239734405045
 30
0.0
 11
755.2219708813827
 21
348.7239734405045
 31
0.0
  0
LINE
  5
3EF0
330
3ECF
100
AcDbEntity
  8
0
  6
Continuous
 62
     3
100
AcDbLine
 10
734.4221688813827
 20
364.4236034405045
 30
0.0
 11
734.4221688813827
 21
376.4236074405045
 31
0.0
  0
LINE
  5
3EF1
330
3ECF
100
AcDbEntity
  8
0
  6
Continuous
 62
     3
100
AcDbLine
 10
739.9839688813828
 20
349.0923134405045
 30
0.0
 11
739.9839688813828
 21
362.2239734405045
 31
0.0
  0
LINE
  5
3EF2
330
3ECF
100
AcDbEntity
  8
0
  6
Continuous
 62
     3
100
AcDbLine
 10
739.9839688813828
 20
358.0923134405045
 30
0.0
 11
740.6219688813828
 21
357.7239734405045
 31
0.0
  0
LINE
  5
3EF3
330
3ECF
100
AcDbEntity
  8
0
  6
Continuous
 62
     3
100
AcDbLine
 10
739.9839688813828
 20
349.0923134405045
 30
0.0
 11
740.6219688813828
 21
348.7239734405045
 31
0.0
  0
LINE
  5
3EF4
330
3ECF
100
AcDbEntity
  8
0
  6
Continuous
 62
     3
100
AcDbLine
 10
740.6219688813828
 20
347.7239734405045
 30
0.0
 11
740.6219688813828
 21
357.7239734405045
 31
0.0
  0
LINE
  5
3EF5
330
3ECF
100
AcDbEntity
  8
0
  6
Continuous
 62
     3
100
AcDbLine
 10
735.2219688813827
 20
362.2239734405045
 30
0.0
 11
735.2219688813827
 21
364.4236034405045
 31
0.0
  0
LINE
  5
3EF6
330
3ECF
100
AcDbEntity
  8
0
  6
CENTER
 62
     4
100
AcDbLine
 10
719.4061688813827
 20
385.1822824405045
 30
0.0
 11
733.2732488813827
 21
385.1822824405045
 31
0.0
  0
LINE
  5
3EF7
330
3ECF
100
AcDbEntity
  8
0
  6
Continuous
 62
     3
100
AcDbLine
 10
720.4221688813827
 20
393.2236024405044
 30
0.0
 11
731.4221688813827
 21
393.2236024405044
 31
0.0
  0
LINE
  5
3EF8
330
3ECF
100
AcDbEntity
  8
0
  6
Continuous
 62
     3
100
AcDbLine
 10
713.2221688813828
 20
384.3236014405044
 30
0.0
 11
712.2221688813827
 21
383.3236014405045
 31
0.0
  0
LINE
  5
3EF9
330
3ECF
100
AcDbEntity
  8
0
  6
Continuous
 62
     3
100
AcDbLine
 10
730.4221688813827
 20
377.4822774405045
 30
0.0
 11
730.4221688813827
 21
392.8822794405046
 31
0.0
  0
LINE
  5
3EFA
330
3ECF
100
AcDbEntity
  8
0
  6
Continuous
 62
     3
100
AcDbLine
 10
722.4221688813827
 20
378.6822824405045
 30
0.0
 11
722.4221688813827
 21
391.6822824405045
 31
0.0
  0
LINE
  5
3EFB
330
3ECF
100
AcDbEntity
  8
0
  6
Continuous
 62
     3
100
AcDbLine
 10
731.4221688813827
 20
376.4236074405045
 30
0.0
 11
731.4221688813827
 21
393.2236024405044
 31
0.0
  0
LINE
  5
3EFC
330
3ECF
100
AcDbEntity
  8
0
  6
Continuous
 62
     3
100
AcDbLine
 10
730.4221688813827
 20
377.4822774405045
 30
0.0
 11
731.4221688813827
 21
377.4822774405045
 31
0.0
  0
LINE
  5
3EFD
330
3ECF
100
AcDbEntity
  8
0
  6
Continuous
 62
     3
100
AcDbLine
 10
730.4221688813827
 20
378.6822824405045
 30
0.0
 11
722.4221688813827
 21
378.6822824405045
 31
0.0
  0
LINE
  5
3EFE
330
3ECF
100
AcDbEntity
  8
0
  6
Continuous
 62
     3
100
AcDbLine
 10
731.4221688813827
 20
392.8822794405046
 30
0.0
 11
730.4221688813827
 21
392.8822794405046
 31
0.0
  0
LINE
  5
3EFF
330
3ECF
100
AcDbEntity
  8
0
  6
Continuous
 62
     3
100
AcDbLine
 10
730.4221688813827
 20
391.6822824405045
 30
0.0
 11
722.4221688813827
 21
391.6822824405045
 31
0.0
  0
LINE
  5
3F00
330
3ECF
100
AcDbEntity
  8
0
  6
Continuous
 62
     3
100
AcDbLine
 10
761.4221668813827
 20
364.4236034405045
 30
0.0
 11
761.4221668813827
 21
376.4236074405045
 31
0.0
  0
LINE
  5
3F01
330
3ECF
100
AcDbEntity
  8
0
  6
Continuous
 62
     3
100
AcDbLine
 10
755.8599718813828
 20
349.0923134405045
 30
0.0
 11
755.8599718813828
 21
362.2239734405045
 31
0.0
  0
LINE
  5
3F02
330
3ECF
100
AcDbEntity
  8
0
  6
Continuous
 62
     3
100
AcDbLine
 10
755.8599718813828
 20
358.0923134405045
 30
0.0
 11
755.2219708813827
 21
357.7239734405045
 31
0.0
  0
LINE
  5
3F03
330
3ECF
100
AcDbEntity
  8
0
  6
Continuous
 62
     3
100
AcDbLine
 10
755.8599718813828
 20
349.0923134405045
 30
0.0
 11
755.2219708813827
 21
348.7239734405045
 31
0.0
  0
LINE
  5
3F04
330
3ECF
100
AcDbEntity
  8
0
  6
Continuous
 62
     3
100
AcDbLine
 10
755.2219708813827
 20
347.7239734405045
 30
0.0
 11
755.2219708813827
 21
357.7239734405045
 31
0.0
  0
LINE
  5
3F05
330
3ECF
100
AcDbEntity
  8
0
  6
Continuous
 62
     3
100
AcDbLine
 10
760.6219728813828
 20
362.2239734405045
 30
0.0
 11
760.6219728813828
 21
364.4236034405045
 31
0.0
  0
LINE
  5
3F06
330
3ECF
100
AcDbEntity
  8
0
  6
Continuous
 62
     3
100
AcDbLine
 10
717.9221688813827
 20
405.4236034405045
 30
0.0
 11
717.9221688813827
 21
421.9236034405045
 31
0.0
  0
LINE
  5
3F07
330
3ECF
100
AcDbEntity
  8
0
  6
Continuous
 62
     3
100
AcDbLine
 10
717.4721688813828
 20
402.6236044405045
 30
0.0
 11
717.4721688813828
 21
405.4236034405045
 31
0.0
  0
LINE
  5
3F08
330
3ECF
100
AcDbEntity
  8
0
  6
Continuous
 62
     3
100
AcDbLine
 10
712.9221688813827
 20
424.4236034405044
 30
0.0
 11
712.9221688813827
 21
434.4236034405045
 31
0.0
  0
LINE
  5
3F09
330
3ECF
100
AcDbEntity
  8
0
  6
Continuous
 62
     3
100
AcDbLine
 10
710.4221688813827
 20
425.3891764405045
 30
0.0
 11
710.4221688813827
 21
429.7643784405045
 31
0.0
  0
LINE
  5
3F0A
330
3ECF
100
AcDbEntity
  8
0
  6
Continuous
 62
     3
100
AcDbLine
 10
706.4221688813827
 20
425.9891784405044
 30
0.0
 11
706.4221688813827
 21
429.7643784405045
 31
0.0
  0
LINE
  5
3F0B
330
3ECF
100
AcDbEntity
  8
0
  6
Continuous
 62
     3
100
AcDbLine
 10
718.9221688813827
 20
423.3236054405044
 30
0.0
 11
718.9221688813827
 21
435.5236054405045
 31
0.0
  0
LINE
  5
3F0C
330
3ECF
100
AcDbEntity
  8
0
  6
Continuous
 62
     3
100
AcDbLine
 10
711.4221688813827
 20
421.9236034405045
 30
0.0
 11
720.4221688813827
 21
421.9236034405045
 31
0.0
  0
LINE
  5
3F0D
330
3ECF
100
AcDbEntity
  8
0
  6
Continuous
 62
     3
100
AcDbLine
 10
710.4221688813827
 20
425.3891764405045
 30
0.0
 11
711.4221688813827
 21
425.3891764405045
 31
0.0
  0
LINE
  5
3F0E
330
3ECF
100
AcDbEntity
  8
0
  6
Continuous
 62
     3
100
AcDbLine
 10
710.4221688813827
 20
425.9891784405044
 30
0.0
 11
706.4221688813827
 21
425.9891784405044
 31
0.0
  0
LINE
  5
3F0F
330
3ECF
100
AcDbEntity
  8
0
  6
Continuous
 62
     3
100
AcDbLine
 10
705.4221688813827
 20
421.9236034405045
 30
0.0
 11
711.4221688813827
 21
421.9236034405045
 31
0.0
  0
LINE
  5
3F10
330
3ECF
100
AcDbEntity
  8
0
  6
Continuous
 62
     3
100
AcDbLine
 10
705.4221688813827
 20
423.4004174405044
 30
0.0
 11
711.4221688813827
 21
423.4004174405044
 31
0.0
  0
LINE
  5
3F11
330
3ECF
100
AcDbEntity
  8
0
  6
Continuous
 62
     3
100
AcDbLine
 10
718.9221688813827
 20
424.4236034405044
 30
0.0
 11
712.9221688813827
 21
424.4236034405044
 31
0.0
  0
LINE
  5
3F12
330
3ECF
100
AcDbEntity
  8
0
  6
Continuous
 62
     3
100
AcDbLine
 10
720.4221688813827
 20
423.3236054405044
 30
0.0
 11
718.9221688813827
 21
423.3236054405044
 31
0.0
  0
LINE
  5
3F13
330
3ECF
100
AcDbEntity
  8
0
  6
Continuous
 62
     3
100
AcDbLine
 10
718.4221688813827
 20
421.9236034405045
 30
0.0
 11
718.4221688813827
 21
424.4236034405044
 31
0.0
  0
LINE
  5
3F14
330
3ECF
100
AcDbEntity
  8
0
  6
Continuous
 62
     3
100
AcDbLine
 10
705.4221688813827
 20
436.9201344405045
 30
0.0
 11
718.4221688813827
 21
436.9201344405045
 31
0.0
  0
LINE
  5
3F15
330
3ECF
100
AcDbEntity
  8
0
  6
CENTER
 62
     4
100
AcDbLine
 10
709.9327388813827
 20
429.4236034405044
 30
0.0
 11
719.1196188813828
 21
429.4236034405044
 31
0.0
  0
LINE
  5
3F16
330
3ECF
100
AcDbEntity
  8
0
  6
CENTER
 62
     4
100
AcDbLine
 10
704.6226688813828
 20
429.2391784405045
 30
0.0
 11
712.4335988813827
 21
429.2391784405045
 31
0.0
  0
LINE
  5
3F17
330
3ECF
100
AcDbEntity
  8
0
  6
Continuous
 62
     3
100
AcDbLine
 10
705.4221688813827
 20
429.7643784405045
 30
0.0
 11
711.4221688813827
 21
429.7643784405045
 31
0.0
  0
LINE
  5
3F18
330
3ECF
100
AcDbEntity
  8
0
  6
Continuous
 62
     3
100
AcDbLine
 10
720.4221688813827
 20
435.5236054405045
 30
0.0
 11
718.9221688813827
 21
435.5236054405045
 31
0.0
  0
LINE
  5
3F19
330
3ECF
100
AcDbEntity
  8
0
  6
Continuous
 62
     3
100
AcDbLine
 10
712.9221688813827
 20
434.4236034405045
 30
0.0
 11
718.9221688813827
 21
434.4236034405045
 31
0.0
  0
LINE
  5
3F1A
330
3ECF
100
AcDbEntity
  8
0
  6
Continuous
 62
     3
100
AcDbLine
 10
681.0662888813827
 20
503.6078874405045
 30
0.0
 11
705.4221688813827
 21
504.4584124405044
 31
0.0
  0
ARC
  5
3F1B
330
3ECF
100
AcDbEntity
  8
0
  6
Continuous
 62
     3
100
AcDbCircle
 10
708.9221688813827
 20
494.4236034405045
 30
0.0
 40
30.0
100
AcDbArc
 50
163.6062000000026
 51
180.000010000001
  0
ARC
  5
3F1C
330
3ECF
100
AcDbEntity
  8
0
  6
Continuous
 62
     3
100
AcDbCircle
 10
681.1011788813828
 20
502.6084984405044
 30
0.0
 40
1.0
100
AcDbArc
 50
91.99999800000055
 51
163.6062000000026
  0
LINE
  5
3F1D
330
3ECF
100
AcDbEntity
  8
0
  6
Continuous
 62
     3
100
AcDbLine
 10
712.9221688813827
 20
529.4236034405044
 30
0.0
 11
712.9221688813827
 21
539.4236074405045
 31
0.0
  0
LINE
  5
3F1E
330
3ECF
100
AcDbEntity
  8
0
  6
Continuous
 62
     3
100
AcDbLine
 10
718.9221688813827
 20
528.3236054405044
 30
0.0
 11
718.9221688813827
 21
540.5236054405045
 31
0.0
  0
LINE
  5
3F1F
330
3ECF
100
AcDbEntity
  8
0
  6
Continuous
 62
     3
100
AcDbLine
 10
720.4221688813827
 20
487.4236034405044
 30
0.0
 11
720.4221688813827
 21
552.4236074405044
 31
0.0
  0
LINE
  5
3F20
330
3ECF
100
AcDbEntity
  8
0
  6
Continuous
 62
     3
100
AcDbLine
 10
767.4221668813827
 20
487.4236034405044
 30
0.0
 11
767.4221668813827
 21
552.4236074405044
 31
0.0
  0
LINE
  5
3F21
330
3ECF
100
AcDbEntity
  8
0
  6
Continuous
 62
     3
100
AcDbLine
 10
722.4221688813827
 20
503.6736034405045
 30
0.0
 11
722.4221688813827
 21
516.6736034405045
 31
0.0
  0
LINE
  5
3F22
330
3ECF
100
AcDbEntity
  8
0
  6
Continuous
 62
     3
100
AcDbLine
 10
730.4221688813827
 20
502.4736024405044
 30
0.0
 11
730.4221688813827
 21
517.8736044405045
 31
0.0
  0
LINE
  5
3F23
330
3ECF
100
AcDbEntity
  8
0
  6
Continuous
 62
     3
100
AcDbLine
 10
731.4221688813827
 20
502.2236024405044
 30
0.0
 11
731.4221688813827
 21
522.4237064405044
 31
0.0
  0
LINE
  5
3F24
330
3ECF
100
AcDbEntity
  8
0
  6
Continuous
 62
     3
100
AcDbLine
 10
720.4221688813827
 20
502.2236024405044
 30
0.0
 11
731.4221688813827
 21
502.2236024405044
 31
0.0
  0
LINE
  5
3F25
330
3ECF
100
AcDbEntity
  8
0
  6
CENTER
 62
     4
100
AcDbLine
 10
719.8718688813828
 20
510.1736034405044
 30
0.0
 11
734.8628088813828
 21
510.1736034405044
 31
0.0
  0
LINE
  5
3F26
330
3ECF
100
AcDbEntity
  8
0
  6
Continuous
 62
     3
100
AcDbLine
 10
705.4221688813827
 20
491.9272774405045
 30
0.0
 11
718.4221688813827
 21
491.9272774405045
 31
0.0
  0
LINE
  5
3F27
330
3ECF
100
AcDbEntity
  8
0
  6
CENTER
 62
     4
100
AcDbLine
 10
703.5521988813827
 20
494.0369574405044
 30
0.0
 11
712.9915988813827
 21
494.0369574405044
 31
0.0
  0
LINE
  5
3F28
330
3ECF
100
AcDbEntity
  8
0
  6
Continuous
 62
     3
100
AcDbLine
 10
711.4221688813827
 20
497.8869554405044
 30
0.0
 11
710.4221688813827
 21
497.8869554405044
 31
0.0
  0
LINE
  5
3F29
330
3ECF
100
AcDbEntity
  8
0
  6
Continuous
 62
     3
100
AcDbLine
 10
710.4221688813827
 20
493.4039904405044
 30
0.0
 11
710.4221688813827
 21
497.8869554405044
 31
0.0
  0
LINE
  5
3F2A
330
3ECF
100
AcDbEntity
  8
0
  6
Continuous
 62
     3
100
AcDbLine
 10
706.4221688813827
 20
493.4039904405044
 30
0.0
 11
706.4221688813827
 21
497.2869574405044
 31
0.0
  0
LINE
  5
3F2B
330
3ECF
100
AcDbEntity
  8
0
  6
Continuous
 62
     3
100
AcDbLine
 10
706.4221688813827
 20
497.2869574405044
 30
0.0
 11
710.4221688813827
 21
497.2869574405044
 31
0.0
  0
LINE
  5
3F2C
330
3ECF
100
AcDbEntity
  8
0
  6
Continuous
 62
     3
100
AcDbLine
 10
705.4221688813827
 20
493.4039904405044
 30
0.0
 11
711.4221688813827
 21
493.4039904405044
 31
0.0
  0
LINE
  5
3F2D
330
3ECF
100
AcDbEntity
  8
0
  6
Continuous
 62
     3
100
AcDbLine
 10
705.4221688813827
 20
506.9236034405045
 30
0.0
 11
720.4221688813827
 21
506.9236034405045
 31
0.0
  0
LINE
  5
3F2E
330
3ECF
100
AcDbEntity
  8
0
  6
Continuous
 62
     3
100
AcDbLine
 10
705.4221688813827
 20
504.4236034405044
 30
0.0
 11
705.4221688813827
 21
506.9236034405045
 31
0.0
  0
LINE
  5
3F2F
330
3ECF
100
AcDbEntity
  8
0
  6
Continuous
 62
     3
100
AcDbLine
 10
705.4221688813827
 20
499.7679504405046
 30
0.0
 11
711.4221688813827
 21
499.7679504405046
 31
0.0
  0
LINE
  5
3F30
330
3ECF
100
AcDbEntity
  8
0
  6
Continuous
 62
     3
100
AcDbLine
 10
730.4221688813827
 20
502.4736024405044
 30
0.0
 11
731.4221688813827
 21
502.4736024405044
 31
0.0
  0
LINE
  5
3F31
330
3ECF
100
AcDbEntity
  8
0
  6
Continuous
 62
     3
100
AcDbLine
 10
730.4221688813827
 20
503.6736034405045
 30
0.0
 11
722.4221688813827
 21
503.6736034405045
 31
0.0
  0
LINE
  5
3F32
330
3ECF
100
AcDbEntity
  8
0
  6
CENTER
 62
     4
100
AcDbLine
 10
711.4836088813827
 20
534.4236074405045
 30
0.0
 11
721.7416288813828
 21
534.4236074405045
 31
0.0
  0
LINE
  5
3F33
330
3ECF
100
AcDbEntity
  8
0
  6
Continuous
 62
     3
100
AcDbLine
 10
712.9221688813827
 20
529.4236034405044
 30
0.0
 11
718.9221688813827
 21
529.4236034405044
 31
0.0
  0
LINE
  5
3F34
330
3ECF
100
AcDbEntity
  8
0
  6
Continuous
 62
     3
100
AcDbLine
 10
720.4221688813827
 20
528.3236054405044
 30
0.0
 11
718.9221688813827
 21
528.3236054405044
 31
0.0
  0
LINE
  5
3F35
330
3ECF
100
AcDbEntity
  8
0
  6
Continuous
 62
     3
100
AcDbLine
 10
731.4221688813827
 20
517.8736044405045
 30
0.0
 11
730.4221688813827
 21
517.8736044405045
 31
0.0
  0
LINE
  5
3F36
330
3ECF
100
AcDbEntity
  8
0
  6
Continuous
 62
     3
100
AcDbLine
 10
730.4221688813827
 20
516.6736034405045
 30
0.0
 11
722.4221688813827
 21
516.6736034405045
 31
0.0
  0
LINE
  5
3F37
330
3ECF
100
AcDbEntity
  8
0
  6
Continuous
 62
     3
100
AcDbLine
 10
718.9221688813827
 20
539.4236074405045
 30
0.0
 11
712.9221688813827
 21
539.4236074405045
 31
0.0
  0
LINE
  5
3F38
330
3ECF
100
AcDbEntity
  8
0
  6
Continuous
 62
     3
100
AcDbLine
 10
720.4221688813827
 20
540.5236054405045
 30
0.0
 11
718.9221688813827
 21
540.5236054405045
 31
0.0
  0
LINE
  5
3F39
330
3ECF
100
AcDbEntity
  8
0
  6
Continuous
 62
     3
100
AcDbLine
 10
766.4221668813827
 20
550.1649254405045
 30
0.0
 11
758.4221668813827
 21
550.1649254405045
 31
0.0
  0
LINE
  5
3F3A
330
3ECF
100
AcDbEntity
  8
0
  6
CENTER
 62
     4
100
AcDbLine
 10
755.4533708813828
 20
543.6649254405044
 30
0.0
 11
770.4443148813827
 21
543.6649254405044
 31
0.0
  0
LINE
  5
3F3B
330
3ECF
100
AcDbEntity
  8
0
  6
Continuous
 62
     3
100
AcDbLine
 10
766.4221668813827
 20
537.1649254405045
 30
0.0
 11
758.4221668813827
 21
537.1649254405045
 31
0.0
  0
LINE
  5
3F3C
330
3ECF
100
AcDbEntity
  8
0
  6
Continuous
 62
     3
100
AcDbLine
 10
767.4221668813827
 20
535.6236044405045
 30
0.0
 11
756.4221668813827
 21
535.6236044405045
 31
0.0
  0
LINE
  5
3F3D
330
3ECF
100
AcDbEntity
  8
0
  6
Continuous
 62
     3
100
AcDbLine
 10
758.4221668813827
 20
537.1649254405045
 30
0.0
 11
758.4221668813827
 21
550.1649254405045
 31
0.0
  0
LINE
  5
3F3E
330
3ECF
100
AcDbEntity
  8
0
  6
Continuous
 62
     3
100
AcDbLine
 10
756.4221668813827
 20
535.6236044405045
 30
0.0
 11
756.4221668813827
 21
552.4236074405044
 31
0.0
  0
LINE
  5
3F3F
330
3ECF
100
AcDbEntity
  8
0
  6
Continuous
 62
     3
100
AcDbLine
 10
766.4221668813827
 20
535.9649284405045
 30
0.0
 11
766.4221668813827
 21
551.3649294405045
 31
0.0
  0
LINE
  5
3F40
330
3ECF
100
AcDbEntity
  8
0
  6
Continuous
 62
     3
100
AcDbLine
 10
766.4221668813827
 20
535.9649284405045
 30
0.0
 11
767.4221668813827
 21
535.9649284405045
 31
0.0
  0
LINE
  5
3F41
330
3ECF
100
AcDbEntity
  8
0
  6
Continuous
 62
     3
100
AcDbLine
 10
767.4221668813827
 20
551.3649294405045
 30
0.0
 11
766.4221668813827
 21
551.3649294405045
 31
0.0
  0
ENDBLK
  5
3F43
330
3ECF
100
AcDbEntity
  8
0
100
AcDbBlockEnd
  0
BLOCK
  5
3FB9
330
3F46
100
AcDbEntity
  8
0
100
AcDbBlockBegin
  2
A$C0F5F1329
 70
     0
 10
0.0
 20
0.0
 30
0.0
  3
A$C0F5F1329
  1

  0
LINE
  5
3F47
330
3F46
100
AcDbEntity
  8
0
  6
Continuous
 62
     3
100
AcDbLine
 10
718.4221688813827
 20
434.4236034405045
 30
0.0
 11
718.4221688813827
 21
506.9236034405045
 31
0.0
  0
LINE
  5
3F48
330
3F46
100
AcDbEntity
  8
0
  6
Continuous
 62
     3
100
AcDbLine
 10
720.4221688813827
 20
399.4236074405045
 30
0.0
 11
720.4221688813827
 21
529.4236034405044
 31
0.0
  0
LINE
  5
3F49
330
3F46
100
AcDbEntity
  8
0
  6
Continuous
 62
     3
100
AcDbLine
 10
720.4221688813827
 20
399.4236074405045
 30
0.0
 11
720.4221688813827
 21
529.4236034405044
 31
0.0
  0
LINE
  5
3F4A
330
3F46
100
AcDbEntity
  8
0
  6
Continuous
 62
     3
100
AcDbLine
 10
720.4221688813827
 20
399.4236074405045
 30
0.0
 11
720.4221688813827
 21
529.4236034405044
 31
0.0
  0
LINE
  5
3F4B
330
3F46
100
AcDbEntity
  8
0
  6
Continuous
 62
     3
100
AcDbLine
 10
767.4221668813827
 20
376.4236074405045
 30
0.0
 11
767.4221668813827
 21
552.4236074405044
 31
0.0
  0
LINE
  5
3F4C
330
3F46
100
AcDbEntity
  8
0
  6
Continuous
 62
     3
100
AcDbLine
 10
720.4221688813827
 20
376.4236074405045
 30
0.0
 11
720.4221688813827
 21
441.4236034405044
 31
0.0
  0
LINE
  5
3F4D
330
3F46
100
AcDbEntity
  8
0
  6
Continuous
 62
     3
100
AcDbLine
 10
711.4221688813827
 20
421.9236034405045
 30
0.0
 11
711.4221688813827
 21
506.9236034405045
 31
0.0
  0
LINE
  5
3F4E
330
3F46
100
AcDbEntity
  8
0
  6
Continuous
 62
     3
100
AcDbLine
 10
678.9221688813827
 20
406.4236034405045
 30
0.0
 11
678.9221688813827
 21
494.4236034405045
 31
0.0
  0
LINE
  5
3F4F
330
3F46
100
AcDbEntity
  8
0
  6
Continuous
 62
     3
100
AcDbLine
 10
705.4221688813827
 20
421.9236034405045
 30
0.0
 11
705.4221688813827
 21
506.9236034405045
 31
0.0
  0
LINE
  5
3F50
330
3F46
100
AcDbEntity
  8
0
  6
Continuous
 62
     3
100
AcDbLine
 10
680.4221688813827
 20
406.4236034405045
 30
0.0
 11
680.4221688813827
 21
494.4236034405045
 31
0.0
  0
LINE
  5
3F51
330
3F46
100
AcDbEntity
  8
0
  6
Continuous
 62
     3
100
AcDbLine
 10
680.4221688813827
 20
406.4236034405045
 30
0.0
 11
680.4221688813827
 21
503.3426294405045
 31
0.0
  0
LINE
  5
3F52
330
3F46
100
AcDbEntity
  8
0
  6
Continuous
 62
     3
100
AcDbLine
 10
680.4221688813827
 20
430.0762184405045
 30
0.0
 11
705.4221688813827
 21
430.0762184405045
 31
0.0
  0
LINE
  5
3F53
330
3F46
100
AcDbEntity
  8
0
  6
Continuous
 62
     3
100
AcDbLine
 10
683.6221588813828
 20
384.3236014405044
 30
0.0
 11
713.2221688813828
 21
384.3236014405044
 31
0.0
  0
LINE
  5
3F54
330
3F46
100
AcDbEntity
  8
0
  6
Continuous
 62
     3
100
AcDbLine
 10
684.6221588813827
 20
383.3236014405045
 30
0.0
 11
712.2221688813827
 21
383.3236014405045
 31
0.0
  0
LINE
  5
3F55
330
3F46
100
AcDbEntity
  8
0
  6
Continuous
 62
     3
100
AcDbLine
 10
678.9221688813827
 20
406.4236034405045
 30
0.0
 11
717.9221688813827
 21
406.4236034405045
 31
0.0
  0
LINE
  5
3F56
330
3F46
100
AcDbEntity
  8
0
  6
Continuous
 62
     3
100
AcDbLine
 10
683.6221588813828
 20
399.6236044405045
 30
0.0
 11
713.2221688813828
 21
399.6236044405045
 31
0.0
  0
LINE
  5
3F57
330
3F46
100
AcDbEntity
  8
0
  6
Continuous
 62
     3
100
AcDbLine
 10
679.3721588813828
 20
405.4236034405045
 30
0.0
 11
717.9221688813827
 21
405.4236034405045
 31
0.0
  0
LINE
  5
3F58
330
3F46
100
AcDbEntity
  8
0
  6
Continuous
 62
     3
100
AcDbLine
 10
679.3721588813828
 20
402.6236044405045
 30
0.0
 11
717.4721688813828
 21
402.6236044405045
 31
0.0
  0
LINE
  5
3F59
330
3F46
100
AcDbEntity
  8
0
  6
Continuous
 62
     3
100
AcDbLine
 10
684.6221588813827
 20
383.3236014405045
 30
0.0
 11
684.6221588813827
 21
399.6236044405045
 31
0.0
  0
LINE
  5
3F5A
330
3F46
100
AcDbEntity
  8
0
  6
Continuous
 62
     3
100
AcDbLine
 10
683.6221588813828
 20
384.3236014405044
 30
0.0
 11
683.6221588813828
 21
402.6236044405045
 31
0.0
  0
LINE
  5
3F5B
330
3F46
100
AcDbEntity
  8
0
  6
CENTER
 62
     4
100
AcDbLine
 10
698.4221688813827
 20
376.5808494405045
 30
0.0
 11
698.4221688813827
 21
409.8827944405045
 31
0.0
  0
LINE
  5
3F5C
330
3F46
100
AcDbEntity
  8
0
  6
Continuous
 62
     3
100
AcDbLine
 10
683.6221588813828
 20
384.3236014405044
 30
0.0
 11
684.6221588813827
 21
383.3236014405045
 31
0.0
  0
LINE
  5
3F5D
330
3F46
100
AcDbEntity
  8
0
  6
Continuous
 62
     3
100
AcDbLine
 10
679.3721588813828
 20
402.6236044405045
 30
0.0
 11
679.3721588813828
 21
406.4236034405045
 31
0.0
  0
LINE
  5
3F5E
330
3F46
100
AcDbEntity
  8
0
  6
Continuous
 62
     3
100
AcDbLine
 10
678.9221688813827
 20
430.9386334405045
 30
0.0
 11
680.4221688813827
 21
430.0762184405045
 31
0.0
  0
LINE
  5
3F5F
330
3F46
100
AcDbEntity
  8
0
  6
CENTER
 62
     4
100
AcDbLine
 10
747.9221668813827
 20
342.8737434405045
 30
0.0
 11
747.9221668813827
 21
376.4236074405045
 31
0.0
  0
LINE
  5
3F60
330
3F46
100
AcDbEntity
  8
0
  6
Continuous
 62
     3
100
AcDbLine
 10
712.2221688813827
 20
383.3236014405045
 30
0.0
 11
712.2221688813827
 21
399.6236044405045
 31
0.0
  0
LINE
  5
3F61
330
3F46
100
AcDbEntity
  8
0
  6
Continuous
 62
     3
100
AcDbLine
 10
713.2221688813828
 20
384.3236014405044
 30
0.0
 11
713.2221688813828
 21
402.6236044405045
 31
0.0
  0
LINE
  5
3F62
330
3F46
100
AcDbEntity
  8
0
  6
Continuous
 62
     3
100
AcDbLine
 10
735.2219688813827
 20
362.2239734405045
 30
0.0
 11
760.6219728813828
 21
362.2239734405045
 31
0.0
  0
LINE
  5
3F63
330
3F46
100
AcDbEntity
  8
0
  6
Continuous
 62
     3
100
AcDbLine
 10
740.6219688813828
 20
357.7239734405045
 30
0.0
 11
755.2219708813827
 21
357.7239734405045
 31
0.0
  0
LINE
  5
3F64
330
3F46
100
AcDbEntity
  8
0
  6
Continuous
 62
     3
100
AcDbLine
 10
734.4221688813827
 20
364.4236034405045
 30
0.0
 11
761.4221668813827
 21
364.4236034405045
 31
0.0
  0
LINE
  5
3F65
330
3F46
100
AcDbEntity
  8
0
  6
Continuous
 62
     3
100
AcDbLine
 10
740.6219688813828
 20
347.7239734405045
 30
0.0
 11
755.2219708813827
 21
347.7239734405045
 31
0.0
  0
LINE
  5
3F66
330
3F46
100
AcDbEntity
  8
0
  6
Continuous
 62
     3
100
AcDbLine
 10
740.6219688813828
 20
348.7239734405045
 30
0.0
 11
755.2219708813827
 21
348.7239734405045
 31
0.0
  0
LINE
  5
3F67
330
3F46
100
AcDbEntity
  8
0
  6
Continuous
 62
     3
100
AcDbLine
 10
734.4221688813827
 20
364.4236034405045
 30
0.0
 11
734.4221688813827
 21
376.4236074405045
 31
0.0
  0
LINE
  5
3F68
330
3F46
100
AcDbEntity
  8
0
  6
Continuous
 62
     3
100
AcDbLine
 10
739.9839688813828
 20
349.0923134405045
 30
0.0
 11
739.9839688813828
 21
362.2239734405045
 31
0.0
  0
LINE
  5
3F69
330
3F46
100
AcDbEntity
  8
0
  6
Continuous
 62
     3
100
AcDbLine
 10
739.9839688813828
 20
358.0923134405045
 30
0.0
 11
740.6219688813828
 21
357.7239734405045
 31
0.0
  0
LINE
  5
3F6A
330
3F46
100
AcDbEntity
  8
0
  6
Continuous
 62
     3
100
AcDbLine
 10
739.9839688813828
 20
349.0923134405045
 30
0.0
 11
740.6219688813828
 21
348.7239734405045
 31
0.0
  0
LINE
  5
3F6B
330
3F46
100
AcDbEntity
  8
0
  6
Continuous
 62
     3
100
AcDbLine
 10
740.6219688813828
 20
347.7239734405045
 30
0.0
 11
740.6219688813828
 21
357.7239734405045
 31
0.0
  0
LINE
  5
3F6C
330
3F46
100
AcDbEntity
  8
0
  6
Continuous
 62
     3
100
AcDbLine
 10
735.2219688813827
 20
362.2239734405045
 30
0.0
 11
735.2219688813827
 21
364.4236034405045
 31
0.0
  0
LINE
  5
3F6D
330
3F46
100
AcDbEntity
  8
0
  6
CENTER
 62
     4
100
AcDbLine
 10
719.4061688813827
 20
385.1822824405045
 30
0.0
 11
733.2732488813827
 21
385.1822824405045
 31
0.0
  0
LINE
  5
3F6E
330
3F46
100
AcDbEntity
  8
0
  6
Continuous
 62
     3
100
AcDbLine
 10
720.4221688813827
 20
393.2236024405044
 30
0.0
 11
731.4221688813827
 21
393.2236024405044
 31
0.0
  0
LINE
  5
3F6F
330
3F46
100
AcDbEntity
  8
0
  6
Continuous
 62
     3
100
AcDbLine
 10
713.2221688813828
 20
384.3236014405044
 30
0.0
 11
712.2221688813827
 21
383.3236014405045
 31
0.0
  0
LINE
  5
3F70
330
3F46
100
AcDbEntity
  8
0
  6
Continuous
 62
     3
100
AcDbLine
 10
730.4221688813827
 20
377.4822774405045
 30
0.0
 11
730.4221688813827
 21
392.8822794405046
 31
0.0
  0
LINE
  5
3F71
330
3F46
100
AcDbEntity
  8
0
  6
Continuous
 62
     3
100
AcDbLine
 10
722.4221688813827
 20
378.6822824405045
 30
0.0
 11
722.4221688813827
 21
391.6822824405045
 31
0.0
  0
LINE
  5
3F72
330
3F46
100
AcDbEntity
  8
0
  6
Continuous
 62
     3
100
AcDbLine
 10
731.4221688813827
 20
376.4236074405045
 30
0.0
 11
731.4221688813827
 21
393.2236024405044
 31
0.0
  0
LINE
  5
3F73
330
3F46
100
AcDbEntity
  8
0
  6
Continuous
 62
     3
100
AcDbLine
 10
730.4221688813827
 20
377.4822774405045
 30
0.0
 11
731.4221688813827
 21
377.4822774405045
 31
0.0
  0
LINE
  5
3F74
330
3F46
100
AcDbEntity
  8
0
  6
Continuous
 62
     3
100
AcDbLine
 10
730.4221688813827
 20
378.6822824405045
 30
0.0
 11
722.4221688813827
 21
378.6822824405045
 31
0.0
  0
LINE
  5
3F75
330
3F46
100
AcDbEntity
  8
0
  6
Continuous
 62
     3
100
AcDbLine
 10
731.4221688813827
 20
392.8822794405046
 30
0.0
 11
730.4221688813827
 21
392.8822794405046
 31
0.0
  0
LINE
  5
3F76
330
3F46
100
AcDbEntity
  8
0
  6
Continuous
 62
     3
100
AcDbLine
 10
730.4221688813827
 20
391.6822824405045
 30
0.0
 11
722.4221688813827
 21
391.6822824405045
 31
0.0
  0
LINE
  5
3F77
330
3F46
100
AcDbEntity
  8
0
  6
Continuous
 62
     3
100
AcDbLine
 10
761.4221668813827
 20
364.4236034405045
 30
0.0
 11
761.4221668813827
 21
376.4236074405045
 31
0.0
  0
LINE
  5
3F78
330
3F46
100
AcDbEntity
  8
0
  6
Continuous
 62
     3
100
AcDbLine
 10
755.8599718813828
 20
349.0923134405045
 30
0.0
 11
755.8599718813828
 21
362.2239734405045
 31
0.0
  0
LINE
  5
3F79
330
3F46
100
AcDbEntity
  8
0
  6
Continuous
 62
     3
100
AcDbLine
 10
755.8599718813828
 20
358.0923134405045
 30
0.0
 11
755.2219708813827
 21
357.7239734405045
 31
0.0
  0
LINE
  5
3F7A
330
3F46
100
AcDbEntity
  8
0
  6
Continuous
 62
     3
100
AcDbLine
 10
755.8599718813828
 20
349.0923134405045
 30
0.0
 11
755.2219708813827
 21
348.7239734405045
 31
0.0
  0
LINE
  5
3F7B
330
3F46
100
AcDbEntity
  8
0
  6
Continuous
 62
     3
100
AcDbLine
 10
755.2219708813827
 20
347.7239734405045
 30
0.0
 11
755.2219708813827
 21
357.7239734405045
 31
0.0
  0
LINE
  5
3F7C
330
3F46
100
AcDbEntity
  8
0
  6
Continuous
 62
     3
100
AcDbLine
 10
760.6219728813828
 20
362.2239734405045
 30
0.0
 11
760.6219728813828
 21
364.4236034405045
 31
0.0
  0
LINE
  5
3F7D
330
3F46
100
AcDbEntity
  8
0
  6
Continuous
 62
     3
100
AcDbLine
 10
717.9221688813827
 20
405.4236034405045
 30
0.0
 11
717.9221688813827
 21
421.9236034405045
 31
0.0
  0
LINE
  5
3F7E
330
3F46
100
AcDbEntity
  8
0
  6
Continuous
 62
     3
100
AcDbLine
 10
717.4721688813828
 20
402.6236044405045
 30
0.0
 11
717.4721688813828
 21
405.4236034405045
 31
0.0
  0
LINE
  5
3F7F
330
3F46
100
AcDbEntity
  8
0
  6
Continuous
 62
     3
100
AcDbLine
 10
712.9221688813827
 20
424.4236034405044
 30
0.0
 11
712.9221688813827
 21
434.4236034405045
 31
0.0
  0
LINE
  5
3F80
330
3F46
100
AcDbEntity
  8
0
  6
Continuous
 62
     3
100
AcDbLine
 10
710.4221688813827
 20
425.3891764405045
 30
0.0
 11
710.4221688813827
 21
429.7643784405045
 31
0.0
  0
LINE
  5
3F81
330
3F46
100
AcDbEntity
  8
0
  6
Continuous
 62
     3
100
AcDbLine
 10
706.4221688813827
 20
425.9891784405044
 30
0.0
 11
706.4221688813827
 21
429.7643784405045
 31
0.0
  0
LINE
  5
3F82
330
3F46
100
AcDbEntity
  8
0
  6
Continuous
 62
     3
100
AcDbLine
 10
718.9221688813827
 20
423.3236054405044
 30
0.0
 11
718.9221688813827
 21
435.5236054405045
 31
0.0
  0
LINE
  5
3F83
330
3F46
100
AcDbEntity
  8
0
  6
Continuous
 62
     3
100
AcDbLine
 10
711.4221688813827
 20
421.9236034405045
 30
0.0
 11
720.4221688813827
 21
421.9236034405045
 31
0.0
  0
LINE
  5
3F84
330
3F46
100
AcDbEntity
  8
0
  6
Continuous
 62
     3
100
AcDbLine
 10
710.4221688813827
 20
425.3891764405045
 30
0.0
 11
711.4221688813827
 21
425.3891764405045
 31
0.0
  0
LINE
  5
3F85
330
3F46
100
AcDbEntity
  8
0
  6
Continuous
 62
     3
100
AcDbLine
 10
710.4221688813827
 20
425.9891784405044
 30
0.0
 11
706.4221688813827
 21
425.9891784405044
 31
0.0
  0
LINE
  5
3F86
330
3F46
100
AcDbEntity
  8
0
  6
Continuous
 62
     3
100
AcDbLine
 10
705.4221688813827
 20
421.9236034405045
 30
0.0
 11
711.4221688813827
 21
421.9236034405045
 31
0.0
  0
LINE
  5
3F87
330
3F46
100
AcDbEntity
  8
0
  6
Continuous
 62
     3
100
AcDbLine
 10
705.4221688813827
 20
423.4004174405044
 30
0.0
 11
711.4221688813827
 21
423.4004174405044
 31
0.0
  0
LINE
  5
3F88
330
3F46
100
AcDbEntity
  8
0
  6
Continuous
 62
     3
100
AcDbLine
 10
718.9221688813827
 20
424.4236034405044
 30
0.0
 11
712.9221688813827
 21
424.4236034405044
 31
0.0
  0
LINE
  5
3F89
330
3F46
100
AcDbEntity
  8
0
  6
Continuous
 62
     3
100
AcDbLine
 10
720.4221688813827
 20
423.3236054405044
 30
0.0
 11
718.9221688813827
 21
423.3236054405044
 31
0.0
  0
LINE
  5
3F8A
330
3F46
100
AcDbEntity
  8
0
  6
Continuous
 62
     3
100
AcDbLine
 10
718.4221688813827
 20
421.9236034405045
 30
0.0
 11
718.4221688813827
 21
424.4236034405044
 31
0.0
  0
LINE
  5
3F8B
330
3F46
100
AcDbEntity
  8
0
  6
Continuous
 62
     3
100
AcDbLine
 10
705.4221688813827
 20
436.9201344405045
 30
0.0
 11
718.4221688813827
 21
436.9201344405045
 31
0.0
  0
LINE
  5
3F8C
330
3F46
100
AcDbEntity
  8
0
  6
CENTER
 62
     4
100
AcDbLine
 10
709.9327388813827
 20
429.4236034405044
 30
0.0
 11
719.1196188813828
 21
429.4236034405044
 31
0.0
  0
LINE
  5
3F8D
330
3F46
100
AcDbEntity
  8
0
  6
CENTER
 62
     4
100
AcDbLine
 10
704.6226688813828
 20
429.2391784405045
 30
0.0
 11
712.4335988813827
 21
429.2391784405045
 31
0.0
  0
LINE
  5
3F8E
330
3F46
100
AcDbEntity
  8
0
  6
Continuous
 62
     3
100
AcDbLine
 10
705.4221688813827
 20
429.7643784405045
 30
0.0
 11
711.4221688813827
 21
429.7643784405045
 31
0.0
  0
LINE
  5
3F8F
330
3F46
100
AcDbEntity
  8
0
  6
Continuous
 62
     3
100
AcDbLine
 10
720.4221688813827
 20
435.5236054405045
 30
0.0
 11
718.9221688813827
 21
435.5236054405045
 31
0.0
  0
LINE
  5
3F90
330
3F46
100
AcDbEntity
  8
0
  6
Continuous
 62
     3
100
AcDbLine
 10
712.9221688813827
 20
434.4236034405045
 30
0.0
 11
718.9221688813827
 21
434.4236034405045
 31
0.0
  0
LINE
  5
3F91
330
3F46
100
AcDbEntity
  8
0
  6
Continuous
 62
     3
100
AcDbLine
 10
681.0662888813827
 20
503.6078874405045
 30
0.0
 11
705.4221688813827
 21
504.4584124405044
 31
0.0
  0
ARC
  5
3F92
330
3F46
100
AcDbEntity
  8
0
  6
Continuous
 62
     3
100
AcDbCircle
 10
708.9221688813827
 20
494.4236034405045
 30
0.0
 40
30.0
100
AcDbArc
 50
163.6062000000026
 51
180.000010000001
  0
ARC
  5
3F93
330
3F46
100
AcDbEntity
  8
0
  6
Continuous
 62
     3
100
AcDbCircle
 10
681.1011788813828
 20
502.6084984405044
 30
0.0
 40
1.0
100
AcDbArc
 50
91.99999800000055
 51
163.6062000000026
  0
LINE
  5
3F94
330
3F46
100
AcDbEntity
  8
0
  6
Continuous
 62
     3
100
AcDbLine
 10
712.9221688813827
 20
529.4236034405044
 30
0.0
 11
712.9221688813827
 21
539.4236074405045
 31
0.0
  0
LINE
  5
3F95
330
3F46
100
AcDbEntity
  8
0
  6
Continuous
 62
     3
100
AcDbLine
 10
718.9221688813827
 20
528.3236054405044
 30
0.0
 11
718.9221688813827
 21
540.5236054405045
 31
0.0
  0
LINE
  5
3F96
330
3F46
100
AcDbEntity
  8
0
  6
Continuous
 62
     3
100
AcDbLine
 10
720.4221688813827
 20
487.4236034405044
 30
0.0
 11
720.4221688813827
 21
552.4236074405044
 31
0.0
  0
LINE
  5
3F97
330
3F46
100
AcDbEntity
  8
0
  6
Continuous
 62
     3
100
AcDbLine
 10
767.4221668813827
 20
487.4236034405044
 30
0.0
 11
767.4221668813827
 21
552.4236074405044
 31
0.0
  0
LINE
  5
3F98
330
3F46
100
AcDbEntity
  8
0
  6
Continuous
 62
     3
100
AcDbLine
 10
722.4221688813827
 20
503.6736034405045
 30
0.0
 11
722.4221688813827
 21
516.6736034405045
 31
0.0
  0
LINE
  5
3F99
330
3F46
100
AcDbEntity
  8
0
  6
Continuous
 62
     3
100
AcDbLine
 10
730.4221688813827
 20
502.4736024405044
 30
0.0
 11
730.4221688813827
 21
517.8736044405045
 31
0.0
  0
LINE
  5
3F9A
330
3F46
100
AcDbEntity
  8
0
  6
Continuous
 62
     3
100
AcDbLine
 10
731.4221688813827
 20
502.2236024405044
 30
0.0
 11
731.4221688813827
 21
522.4237064405044
 31
0.0
  0
LINE
  5
3F9B
330
3F46
100
AcDbEntity
  8
0
  6
Continuous
 62
     3
100
AcDbLine
 10
720.4221688813827
 20
502.2236024405044
 30
0.0
 11
731.4221688813827
 21
502.2236024405044
 31
0.0
  0
LINE
  5
3F9C
330
3F46
100
AcDbEntity
  8
0
  6
CENTER
 62
     4
100
AcDbLine
 10
719.8718688813828
 20
510.1736034405044
 30
0.0
 11
734.8628088813828
 21
510.1736034405044
 31
0.0
  0
LINE
  5
3F9D
330
3F46
100
AcDbEntity
  8
0
  6
Continuous
 62
     3
100
AcDbLine
 10
705.4221688813827
 20
491.9272774405045
 30
0.0
 11
718.4221688813827
 21
491.9272774405045
 31
0.0
  0
LINE
  5
3F9E
330
3F46
100
AcDbEntity
  8
0
  6
CENTER
 62
     4
100
AcDbLine
 10
703.5521988813827
 20
494.0369574405044
 30
0.0
 11
712.9915988813827
 21
494.0369574405044
 31
0.0
  0
LINE
  5
3F9F
330
3F46
100
AcDbEntity
  8
0
  6
Continuous
 62
     3
100
AcDbLine
 10
711.4221688813827
 20
497.8869554405044
 30
0.0
 11
710.4221688813827
 21
497.8869554405044
 31
0.0
  0
LINE
  5
3FA0
330
3F46
100
AcDbEntity
  8
0
  6
Continuous
 62
     3
100
AcDbLine
 10
710.4221688813827
 20
493.4039904405044
 30
0.0
 11
710.4221688813827
 21
497.8869554405044
 31
0.0
  0
LINE
  5
3FA1
330
3F46
100
AcDbEntity
  8
0
  6
Continuous
 62
     3
100
AcDbLine
 10
706.4221688813827
 20
493.4039904405044
 30
0.0
 11
706.4221688813827
 21
497.2869574405044
 31
0.0
  0
LINE
  5
3FA2
330
3F46
100
AcDbEntity
  8
0
  6
Continuous
 62
     3
100
AcDbLine
 10
706.4221688813827
 20
497.2869574405044
 30
0.0
 11
710.4221688813827
 21
497.2869574405044
 31
0.0
  0
LINE
  5
3FA3
330
3F46
100
AcDbEntity
  8
0
  6
Continuous
 62
     3
100
AcDbLine
 10
705.4221688813827
 20
493.4039904405044
 30
0.0
 11
711.4221688813827
 21
493.4039904405044
 31
0.0
  0
LINE
  5
3FA4
330
3F46
100
AcDbEntity
  8
0
  6
Continuous
 62
     3
100
AcDbLine
 10
705.4221688813827
 20
506.9236034405045
 30
0.0
 11
720.4221688813827
 21
506.9236034405045
 31
0.0
  0
LINE
  5
3FA5
330
3F46
100
AcDbEntity
  8
0
  6
Continuous
 62
     3
100
AcDbLine
 10
705.4221688813827
 20
504.4236034405044
 30
0.0
 11
705.4221688813827
 21
506.9236034405045
 31
0.0
  0
LINE
  5
3FA6
330
3F46
100
AcDbEntity
  8
0
  6
Continuous
 62
     3
100
AcDbLine
 10
705.4221688813827
 20
499.7679504405046
 30
0.0
 11
711.4221688813827
 21
499.7679504405046
 31
0.0
  0
LINE
  5
3FA7
330
3F46
100
AcDbEntity
  8
0
  6
Continuous
 62
     3
100
AcDbLine
 10
730.4221688813827
 20
502.4736024405044
 30
0.0
 11
731.4221688813827
 21
502.4736024405044
 31
0.0
  0
LINE
  5
3FA8
330
3F46
100
AcDbEntity
  8
0
  6
Continuous
 62
     3
100
AcDbLine
 10
730.4221688813827
 20
503.6736034405045
 30
0.0
 11
722.4221688813827
 21
503.6736034405045
 31
0.0
  0
LINE
  5
3FA9
330
3F46
100
AcDbEntity
  8
0
  6
CENTER
 62
     4
100
AcDbLine
 10
711.4836088813827
 20
534.4236074405045
 30
0.0
 11
721.7416288813828
 21
534.4236074405045
 31
0.0
  0
LINE
  5
3FAA
330
3F46
100
AcDbEntity
  8
0
  6
Continuous
 62
     3
100
AcDbLine
 10
712.9221688813827
 20
529.4236034405044
 30
0.0
 11
718.9221688813827
 21
529.4236034405044
 31
0.0
  0
LINE
  5
3FAB
330
3F46
100
AcDbEntity
  8
0
  6
Continuous
 62
     3
100
AcDbLine
 10
720.4221688813827
 20
528.3236054405044
 30
0.0
 11
718.9221688813827
 21
528.3236054405044
 31
0.0
  0
LINE
  5
3FAC
330
3F46
100
AcDbEntity
  8
0
  6
Continuous
 62
     3
100
AcDbLine
 10
731.4221688813827
 20
517.8736044405045
 30
0.0
 11
730.4221688813827
 21
517.8736044405045
 31
0.0
  0
LINE
  5
3FAD
330
3F46
100
AcDbEntity
  8
0
  6
Continuous
 62
     3
100
AcDbLine
 10
730.4221688813827
 20
516.6736034405045
 30
0.0
 11
722.4221688813827
 21
516.6736034405045
 31
0.0
  0
LINE
  5
3FAE
330
3F46
100
AcDbEntity
  8
0
  6
Continuous
 62
     3
100
AcDbLine
 10
718.9221688813827
 20
539.4236074405045
 30
0.0
 11
712.9221688813827
 21
539.4236074405045
 31
0.0
  0
LINE
  5
3FAF
330
3F46
100
AcDbEntity
  8
0
  6
Continuous
 62
     3
100
AcDbLine
 10
720.4221688813827
 20
540.5236054405045
 30
0.0
 11
718.9221688813827
 21
540.5236054405045
 31
0.0
  0
LINE
  5
3FB0
330
3F46
100
AcDbEntity
  8
0
  6
Continuous
 62
     3
100
AcDbLine
 10
766.4221668813827
 20
550.1649254405045
 30
0.0
 11
758.4221668813827
 21
550.1649254405045
 31
0.0
  0
LINE
  5
3FB1
330
3F46
100
AcDbEntity
  8
0
  6
CENTER
 62
     4
100
AcDbLine
 10
755.4533708813828
 20
543.6649254405044
 30
0.0
 11
770.4443148813827
 21
543.6649254405044
 31
0.0
  0
LINE
  5
3FB2
330
3F46
100
AcDbEntity
  8
0
  6
Continuous
 62
     3
100
AcDbLine
 10
766.4221668813827
 20
537.1649254405045
 30
0.0
 11
758.4221668813827
 21
537.1649254405045
 31
0.0
  0
LINE
  5
3FB3
330
3F46
100
AcDbEntity
  8
0
  6
Continuous
 62
     3
100
AcDbLine
 10
767.4221668813827
 20
535.6236044405045
 30
0.0
 11
756.4221668813827
 21
535.6236044405045
 31
0.0
  0
LINE
  5
3FB4
330
3F46
100
AcDbEntity
  8
0
  6
Continuous
 62
     3
100
AcDbLine
 10
758.4221668813827
 20
537.1649254405045
 30
0.0
 11
758.4221668813827
 21
550.1649254405045
 31
0.0
  0
LINE
  5
3FB5
330
3F46
100
AcDbEntity
  8
0
  6
Continuous
 62
     3
100
AcDbLine
 10
756.4221668813827
 20
535.6236044405045
 30
0.0
 11
756.4221668813827
 21
552.4236074405044
 31
0.0
  0
LINE
  5
3FB6
330
3F46
100
AcDbEntity
  8
0
  6
Continuous
 62
     3
100
AcDbLine
 10
766.4221668813827
 20
535.9649284405045
 30
0.0
 11
766.4221668813827
 21
551.3649294405045
 31
0.0
  0
LINE
  5
3FB7
330
3F46
100
AcDbEntity
  8
0
  6
Continuous
 62
     3
100
AcDbLine
 10
766.4221668813827
 20
535.9649284405045
 30
0.0
 11
767.4221668813827
 21
535.9649284405045
 31
0.0
  0
LINE
  5
3FB8
330
3F46
100
AcDbEntity
  8
0
  6
Continuous
 62
     3
100
AcDbLine
 10
767.4221668813827
 20
551.3649294405045
 30
0.0
 11
766.4221668813827
 21
551.3649294405045
 31
0.0
  0
ENDBLK
  5
3FBA
330
3F46
100
AcDbEntity
  8
0
100
AcDbBlockEnd
  0
BLOCK
  5
4362
330
4358
100
AcDbEntity
  8
0
100
AcDbBlockBegin
  2
*D35
 70
     1
 10
0.0
 20
0.0
 30
0.0
  3
*D35
  1

  0
LINE
  5
436F
330
4358
100
AcDbEntity
  8
Bemaßung
 62
     0
370
    -2
100
AcDbLine
 10
418.700522930224
 20
134.3186552553509
 30
0.0
 11
418.700522930224
 21
17.25058378856283
 31
0.0
  0
LINE
  5
4370
330
4358
100
AcDbEntity
  8
Bemaßung
 62
     0
370
    -2
100
AcDbLine
 10
487.7005209302238
 20
70.76879525535099
 30
0.0
 11
487.7005209302238
 21
17.25058378856283
 31
0.0
  0
LINE
  5
4371
330
4358
100
AcDbEntity
  8
Bemaßung
 62
     0
370
    -2
100
AcDbLine
 10
421.2005229302239
 20
18.50058378856283
 30
0.0
 11
485.2005209302237
 21
18.50058378856283
 31
0.0
  0
SOLID
  5
4372
330
4358
100
AcDbEntity
  8
Bemaßung
 62
     0
100
AcDbTrace
 10
421.2005229302239
 20
18.9172504552295
 30
0.0
 11
421.2005229302239
 21
18.08391712189616
 31
0.0
 12
418.700522930224
 22
18.50058378856283
 32
0.0
 13
418.700522930224
 23
18.50058378856283
 33
0.0
  0
SOLID
  5
4373
330
4358
100
AcDbEntity
  8
Bemaßung
 62
     0
100
AcDbTrace
 10
485.2005209302237
 20
18.9172504552295
 30
0.0
 11
485.2005209302237
 21
18.08391712189616
 31
0.0
 12
487.7005209302238
 22
18.50058378856283
 32
0.0
 13
487.7005209302238
 23
18.50058378856283
 33
0.0
  0
MTEXT
  5
4374
330
4358
100
AcDbEntity
  8
Bemaßung
 62
     0
100
AcDbMText
 10
453.2005219302239
 20
20.37558378856283
 30
0.0
 40
2.5
 41
0.0
 71
     5
 72
     1
  1
69
 73
     1
 44
1.0
  0
POINT
  5
4375
330
4358
100
AcDbEntity
  8
Defpoints
 62
     0
100
AcDbPoint
 10
418.700522930224
 20
134.9436552553509
 30
0.0
  0
POINT
  5
4376
330
4358
100
AcDbEntity
  8
Defpoints
 62
     0
100
AcDbPoint
 10
487.7005209302238
 20
71.39379525535099
 30
0.0
  0
POINT
  5
4377
330
4358
100
AcDbEntity
  8
Defpoints
 62
     0
100
AcDbPoint
 10
487.7005209302238
 20
18.50058378856283
 30
0.0
  0
ENDBLK
  5
4363
330
4358
100
AcDbEntity
  8
0
100
AcDbBlockEnd
  0
ENDSEC
  0
SECTION
  2
ENTITIES
  0
LINE
  5
2D00
330
1F
100
AcDbEntity
  8
0
100
AcDbLine
 10
203.4466525511497
 20
-32.9679384761327
 30
0.0
 11
199.0236225511497
 21
-32.9679384761327
 31
0.0
  0
LINE
  5
2D01
330
1F
100
AcDbEntity
  8
0
100
AcDbLine
 10
203.4466525511498
 20
-28.9679384761327
 30
0.0
 11
199.3236225511498
 21
-28.9679384761327
 31
0.0
  0
LINE
  5
2D02
330
1F
100
AcDbEntity
  8
Innenkanten
100
AcDbLine
 10
195.6058625511498
 20
-33.9679384761327
 30
0.0
 11
276.3558625511497
 21
-33.9679384761327
 31
0.0
  0
LINE
  5
2D03
330
1F
100
AcDbEntity
  8
Innenkanten
100
AcDbLine
 10
326.1058625511497
 20
-48.9679384761327
 30
0.0
 11
150.1058625511498
 21
-48.96793847613264
 31
0.0
  0
LINE
  5
2D04
330
1F
100
AcDbEntity
  8
0
100
AcDbLine
 10
278.1058625511497
 20
-1.467938476132701
 30
0.0
 11
198.1058625511498
 21
-1.467938476132701
 31
0.0
  0
LINE
  5
2D05
330
1F
100
AcDbEntity
  8
0
100
AcDbLine
 10
326.1058625511497
 20
-40.9679384761327
 30
0.0
 11
150.1058625511498
 21
-40.96793847613264
 31
0.0
  0
LINE
  5
2D09
330
1F
100
AcDbEntity
  8
0
100
AcDbLine
 10
166.3645425511498
 20
-33.46793847613264
 30
0.0
 11
166.3645425511498
 21
-38.96793847613264
 31
0.0
  0
LINE
  5
2D0A
330
1F
100
AcDbEntity
  8
0
100
AcDbLine
 10
151.3645425511498
 20
-38.96793847613264
 30
0.0
 11
151.3645425511498
 21
-33.46793847613264
 31
0.0
  0
LINE
  5
2D0B
330
1F
100
AcDbEntity
  8
Mittellinie
100
AcDbLine
 10
158.8645425511498
 20
-45.01246847613265
 30
0.0
 11
158.8645425511498
 21
-30.59830847613261
 31
0.0
  0
LINE
  5
2D0C
330
1F
100
AcDbEntity
  8
0
100
AcDbLine
 10
151.3645425511498
 20
-33.46793847613264
 30
0.0
 11
166.3645425511498
 21
-33.46793847613264
 31
0.0
  0
LINE
  5
2D0D
330
1F
100
AcDbEntity
  8
0
100
AcDbLine
 10
166.6645525511497
 20
-38.96793847613264
 30
0.0
 11
151.0645425511497
 21
-38.96793847613264
 31
0.0
  0
LINE
  5
2D0E
330
1F
100
AcDbEntity
  8
0
100
AcDbLine
 10
151.0645425511497
 20
-40.96793847613264
 30
0.0
 11
151.0645425511497
 21
-38.96793847613264
 31
0.0
  0
LINE
  5
2D0F
330
1F
100
AcDbEntity
  8
0
100
AcDbLine
 10
166.6645525511497
 20
-38.96793847613264
 30
0.0
 11
166.6645525511497
 21
-40.96793847613264
 31
0.0
  0
LINE
  5
2D10
330
1F
100
AcDbEntity
  8
0
100
AcDbLine
 10
195.6058625511498
 20
-40.9679384761327
 30
0.0
 11
195.6058625511498
 21
-27.9679384761327
 31
0.0
  0
LINE
  5
2D11
330
1F
100
AcDbEntity
  8
0
100
AcDbLine
 10
199.0236225511497
 20
-32.9679384761327
 30
0.0
 11
199.0236225511497
 21
-33.9679384761327
 31
0.0
  0
LINE
  5
2D12
330
1F
100
AcDbEntity
  8
Innenkanten
100
AcDbLine
 10
197.0826825511498
 20
-27.9679384761327
 30
0.0
 11
197.0826825511498
 21
-33.9679384761327
 31
0.0
  0
LINE
  5
2D13
330
1F
100
AcDbEntity
  8
0
100
AcDbLine
 10
199.3236225511498
 20
-28.9679384761327
 30
0.0
 11
199.3236225511498
 21
-32.9679384761327
 31
0.0
  0
LINE
  5
2D16
330
1F
100
AcDbEntity
  8
0
100
AcDbLine
 10
325.0472125511497
 20
-38.9679384761327
 30
0.0
 11
309.6471825511497
 21
-38.9679384761327
 31
0.0
  0
LINE
  5
2D17
330
1F
100
AcDbEntity
  8
0
100
AcDbLine
 10
309.8471925511497
 20
-33.4679384761327
 30
0.0
 11
324.8471925511497
 21
-33.4679384761327
 31
0.0
  0
LINE
  5
2D18
330
1F
100
AcDbEntity
  8
Innenkanten
100
AcDbLine
 10
210.6024025511498
 20
-27.9679384761327
 30
0.0
 11
210.6024025511497
 21
-40.9679384761327
 31
0.0
  0
LINE
  5
2D19
330
1F
100
AcDbEntity
  8
Mittellinie
100
AcDbLine
 10
202.8236225511498
 20
-27.70600847613269
 30
0.0
 11
202.8236225511498
 21
-34.81245847613269
 31
0.0
  0
LINE
  5
2D1A
330
1F
100
AcDbEntity
  8
0
100
AcDbLine
 10
203.4466525511497
 20
-33.9679384761327
 30
0.0
 11
203.4466525511498
 21
-27.9679384761327
 31
0.0
  0
LINE
  5
2D1B
330
1F
100
AcDbEntity
  8
0
100
AcDbLine
 10
276.1558525511497
 20
-38.9679384761327
 30
0.0
 11
291.5558725511497
 21
-38.9679384761327
 31
0.0
  0
LINE
  5
2D1C
330
1F
100
AcDbEntity
  8
0
100
AcDbLine
 10
291.3558625511496
 20
-33.4679384761327
 30
0.0
 11
276.3558625511497
 21
-33.4679384761327
 31
0.0
  0
LINE
  5
2D1D
330
1F
100
AcDbEntity
  8
0
100
AcDbLine
 10
276.3558625511497
 20
-33.4679384761327
 30
0.0
 11
276.3558625511497
 21
-38.9679384761327
 31
0.0
  0
LINE
  5
2D1E
330
1F
100
AcDbEntity
  8
Mittellinie
100
AcDbLine
 10
267.7192025511498
 20
-26.89973847613277
 30
0.0
 11
267.7192025511498
 21
-35.33436847613273
 31
0.0
  0
LINE
  5
2D1F
330
1F
100
AcDbEntity
  8
Innenkanten
100
AcDbLine
 10
265.6095225511498
 20
-40.9679384761327
 30
0.0
 11
265.6095225511498
 21
-27.9679384761327
 31
0.0
  0
LINE
  5
2D20
330
1F
100
AcDbEntity
  8
Mittellinie
100
AcDbLine
 10
283.8558625511497
 20
-44.1074384761327
 30
0.0
 11
283.8558625511497
 21
-31.03998847613269
 31
0.0
  0
LINE
  5
2D21
330
1F
100
AcDbEntity
  8
0
100
AcDbLine
 10
267.0862725511498
 20
-32.9679384761327
 30
0.0
 11
271.5192225511497
 21
-32.9679384761327
 31
0.0
  0
LINE
  5
2D22
330
1F
100
AcDbEntity
  8
0
100
AcDbLine
 10
271.5192225511497
 20
-32.9679384761327
 30
0.0
 11
271.5192225511497
 21
-33.9679384761327
 31
0.0
  0
LINE
  5
2D23
330
1F
100
AcDbEntity
  8
0
100
AcDbLine
 10
267.0862725511498
 20
-28.9679384761327
 30
0.0
 11
271.2192025511498
 21
-28.9679384761327
 31
0.0
  0
LINE
  5
2D24
330
1F
100
AcDbEntity
  8
Innenkanten
100
AcDbLine
 10
273.4502225511497
 20
-33.9679384761327
 30
0.0
 11
273.4502225511497
 21
-27.9679384761327
 31
0.0
  0
LINE
  5
2D25
330
1F
100
AcDbEntity
  8
0
100
AcDbLine
 10
267.0862725511498
 20
-33.9679384761327
 30
0.0
 11
267.0862725511498
 21
-27.9679384761327
 31
0.0
  0
LINE
  5
2D26
330
1F
100
AcDbEntity
  8
0
100
AcDbLine
 10
271.2192025511498
 20
-28.9679384761327
 30
0.0
 11
271.2192025511498
 21
-32.9679384761327
 31
0.0
  0
LINE
  5
2D27
330
1F
100
AcDbEntity
  8
0
100
AcDbLine
 10
280.6058625511496
 20
-33.4679384761327
 30
0.0
 11
280.6058625511496
 21
-27.9679384761327
 31
0.0
  0
LINE
  5
2D28
330
1F
100
AcDbEntity
  8
0
100
AcDbLine
 10
276.1558525511497
 20
-40.9679384761327
 30
0.0
 11
276.1558525511497
 21
-38.9679384761327
 31
0.0
  0
LINE
  5
2D29
330
1F
100
AcDbEntity
  8
0
100
AcDbLine
 10
309.8471925511497
 20
-38.9679384761327
 30
0.0
 11
309.8471925511497
 21
-33.4679384761327
 31
0.0
  0
LINE
  5
2D2A
330
1F
100
AcDbEntity
  8
0
100
AcDbLine
 10
291.3558625511496
 20
-38.9679384761327
 30
0.0
 11
291.3558625511496
 21
-33.4679384761327
 31
0.0
  0
LINE
  5
2D2B
330
1F
100
AcDbEntity
  8
Mittellinie
100
AcDbLine
 10
317.3471925511497
 20
-31.03998847613269
 30
0.0
 11
317.3471925511497
 21
-44.71012847613264
 31
0.0
  0
LINE
  5
2D2C
330
1F
100
AcDbEntity
  8
0
100
AcDbLine
 10
291.5558725511497
 20
-38.9679384761327
 30
0.0
 11
291.5558725511497
 21
-40.9679384761327
 31
0.0
  0
LINE
  5
2D2D
330
1F
100
AcDbEntity
  8
0
100
AcDbLine
 10
309.6471825511497
 20
-38.9679384761327
 30
0.0
 11
309.6471825511497
 21
-40.9679384761327
 31
0.0
  0
LINE
  5
2D2E
330
1F
100
AcDbEntity
  8
0
100
AcDbLine
 10
324.8471925511497
 20
-33.4679384761327
 30
0.0
 11
324.8471925511497
 21
-38.9679384761327
 31
0.0
  0
LINE
  5
2D2F
330
1F
100
AcDbEntity
  8
0
100
AcDbLine
 10
325.0472125511497
 20
-40.9679384761327
 30
0.0
 11
325.0472125511497
 21
-38.9679384761327
 31
0.0
  0
LINE
  5
2D35
330
1F
100
AcDbEntity
  8
0
100
AcDbLine
 10
150.1058625511498
 20
-40.96793847613264
 30
0.0
 11
150.1058625511498
 21
-313.4826384761325
 31
0.0
  0
LINE
  5
2D38
330
1F
100
AcDbEntity
  8
0
100
AcDbLine
 10
150.1058625511498
 20
-313.4826384761325
 30
0.0
 11
326.1058625511497
 21
-313.4826384761327
 31
0.0
  0
LINE
  5
2D4E
330
1F
100
AcDbEntity
  8
Innenkanten
100
AcDbLine
 10
326.0978146007465
 20
-48.95320309826786
 30
0.0
 11
150.0978146007466
 21
-48.95320309826783
 31
0.0
  0
LINE
  5
2D4F
330
1F
100
AcDbEntity
  8
Innenkanten
100
AcDbLine
 10
326.0978146007465
 20
-293.4679030982678
 30
0.0
 11
150.0978146007466
 21
-293.4679030982678
 31
0.0
  0
LINE
  5
2D50
330
1F
100
AcDbEntity
  8
Innenkanten
100
AcDbLine
 10
326.0978146007465
 20
-295.4679030982678
 30
0.0
 11
150.0978146007466
 21
-295.4679030982678
 31
0.0
  0
LINE
  5
2D51
330
1F
100
AcDbEntity
  8
Innenkanten
100
AcDbLine
 10
311.9038146007466
 20
-295.4679030982678
 30
0.0
 11
311.9038146007466
 21
-313.4679030982677
 31
0.0
  0
LINE
  5
2D52
330
1F
100
AcDbEntity
  8
Innenkanten
100
AcDbLine
 10
295.5978146007465
 20
-293.4679030982678
 30
0.0
 11
295.5978146007465
 21
-40.96793847613269
 31
0.0
  0
LINE
  5
2D53
330
1F
100
AcDbEntity
  8
Innenkanten
100
AcDbLine
 10
275.0978146007465
 20
-293.4679030982678
 30
0.0
 11
275.0978146007465
 21
-48.95320309826783
 31
0.0
  0
LINE
  5
2D54
330
1F
100
AcDbEntity
  8
Innenkanten
100
AcDbLine
 10
271.0978146007466
 20
-293.4679030982678
 30
0.0
 11
271.0978146007466
 21
-48.95320309826783
 31
0.0
  0
LINE
  5
2D55
330
1F
100
AcDbEntity
  8
Innenkanten
100
AcDbLine
 10
267.0978146007465
 20
-293.4679030982678
 30
0.0
 11
267.0978146007465
 21
-48.95320309826783
 31
0.0
  0
LINE
  5
2D56
330
1F
100
AcDbEntity
  8
Innenkanten
100
AcDbLine
 10
263.0978146007465
 20
-293.4679030982678
 30
0.0
 11
263.0978146007465
 21
-48.95320309826783
 31
0.0
  0
LINE
  5
2D57
330
1F
100
AcDbEntity
  8
Innenkanten
100
AcDbLine
 10
213.0978146007466
 20
-293.4679030982678
 30
0.0
 11
213.0978146007466
 21
-48.95320309826783
 31
0.0
  0
LINE
  5
2D58
330
1F
100
AcDbEntity
  8
Innenkanten
100
AcDbLine
 10
209.0978146007466
 20
-48.95320309826783
 30
0.0
 11
209.0978146007466
 21
-293.4679030982678
 31
0.0
  0
LINE
  5
2D59
330
1F
100
AcDbEntity
  8
Innenkanten
100
AcDbLine
 10
205.0978146007466
 20
-293.4679030982678
 30
0.0
 11
205.0978146007466
 21
-48.95320309826783
 31
0.0
  0
LINE
  5
2D5A
330
1F
100
AcDbEntity
  8
Innenkanten
100
AcDbLine
 10
201.0978146007466
 20
-48.95320309826783
 30
0.0
 11
201.0978146007466
 21
-293.4679030982678
 31
0.0
  0
LINE
  5
2D5B
330
1F
100
AcDbEntity
  8
Innenkanten
100
AcDbLine
 10
180.5978146007466
 20
-295.4679030982678
 30
0.0
 11
180.5978146007466
 21
-40.96793847613265
 31
0.0
  0
LINE
  5
2D5C
330
1F
100
AcDbEntity
  8
Innenkanten
100
AcDbLine
 10
164.2918146007466
 20
-295.4679030982678
 30
0.0
 11
164.2918146007466
 21
-313.4679030982677
 31
0.0
  0
LINE
  5
2D5D
330
1F
100
AcDbEntity
  8
Mittellinie
100
AcDbLine
 10
238.0978146007465
 20
6.464528151873992
 30
0.0
 11
238.0978146007465
 21
-410.5096251724653
 31
0.0
  0
LINE
  5
2D61
330
1F
100
AcDbEntity
  8
0
100
AcDbLine
 10
180.9897296692155
 20
-316.4826384761326
 30
0.0
 11
295.2897776692156
 21
-316.4826384761326
 31
0.0
  0
LINE
  5
2D63
330
1F
100
AcDbEntity
  8
0
100
AcDbLine
 10
208.1397536692155
 20
-318.4826384761326
 30
0.0
 11
268.1397536692155
 21
-318.4826384761326
 31
0.0
  0
LINE
  5
2D64
330
1F
100
AcDbEntity
  8
0
100
AcDbLine
 10
218.1397536692155
 20
-393.4826384761326
 30
0.0
 11
258.1397536692155
 21
-393.4826384761326
 31
0.0
  0
LINE
  5
2D65
330
1F
100
AcDbEntity
  8
0
100
AcDbLine
 10
218.1397536692155
 20
-393.4826384761326
 30
0.0
 11
218.1397536692155
 21
-318.4826384761326
 31
0.0
  0
LINE
  5
2D66
330
1F
100
AcDbEntity
  8
0
100
AcDbLine
 10
258.1397536692155
 20
-393.4826384761326
 30
0.0
 11
258.1397536692155
 21
-318.4826384761326
 31
0.0
  0
LINE
  5
2D67
330
1F
100
AcDbEntity
  8
0
100
AcDbLine
 10
268.1397536692155
 20
-318.4826384761326
 30
0.0
 11
268.1397536692155
 21
-316.4826384761326
 31
0.0
  0
LINE
  5
2D68
330
1F
100
AcDbEntity
  8
0
100
AcDbLine
 10
208.1397536692155
 20
-318.4826384761326
 30
0.0
 11
208.1397536692155
 21
-316.4826384761326
 31
0.0
  0
LINE
  5
2D69
330
1F
100
AcDbEntity
  8
0
100
AcDbLine
 10
180.9897296692155
 20
-316.4826384761326
 30
0.0
 11
180.9897296692155
 21
-313.4826384761325
 31
0.0
  0
LINE
  5
2D6A
330
1F
100
AcDbEntity
  8
0
100
AcDbLine
 10
295.2897776692156
 20
-316.4826384761326
 30
0.0
 11
295.2897776692156
 21
-313.4826384761327
 31
0.0
  0
LINE
  5
2D6E
330
1F
100
AcDbEntity
  8
0
100
AcDbLine
 10
195.6058625511498
 20
-27.9679384761327
 30
0.0
 11
280.6058625511496
 21
-27.9679384761327
 31
0.0
  0
LINE
  5
2D6F
330
1F
100
AcDbEntity
  8
0
100
AcDbLine
 10
198.1058625511498
 20
-1.467938476132701
 30
0.0
 11
198.1058625511498
 21
-27.9679384761327
 31
0.0
  0
LINE
  5
2D70
330
1F
100
AcDbEntity
  8
0
100
AcDbLine
 10
278.1058625511497
 20
-1.467938476132701
 30
0.0
 11
278.1058625511497
 21
-27.9679384761327
 31
0.0
  0
ARC
  5
32A5
330
1F
100
AcDbEntity
  8
Innenkanten
100
AcDbCircle
 10
-887.8220863277507
 20
215.7944848255841
 30
0.0
 40
500.0
100
AcDbArc
 50
359.999989999999
 51
3.799492099998992
  0
ARC
  5
32A6
330
1F
100
AcDbEntity
  8
0
100
AcDbCircle
 10
-475.8220863277506
 20
192.7944948255841
 30
0.0
 40
40.0
100
AcDbArc
 50
300.8304900000021
 51
239.1695099999978
  0
ARC
  5
32A7
330
1F
100
AcDbEntity
  8
Innenkanten
100
AcDbCircle
 10
-63.82208632775058
 20
215.7944848255841
 30
0.0
 40
500.0
100
AcDbArc
 50
176.2005100000005
 51
180.0000199999954
  0
CIRCLE
  5
32A8
330
1F
100
AcDbEntity
  8
Innenkanten
100
AcDbCircle
 10
-396.5807644277506
 20
238.5443858255841
 30
0.0
 40
6.5
  0
CIRCLE
  5
32A9
330
1F
100
AcDbEntity
  8
Innenkanten
100
AcDbCircle
 10
-396.5807644277506
 20
238.5443858255841
 30
0.0
 40
7.699999799999999
  0
ARC
  5
32AA
330
1F
100
AcDbEntity
  8
Mittellinie
100
AcDbCircle
 10
-475.8220863277506
 20
192.7943848255841
 30
0.0
 40
91.5
100
AcDbArc
 50
23.98365799999742
 51
36.11858000000236
  0
LINE
  5
32AB
330
1F
100
AcDbEntity
  8
Mittellinie
100
AcDbLine
 10
-475.8220863277506
 20
41.80744482558418
 30
0.0
 11
-475.8220863277506
 21
299.9957778255841
 31
0.0
  0
LINE
  5
32AC
330
1F
100
AcDbEntity
  8
0
100
AcDbLine
 10
-387.8220893277505
 20
192.7943848255841
 30
0.0
 11
-387.8220893277505
 21
266.8281648255841
 31
0.0
  0
LINE
  5
32AD
330
1F
100
AcDbEntity
  8
0
100
AcDbLine
 10
-563.8220863277506
 20
215.7943848255841
 30
0.0
 11
-563.8220863277506
 21
266.8281648255841
 31
0.0
  0
LINE
  5
32AE
330
1F
100
AcDbEntity
  8
Innenkanten
100
AcDbLine
 10
-502.2564563277505
 20
231.2718638255842
 30
0.0
 11
-504.8023763277505
 21
233.8177778255842
 31
0.0
  0
LINE
  5
32AF
330
1F
100
AcDbEntity
  8
0
100
AcDbLine
 10
-518.3220863277506
 20
220.2980648255842
 30
0.0
 11
-503.3351063277505
 21
235.2850398255841
 31
0.0
  0
LINE
  5
32B0
330
1F
100
AcDbEntity
  8
0
100
AcDbLine
 10
-448.3090663277505
 20
235.2850398255841
 30
0.0
 11
-433.3220903277505
 21
220.2980648255842
 31
0.0
  0
LINE
  5
32B1
330
1F
100
AcDbEntity
  8
0
100
AcDbLine
 10
-563.8220863277506
 20
192.7943848255841
 30
0.0
 11
-563.8220863277506
 21
266.8281648255841
 31
0.0
  0
ARC
  5
32BC
330
1F
100
AcDbEntity
  8
Mittellinie
100
AcDbCircle
 10
-475.8220863277506
 20
192.8922748255842
 30
0.0
 40
46.0
100
AcDbArc
 50
305.6972099999995
 51
314.1035200000015
  0
ARC
  5
32BD
330
1F
100
AcDbEntity
  8
Innenkanten
100
AcDbCircle
 10
-446.2057383277506
 20
157.4990948255841
 30
0.0
 40
4.5
100
AcDbArc
 50
45.00000100000149
 51
225.0
  0
ARC
  5
32BE
330
1F
100
AcDbEntity
  8
0
100
AcDbCircle
 10
-475.8220863277506
 20
192.7944948255841
 30
0.0
 40
38.5
100
AcDbArc
 50
299.5713200000003
 51
240.4287000000003
  0
CIRCLE
  5
32BF
330
1F
100
AcDbEntity
  8
Innenkanten
100
AcDbCircle
 10
-446.3066943277506
 20
157.6099548255841
 30
0.0
 40
3.849999899999999
  0
CIRCLE
  5
32C0
330
1F
100
AcDbEntity
  8
Innenkanten
100
AcDbCircle
 10
-446.3066943277506
 20
157.6099548255841
 30
0.0
 40
3.25
  0
LINE
  5
32C1
330
1F
100
AcDbEntity
  8
Mittellinie
100
AcDbLine
 10
-574.4190063277506
 20
192.7943848255841
 30
0.0
 11
-377.4018093277506
 21
192.7943848255841
 31
0.0
  0
LINE
  5
32C2
330
1F
100
AcDbEntity
  8
0
100
AcDbLine
 10
-475.8220863277506
 20
104.7944948255841
 30
0.0
 11
-401.7881923277506
 21
104.7944948255841
 31
0.0
  0
LINE
  5
32C3
330
1F
100
AcDbEntity
  8
Innenkanten
100
AcDbLine
 10
-449.3877183277505
 20
154.3171248255841
 30
0.0
 11
-446.8418043277506
 21
151.7712048255841
 31
0.0
  0
LINE
  5
32C4
330
1F
100
AcDbEntity
  8
0
100
AcDbLine
 10
-455.3220903277506
 20
150.2850348255842
 30
0.0
 11
-448.3279683277506
 21
150.2850348255842
 31
0.0
  0
LINE
  5
32C5
330
1F
100
AcDbEntity
  8
Innenkanten
100
AcDbLine
 10
-504.2720263277506
 20
70.29447482558419
 30
0.0
 11
-447.3720203277505
 21
70.29447482558419
 31
0.0
  0
LINE
  5
32C6
330
1F
100
AcDbEntity
  8
0
100
AcDbLine
 10
-504.3720163277505
 20
66.9445048255842
 30
0.0
 11
-448.5920213277506
 21
66.9445048255842
 31
0.0
  0
LINE
  5
32C7
330
1F
100
AcDbEntity
  8
0
100
AcDbLine
 10
-504.3720163277505
 20
66.9445048255842
 30
0.0
 11
-447.3720203277505
 21
66.9445048255842
 31
0.0
  0
LINE
  5
32C8
330
1F
100
AcDbEntity
  8
Innenkanten
100
AcDbLine
 10
-504.8220163277505
 20
70.79447482558419
 30
0.0
 11
-446.8220213277505
 21
70.79447482558419
 31
0.0
  0
ARC
  5
32C9
330
1F
100
AcDbEntity
  8
0
100
AcDbCircle
 10
-475.8220863277506
 20
192.7943848255841
 30
0.0
 40
115.0
100
AcDbArc
 50
220.0736599999991
 51
229.9262599999985
  0
LINE
  5
32CA
330
1F
100
AcDbEntity
  8
Innenkanten
100
AcDbLine
 10
-533.8220863277506
 20
106.7944948255841
 30
0.0
 11
-533.8220863277506
 21
119.7944948255841
 31
0.0
  0
LINE
  5
32CB
330
1F
100
AcDbEntity
  8
0
100
AcDbLine
 10
-450.8220213277505
 20
45.71449482558409
 30
0.0
 11
-450.8220213277505
 21
66.9445048255842
 31
0.0
  0
LINE
  5
32CC
330
1F
100
AcDbEntity
  8
Innenkanten
100
AcDbLine
 10
-451.8220213277506
 20
44.71449482558409
 30
0.0
 11
-451.8220213277506
 21
60.5944948255842
 31
0.0
  0
LINE
  5
32CD
330
1F
100
AcDbEntity
  8
0
100
AcDbLine
 10
-500.8220163277505
 20
45.71449482558409
 30
0.0
 11
-500.8220163277505
 21
66.9445048255842
 31
0.0
  0
LINE
  5
32CE
330
1F
100
AcDbEntity
  8
Innenkanten
100
AcDbLine
 10
-499.8220163277506
 20
44.71449482558409
 30
0.0
 11
-499.8220163277506
 21
60.5944948255842
 31
0.0
  0
LINE
  5
32CF
330
1F
100
AcDbEntity
  8
Innenkanten
100
AcDbLine
 10
-500.8220163277505
 20
45.71449482558409
 30
0.0
 11
-450.8220213277505
 21
45.71449482558409
 31
0.0
  0
LINE
  5
32D0
330
1F
100
AcDbEntity
  8
0
100
AcDbLine
 10
-499.8220163277506
 20
44.71449482558409
 30
0.0
 11
-451.8220213277506
 21
44.71449482558409
 31
0.0
  0
LINE
  5
32D1
330
1F
100
AcDbEntity
  8
0
100
AcDbLine
 10
-499.8220163277506
 20
44.71449482558409
 30
0.0
 11
-500.8220163277505
 21
45.71449482558409
 31
0.0
  0
LINE
  5
32D2
330
1F
100
AcDbEntity
  8
0
100
AcDbLine
 10
-451.8220213277506
 20
44.71449482558409
 30
0.0
 11
-450.8220213277505
 21
45.71449482558409
 31
0.0
  0
LINE
  5
32D3
330
1F
100
AcDbEntity
  8
0
100
AcDbLine
 10
-549.8559863277505
 20
104.7944948255841
 30
0.0
 11
-475.8220863277506
 21
104.7944948255841
 31
0.0
  0
ARC
  5
32D4
330
1F
100
AcDbEntity
  8
Innenkanten
100
AcDbCircle
 10
-531.8220863277506
 20
106.7944948255841
 30
0.0
 40
2.0
100
AcDbArc
 50
180.0000100000009
 51
270.0
  0
LINE
  5
32D5
330
1F
100
AcDbEntity
  8
0
100
AcDbLine
 10
-504.8220163277505
 20
78.99449482558418
 30
0.0
 11
-504.8220163277505
 21
104.7944948255841
 31
0.0
  0
LINE
  5
32D6
330
1F
100
AcDbEntity
  8
0
100
AcDbLine
 10
-504.8220163277505
 20
70.79447482558419
 30
0.0
 11
-504.8220163277505
 21
104.7944948255841
 31
0.0
  0
LINE
  5
32D7
330
1F
100
AcDbEntity
  8
0
100
AcDbLine
 10
-504.2720263277506
 20
66.9445048255842
 30
0.0
 11
-449.7120203277505
 21
66.9445048255842
 31
0.0
  0
LINE
  5
32D8
330
1F
100
AcDbEntity
  8
Innenkanten
100
AcDbLine
 10
-500.8220163277505
 20
60.5944948255842
 30
0.0
 11
-450.8220213277505
 21
60.5944948255842
 31
0.0
  0
LINE
  5
32D9
330
1F
100
AcDbEntity
  8
0
100
AcDbLine
 10
-504.2720263277506
 20
66.9445048255842
 30
0.0
 11
-504.2720263277506
 21
70.79447482558419
 31
0.0
  0
LINE
  5
32DA
330
1F
100
AcDbEntity
  8
0
100
AcDbLine
 10
-518.3220863277506
 20
165.2909248255841
 30
0.0
 11
-518.3220863277506
 21
220.2980648255842
 31
0.0
  0
LINE
  5
32DB
330
1F
100
AcDbEntity
  8
0
100
AcDbLine
 10
-563.8220863277506
 20
118.7606148255841
 30
0.0
 11
-563.8220863277506
 21
192.7943848255841
 31
0.0
  0
ARC
  5
32DC
330
1F
100
AcDbEntity
  8
Mittellinie
100
AcDbCircle
 10
-475.9198723277505
 20
192.7944948255841
 30
0.0
 40
46.0
100
AcDbArc
 50
215.4623900000014
 51
224.0540599999974
  0
ARC
  5
32DD
330
1F
100
AcDbEntity
  8
Innenkanten
100
AcDbCircle
 10
-511.1174763277506
 20
163.1781448255842
 30
0.0
 40
4.5
100
AcDbArc
 50
315.0
 51
135.0
  0
CIRCLE
  5
32DE
330
1F
100
AcDbEntity
  8
Innenkanten
100
AcDbCircle
 10
-511.1128163277506
 20
163.1726048255841
 30
0.0
 40
3.849999899999999
  0
CIRCLE
  5
32DF
330
1F
100
AcDbEntity
  8
Innenkanten
100
AcDbCircle
 10
-511.1128163277506
 20
163.1726048255841
 30
0.0
 40
3.25
  0
LINE
  5
32E0
330
1F
100
AcDbEntity
  8
Mittellinie
100
AcDbLine
 10
-508.5729363277505
 20
165.3038148255841
 30
0.0
 11
-513.4787863277506
 21
161.1873148255841
 31
0.0
  0
LINE
  5
32E1
330
1F
100
AcDbEntity
  8
0
100
AcDbLine
 10
-518.3220863277506
 20
165.2909248255841
 30
0.0
 11
-510.4814163277506
 21
157.4502348255841
 31
0.0
  0
ARC
  5
32E2
330
1F
100
AcDbEntity
  8
Innenkanten
100
AcDbCircle
 10
-63.82208632775058
 20
169.7944948255841
 30
0.0
 40
500.0
100
AcDbArc
 50
180.0000100000009
 51
183.7994899999994
  0
ARC
  5
32E3
330
1F
100
AcDbEntity
  8
Mittellinie
100
AcDbCircle
 10
-475.8220863277506
 20
192.7943848255841
 30
0.0
 40
91.5
100
AcDbArc
 50
203.9836600000029
 51
216.1185800000023
  0
CIRCLE
  5
32E4
330
1F
100
AcDbEntity
  8
Innenkanten
100
AcDbCircle
 10
-555.0634163277505
 20
147.0443848255841
 30
0.0
 40
7.699999799999999
  0
CIRCLE
  5
32E5
330
1F
100
AcDbEntity
  8
Innenkanten
100
AcDbCircle
 10
-555.0634163277505
 20
147.0443848255841
 30
0.0
 40
6.5
  0
LINE
  5
32E6
330
1F
100
AcDbEntity
  8
0
100
AcDbLine
 10
-563.8220863277506
 20
118.7606148255841
 30
0.0
 11
-563.8220863277506
 21
169.7943848255841
 31
0.0
  0
LINE
  5
32E7
330
1F
100
AcDbEntity
  8
Unsichtbar
100
AcDbLine
 10
-557.8220863277506
 20
134.7944948255841
 30
0.0
 11
-557.8220863277506
 21
155.7944948255841
 31
0.0
  0
LINE
  5
32E8
330
1F
100
AcDbEntity
  8
Unsichtbar
100
AcDbLine
 10
-549.8220863277506
 20
134.7944948255841
 30
0.0
 11
-549.8220863277506
 21
155.7944948255841
 31
0.0
  0
LINE
  5
32E9
330
1F
100
AcDbEntity
  8
Unsichtbar
100
AcDbLine
 10
-550.4720963277505
 20
134.7944948255841
 30
0.0
 11
-550.4720963277505
 21
158.7944948255841
 31
0.0
  0
LINE
  5
32EA
330
1F
100
AcDbEntity
  8
Unsichtbar
100
AcDbLine
 10
-557.1720963277505
 20
134.7944948255841
 30
0.0
 11
-557.1720963277505
 21
158.7944948255841
 31
0.0
  0
ARC
  5
32EC
330
1F
100
AcDbEntity
  8
Mittellinie
100
AcDbCircle
 10
-475.8220863277506
 20
192.7943848255841
 30
0.0
 40
100.0
100
AcDbArc
 50
218.7174999999992
 51
232.017249999998
  0
ARC
  5
32ED
330
1F
100
AcDbEntity
  8
Innenkanten
100
AcDbCircle
 10
-548.8220863277506
 20
119.7944948255841
 30
0.0
 40
15.0
100
AcDbArc
 50
0.0
 51
90.00000299999769
  0
CIRCLE
  5
32EE
330
1F
100
AcDbEntity
  8
Innenkanten
100
AcDbCircle
 10
-546.5328063277505
 20
122.0837548255841
 30
0.0
 40
6.75
  0
LINE
  5
32EF
330
1F
100
AcDbEntity
  8
Mittellinie
100
AcDbLine
 10
-539.4127263277505
 20
129.2038548255841
 30
0.0
 11
-553.8644763277505
 21
114.7521048255841
 31
0.0
  0
ARC
  5
32F0
330
1F
100
AcDbEntity
  8
Innenkanten
100
AcDbCircle
 10
-560.7275163277505
 20
136.7944948255841
 30
0.0
 40
2.0
100
AcDbArc
 50
183.7994899999994
 51
270.0
  0
LINE
  5
32F1
330
1F
100
AcDbEntity
  8
Innenkanten
100
AcDbLine
 10
-560.7275163277505
 20
134.7944948255841
 30
0.0
 11
-548.8220863277506
 21
134.7944948255841
 31
0.0
  0
LINE
  5
32F2
330
1F
100
AcDbEntity
  8
Mittellinie
100
AcDbLine
 10
-546.3699063277506
 20
152.0635848255842
 30
0.0
 11
-563.5651563277506
 21
142.1358948255841
 31
0.0
  0
LINE
  5
32F3
330
1F
100
AcDbEntity
  8
Innenkanten
100
AcDbLine
 10
-552.0634163277505
 20
148.7764448255841
 30
0.0
 11
-555.0634163277505
 21
150.5084848255842
 31
0.0
  0
LINE
  5
32F4
330
1F
100
AcDbEntity
  8
Innenkanten
100
AcDbLine
 10
-555.0634163277505
 20
150.5084848255842
 30
0.0
 11
-558.0634163277506
 21
148.7764448255841
 31
0.0
  0
LINE
  5
32F5
330
1F
100
AcDbEntity
  8
Innenkanten
100
AcDbLine
 10
-555.0634163277505
 20
143.5802948255841
 30
0.0
 11
-552.0634163277505
 21
145.3123348255842
 31
0.0
  0
LINE
  5
32F6
330
1F
100
AcDbEntity
  8
Innenkanten
100
AcDbLine
 10
-558.0634163277506
 20
145.3123348255842
 30
0.0
 11
-555.0634163277505
 21
143.5802948255841
 31
0.0
  0
LINE
  5
32F7
330
1F
100
AcDbEntity
  8
Innenkanten
100
AcDbLine
 10
-558.0634163277506
 20
148.7764448255841
 30
0.0
 11
-558.0634163277506
 21
145.3123348255842
 31
0.0
  0
LINE
  5
32F8
330
1F
100
AcDbEntity
  8
Innenkanten
100
AcDbLine
 10
-552.0634163277505
 20
145.3123348255842
 30
0.0
 11
-552.0634163277505
 21
148.7764448255841
 31
0.0
  0
LINE
  5
32F9
330
1F
100
AcDbEntity
  8
Unsichtbar
100
AcDbLine
 10
-557.8220863277506
 20
155.7944948255841
 30
0.0
 11
-549.8220863277506
 21
155.7944948255841
 31
0.0
  0
LINE
  5
32FA
330
1F
100
AcDbEntity
  8
Unsichtbar
100
AcDbLine
 10
-553.8220863277506
 20
161.7944948255841
 30
0.0
 11
-550.4720963277505
 21
158.7944948255841
 31
0.0
  0
LINE
  5
32FB
330
1F
100
AcDbEntity
  8
Unsichtbar
100
AcDbLine
 10
-557.1720963277505
 20
158.7944948255841
 30
0.0
 11
-550.4720963277505
 21
158.7944948255841
 31
0.0
  0
LINE
  5
32FC
330
1F
100
AcDbEntity
  8
Unsichtbar
100
AcDbLine
 10
-553.8220863277506
 20
161.7944948255841
 30
0.0
 11
-557.1720963277505
 21
158.7944948255841
 31
0.0
  0
LINE
  5
32FD
330
1F
100
AcDbEntity
  8
Innenkanten
100
AcDbLine
 10
-514.2994663277505
 20
166.3601248255841
 30
0.0
 11
-516.8453763277506
 21
163.8142048255841
 31
0.0
  0
LINE
  5
32FE
330
1F
100
AcDbEntity
  8
0
100
AcDbLine
 10
-455.3220903277506
 20
134.7850348255842
 30
0.0
 11
-455.3220903277506
 21
150.2850348255842
 31
0.0
  0
LINE
  5
32FF
330
1F
100
AcDbEntity
  8
0
100
AcDbLine
 10
-456.8220903277506
 20
134.7850348255842
 30
0.0
 11
-456.8220903277506
 21
150.2850348255842
 31
0.0
  0
LINE
  5
3300
330
1F
100
AcDbEntity
  8
0
100
AcDbLine
 10
-494.8220863277506
 20
134.7850348255842
 30
0.0
 11
-494.8220863277506
 21
150.2850348255842
 31
0.0
  0
LINE
  5
3301
330
1F
100
AcDbEntity
  8
0
100
AcDbLine
 10
-496.3220863277506
 20
134.7850348255842
 30
0.0
 11
-496.3220863277506
 21
150.2850348255842
 31
0.0
  0
LINE
  5
3302
330
1F
100
AcDbEntity
  8
0
100
AcDbLine
 10
-456.8220903277506
 20
134.7850348255842
 30
0.0
 11
-456.8220903277506
 21
150.2850348255842
 31
0.0
  0
LINE
  5
3303
330
1F
100
AcDbEntity
  8
0
100
AcDbLine
 10
-494.8220863277506
 20
134.7850348255842
 30
0.0
 11
-494.8220863277506
 21
150.2850348255842
 31
0.0
  0
LINE
  5
3304
330
1F
100
AcDbEntity
  8
Innenkanten
100
AcDbLine
 10
-490.6220893277505
 20
127.9850448255841
 30
0.0
 11
-461.0220903277506
 21
127.9850448255841
 31
0.0
  0
LINE
  5
3305
330
1F
100
AcDbEntity
  8
0
100
AcDbLine
 10
-489.6220893277505
 20
111.6850448255842
 30
0.0
 11
-462.0220903277505
 21
111.6850448255842
 31
0.0
  0
LINE
  5
3306
330
1F
100
AcDbEntity
  8
Innenkanten
100
AcDbLine
 10
-489.6220893277505
 20
112.6850448255842
 30
0.0
 11
-461.0220903277506
 21
112.6850448255842
 31
0.0
  0
LINE
  5
3307
330
1F
100
AcDbEntity
  8
0
100
AcDbLine
 10
-494.8220863277506
 20
130.9850448255841
 30
0.0
 11
-456.8220903277506
 21
130.9850448255841
 31
0.0
  0
LINE
  5
3308
330
1F
100
AcDbEntity
  8
Innenkanten
100
AcDbLine
 10
-494.8220863277506
 20
133.7850348255842
 30
0.0
 11
-456.8220903277506
 21
133.7850348255842
 31
0.0
  0
LINE
  5
3309
330
1F
100
AcDbEntity
  8
0
100
AcDbLine
 10
-496.3220863277506
 20
134.7850348255842
 30
0.0
 11
-455.3220903277506
 21
134.7850348255842
 31
0.0
  0
LINE
  5
330A
330
1F
100
AcDbEntity
  8
0
100
AcDbLine
 10
-490.6220893277505
 20
112.6850448255842
 30
0.0
 11
-490.6220893277505
 21
130.9850448255841
 31
0.0
  0
LINE
  5
330B
330
1F
100
AcDbEntity
  8
Innenkanten
100
AcDbLine
 10
-489.6220893277505
 20
111.6850448255842
 30
0.0
 11
-489.6220893277505
 21
127.9850448255841
 31
0.0
  0
LINE
  5
330C
330
1F
100
AcDbEntity
  8
0
100
AcDbLine
 10
-490.6220893277505
 20
112.6850448255842
 30
0.0
 11
-489.6220893277505
 21
111.6850448255842
 31
0.0
  0
LINE
  5
330D
330
1F
100
AcDbEntity
  8
Innenkanten
100
AcDbLine
 10
-490.6220893277505
 20
112.6850448255842
 30
0.0
 11
-489.6220893277505
 21
112.6850448255842
 31
0.0
  0
LINE
  5
330E
330
1F
100
AcDbEntity
  8
0
100
AcDbLine
 10
-494.8720893277505
 20
130.9850448255841
 30
0.0
 11
-494.8720893277505
 21
134.7850348255842
 31
0.0
  0
LINE
  5
330F
330
1F
100
AcDbEntity
  8
0
100
AcDbLine
 10
-461.0220903277506
 20
112.6850448255842
 30
0.0
 11
-461.0220903277506
 21
130.9850448255841
 31
0.0
  0
LINE
  5
3310
330
1F
100
AcDbEntity
  8
Innenkanten
100
AcDbLine
 10
-462.0220903277505
 20
111.6850448255842
 30
0.0
 11
-462.0220903277505
 21
127.9850448255841
 31
0.0
  0
LINE
  5
3311
330
1F
100
AcDbEntity
  8
0
100
AcDbLine
 10
-462.0220903277505
 20
111.6850448255842
 30
0.0
 11
-461.0220903277506
 21
112.6850448255842
 31
0.0
  0
LINE
  5
3312
330
1F
100
AcDbEntity
  8
0
100
AcDbLine
 10
-456.7720903277505
 20
130.9850448255841
 30
0.0
 11
-456.7720903277505
 21
134.7850348255842
 31
0.0
  0
LINE
  5
3313
330
1F
100
AcDbEntity
  8
0
100
AcDbLine
 10
-510.4814163277506
 20
157.4502348255841
 30
0.0
 11
-503.3162163277506
 21
150.2850348255842
 31
0.0
  0
LINE
  5
3314
330
1F
100
AcDbEntity
  8
0
100
AcDbLine
 10
-496.3220863277506
 20
150.2850348255842
 30
0.0
 11
-496.3220863277506
 21
158.4470048255841
 31
0.0
  0
LINE
  5
3315
330
1F
100
AcDbEntity
  8
0
100
AcDbLine
 10
-494.8220863277506
 20
150.2850348255842
 30
0.0
 11
-494.8220863277506
 21
159.3094148255842
 31
0.0
  0
LINE
  5
3316
330
1F
100
AcDbEntity
  8
0
100
AcDbLine
 10
-503.3162163277506
 20
150.2850348255842
 30
0.0
 11
-496.3220863277506
 21
150.2850348255842
 31
0.0
  0
CIRCLE
  5
3317
330
1F
100
AcDbEntity
  8
Innenkanten
100
AcDbCircle
 10
-490.5220903277506
 20
147.2850348255842
 30
0.0
 40
2.0
  0
LINE
  5
3318
330
1F
100
AcDbEntity
  8
Mittellinie
100
AcDbLine
 10
-490.5220903277506
 20
145.0010548255842
 30
0.0
 11
-490.5220903277506
 21
150.1930548255842
 31
0.0
  0
LINE
  5
3319
330
1F
100
AcDbEntity
  8
Mittellinie
100
AcDbLine
 10
-493.0529363277505
 20
147.2850348255842
 30
0.0
 11
-488.3403963277506
 21
147.2850348255842
 31
0.0
  0
LINE
  5
331B
330
1F
100
AcDbEntity
  8
Innenkanten
100
AcDbLine
 10
-512.3375663277506
 20
164.3973548255842
 30
0.0
 11
-512.7858563277506
 21
162.7243148255842
 31
0.0
  0
LINE
  5
331C
330
1F
100
AcDbEntity
  8
Innenkanten
100
AcDbLine
 10
-509.4397863277506
 20
163.6208948255841
 30
0.0
 11
-510.6645363277505
 21
164.8456448255841
 31
0.0
  0
LINE
  5
331D
330
1F
100
AcDbEntity
  8
Innenkanten
100
AcDbLine
 10
-507.9354963277506
 20
159.9961548255842
 30
0.0
 11
-510.4814163277506
 21
157.4502348255841
 31
0.0
  0
LINE
  5
331E
330
1F
100
AcDbEntity
  8
Innenkanten
100
AcDbLine
 10
-509.8880763277505
 20
161.9478548255841
 30
0.0
 11
-509.4397863277506
 21
163.6208948255841
 31
0.0
  0
LINE
  5
331F
330
1F
100
AcDbEntity
  8
Innenkanten
100
AcDbLine
 10
-511.5611063277506
 20
161.4995748255842
 30
0.0
 11
-509.8880763277505
 21
161.9478548255841
 31
0.0
  0
LINE
  5
3320
330
1F
100
AcDbEntity
  8
Innenkanten
100
AcDbLine
 10
-512.7858563277506
 20
162.7243148255842
 30
0.0
 11
-511.5611063277506
 21
161.4995748255842
 31
0.0
  0
LINE
  5
3321
330
1F
100
AcDbEntity
  8
Innenkanten
100
AcDbLine
 10
-510.6645363277505
 20
164.8456448255841
 30
0.0
 11
-512.3375663277506
 21
164.3973548255842
 31
0.0
  0
LINE
  5
3322
330
1F
100
AcDbEntity
  8
0
100
AcDbLine
 10
-455.3220903277506
 20
150.2850348255842
 30
0.0
 11
-455.3220903277506
 21
158.4470048255841
 31
0.0
  0
LINE
  5
3323
330
1F
100
AcDbEntity
  8
0
100
AcDbLine
 10
-456.8220903277506
 20
150.2850348255842
 30
0.0
 11
-456.8220903277506
 21
159.3094148255842
 31
0.0
  0
CIRCLE
  5
3324
330
1F
100
AcDbEntity
  8
Innenkanten
100
AcDbCircle
 10
-461.1220893277505
 20
147.2850348255842
 30
0.0
 40
2.0
  0
LINE
  5
3325
330
1F
100
AcDbEntity
  8
Mittellinie
100
AcDbLine
 10
-461.1220893277505
 20
145.0010548255842
 30
0.0
 11
-461.1220893277505
 21
150.0012648255842
 31
0.0
  0
LINE
  5
3326
330
1F
100
AcDbEntity
  8
Mittellinie
100
AcDbLine
 10
-463.7095603277505
 20
147.2850348255842
 30
0.0
 11
-458.8052403277506
 21
147.2850348255842
 31
0.0
  0
ARC
  5
3328
330
1F
100
AcDbEntity
  8
Innenkanten
100
AcDbCircle
 10
-505.4384463277506
 20
228.0898848255842
 30
0.0
 40
4.5
100
AcDbArc
 50
225.0
 51
45.00000100000149
  0
CIRCLE
  5
3329
330
1F
100
AcDbEntity
  8
Innenkanten
100
AcDbCircle
 10
-505.4430863277505
 20
228.0859648255841
 30
0.0
 40
3.849999899999999
  0
CIRCLE
  5
332A
330
1F
100
AcDbEntity
  8
Innenkanten
100
AcDbCircle
 10
-505.4430863277505
 20
228.0859648255841
 30
0.0
 40
3.25
  0
LINE
  5
332B
330
1F
100
AcDbEntity
  8
Mittellinie
100
AcDbLine
 10
-502.2789763277505
 20
224.3245848255842
 30
0.0
 11
-507.4275863277505
 21
230.4604548255841
 31
0.0
  0
LINE
  5
332C
330
1F
100
AcDbEntity
  8
Innenkanten
100
AcDbLine
 10
-508.6204163277506
 20
224.9079048255842
 30
0.0
 11
-511.1663363277505
 21
227.4538148255842
 31
0.0
  0
ARC
  5
332D
330
1F
100
AcDbEntity
  8
Mittellinie
100
AcDbCircle
 10
-475.8220863277506
 20
192.8922748255842
 30
0.0
 40
46.0
100
AcDbArc
 50
125.4623899999995
 51
134.054060000002
  0
LINE
  5
332F
330
1F
100
AcDbEntity
  8
Innenkanten
100
AcDbLine
 10
-504.9947963277506
 20
229.7590008255841
 30
0.0
 11
-506.6678363277506
 21
229.3107128255842
 31
0.0
  0
LINE
  5
3330
330
1F
100
AcDbEntity
  8
Innenkanten
100
AcDbLine
 10
-505.8913763277505
 20
226.4129348255842
 30
0.0
 11
-504.2183463277506
 21
226.8612248255842
 31
0.0
  0
LINE
  5
3331
330
1F
100
AcDbEntity
  8
Innenkanten
100
AcDbLine
 10
-507.1161263277506
 20
227.6376748255842
 30
0.0
 11
-505.8913763277505
 21
226.4129348255842
 31
0.0
  0
LINE
  5
3332
330
1F
100
AcDbEntity
  8
Innenkanten
100
AcDbLine
 10
-506.6678363277506
 20
229.3107128255842
 30
0.0
 11
-507.1161263277506
 21
227.6376748255842
 31
0.0
  0
LINE
  5
3333
330
1F
100
AcDbEntity
  8
Innenkanten
100
AcDbLine
 10
-503.7700563277505
 20
228.5342548255842
 30
0.0
 11
-504.9947963277506
 21
229.7590008255841
 31
0.0
  0
LINE
  5
3334
330
1F
100
AcDbEntity
  8
Innenkanten
100
AcDbLine
 10
-504.2183463277506
 20
226.8612248255842
 30
0.0
 11
-503.7700563277505
 21
228.5342548255842
 31
0.0
  0
ARC
  5
3335
330
1F
100
AcDbEntity
  8
0
100
AcDbCircle
 10
-475.8220863277506
 20
192.7943848255841
 30
0.0
 40
115.0
100
AcDbArc
 50
310.0737400000014
 51
319.9263400000008
  0
ARC
  5
3336
330
1F
100
AcDbEntity
  8
Mittellinie
100
AcDbCircle
 10
-475.8220863277506
 20
192.7943848255841
 30
0.0
 40
91.5
100
AcDbArc
 50
293.9836599999987
 51
306.1185800000023
  0
CIRCLE
  5
3337
330
1F
100
AcDbEntity
  8
Innenkanten
100
AcDbCircle
 10
-430.0720903277506
 20
113.5530648255842
 30
0.0
 40
7.699999799999999
  0
CIRCLE
  5
3338
330
1F
100
AcDbEntity
  8
Innenkanten
100
AcDbCircle
 10
-430.0720903277506
 20
113.5530648255842
 30
0.0
 40
6.5
  0
LINE
  5
3339
330
1F
100
AcDbEntity
  8
Innenkanten
100
AcDbLine
 10
-417.8220903277506
 20
106.7944948255841
 30
0.0
 11
-417.8220903277506
 21
119.7944948255841
 31
0.0
  0
LINE
  5
333E
330
1F
100
AcDbEntity
  8
Mittellinie
100
AcDbLine
 10
-435.0912853277505
 20
122.2465648255841
 30
0.0
 11
-425.1636023277505
 21
105.0513148255842
 31
0.0
  0
LINE
  5
333F
330
1F
100
AcDbEntity
  8
Innenkanten
100
AcDbLine
 10
-428.3400383277506
 20
110.5530648255842
 30
0.0
 11
-426.6079883277505
 21
113.5530648255842
 31
0.0
  0
LINE
  5
3340
330
1F
100
AcDbEntity
  8
Innenkanten
100
AcDbLine
 10
-433.5361903277505
 20
113.5530648255842
 30
0.0
 11
-431.8041383277505
 21
110.5530648255842
 31
0.0
  0
LINE
  5
3341
330
1F
100
AcDbEntity
  8
Unsichtbar
100
AcDbLine
 10
-438.8220903277506
 20
110.7943848255841
 30
0.0
 11
-438.8220903277506
 21
118.7943848255841
 31
0.0
  0
LINE
  5
3343
330
1F
100
AcDbEntity
  8
0
100
AcDbLine
 10
-446.8220213277505
 20
78.99449482558418
 30
0.0
 11
-446.8220213277505
 21
104.7944948255841
 31
0.0
  0
LINE
  5
3344
330
1F
100
AcDbEntity
  8
0
100
AcDbLine
 10
-446.8220213277505
 20
70.79447482558419
 30
0.0
 11
-446.8220213277505
 21
104.7944948255841
 31
0.0
  0
LINE
  5
3345
330
1F
100
AcDbEntity
  8
0
100
AcDbLine
 10
-447.3720203277505
 20
66.9445048255842
 30
0.0
 11
-447.3720203277505
 21
70.79447482558419
 31
0.0
  0
LINE
  5
3346
330
1F
100
AcDbEntity
  8
Unsichtbar
100
AcDbLine
 10
-438.8220903277506
 20
110.7943848255841
 30
0.0
 11
-417.8220903277506
 21
110.7943848255841
 31
0.0
  0
LINE
  5
3347
330
1F
100
AcDbEntity
  8
Innenkanten
100
AcDbLine
 10
-431.8041383277505
 20
110.5530648255842
 30
0.0
 11
-428.3400383277506
 21
110.5530648255842
 31
0.0
  0
ARC
  5
3348
330
1F
100
AcDbEntity
  8
Innenkanten
100
AcDbCircle
 10
-419.8220903277506
 20
106.7944948255841
 30
0.0
 40
2.0
100
AcDbArc
 50
270.0
 51
0.0
  0
LINE
  5
3362
330
1F
100
AcDbEntity
  8
0
100
AcDbLine
 10
-387.8220893277505
 20
118.7606148255841
 30
0.0
 11
-387.8220893277505
 21
192.7943848255841
 31
0.0
  0
LINE
  5
3363
330
1F
100
AcDbEntity
  8
0
100
AcDbLine
 10
-433.3220903277505
 20
165.2909248255841
 30
0.0
 11
-433.3220903277505
 21
220.2980648255842
 31
0.0
  0
ARC
  5
3368
330
1F
100
AcDbEntity
  8
Innenkanten
100
AcDbCircle
 10
-887.8220863277507
 20
169.7944948255841
 30
0.0
 40
500.0
100
AcDbArc
 50
356.2005100000005
 51
359.999989999999
  0
ARC
  5
3369
330
1F
100
AcDbEntity
  8
Innenkanten
100
AcDbCircle
 10
-402.8220893277505
 20
119.7944948255841
 30
0.0
 40
15.0
100
AcDbArc
 50
90.00000299999769
 51
180.0000100000009
  0
LINE
  5
336B
330
1F
100
AcDbEntity
  8
Innenkanten
100
AcDbLine
 10
-431.8041383277505
 20
116.5530648255842
 30
0.0
 11
-433.5361903277505
 21
113.5530648255842
 31
0.0
  0
LINE
  5
336C
330
1F
100
AcDbEntity
  8
Unsichtbar
100
AcDbLine
 10
-438.8220903277506
 20
118.7943848255841
 30
0.0
 11
-417.8220903277506
 21
118.7943848255841
 31
0.0
  0
LINE
  5
336D
330
1F
100
AcDbEntity
  8
Unsichtbar
100
AcDbLine
 10
-441.8220903277506
 20
118.1443948255841
 30
0.0
 11
-417.8220903277506
 21
118.1443948255841
 31
0.0
  0
LINE
  5
336E
330
1F
100
AcDbEntity
  8
Unsichtbar
100
AcDbLine
 10
-441.8220903277506
 20
111.4443948255841
 30
0.0
 11
-417.8220903277506
 21
111.4443948255841
 31
0.0
  0
LINE
  5
336F
330
1F
100
AcDbEntity
  8
Unsichtbar
100
AcDbLine
 10
-444.8220903277506
 20
114.7943848255841
 30
0.0
 11
-441.8220903277506
 21
111.4443948255841
 31
0.0
  0
LINE
  5
3370
330
1F
100
AcDbEntity
  8
Unsichtbar
100
AcDbLine
 10
-444.8220903277506
 20
114.7943848255841
 30
0.0
 11
-441.8220903277506
 21
118.1443948255841
 31
0.0
  0
LINE
  5
3371
330
1F
100
AcDbEntity
  8
Unsichtbar
100
AcDbLine
 10
-441.8220903277506
 20
111.4443948255841
 30
0.0
 11
-441.8220903277506
 21
118.1443948255841
 31
0.0
  0
LINE
  5
3372
330
1F
100
AcDbEntity
  8
Innenkanten
100
AcDbLine
 10
-426.6079883277505
 20
113.5530648255842
 30
0.0
 11
-428.3400383277506
 21
116.5530648255842
 31
0.0
  0
LINE
  5
3373
330
1F
100
AcDbEntity
  8
Innenkanten
100
AcDbLine
 10
-428.3400383277506
 20
116.5530648255842
 30
0.0
 11
-431.8041383277505
 21
116.5530648255842
 31
0.0
  0
ARC
  5
3374
330
1F
100
AcDbEntity
  8
Mittellinie
100
AcDbCircle
 10
-475.8220863277506
 20
192.7943848255841
 30
0.0
 40
100.0
100
AcDbArc
 50
308.5552400000019
 51
321.2580300000009
  0
CIRCLE
  5
3375
330
1F
100
AcDbEntity
  8
Innenkanten
100
AcDbCircle
 10
-405.1113604277506
 20
122.0837548255841
 30
0.0
 40
6.75
  0
LINE
  5
3376
330
1F
100
AcDbEntity
  8
Mittellinie
100
AcDbLine
 10
-397.3577443277506
 20
114.3301348255842
 30
0.0
 11
-412.2484993277505
 21
129.2208948255842
 31
0.0
  0
LINE
  5
3377
330
1F
100
AcDbEntity
  8
Innenkanten
100
AcDbLine
 10
-402.8220893277505
 20
134.7944948255841
 30
0.0
 11
-390.9166649277506
 21
134.7944948255841
 31
0.0
  0
ARC
  5
3378
330
1F
100
AcDbEntity
  8
Innenkanten
100
AcDbCircle
 10
-390.9166649277506
 20
136.7944948255841
 30
0.0
 40
2.0
100
AcDbArc
 50
270.0
 51
356.2005100000005
  0
LINE
  5
3379
330
1F
100
AcDbEntity
  8
Mittellinie
100
AcDbLine
 10
-448.3028603277505
 20
160.0077948255841
 30
0.0
 11
-444.1295503277506
 21
155.0342348255842
 31
0.0
  0
LINE
  5
337B
330
1F
100
AcDbEntity
  8
0
100
AcDbLine
 10
-448.3279683277506
 20
150.2850348255842
 30
0.0
 11
-433.3220903277505
 21
165.2909248255841
 31
0.0
  0
LINE
  5
337C
330
1F
100
AcDbEntity
  8
Innenkanten
100
AcDbLine
 10
-445.0819473277506
 20
156.3852248255841
 30
0.0
 11
-444.6336593277505
 21
158.0582448255842
 31
0.0
  0
LINE
  5
337D
330
1F
100
AcDbEntity
  8
Innenkanten
100
AcDbLine
 10
-447.9797243277505
 20
157.1616848255841
 30
0.0
 11
-446.7549823277505
 21
155.9369348255842
 31
0.0
  0
LINE
  5
337E
330
1F
100
AcDbEntity
  8
Innenkanten
100
AcDbLine
 10
-446.7549823277505
 20
155.9369348255842
 30
0.0
 11
-445.0819473277506
 21
156.3852248255841
 31
0.0
  0
LINE
  5
337F
330
1F
100
AcDbEntity
  8
Innenkanten
100
AcDbLine
 10
-443.0237573277505
 20
160.6810748255841
 30
0.0
 11
-440.4778443277505
 21
158.1351648255841
 31
0.0
  0
LINE
  5
3380
330
1F
100
AcDbEntity
  8
Innenkanten
100
AcDbLine
 10
-447.5314363277505
 20
158.8347048255841
 30
0.0
 11
-447.9797243277505
 21
157.1616848255841
 31
0.0
  0
LINE
  5
3381
330
1F
100
AcDbEntity
  8
Innenkanten
100
AcDbLine
 10
-445.8584063277506
 20
159.2829848255842
 30
0.0
 11
-447.5314363277505
 21
158.8347048255841
 31
0.0
  0
LINE
  5
3382
330
1F
100
AcDbEntity
  8
Innenkanten
100
AcDbLine
 10
-444.6336593277505
 20
158.0582448255842
 30
0.0
 11
-445.8584063277506
 21
159.2829848255842
 31
0.0
  0
ARC
  5
33A0
330
1F
100
AcDbEntity
  8
Innenkanten
100
AcDbCircle
 10
-440.5266993277505
 20
222.4108448255841
 30
0.0
 40
4.5
100
AcDbArc
 50
135.0
 51
314.9999899999988
  0
CIRCLE
  5
33A1
330
1F
100
AcDbEntity
  8
Innenkanten
100
AcDbCircle
 10
-440.5398403277506
 20
222.4077348255841
 30
0.0
 40
3.849999899999999
  0
CIRCLE
  5
33A2
330
1F
100
AcDbEntity
  8
Innenkanten
100
AcDbCircle
 10
-440.5398403277506
 20
222.4077348255841
 30
0.0
 40
3.25
  0
ARC
  5
33A3
330
1F
100
AcDbEntity
  8
Mittellinie
100
AcDbCircle
 10
-475.8220863277506
 20
192.8922748255842
 30
0.0
 40
46.0
100
AcDbArc
 50
35.51608900000153
 51
44.04132599999946
  0
LINE
  5
33A4
330
1F
100
AcDbEntity
  8
Mittellinie
100
AcDbLine
 10
-443.0353963277505
 20
220.3137148255841
 30
0.0
 11
-438.0618433277505
 21
224.4870248255841
 31
0.0
  0
LINE
  5
33A6
330
1F
100
AcDbEntity
  8
Innenkanten
100
AcDbLine
 10
-440.9881283277505
 20
220.7347048255842
 30
0.0
 11
-439.3150943277505
 21
221.1829948255841
 31
0.0
  0
LINE
  5
33A7
330
1F
100
AcDbEntity
  8
Innenkanten
100
AcDbLine
 10
-440.0915523277506
 20
224.0807748255841
 30
0.0
 11
-441.7645833277506
 21
223.6324848255842
 31
0.0
  0
LINE
  5
33A8
330
1F
100
AcDbEntity
  8
Innenkanten
100
AcDbLine
 10
-442.2128753277505
 20
221.9594448255841
 30
0.0
 11
-440.9881283277505
 21
220.7347048255842
 31
0.0
  0
LINE
  5
33A9
330
1F
100
AcDbEntity
  8
Innenkanten
100
AcDbLine
 10
-441.7645833277506
 20
223.6324848255842
 30
0.0
 11
-442.2128753277505
 21
221.9594448255841
 31
0.0
  0
LINE
  5
33AA
330
1F
100
AcDbEntity
  8
Innenkanten
100
AcDbLine
 10
-437.3447153277505
 20
219.2288548255842
 30
0.0
 11
-434.7988013277507
 21
221.7747748255842
 31
0.0
  0
LINE
  5
33AB
330
1F
100
AcDbEntity
  8
Innenkanten
100
AcDbLine
 10
-439.3150943277505
 20
221.1829948255841
 30
0.0
 11
-438.8668063277505
 21
222.8560348255841
 31
0.0
  0
LINE
  5
33AC
330
1F
100
AcDbEntity
  8
Innenkanten
100
AcDbLine
 10
-438.8668063277505
 20
222.8560348255841
 30
0.0
 11
-440.0915523277506
 21
224.0807748255841
 31
0.0
  0
LINE
  5
33AD
330
1F
100
AcDbEntity
  8
Innenkanten
100
AcDbLine
 10
-443.7086793277505
 20
225.5928148255841
 30
0.0
 11
-441.1627613277505
 21
228.1387348255841
 31
0.0
  0
LINE
  5
33C3
330
1F
100
AcDbEntity
  8
0
100
AcDbLine
 10
-475.8220863277506
 20
280.7944888255841
 30
0.0
 11
-401.7884334277505
 21
280.7944888255841
 31
0.0
  0
LINE
  5
33C4
330
1F
100
AcDbEntity
  8
0
100
AcDbLine
 10
-503.3351063277505
 20
235.2850398255841
 30
0.0
 11
-448.3090663277505
 21
235.2850398255841
 31
0.0
  0
ARC
  5
33C5
330
1F
100
AcDbEntity
  8
Mittellinie
100
AcDbCircle
 10
-475.8220863277506
 20
192.7943848255841
 30
0.0
 40
91.5
100
AcDbArc
 50
113.9836599999986
 51
126.1185800000023
  0
LINE
  5
33C6
330
1F
100
AcDbEntity
  8
0
100
AcDbLine
 10
-549.8557463277506
 20
280.7944888255841
 30
0.0
 11
-475.8220863277506
 21
280.7944888255841
 31
0.0
  0
ARC
  5
33C7
330
1F
100
AcDbEntity
  8
Innenkanten
100
AcDbCircle
 10
-548.8220863277506
 20
265.7944888255841
 30
0.0
 40
15.0
100
AcDbArc
 50
270.0
 51
0.0
  0
CIRCLE
  5
33C8
330
1F
100
AcDbEntity
  8
Innenkanten
100
AcDbCircle
 10
-546.5327163277505
 20
263.5051178255841
 30
0.0
 40
6.75
  0
ARC
  5
33C9
330
1F
100
AcDbEntity
  8
Mittellinie
100
AcDbCircle
 10
-475.8220863277506
 20
192.7943848255841
 30
0.0
 40
100.0
100
AcDbArc
 50
128.7697500000026
 51
141.2838799999991
  0
LINE
  5
33CA
330
1F
100
AcDbEntity
  8
Mittellinie
100
AcDbLine
 10
-539.4177463277506
 20
256.3901428255842
 30
0.0
 11
-554.3296863277505
 21
271.3020878255842
 31
0.0
  0
ARC
  5
33CB
330
1F
100
AcDbEntity
  8
Innenkanten
100
AcDbCircle
 10
-560.7275163277505
 20
248.7944848255841
 30
0.0
 40
2.0
100
AcDbArc
 50
90.00000299999769
 51
176.2005100000005
  0
LINE
  5
33CC
330
1F
100
AcDbEntity
  8
Innenkanten
100
AcDbLine
 10
-560.7275163277505
 20
250.7944848255841
 30
0.0
 11
-548.8220863277506
 21
250.7944848255841
 31
0.0
  0
ARC
  5
33CD
330
1F
100
AcDbEntity
  8
0
100
AcDbCircle
 10
-475.8220863277506
 20
192.7943848255841
 30
0.0
 40
115.0
100
AcDbArc
 50
130.0735900000004
 51
139.9263400000008
  0
CIRCLE
  5
33CE
330
1F
100
AcDbEntity
  8
Innenkanten
100
AcDbCircle
 10
-521.5720863277506
 20
272.0357118255841
 30
0.0
 40
7.699999799999999
  0
CIRCLE
  5
33CF
330
1F
100
AcDbEntity
  8
Innenkanten
100
AcDbCircle
 10
-521.5720863277506
 20
272.0357118255841
 30
0.0
 40
6.5
  0
LINE
  5
33D0
330
1F
100
AcDbEntity
  8
Innenkanten
100
AcDbLine
 10
-533.8220863277506
 20
265.7944888255841
 30
0.0
 11
-533.8220863277506
 21
278.7944888255841
 31
0.0
  0
LINE
  5
33D1
330
1F
100
AcDbEntity
  8
Mittellinie
100
AcDbLine
 10
-516.5528863277505
 20
263.3422068255841
 30
0.0
 11
-526.4805763277506
 21
280.5374628255841
 31
0.0
  0
LINE
  5
33D2
330
1F
100
AcDbEntity
  8
Innenkanten
100
AcDbLine
 10
-525.0361863277505
 20
272.0357118255841
 30
0.0
 11
-523.3041463277506
 21
269.0357118255841
 31
0.0
  0
LINE
  5
33D3
330
1F
100
AcDbEntity
  8
Innenkanten
100
AcDbLine
 10
-519.8400363277506
 20
269.0357118255841
 30
0.0
 11
-518.1079863277505
 21
272.0357118255841
 31
0.0
  0
LINE
  5
33D4
330
1F
100
AcDbEntity
  8
Innenkanten
100
AcDbLine
 10
-523.3041463277506
 20
269.0357118255841
 30
0.0
 11
-519.8400363277506
 21
269.0357118255841
 31
0.0
  0
LINE
  5
33D5
330
1F
100
AcDbEntity
  8
Innenkanten
100
AcDbLine
 10
-519.8400363277506
 20
275.0357118255841
 30
0.0
 11
-523.3041463277506
 21
275.0357118255841
 31
0.0
  0
LINE
  5
33D6
330
1F
100
AcDbEntity
  8
Innenkanten
100
AcDbLine
 10
-523.3041463277506
 20
275.0357118255841
 30
0.0
 11
-525.0361863277505
 21
272.0357118255841
 31
0.0
  0
LINE
  5
33D7
330
1F
100
AcDbEntity
  8
Innenkanten
100
AcDbLine
 10
-518.1079863277505
 20
272.0357118255841
 30
0.0
 11
-519.8400363277506
 21
275.0357118255841
 31
0.0
  0
ARC
  5
33D8
330
1F
100
AcDbEntity
  8
Innenkanten
100
AcDbCircle
 10
-531.8220863277506
 20
278.7944888255841
 30
0.0
 40
2.0
100
AcDbArc
 50
90.00000299999769
 51
180.0000100000009
  0
LINE
  5
33D9
330
1F
100
AcDbEntity
  8
0
100
AcDbLine
 10
-449.0128863277505
 20
235.3039378255841
 30
0.0
 11
-448.9939883277505
 21
235.2850398255841
 31
0.0
  0
ARC
  5
33DC
330
1F
100
AcDbEntity
  8
Mittellinie
100
AcDbCircle
 10
-475.8220863277506
 20
192.7943848255841
 30
0.0
 40
100.0
100
AcDbArc
 50
38.63920000000006
 51
51.85728600000225
  0
ARC
  5
33DD
330
1F
100
AcDbEntity
  8
Innenkanten
100
AcDbCircle
 10
-402.8220893277505
 20
265.7944888255841
 30
0.0
 40
15.0
100
AcDbArc
 50
180.0000100000009
 51
270.0
  0
CIRCLE
  5
33DE
330
1F
100
AcDbEntity
  8
Innenkanten
100
AcDbCircle
 10
-405.1114615277506
 20
263.5051178255841
 30
0.0
 40
6.75
  0
LINE
  5
33DF
330
1F
100
AcDbEntity
  8
Mittellinie
100
AcDbLine
 10
-397.1821383277506
 20
271.4344388255841
 30
0.0
 11
-412.3746683277505
 21
256.2419108255842
 31
0.0
  0
LINE
  5
33E0
330
1F
100
AcDbEntity
  8
Mittellinie
100
AcDbLine
 10
-405.2742661277505
 20
233.5251908255842
 30
0.0
 11
-388.0790153277505
 21
243.4528718255842
 31
0.0
  0
LINE
  5
33E1
330
1F
100
AcDbEntity
  8
Innenkanten
100
AcDbLine
 10
-399.5807643377505
 20
240.2764338255842
 30
0.0
 11
-399.5807643377505
 21
236.8123378255841
 31
0.0
  0
LINE
  5
33E2
330
1F
100
AcDbEntity
  8
Innenkanten
100
AcDbLine
 10
-393.5807641277506
 20
236.8123378255841
 30
0.0
 11
-393.5807641277506
 21
240.2764338255842
 31
0.0
  0
LINE
  5
33E3
330
1F
100
AcDbEntity
  8
Innenkanten
100
AcDbLine
 10
-396.5807644277506
 20
235.0802828255841
 30
0.0
 11
-393.5807641277506
 21
236.8123378255841
 31
0.0
  0
LINE
  5
33E4
330
1F
100
AcDbEntity
  8
Innenkanten
100
AcDbLine
 10
-399.5807643377505
 20
236.8123378255841
 30
0.0
 11
-396.5807644277506
 21
235.0802828255841
 31
0.0
  0
LINE
  5
33E5
330
1F
100
AcDbEntity
  8
Innenkanten
100
AcDbLine
 10
-396.5807644277506
 20
242.0084898255842
 30
0.0
 11
-399.5807643377505
 21
240.2764338255842
 31
0.0
  0
LINE
  5
33E6
330
1F
100
AcDbEntity
  8
Innenkanten
100
AcDbLine
 10
-393.5807641277506
 20
240.2764338255842
 30
0.0
 11
-396.5807644277506
 21
242.0084898255842
 31
0.0
  0
LINE
  5
33E7
330
1F
100
AcDbEntity
  8
Innenkanten
100
AcDbLine
 10
-402.8220893277505
 20
250.7944848255841
 30
0.0
 11
-390.9166649277506
 21
250.7944848255841
 31
0.0
  0
ARC
  5
33E8
330
1F
100
AcDbEntity
  8
Innenkanten
100
AcDbCircle
 10
-390.9166649277506
 20
248.7944848255841
 30
0.0
 40
2.0
100
AcDbArc
 50
3.799492099998992
 51
90.00000299999769
  0
LINE
  5
33E9
330
1F
100
AcDbEntity
  8
Innenkanten
100
AcDbLine
 10
-417.8220903277506
 20
265.7944888255841
 30
0.0
 11
-417.8220903277506
 21
278.7944888255841
 31
0.0
  0
ARC
  5
33EA
330
1F
100
AcDbEntity
  8
Innenkanten
100
AcDbCircle
 10
-419.8220903277506
 20
278.7944888255841
 30
0.0
 40
2.0
100
AcDbArc
 50
0.0
 51
90.00000299999769
  0
ARC
  5
33EB
330
1F
100
AcDbEntity
  8
0
100
AcDbCircle
 10
-475.8220863277506
 20
192.7943848255841
 30
0.0
 40
115.0
100
AcDbArc
 50
40.07366200000036
 51
49.926414999999
  0
CIRCLE
  5
33F8
330
1F
100
AcDbEntity
  8
Innenkanten
100
AcDbCircle
 10
238.1908236722495
 20
192.7943848255841
 30
0.0
 40
54.25
  0
ARC
  5
33F9
330
1F
100
AcDbEntity
  8
Innenkanten
100
AcDbCircle
 10
158.9495236722493
 20
238.5443858255841
 30
0.0
 40
9.0
100
AcDbArc
 50
270.0
 51
90.00000299999769
  0
CIRCLE
  5
33FA
330
1F
100
AcDbEntity
  8
Innenkanten
100
AcDbCircle
 10
158.9495236722493
 20
238.5443858255841
 30
0.0
 40
7.699999799999999
  0
CIRCLE
  5
33FB
330
1F
100
AcDbEntity
  8
Innenkanten
100
AcDbCircle
 10
158.9495236722493
 20
238.5443858255841
 30
0.0
 40
6.5
  0
ARC
  5
33FC
330
1F
100
AcDbEntity
  8
Mittellinie
100
AcDbCircle
 10
238.1908236722495
 20
192.7943848255841
 30
0.0
 40
91.5
100
AcDbArc
 50
144.6579600000021
 51
155.4112299999981
  0
CIRCLE
  5
33FD
330
1F
100
AcDbEntity
  8
Innenkanten
100
AcDbCircle
 10
238.1908236722495
 20
192.7943848255841
 30
0.0
 40
57.150002
  0
LINE
  5
3401
330
1F
100
AcDbEntity
  8
Mittellinie
100
AcDbLine
 10
238.1908236722495
 20
41.80744482558418
 30
0.0
 11
238.1908236722495
 21
301.2216288255841
 31
0.0
  0
LINE
  5
3402
102
{ACAD_REACTORS
330
37AC
102
}
330
1F
100
AcDbEntity
  8
0
100
AcDbLine
 10
150.1908536722494
 20
192.7943848255841
 30
0.0
 11
150.1908536722494
 21
266.8281648255841
 31
0.0
  0
LINE
  5
3403
330
1F
100
AcDbEntity
  8
0
100
AcDbLine
 10
326.1908236722494
 20
192.7943848255841
 30
0.0
 11
326.1908236722494
 21
266.8281648255841
 31
0.0
  0
ARC
  5
340B
330
1F
100
AcDbEntity
  8
Innenkanten
100
AcDbCircle
 10
192.4408536722494
 20
113.5530648255842
 30
0.0
 40
9.0
100
AcDbArc
 50
0.0
 51
180.0000100000009
  0
LINE
  5
340C
102
{ACAD_REACTORS
330
383C
102
}
330
1F
100
AcDbEntity
  8
Mittellinie
100
AcDbLine
 10
139.7577136722493
 20
192.7943848255841
 30
0.0
 11
337.1831936722493
 21
192.7943848255841
 31
0.0
  0
LINE
  5
340D
102
{ACAD_REACTORS
330
37CD
102
}
330
1F
100
AcDbEntity
  8
0
100
AcDbLine
 10
164.1570736722494
 20
104.7943848255841
 30
0.0
 11
238.1908236722495
 21
104.7943848255841
 31
0.0
  0
ARC
  5
340E
330
1F
100
AcDbEntity
  8
0
100
AcDbCircle
 10
238.1908236722495
 20
192.7943848255841
 30
0.0
 40
115.0
100
AcDbArc
 50
220.0736599999991
 51
229.9263399999983
  0
LINE
  5
3410
330
1F
100
AcDbEntity
  8
Innenkanten
100
AcDbLine
 10
183.4408536722494
 20
104.7943848255841
 30
0.0
 11
183.4408536722494
 21
113.5530648255842
 31
0.0
  0
LINE
  5
3429
330
1F
100
AcDbEntity
  8
0
100
AcDbLine
 10
150.1908536722494
 20
118.7606148255841
 30
0.0
 11
150.1908536722494
 21
192.7943848255841
 31
0.0
  0
ARC
  5
342A
330
1F
100
AcDbEntity
  8
Mittellinie
100
AcDbCircle
 10
238.1908236722495
 20
192.7943848255841
 30
0.0
 40
100.0
100
AcDbArc
 50
218.4819099999989
 51
230.8733699999989
  0
CIRCLE
  5
342B
330
1F
100
AcDbEntity
  8
Innenkanten
100
AcDbCircle
 10
167.4801636722493
 20
122.0837048255841
 30
0.0
 40
6.75
  0
LINE
  5
342C
330
1F
100
AcDbEntity
  8
Mittellinie
100
AcDbLine
 10
175.7528936722494
 20
130.3564248255842
 30
0.0
 11
160.4932236722494
 21
115.0967548255841
 31
0.0
  0
LINE
  5
342E
330
1F
100
AcDbEntity
  8
Innenkanten
100
AcDbLine
 10
150.1908536722494
 20
229.5443858255842
 30
0.0
 11
158.9495236722493
 21
229.5443858255842
 31
0.0
  0
CIRCLE
  5
342F
330
1F
100
AcDbEntity
  8
Innenkanten
100
AcDbCircle
 10
192.4408536722494
 20
113.5530648255842
 30
0.0
 40
7.699999799999999
  0
CIRCLE
  5
3430
330
1F
100
AcDbEntity
  8
Innenkanten
100
AcDbCircle
 10
192.4408536722494
 20
113.5530648255842
 30
0.0
 40
6.5
  0
ARC
  5
3431
330
1F
100
AcDbEntity
  8
Mittellinie
100
AcDbCircle
 10
238.1908236722495
 20
192.7943848255841
 30
0.0
 40
91.5
100
AcDbArc
 50
234.6579600000002
 51
245.4112299999997
  0
ARC
  5
3432
330
1F
100
AcDbEntity
  8
0
100
AcDbCircle
 10
238.1908236722495
 20
192.7943848255841
 30
0.0
 40
115.0
100
AcDbArc
 50
310.0736600000016
 51
319.9263400000008
  0
LINE
  5
3433
330
1F
100
AcDbEntity
  8
Mittellinie
100
AcDbLine
 10
188.9742736722494
 20
107.5488148255842
 30
0.0
 11
195.8878436722493
 21
119.5234548255841
 31
0.0
  0
LINE
  5
3434
330
1F
100
AcDbEntity
  8
Innenkanten
100
AcDbLine
 10
188.9767436722493
 20
113.5530648255842
 30
0.0
 11
190.7087936722493
 21
110.5530648255842
 31
0.0
  0
LINE
  5
3435
330
1F
100
AcDbEntity
  8
Innenkanten
100
AcDbLine
 10
194.1729136722494
 20
110.5530648255842
 30
0.0
 11
195.9049336722493
 21
113.5530648255842
 31
0.0
  0
LINE
  5
3436
330
1F
100
AcDbEntity
  8
Innenkanten
100
AcDbLine
 10
201.4408536722494
 20
104.7943848255841
 30
0.0
 11
201.4408536722494
 21
113.5530648255842
 31
0.0
  0
LINE
  5
3437
330
1F
100
AcDbEntity
  8
0
100
AcDbLine
 10
238.1908236722495
 20
104.7943848255841
 30
0.0
 11
312.2246336722493
 21
104.7943848255841
 31
0.0
  0
LINE
  5
3438
330
1F
100
AcDbEntity
  8
Innenkanten
100
AcDbLine
 10
214.1909736722494
 20
42.79439482558411
 30
0.0
 11
214.1909736722494
 21
60.59437482558428
 31
0.0
  0
LINE
  5
3439
330
1F
100
AcDbEntity
  8
0
100
AcDbLine
 10
213.1909736722494
 20
43.7943948255841
 30
0.0
 11
213.1909736722494
 21
66.94438482558417
 31
0.0
  0
LINE
  5
343A
330
1F
100
AcDbEntity
  8
Innenkanten
100
AcDbLine
 10
262.1909436722494
 20
42.79439482558411
 30
0.0
 11
262.1910036722494
 21
60.59437482558428
 31
0.0
  0
LINE
  5
343B
330
1F
100
AcDbEntity
  8
0
100
AcDbLine
 10
263.1910036722493
 20
43.7943948255841
 30
0.0
 11
263.1910036722493
 21
66.94438482558417
 31
0.0
  0
LINE
  5
343C
330
1F
100
AcDbEntity
  8
0
100
AcDbLine
 10
214.1909736722494
 20
42.79439482558411
 30
0.0
 11
262.1910036722494
 21
42.79439482558411
 31
0.0
  0
LINE
  5
343D
330
1F
100
AcDbEntity
  8
Innenkanten
100
AcDbLine
 10
213.1909736722494
 20
43.7943948255841
 30
0.0
 11
263.1910036722493
 21
43.7943948255841
 31
0.0
  0
LINE
  5
343E
330
1F
100
AcDbEntity
  8
0
100
AcDbLine
 10
214.1909736722494
 20
42.79439482558411
 30
0.0
 11
213.1909736722494
 21
43.7943948255841
 31
0.0
  0
LINE
  5
343F
330
1F
100
AcDbEntity
  8
0
100
AcDbLine
 10
262.1910036722494
 20
42.79439482558411
 30
0.0
 11
263.1910036722493
 21
43.7943948255841
 31
0.0
  0
POINT
  5
3440
102
{ACAD_REACTORS
330
383C
102
}
330
1F
100
AcDbEntity
  8
0
100
AcDbPoint
 10
262.1909436722494
 20
42.79439482558411
 30
0.0
  0
LINE
  5
3441
102
{ACAD_REACTORS
330
385F
102
}
330
1F
100
AcDbEntity
  8
0
100
AcDbLine
 10
209.1909736722494
 20
70.79438482558419
 30
0.0
 11
267.1910036722493
 21
70.79438482558419
 31
0.0
  0
LINE
  5
3442
330
1F
100
AcDbEntity
  8
Innenkanten
100
AcDbLine
 10
213.1909736722494
 20
60.59437482558428
 30
0.0
 11
263.1910036722493
 21
60.59437482558428
 31
0.0
  0
LINE
  5
3446
330
1F
100
AcDbEntity
  8
Innenkanten
100
AcDbLine
 10
209.7409936722493
 20
70.29438482558418
 30
0.0
 11
266.6409536722494
 21
70.29438482558418
 31
0.0
  0
LINE
  5
3447
330
1F
100
AcDbEntity
  8
0
100
AcDbLine
 10
209.1909736722494
 20
70.79438482558419
 30
0.0
 11
209.1909736722494
 21
104.7943848255841
 31
0.0
  0
LINE
  5
3448
330
1F
100
AcDbEntity
  8
0
100
AcDbLine
 10
209.1909736722494
 20
78.99438482558412
 30
0.0
 11
209.1909736722494
 21
104.7943848255841
 31
0.0
  0
LINE
  5
3449
330
1F
100
AcDbEntity
  8
0
100
AcDbLine
 10
209.7409936722493
 20
66.94438482558417
 30
0.0
 11
209.7409936722493
 21
70.79438482558419
 31
0.0
  0
LINE
  5
344A
330
1F
100
AcDbEntity
  8
Innenkanten
100
AcDbLine
 10
190.7087936722493
 20
110.5530648255842
 30
0.0
 11
194.1729136722494
 21
110.5530648255842
 31
0.0
  0
LINE
  5
344B
330
1F
100
AcDbEntity
  8
0
100
AcDbLine
 10
267.1910036722493
 20
70.79438482558419
 30
0.0
 11
267.1910036722493
 21
104.7943848255841
 31
0.0
  0
LINE
  5
344C
330
1F
100
AcDbEntity
  8
0
100
AcDbLine
 10
267.1910036722493
 20
78.99438482558412
 30
0.0
 11
267.1910036722493
 21
104.7943848255841
 31
0.0
  0
LINE
  5
344D
330
1F
100
AcDbEntity
  8
0
100
AcDbLine
 10
266.6409536722494
 20
66.94438482558417
 30
0.0
 11
266.6409536722494
 21
70.79438482558419
 31
0.0
  0
CIRCLE
  5
344E
330
1F
100
AcDbEntity
  8
Innenkanten
100
AcDbCircle
 10
317.4321536722494
 20
147.0443848255841
 30
0.0
 40
7.699999799999999
  0
CIRCLE
  5
344F
330
1F
100
AcDbEntity
  8
Innenkanten
100
AcDbCircle
 10
317.4321536722494
 20
147.0443848255841
 30
0.0
 40
6.5
  0
ARC
  5
3450
330
1F
100
AcDbEntity
  8
Innenkanten
100
AcDbCircle
 10
317.4321536722494
 20
147.0443848255841
 30
0.0
 40
9.0
100
AcDbArc
 50
90.00000299999769
 51
270.0
  0
ARC
  5
3451
330
1F
100
AcDbEntity
  8
Mittellinie
100
AcDbCircle
 10
238.1908236722495
 20
192.7943848255841
 30
0.0
 40
100.0
100
AcDbArc
 50
309.4169700000018
 51
321.1556699999975
  0
CIRCLE
  5
3452
330
1F
100
AcDbEntity
  8
Innenkanten
100
AcDbCircle
 10
308.9015136722494
 20
122.0837048255841
 30
0.0
 40
6.75
  0
LINE
  5
3454
330
1F
100
AcDbEntity
  8
Mittellinie
100
AcDbLine
 10
323.4364236722494
 20
143.5778348255842
 30
0.0
 11
311.4617536722494
 21
150.4913948255841
 31
0.0
  0
LINE
  5
3455
330
1F
100
AcDbEntity
  8
Mittellinie
100
AcDbLine
 10
316.2475236722495
 20
114.7377148255841
 30
0.0
 11
301.3775936722494
 21
129.6076348255842
 31
0.0
  0
CIRCLE
  5
3456
330
1F
100
AcDbEntity
  8
Innenkanten
100
AcDbCircle
 10
238.1908236722495
 20
192.7943848255841
 30
0.0
 40
30.0
  0
LINE
  5
3457
330
1F
100
AcDbEntity
  8
Innenkanten
100
AcDbLine
 10
194.1729136722494
 20
116.5530648255842
 30
0.0
 11
190.7087936722493
 21
116.5530648255842
 31
0.0
  0
LINE
  5
3458
330
1F
100
AcDbEntity
  8
Innenkanten
100
AcDbLine
 10
190.7087936722493
 20
116.5530648255842
 30
0.0
 11
188.9767436722493
 21
113.5530648255842
 31
0.0
  0
LINE
  5
3459
330
1F
100
AcDbEntity
  8
Innenkanten
100
AcDbLine
 10
195.9049336722493
 20
113.5530648255842
 30
0.0
 11
194.1729136722494
 21
116.5530648255842
 31
0.0
  0
ARC
  5
345A
330
1F
100
AcDbEntity
  8
Mittellinie
100
AcDbCircle
 10
238.1908236722495
 20
192.7943848255841
 30
0.0
 40
45.0
100
AcDbArc
 50
212.9405599999999
 51
237.0033299999998
  0
CIRCLE
  5
345B
330
1F
100
AcDbEntity
  8
Innenkanten
100
AcDbCircle
 10
206.3710336722495
 20
160.9745748255841
 30
0.0
 40
7.5
  0
CIRCLE
  5
345C
330
1F
100
AcDbEntity
  8
Innenkanten
100
AcDbCircle
 10
206.3710336722495
 20
160.9745748255841
 30
0.0
 40
4.8125
  0
LINE
  5
345D
330
1F
100
AcDbEntity
  8
Mittellinie
100
AcDbLine
 10
213.5161736722494
 20
168.1197048255842
 30
0.0
 11
199.1453536722494
 21
153.7488948255842
 31
0.0
  0
CIRCLE
  5
345E
330
1F
100
AcDbEntity
  8
Innenkanten
100
AcDbCircle
 10
206.3710336722495
 20
160.9745748255841
 30
0.0
 40
4.0625
  0
LINE
  5
345F
330
1F
100
AcDbEntity
  8
Innenkanten
100
AcDbLine
 10
207.9019736722494
 20
162.5055048255842
 30
0.0
 11
205.8106636722493
 21
163.0658748255841
 31
0.0
  0
LINE
  5
3460
330
1F
100
AcDbEntity
  8
Innenkanten
100
AcDbLine
 10
206.9313936722494
 20
158.8832948255842
 30
0.0
 11
208.4623336722494
 21
160.4142248255841
 31
0.0
  0
LINE
  5
3461
330
1F
100
AcDbEntity
  8
Innenkanten
100
AcDbLine
 10
204.2797536722494
 20
161.5349448255841
 30
0.0
 11
204.8401136722493
 21
159.4436448255842
 31
0.0
  0
LINE
  5
3462
330
1F
100
AcDbEntity
  8
Innenkanten
100
AcDbLine
 10
205.8106636722493
 20
163.0658748255841
 30
0.0
 11
204.2797536722494
 21
161.5349448255841
 31
0.0
  0
LINE
  5
3463
330
1F
100
AcDbEntity
  8
Innenkanten
100
AcDbLine
 10
204.8401136722493
 20
159.4436448255842
 30
0.0
 11
206.9313936722494
 21
158.8832948255842
 31
0.0
  0
LINE
  5
3464
330
1F
100
AcDbEntity
  8
Innenkanten
100
AcDbLine
 10
208.4623336722494
 20
160.4142248255841
 30
0.0
 11
207.9019736722494
 21
162.5055048255842
 31
0.0
  0
CIRCLE
  5
3465
330
1F
100
AcDbEntity
  8
Innenkanten
100
AcDbCircle
 10
270.0106436722493
 20
160.9745748255841
 30
0.0
 40
7.5
  0
CIRCLE
  5
3466
330
1F
100
AcDbEntity
  8
Innenkanten
100
AcDbCircle
 10
270.0106436722493
 20
160.9745748255841
 30
0.0
 40
4.8125
  0
ARC
  5
3467
330
1F
100
AcDbEntity
  8
Mittellinie
100
AcDbCircle
 10
238.1908236722495
 20
192.7943848255841
 30
0.0
 40
45.0
100
AcDbArc
 50
302.9405699999991
 51
327.0033399999993
  0
LINE
  5
3468
330
1F
100
AcDbEntity
  8
Mittellinie
100
AcDbLine
 10
262.8655036722495
 20
168.1197048255842
 30
0.0
 11
277.2363536722494
 21
153.7488948255842
 31
0.0
  0
CIRCLE
  5
3469
330
1F
100
AcDbEntity
  8
Innenkanten
100
AcDbCircle
 10
270.0106436722493
 20
160.9745748255841
 30
0.0
 40
4.0625
  0
LINE
  5
346A
330
1F
100
AcDbEntity
  8
Innenkanten
100
AcDbLine
 10
272.1019536722494
 20
161.5349448255841
 30
0.0
 11
270.5710136722493
 21
163.0658748255841
 31
0.0
  0
LINE
  5
346B
330
1F
100
AcDbEntity
  8
Innenkanten
100
AcDbLine
 10
269.4502836722493
 20
158.8832948255842
 30
0.0
 11
271.5415936722493
 21
159.4436448255842
 31
0.0
  0
LINE
  5
346C
330
1F
100
AcDbEntity
  8
Innenkanten
100
AcDbLine
 10
268.4797036722494
 20
162.5055048255842
 30
0.0
 11
267.9193336722494
 21
160.4142248255841
 31
0.0
  0
LINE
  5
346D
330
1F
100
AcDbEntity
  8
Innenkanten
100
AcDbLine
 10
270.5710136722493
 20
163.0658748255841
 30
0.0
 11
268.4797036722494
 21
162.5055048255842
 31
0.0
  0
LINE
  5
346E
330
1F
100
AcDbEntity
  8
Innenkanten
100
AcDbLine
 10
267.9193336722494
 20
160.4142248255841
 30
0.0
 11
269.4502836722493
 21
158.8832948255842
 31
0.0
  0
LINE
  5
346F
330
1F
100
AcDbEntity
  8
Innenkanten
100
AcDbLine
 10
271.5415936722493
 20
159.4436448255842
 30
0.0
 11
272.1019536722494
 21
161.5349448255841
 31
0.0
  0
CIRCLE
  5
3470
330
1F
100
AcDbEntity
  8
Innenkanten
100
AcDbCircle
 10
238.1908236722495
 20
192.7943848255841
 30
0.0
 40
20.0
  0
CIRCLE
  5
3471
330
1F
100
AcDbEntity
  8
Innenkanten
100
AcDbCircle
 10
238.1908236722495
 20
192.7943848255841
 30
0.0
 40
17.5
  0
CIRCLE
  5
3472
330
1F
100
AcDbEntity
  8
Innenkanten
100
AcDbCircle
 10
206.3710336722495
 20
224.6141948255842
 30
0.0
 40
7.5
  0
ARC
  5
3473
330
1F
100
AcDbEntity
  8
Mittellinie
100
AcDbCircle
 10
238.1908236722495
 20
192.7943848255841
 30
0.0
 40
45.0
100
AcDbArc
 50
122.9405599999982
 51
147.0033300000016
  0
LINE
  5
3474
330
1F
100
AcDbEntity
  8
Mittellinie
100
AcDbLine
 10
213.5161736722494
 20
217.4690648255841
 30
0.0
 11
199.1453536722494
 21
231.8398728255841
 31
0.0
  0
CIRCLE
  5
3475
330
1F
100
AcDbEntity
  8
Innenkanten
100
AcDbCircle
 10
206.3710336722495
 20
224.6141948255842
 30
0.0
 40
4.8125
  0
CIRCLE
  5
3476
330
1F
100
AcDbEntity
  8
Innenkanten
100
AcDbCircle
 10
206.3710336722495
 20
224.6141948255842
 30
0.0
 40
4.0625
  0
LINE
  5
3477
330
1F
100
AcDbEntity
  8
Innenkanten
100
AcDbLine
 10
204.8401136722493
 20
226.1451248255841
 30
0.0
 11
204.2797536722494
 21
224.0538348255842
 31
0.0
  0
LINE
  5
3478
330
1F
100
AcDbEntity
  8
Innenkanten
100
AcDbLine
 10
207.9019736722494
 20
223.0832648255841
 30
0.0
 11
208.4623336722494
 21
225.1745548255842
 31
0.0
  0
LINE
  5
3479
330
1F
100
AcDbEntity
  8
Innenkanten
100
AcDbLine
 10
205.8106636722493
 20
222.5229048255842
 30
0.0
 11
207.9019736722494
 21
223.0832648255841
 31
0.0
  0
LINE
  5
347A
330
1F
100
AcDbEntity
  8
Innenkanten
100
AcDbLine
 10
204.2797536722494
 20
224.0538348255842
 30
0.0
 11
205.8106636722493
 21
222.5229048255842
 31
0.0
  0
LINE
  5
347B
330
1F
100
AcDbEntity
  8
Innenkanten
100
AcDbLine
 10
208.4623336722494
 20
225.1745548255842
 30
0.0
 11
206.9313936722494
 21
226.7054848255842
 31
0.0
  0
LINE
  5
347C
330
1F
100
AcDbEntity
  8
Innenkanten
100
AcDbLine
 10
206.9313936722494
 20
226.7054848255842
 30
0.0
 11
204.8401136722493
 21
226.1451248255841
 31
0.0
  0
POINT
  5
347D
330
1F
100
AcDbEntity
  8
0
100
AcDbPoint
 10
287.2898836722494
 20
192.7943848255841
 30
0.0
  0
CIRCLE
  5
347E
330
1F
100
AcDbEntity
  8
Innenkanten
100
AcDbCircle
 10
270.0106436722493
 20
224.6141948255842
 30
0.0
 40
7.5
  0
ARC
  5
347F
330
1F
100
AcDbEntity
  8
Mittellinie
100
AcDbCircle
 10
238.1908236722495
 20
192.7943848255841
 30
0.0
 40
45.0
100
AcDbArc
 50
32.94056499999907
 51
57.00333800000031
  0
LINE
  5
3480
330
1F
100
AcDbEntity
  8
Mittellinie
100
AcDbLine
 10
262.8655036722495
 20
217.4690648255841
 30
0.0
 11
277.2363536722494
 21
231.8398728255841
 31
0.0
  0
CIRCLE
  5
3481
330
1F
100
AcDbEntity
  8
Innenkanten
100
AcDbCircle
 10
270.0106436722493
 20
224.6141948255842
 30
0.0
 40
4.8125
  0
CIRCLE
  5
3482
330
1F
100
AcDbEntity
  8
Innenkanten
100
AcDbCircle
 10
270.0106436722493
 20
224.6141948255842
 30
0.0
 40
4.0625
  0
LINE
  5
3483
330
1F
100
AcDbEntity
  8
Innenkanten
100
AcDbLine
 10
267.9193336722494
 20
225.1745548255842
 30
0.0
 11
268.4797036722494
 21
223.0832648255841
 31
0.0
  0
LINE
  5
3484
330
1F
100
AcDbEntity
  8
Innenkanten
100
AcDbLine
 10
272.1019536722494
 20
224.0538348255842
 30
0.0
 11
271.5415936722493
 21
226.1451248255841
 31
0.0
  0
LINE
  5
3485
330
1F
100
AcDbEntity
  8
Innenkanten
100
AcDbLine
 10
270.5710136722493
 20
222.5229048255842
 30
0.0
 11
272.1019536722494
 21
224.0538348255842
 31
0.0
  0
LINE
  5
3486
330
1F
100
AcDbEntity
  8
Innenkanten
100
AcDbLine
 10
268.4797036722494
 20
223.0832648255841
 30
0.0
 11
270.5710136722493
 21
222.5229048255842
 31
0.0
  0
LINE
  5
3487
330
1F
100
AcDbEntity
  8
Innenkanten
100
AcDbLine
 10
271.5415936722493
 20
226.1451248255841
 30
0.0
 11
269.4502836722493
 21
226.7054848255842
 31
0.0
  0
LINE
  5
3488
330
1F
100
AcDbEntity
  8
Innenkanten
100
AcDbLine
 10
269.4502836722493
 20
226.7054848255842
 30
0.0
 11
267.9193336722494
 21
225.1745548255842
 31
0.0
  0
LINE
  5
3489
330
1F
100
AcDbEntity
  8
0
100
AcDbLine
 10
326.1908236722494
 20
118.7606148255841
 30
0.0
 11
326.1908236722494
 21
192.7943848255841
 31
0.0
  0
ARC
  5
348A
330
1F
100
AcDbEntity
  8
Mittellinie
100
AcDbCircle
 10
238.1908236722495
 20
192.7943848255841
 30
0.0
 40
91.5
100
AcDbArc
 50
324.6579499999985
 51
335.4112299999981
  0
LINE
  5
348B
330
1F
100
AcDbEntity
  8
Innenkanten
100
AcDbLine
 10
326.1908236722494
 20
138.0443848255841
 30
0.0
 11
317.4321536722494
 21
138.0443848255841
 31
0.0
  0
LINE
  5
348C
330
1F
100
AcDbEntity
  8
Innenkanten
100
AcDbLine
 10
317.4321536722494
 20
150.5084848255842
 30
0.0
 11
314.4321536722494
 21
148.7764448255841
 31
0.0
  0
LINE
  5
348D
330
1F
100
AcDbEntity
  8
Innenkanten
100
AcDbLine
 10
320.4321536722494
 20
148.7764448255841
 30
0.0
 11
317.4321536722494
 21
150.5084848255842
 31
0.0
  0
LINE
  5
348E
330
1F
100
AcDbEntity
  8
Innenkanten
100
AcDbLine
 10
317.4321536722494
 20
143.5802948255841
 30
0.0
 11
320.4321536722494
 21
145.3123348255842
 31
0.0
  0
LINE
  5
348F
330
1F
100
AcDbEntity
  8
Innenkanten
100
AcDbLine
 10
314.4321536722494
 20
145.3123348255842
 30
0.0
 11
317.4321536722494
 21
143.5802948255841
 31
0.0
  0
LINE
  5
3490
330
1F
100
AcDbEntity
  8
Innenkanten
100
AcDbLine
 10
314.4321536722494
 20
148.7764448255841
 30
0.0
 11
314.4321536722494
 21
145.3123348255842
 31
0.0
  0
LINE
  5
3491
330
1F
100
AcDbEntity
  8
Innenkanten
100
AcDbLine
 10
320.4321536722494
 20
145.3123348255842
 30
0.0
 11
320.4321536722494
 21
148.7764448255841
 31
0.0
  0
LINE
  5
3492
330
1F
100
AcDbEntity
  8
Innenkanten
100
AcDbLine
 10
326.1908236722494
 20
156.0443848255841
 30
0.0
 11
317.4321536722494
 21
156.0443848255841
 31
0.0
  0
POINT
  5
3493
330
1F
100
AcDbEntity
  8
0
100
AcDbPoint
 10
337.1831936722493
 20
192.7943848255841
 30
0.0
  0
LINE
  5
3494
330
1F
100
AcDbEntity
  8
0
100
AcDbLine
 10
164.1570736722494
 20
280.7943858255841
 30
0.0
 11
238.1908236722495
 21
280.7943858255841
 31
0.0
  0
ARC
  5
34A3
102
{ACAD_REACTORS
330
380A
102
}
330
1F
100
AcDbEntity
  8
Mittellinie
100
AcDbCircle
 10
238.1908236722495
 20
192.7943848255841
 30
0.0
 40
100.0
100
AcDbArc
 50
129.67773
 51
140.1781000000024
  0
CIRCLE
  5
34A4
330
1F
100
AcDbEntity
  8
Innenkanten
100
AcDbCircle
 10
167.4801636722493
 20
263.5050638255842
 30
0.0
 40
6.75
  0
LINE
  5
34A5
330
1F
100
AcDbEntity
  8
Mittellinie
100
AcDbLine
 10
174.1969536722494
 20
256.7882828255842
 30
0.0
 11
160.8475336722494
 21
270.1377008255841
 31
0.0
  0
LINE
  5
34A6
330
1F
100
AcDbEntity
  8
Innenkanten
100
AcDbLine
 10
150.1908536722494
 20
247.5443858255841
 30
0.0
 11
158.9495236722493
 21
247.5443858255841
 31
0.0
  0
LINE
  5
34A7
330
1F
100
AcDbEntity
  8
Innenkanten
100
AcDbLine
 10
161.9495236722493
 20
236.8123378255841
 30
0.0
 11
161.9495236722493
 21
240.2764338255842
 31
0.0
  0
LINE
  5
34A8
330
1F
100
AcDbEntity
  8
Innenkanten
100
AcDbLine
 10
155.9495236722493
 20
240.2764338255842
 30
0.0
 11
155.9495236722493
 21
236.8123378255841
 31
0.0
  0
LINE
  5
34A9
330
1F
100
AcDbEntity
  8
Mittellinie
100
AcDbLine
 10
152.9452436722493
 20
242.0109468255841
 30
0.0
 11
164.9198836722494
 21
235.0973878255842
 31
0.0
  0
LINE
  5
34AA
330
1F
100
AcDbEntity
  8
Innenkanten
100
AcDbLine
 10
158.9495236722493
 20
235.0802828255841
 30
0.0
 11
161.9495236722493
 21
236.8123378255841
 31
0.0
  0
LINE
  5
34AB
330
1F
100
AcDbEntity
  8
Innenkanten
100
AcDbLine
 10
155.9495236722493
 20
236.8123378255841
 30
0.0
 11
158.9495236722493
 21
235.0802828255841
 31
0.0
  0
LINE
  5
34AC
330
1F
100
AcDbEntity
  8
Innenkanten
100
AcDbLine
 10
161.9495236722493
 20
240.2764338255842
 30
0.0
 11
158.9495236722493
 21
242.0084898255842
 31
0.0
  0
LINE
  5
34AD
330
1F
100
AcDbEntity
  8
Innenkanten
100
AcDbLine
 10
158.9495236722493
 20
242.0084898255842
 30
0.0
 11
155.9495236722493
 21
240.2764338255842
 31
0.0
  0
ARC
  5
34AE
102
{ACAD_REACTORS
330
37CD
102
}
330
1F
100
AcDbEntity
  8
0
100
AcDbCircle
 10
238.1908236722495
 20
192.7943848255841
 30
0.0
 40
115.0
100
AcDbArc
 50
130.0736600000016
 51
139.9263400000008
  0
CIRCLE
  5
34AF
330
1F
100
AcDbEntity
  8
Innenkanten
100
AcDbCircle
 10
308.9015136722494
 20
263.5050638255842
 30
0.0
 40
6.75
  0
ARC
  5
34B0
330
1F
100
AcDbEntity
  8
Mittellinie
100
AcDbCircle
 10
238.1908236722495
 20
192.7943848255841
 30
0.0
 40
100.0
100
AcDbArc
 50
39.56479600000012
 51
50.357612000001
  0
LINE
  5
34B1
330
1F
100
AcDbEntity
  8
Mittellinie
100
AcDbLine
 10
315.3920536722494
 20
269.9955998255841
 30
0.0
 11
302.2345236722494
 21
256.8380648255841
 31
0.0
  0
LINE
  5
34B2
330
1F
100
AcDbEntity
  8
0
100
AcDbLine
 10
238.1908236722495
 20
280.7943858255841
 30
0.0
 11
311.9968536722494
 21
280.7943858255841
 31
0.0
  0
ARC
  5
34B3
330
1F
100
AcDbEntity
  8
Innenkanten
100
AcDbCircle
 10
283.9408236722495
 20
272.0357118255841
 30
0.0
 40
9.0
100
AcDbArc
 50
180.0000100000009
 51
0.0000100179138904
  0
CIRCLE
  5
34B4
330
1F
100
AcDbEntity
  8
Innenkanten
100
AcDbCircle
 10
283.9408236722495
 20
272.0357118255841
 30
0.0
 40
7.699999799999999
  0
CIRCLE
  5
34B5
330
1F
100
AcDbEntity
  8
Innenkanten
100
AcDbCircle
 10
283.9408236722495
 20
272.0357118255841
 30
0.0
 40
6.5
  0
ARC
  5
34B6
330
1F
100
AcDbEntity
  8
Mittellinie
100
AcDbCircle
 10
238.1908236722495
 20
192.7943848255841
 30
0.0
 40
91.5
100
AcDbArc
 50
54.65795000000039
 51
65.4112329999993
  0
LINE
  5
34B7
330
1F
100
AcDbEntity
  8
Innenkanten
100
AcDbLine
 10
274.9408236722495
 20
280.7943858255841
 30
0.0
 11
274.9408236722495
 21
272.0357118255841
 31
0.0
  0
LINE
  5
34B8
330
1F
100
AcDbEntity
  8
Innenkanten
100
AcDbLine
 10
292.9408236722494
 20
280.7943858255841
 30
0.0
 11
292.9408236722494
 21
272.0357118255841
 31
0.0
  0
LINE
  5
34B9
330
1F
100
AcDbEntity
  8
Innenkanten
100
AcDbLine
 10
280.4767136722493
 20
272.0357118255841
 30
0.0
 11
282.2087636722493
 21
269.0357118255841
 31
0.0
  0
LINE
  5
34BA
330
1F
100
AcDbEntity
  8
Innenkanten
100
AcDbLine
 10
285.6728736722494
 20
269.0357118255841
 30
0.0
 11
287.4049336722494
 21
272.0357118255841
 31
0.0
  0
LINE
  5
34BB
330
1F
100
AcDbEntity
  8
Mittellinie
100
AcDbLine
 10
287.4073736722495
 20
278.0399728255841
 30
0.0
 11
280.4938636722494
 21
266.0653288255841
 31
0.0
  0
LINE
  5
34BC
330
1F
100
AcDbEntity
  8
Innenkanten
100
AcDbLine
 10
282.2087636722493
 20
269.0357118255841
 30
0.0
 11
285.6728736722494
 21
269.0357118255841
 31
0.0
  0
LINE
  5
34BD
330
1F
100
AcDbEntity
  8
Innenkanten
100
AcDbLine
 10
282.2087636722493
 20
275.0357118255841
 30
0.0
 11
280.4767136722493
 21
272.0357118255841
 31
0.0
  0
LINE
  5
34BE
330
1F
100
AcDbEntity
  8
Innenkanten
100
AcDbLine
 10
287.4049336722494
 20
272.0357118255841
 30
0.0
 11
285.6728736722494
 21
275.0357118255841
 31
0.0
  0
LINE
  5
34BF
330
1F
100
AcDbEntity
  8
Innenkanten
100
AcDbLine
 10
285.6728736722494
 20
275.0357118255841
 30
0.0
 11
282.2087636722493
 21
275.0357118255841
 31
0.0
  0
ARC
  5
34C0
102
{ACAD_REACTORS
330
37AC
330
381F
102
}
330
1F
100
AcDbEntity
  8
0
100
AcDbCircle
 10
238.1908236722495
 20
192.7943848255841
 30
0.0
 40
115.0
100
AcDbArc
 50
40.07366200000036
 51
49.92633700000049
  0
LINE
  5
3580
330
1F
100
AcDbEntity
  8
0
100
AcDbLine
 10
666.7005189302237
 20
280.9436592553509
 30
0.0
 11
740.7005389302237
 21
280.9436592553509
 31
0.0
  0
LINE
  5
3581
330
1F
100
AcDbEntity
  8
Innenkanten
100
AcDbLine
 10
666.7005189302237
 20
243.9436592553509
 30
0.0
 11
738.7005389302237
 21
243.9436592553509
 31
0.0
  0
LINE
  5
3582
330
1F
100
AcDbEntity
  8
Innenkanten
100
AcDbLine
 10
666.7005189302237
 20
240.9436592553508
 30
0.0
 11
738.7005389302237
 21
240.9436592553508
 31
0.0
  0
LINE
  5
3583
330
1F
100
AcDbEntity
  8
Innenkanten
100
AcDbLine
 10
666.7005189302237
 20
237.9436592553509
 30
0.0
 11
738.7005389302237
 21
237.9436592553509
 31
0.0
  0
LINE
  5
3584
330
1F
100
AcDbEntity
  8
Innenkanten
100
AcDbLine
 10
666.7005189302237
 20
234.9436592553508
 30
0.0
 11
738.7005389302237
 21
234.9436592553508
 31
0.0
  0
LINE
  5
3585
330
1F
100
AcDbEntity
  8
Innenkanten
100
AcDbLine
 10
666.7005189302237
 20
150.9436582553508
 30
0.0
 11
738.7005389302237
 21
150.9436582553508
 31
0.0
  0
LINE
  5
3586
330
1F
100
AcDbEntity
  8
Innenkanten
100
AcDbLine
 10
666.7005189302237
 20
147.9436582553509
 30
0.0
 11
738.7005389302237
 21
147.9436582553509
 31
0.0
  0
LINE
  5
3587
330
1F
100
AcDbEntity
  8
Innenkanten
100
AcDbLine
 10
666.7005189302237
 20
144.9436582553508
 30
0.0
 11
738.7005389302237
 21
144.9436582553508
 31
0.0
  0
LINE
  5
3588
330
1F
100
AcDbEntity
  8
Innenkanten
100
AcDbLine
 10
666.7005189302237
 20
141.9436582553508
 30
0.0
 11
738.7005389302237
 21
141.9436582553508
 31
0.0
  0
LINE
  5
3589
330
1F
100
AcDbEntity
  8
0
100
AcDbLine
 10
666.7005189302237
 20
104.9436582553509
 30
0.0
 11
736.7005389302237
 21
104.9436582553509
 31
0.0
  0
LINE
  5
358A
330
1F
100
AcDbEntity
  8
Innenkanten
100
AcDbLine
 10
517.7005209302238
 20
134.9437682553508
 30
0.0
 11
740.7005389302237
 21
134.9437682553508
 31
0.0
  0
LINE
  5
358B
330
1F
100
AcDbEntity
  8
Innenkanten
100
AcDbLine
 10
517.7005209302238
 20
250.9437582553508
 30
0.0
 11
740.7005389302237
 21
250.9437582553508
 31
0.0
  0
LINE
  5
358C
330
1F
100
AcDbEntity
  8
Mittellinie
100
AcDbLine
 10
412.6087616526356
 20
192.1459466658252
 30
0.0
 11
838.9808689302238
 21
192.9436582553508
 31
0.0
  0
LINE
  5
3596
330
1F
100
AcDbEntity
  8
0
100
AcDbLine
 10
519.7505089302238
 20
67.09365825535087
 30
0.0
 11
574.3105089302237
 21
67.09365825535087
 31
0.0
  0
LINE
  5
3597
330
1F
100
AcDbEntity
  8
Innenkanten
100
AcDbLine
 10
523.2005059302236
 20
60.74364825535099
 30
0.0
 11
573.2005089302238
 21
60.74364825535099
 31
0.0
  0
LINE
  5
3598
330
1F
100
AcDbEntity
  8
Innenkanten
100
AcDbLine
 10
519.2005059302236
 20
103.9436582553509
 30
0.0
 11
594.2005089302238
 21
103.9436582553509
 31
0.0
  0
LINE
  5
3599
330
1F
100
AcDbEntity
  8
0
100
AcDbLine
 10
523.7005059302236
 20
103.9436582553509
 30
0.0
 11
585.7005089302238
 21
103.9436582553509
 31
0.0
  0
LINE
  5
359A
330
1F
100
AcDbEntity
  8
0
100
AcDbLine
 10
519.2005059302236
 20
70.94365825535089
 30
0.0
 11
587.0771089302237
 21
70.94365825535089
 31
0.0
  0
LINE
  5
359B
330
1F
100
AcDbEntity
  8
0
100
AcDbLine
 10
519.6505029302237
 20
67.09365825535087
 30
0.0
 11
575.4304989302237
 21
67.09365825535087
 31
0.0
  0
LINE
  5
359C
330
1F
100
AcDbEntity
  8
0
100
AcDbLine
 10
519.6505029302237
 20
67.09365825535087
 30
0.0
 11
576.6504989302237
 21
67.09365825535087
 31
0.0
  0
LINE
  5
359D
330
1F
100
AcDbEntity
  8
Innenkanten
100
AcDbLine
 10
519.7505089302238
 20
70.4436582553509
 30
0.0
 11
576.6504989302237
 21
70.4436582553509
 31
0.0
  0
LINE
  5
359E
330
1F
100
AcDbEntity
  8
0
100
AcDbLine
 10
524.2005059302236
 20
44.86366825535083
 30
0.0
 11
572.2005089302237
 21
44.86366825535083
 31
0.0
  0
LINE
  5
359F
330
1F
100
AcDbEntity
  8
0
100
AcDbLine
 10
523.2005059302236
 20
45.86366825535082
 30
0.0
 11
573.2005089302238
 21
45.86366825535082
 31
0.0
  0
LINE
  5
35A0
330
1F
100
AcDbEntity
  8
0
100
AcDbLine
 10
517.7005209302238
 20
104.9436582553509
 30
0.0
 11
666.7005189302237
 21
104.9436582553509
 31
0.0
  0
LINE
  5
35A1
330
1F
100
AcDbEntity
  8
Innenkanten
100
AcDbLine
 10
517.7005209302238
 20
150.9436582553508
 30
0.0
 11
666.7005189302237
 21
150.9436582553508
 31
0.0
  0
LINE
  5
35A2
330
1F
100
AcDbEntity
  8
Innenkanten
100
AcDbLine
 10
517.7005209302238
 20
147.9436582553509
 30
0.0
 11
666.7005189302237
 21
147.9436582553509
 31
0.0
  0
LINE
  5
35A3
330
1F
100
AcDbEntity
  8
Innenkanten
100
AcDbLine
 10
517.7005209302238
 20
144.9436582553508
 30
0.0
 11
666.7005189302237
 21
144.9436582553508
 31
0.0
  0
LINE
  5
35A4
330
1F
100
AcDbEntity
  8
Innenkanten
100
AcDbLine
 10
517.7005209302238
 20
141.9436582553508
 30
0.0
 11
666.7005189302237
 21
141.9436582553508
 31
0.0
  0
LINE
  5
35A5
330
1F
100
AcDbEntity
  8
0
100
AcDbLine
 10
519.2005059302236
 20
70.94365825535089
 30
0.0
 11
519.2005059302236
 21
104.9436582553509
 31
0.0
  0
LINE
  5
35A6
330
1F
100
AcDbEntity
  8
0
100
AcDbLine
 10
523.2005059302236
 20
45.86366825535082
 30
0.0
 11
523.2005059302236
 21
67.09365825535087
 31
0.0
  0
LINE
  5
35A7
330
1F
100
AcDbEntity
  8
Innenkanten
100
AcDbLine
 10
524.2005059302236
 20
44.86366825535083
 30
0.0
 11
524.2005059302236
 21
60.74364825535099
 31
0.0
  0
LINE
  5
35A8
330
1F
100
AcDbEntity
  8
0
100
AcDbLine
 10
524.2005059302236
 20
44.86366825535083
 30
0.0
 11
523.2005059302236
 21
45.86366825535082
 31
0.0
  0
LINE
  5
35A9
330
1F
100
AcDbEntity
  8
0
100
AcDbLine
 10
519.7505089302238
 20
67.09365825535087
 30
0.0
 11
519.7505089302238
 21
70.94365825535089
 31
0.0
  0
LINE
  5
35BD
330
1F
100
AcDbEntity
  8
0
100
AcDbLine
 10
460.200522930224
 20
104.9436592553509
 30
0.0
 11
517.7005209302238
 21
104.9436582553509
 31
0.0
  0
LINE
  5
35C1
330
1F
100
AcDbEntity
  8
Innenkanten
100
AcDbLine
 10
460.200522930224
 20
134.9437682553508
 30
0.0
 11
517.7005209302238
 21
134.9437682553508
 31
0.0
  0
ARC
  5
35CF
330
1F
100
AcDbEntity
  8
0
100
AcDbCircle
 10
514.2005059302237
 20
103.9436582553509
 30
0.0
 40
80.0
100
AcDbArc
 50
335.6380199999963
 51
0.0
  0
LINE
  5
35D0
102
{ACAD_REACTORS
330
378A
102
}
330
1F
100
AcDbEntity
  8
Mittellinie
100
AcDbLine
 10
548.2005089302238
 20
37.9436582553509
 30
0.0
 11
548.2005089302238
 21
108.8047355546768
 31
0.0
  0
LINE
  5
35D1
330
1F
100
AcDbEntity
  8
Innenkanten
100
AcDbLine
 10
572.2005089302237
 20
44.86366825535083
 30
0.0
 11
572.2005089302237
 21
60.74364825535099
 31
0.0
  0
LINE
  5
35D2
330
1F
100
AcDbEntity
  8
0
100
AcDbLine
 10
573.2005089302238
 20
45.86366825535082
 30
0.0
 11
573.2005089302238
 21
67.09365825535087
 31
0.0
  0
LINE
  5
35D3
330
1F
100
AcDbEntity
  8
0
100
AcDbLine
 10
572.2005089302237
 20
44.86366825535083
 30
0.0
 11
573.2005089302238
 21
45.86366825535082
 31
0.0
  0
LINE
  5
35D4
330
1F
100
AcDbEntity
  8
0
100
AcDbLine
 10
576.6504989302237
 20
67.09365825535087
 30
0.0
 11
576.6504989302237
 21
70.94365825535089
 31
0.0
  0
LINE
  5
35D5
330
1F
100
AcDbEntity
  8
Unsichtbar
100
AcDbLine
 10
610.1505189302237
 20
158.9437682553508
 30
0.0
 11
616.8505289302237
 21
158.9437682553508
 31
0.0
  0
LINE
  5
35D6
330
1F
100
AcDbEntity
  8
Unsichtbar
100
AcDbLine
 10
613.5005289302236
 20
161.9437682553508
 30
0.0
 11
616.8505289302237
 21
158.9437682553508
 31
0.0
  0
LINE
  5
35D7
330
1F
100
AcDbEntity
  8
Unsichtbar
100
AcDbLine
 10
609.5005289302236
 20
155.9437682553508
 30
0.0
 11
617.5005289302236
 21
155.9437682553508
 31
0.0
  0
LINE
  5
35D8
330
1F
100
AcDbEntity
  8
Unsichtbar
100
AcDbLine
 10
609.5005289302236
 20
134.9437682553508
 30
0.0
 11
609.5005289302236
 21
155.9437682553508
 31
0.0
  0
LINE
  5
35D9
330
1F
100
AcDbEntity
  8
Unsichtbar
100
AcDbLine
 10
610.1505189302237
 20
134.9437682553508
 30
0.0
 11
610.1505189302237
 21
158.9437682553508
 31
0.0
  0
LINE
  5
35DA
330
1F
100
AcDbEntity
  8
0
100
AcDbLine
 10
594.2005089302238
 20
103.9436582553509
 30
0.0
 11
594.2005089302238
 21
104.9000382553508
 31
0.0
  0
LINE
  5
35DB
330
1F
100
AcDbEntity
  8
Unsichtbar
100
AcDbLine
 10
613.5005289302236
 20
161.9437682553508
 30
0.0
 11
610.1505189302237
 21
158.9437682553508
 31
0.0
  0
LINE
  5
35DC
330
1F
100
AcDbEntity
  8
Unsichtbar
100
AcDbLine
 10
617.5005289302236
 20
134.9437682553508
 30
0.0
 11
617.5005289302236
 21
155.9437682553508
 31
0.0
  0
LINE
  5
35DD
330
1F
100
AcDbEntity
  8
Unsichtbar
100
AcDbLine
 10
616.8505289302237
 20
134.9437682553508
 30
0.0
 11
616.8505289302237
 21
158.9437682553508
 31
0.0
  0
CIRCLE
  5
35DE
330
1F
100
AcDbEntity
  8
Innenkanten
100
AcDbCircle
 10
673.5005289302237
 20
114.9436582553508
 30
0.0
 40
3.349999899999999
  0
LINE
  5
35DF
330
1F
100
AcDbEntity
  8
Mittellinie
100
AcDbLine
 10
673.5005289302237
 20
107.9591782553509
 30
0.0
 11
673.5005289302237
 21
122.7412482553509
 31
0.0
  0
CIRCLE
  5
35E0
330
1F
100
AcDbEntity
  8
Innenkanten
100
AcDbCircle
 10
673.5005289302237
 20
114.9436582553508
 30
0.0
 40
4.0
  0
LINE
  5
35E1
330
1F
100
AcDbEntity
  8
Mittellinie
100
AcDbLine
 10
664.7334789302237
 20
114.9436582553508
 30
0.0
 11
683.3430389302236
 21
114.9436582553508
 31
0.0
  0
LINE
  5
35E2
330
1F
100
AcDbEntity
  8
0
100
AcDbLine
 10
460.200522930224
 20
280.9436592553509
 30
0.0
 11
666.7005189302237
 21
280.9436592553509
 31
0.0
  0
LINE
  5
35E3
330
1F
100
AcDbEntity
  8
Innenkanten
100
AcDbLine
 10
517.7005209302238
 20
234.9436592553508
 30
0.0
 11
666.7005189302237
 21
234.9436592553508
 31
0.0
  0
LINE
  5
35E4
330
1F
100
AcDbEntity
  8
Innenkanten
100
AcDbLine
 10
517.7005209302238
 20
237.9436592553509
 30
0.0
 11
666.7005189302237
 21
237.9436592553509
 31
0.0
  0
LINE
  5
35E5
330
1F
100
AcDbEntity
  8
Innenkanten
100
AcDbLine
 10
517.7005209302238
 20
240.9436592553508
 30
0.0
 11
666.7005189302237
 21
240.9436592553508
 31
0.0
  0
LINE
  5
35E6
330
1F
100
AcDbEntity
  8
Innenkanten
100
AcDbLine
 10
517.7005209302238
 20
243.9436592553509
 30
0.0
 11
666.7005189302237
 21
243.9436592553509
 31
0.0
  0
LINE
  5
35E7
330
1F
100
AcDbEntity
  8
Innenkanten
100
AcDbLine
 10
517.7005209302238
 20
104.9436582553509
 30
0.0
 11
517.7005209302238
 21
280.9436592553509
 31
0.0
  0
LINE
  5
3601
330
1F
100
AcDbEntity
  8
Innenkanten
100
AcDbLine
 10
460.200522930224
 20
250.9437582553508
 30
0.0
 11
517.7005209302238
 21
250.9437582553508
 31
0.0
  0
LINE
  5
3606
102
{ACAD_REACTORS
330
36C2
330
36E3
330
3747
102
}
330
1F
100
AcDbEntity
  8
0
100
AcDbLine
 10
837.7005389302237
 20
175.4436582553509
 30
0.0
 11
837.7005389302237
 21
210.4436582553509
 31
0.0
  0
LINE
  5
3607
102
{ACAD_REACTORS
330
36C2
102
}
330
1F
100
AcDbEntity
  8
0
100
AcDbLine
 10
762.7005389302237
 20
172.9436582553509
 30
0.0
 11
762.7005389302237
 21
212.9436582553509
 31
0.0
  0
LINE
  5
3608
102
{ACAD_REACTORS
330
367A
330
36E3
330
3704
330
378A
102
}
330
1F
100
AcDbEntity
  8
0
100
AcDbLine
 10
758.7005389302237
 20
104.9436582553509
 30
0.0
 11
758.7005389302237
 21
280.9436592553509
 31
0.0
  0
LINE
  5
360B
102
{ACAD_REACTORS
330
369F
330
3768
102
}
330
1F
100
AcDbEntity
  8
0
100
AcDbLine
 10
761.7005389302237
 20
135.7936682553509
 30
0.0
 11
761.7005389302237
 21
250.0936612553508
 31
0.0
  0
LINE
  5
360C
330
1F
100
AcDbEntity
  8
0
100
AcDbLine
 10
762.7005389302237
 20
175.4436582553509
 30
0.0
 11
837.7005389302237
 21
175.4436582553509
 31
0.0
  0
LINE
  5
360D
330
1F
100
AcDbEntity
  8
0
100
AcDbLine
 10
758.7005389302237
 20
104.9436582553509
 30
0.0
 11
758.7005389302237
 21
169.9436582553508
 31
0.0
  0
LINE
  5
360F
330
1F
100
AcDbEntity
  8
0
100
AcDbLine
 10
751.7005389302237
 20
104.9436582553509
 30
0.0
 11
758.7005389302237
 21
104.9436582553509
 31
0.0
  0
LINE
  5
3610
330
1F
100
AcDbEntity
  8
0
100
AcDbLine
 10
736.7005389302237
 20
104.9436582553509
 30
0.0
 11
758.7005389302237
 21
104.9436582553509
 31
0.0
  0
LINE
  5
3611
330
1F
100
AcDbEntity
  8
Innenkanten
100
AcDbLine
 10
740.7005389302237
 20
119.1376582553508
 30
0.0
 11
758.7005389302237
 21
119.1376582553508
 31
0.0
  0
LINE
  5
3613
330
1F
100
AcDbEntity
  8
0
100
AcDbLine
 10
758.7005389302237
 20
135.7936682553509
 30
0.0
 11
761.7005389302237
 21
135.7936682553509
 31
0.0
  0
LINE
  5
3614
330
1F
100
AcDbEntity
  8
0
100
AcDbLine
 10
761.7005389302237
 20
172.9436582553509
 30
0.0
 11
762.7005389302237
 21
172.9436582553509
 31
0.0
  0
LINE
  5
3616
330
1F
100
AcDbEntity
  8
0
100
AcDbLine
 10
762.7005389302237
 20
210.4436582553509
 30
0.0
 11
837.7005389302237
 21
210.4436582553509
 31
0.0
  0
LINE
  5
3617
102
{ACAD_REACTORS
330
369F
102
}
330
1F
100
AcDbEntity
  8
0
100
AcDbLine
 10
758.7005389302237
 20
215.9436582553508
 30
0.0
 11
758.7005389302237
 21
280.9436592553509
 31
0.0
  0
LINE
  5
3618
102
{ACAD_REACTORS
330
367A
102
}
330
1F
100
AcDbEntity
  8
Innenkanten
100
AcDbLine
 10
740.7005389302237
 20
104.9436582553509
 30
0.0
 11
740.7005389302237
 21
280.9436592553509
 31
0.0
  0
LINE
  5
3619
330
1F
100
AcDbEntity
  8
Innenkanten
100
AcDbLine
 10
738.7005389302237
 20
104.9436582553509
 30
0.0
 11
738.7005389302237
 21
280.9436592553509
 31
0.0
  0
LINE
  5
361A
330
1F
100
AcDbEntity
  8
0
100
AcDbLine
 10
757.7005389302237
 20
232.1936592553508
 30
0.0
 11
757.7005389302237
 21
245.1936592553508
 31
0.0
  0
LINE
  5
361B
330
1F
100
AcDbEntity
  8
0
100
AcDbLine
 10
749.7005389302237
 20
246.3936642553509
 30
0.0
 11
749.7005389302237
 21
230.9936622553509
 31
0.0
  0
LINE
  5
361C
330
1F
100
AcDbEntity
  8
0
100
AcDbLine
 10
747.7005389302237
 20
229.6936592553509
 30
0.0
 11
747.7005389302237
 21
247.6936592553509
 31
0.0
  0
LINE
  5
361D
330
1F
100
AcDbEntity
  8
0
100
AcDbLine
 10
749.7005389302237
 20
232.1936592553508
 30
0.0
 11
757.7005389302237
 21
232.1936592553508
 31
0.0
  0
LINE
  5
361E
330
1F
100
AcDbEntity
  8
0
100
AcDbLine
 10
747.7005389302237
 20
229.6936592553509
 30
0.0
 11
758.7005389302237
 21
229.6936592553509
 31
0.0
  0
LINE
  5
361F
330
1F
100
AcDbEntity
  8
0
100
AcDbLine
 10
747.7005389302237
 20
230.9936622553509
 30
0.0
 11
749.7005389302237
 21
230.9936622553509
 31
0.0
  0
LINE
  5
3620
330
1F
100
AcDbEntity
  8
0
100
AcDbLine
 10
761.7005389302237
 20
212.9436582553509
 30
0.0
 11
762.7005389302237
 21
212.9436582553509
 31
0.0
  0
LINE
  5
3621
330
1F
100
AcDbEntity
  8
Mittellinie
100
AcDbLine
 10
759.4681189302236
 20
238.6936592553508
 30
0.0
 11
746.3588889302236
 21
238.6936592553508
 31
0.0
  0
LINE
  5
3622
330
1F
100
AcDbEntity
  8
0
100
AcDbLine
 10
757.7005389302237
 20
245.1936592553508
 30
0.0
 11
749.7005389302237
 21
245.1936592553508
 31
0.0
  0
LINE
  5
3623
330
1F
100
AcDbEntity
  8
0
100
AcDbLine
 10
747.7005389302237
 20
247.6936592553509
 30
0.0
 11
758.7005389302237
 21
247.6936592553509
 31
0.0
  0
LINE
  5
3624
330
1F
100
AcDbEntity
  8
0
100
AcDbLine
 10
747.7005389302237
 20
246.3936642553509
 30
0.0
 11
749.7005389302237
 21
246.3936642553509
 31
0.0
  0
LINE
  5
3625
330
1F
100
AcDbEntity
  8
0
100
AcDbLine
 10
758.7005389302237
 20
250.0936612553508
 30
0.0
 11
761.7005389302237
 21
250.0936612553508
 31
0.0
  0
LINE
  5
3626
330
1F
100
AcDbEntity
  8
0
100
AcDbLine
 10
751.7005389302237
 20
280.9436592553509
 30
0.0
 11
758.7005389302237
 21
280.9436592553509
 31
0.0
  0
LINE
  5
3627
330
1F
100
AcDbEntity
  8
0
100
AcDbLine
 10
740.7005389302237
 20
280.9436592553509
 30
0.0
 11
758.7005389302237
 21
280.9436592553509
 31
0.0
  0
LINE
  5
3628
330
1F
100
AcDbEntity
  8
Innenkanten
100
AcDbLine
 10
740.7005389302237
 20
266.7496632553509
 30
0.0
 11
758.7005389302237
 21
266.7496632553509
 31
0.0
  0
LINE
  5
3646
102
{ACAD_REACTORS
330
3655
102
}
330
1F
100
AcDbEntity
  8
0
100
AcDbLine
 10
274.9398796485365
 20
-302.4934441359608
 30
0.0
 11
274.9398796485365
 21
-313.4934441359608
 31
0.0
  0
LINE
  5
3647
102
{ACAD_REACTORS
330
3655
102
}
330
1F
100
AcDbEntity
  8
0
100
AcDbLine
 10
277.4398796485365
 20
-312.4934441359608
 30
0.0
 11
277.4398796485365
 21
-304.4934441359608
 31
0.0
  0
LINE
  5
3648
102
{ACAD_REACTORS
330
3655
102
}
330
1F
100
AcDbEntity
  8
Mittellinie
100
AcDbLine
 10
283.9398796485365
 20
-314.2610241359609
 30
0.0
 11
283.9398796485365
 21
-301.1517941359609
 31
0.0
  0
LINE
  5
3649
102
{ACAD_REACTORS
330
3655
102
}
330
1F
100
AcDbEntity
  8
0
100
AcDbLine
 10
292.9398796485365
 20
-302.4934441359608
 30
0.0
 11
292.9398796485365
 21
-313.4934441359608
 31
0.0
  0
LINE
  5
364A
102
{ACAD_REACTORS
330
3655
102
}
330
1F
100
AcDbEntity
  8
0
100
AcDbLine
 10
290.4398796485366
 20
-304.4934441359608
 30
0.0
 11
290.4398796485366
 21
-312.4934441359608
 31
0.0
  0
LINE
  5
364B
102
{ACAD_REACTORS
330
3655
102
}
330
1F
100
AcDbEntity
  8
0
100
AcDbLine
 10
290.4398796485366
 20
-312.4934441359608
 30
0.0
 11
277.4398796485365
 21
-312.4934441359608
 31
0.0
  0
LINE
  5
364D
102
{ACAD_REACTORS
330
3655
102
}
330
1F
100
AcDbEntity
  8
0
100
AcDbLine
 10
292.9398796485365
 20
-302.4934441359608
 30
0.0
 11
274.9398796485365
 21
-302.4934441359608
 31
0.0
  0
LINE
  5
364E
102
{ACAD_REACTORS
330
3655
102
}
330
1F
100
AcDbEntity
  8
0
100
AcDbLine
 10
276.2398746485365
 20
-304.4934441359608
 30
0.0
 11
291.6398766485365
 21
-304.4934441359608
 31
0.0
  0
LINE
  5
364F
102
{ACAD_REACTORS
330
3655
102
}
330
1F
100
AcDbEntity
  8
0
100
AcDbLine
 10
291.6398766485365
 20
-302.4934441359608
 30
0.0
 11
291.6398766485365
 21
-304.4934441359608
 31
0.0
  0
LINE
  5
3650
102
{ACAD_REACTORS
330
3655
102
}
330
1F
100
AcDbEntity
  8
0
100
AcDbLine
 10
276.2398746485365
 20
-302.4934441359608
 30
0.0
 11
276.2398746485365
 21
-304.4934441359608
 31
0.0
  0
LINE
  5
3662
330
1F
100
AcDbEntity
  8
0
100
AcDbLine
 10
326.1058625511497
 20
-313.4826384761327
 30
0.0
 11
326.1058625511497
 21
-40.9679384761327
 31
0.0
  0
DIMENSION
  5
3663
102
{ACAD_XDICTIONARY
360
3670
102
}
102
{ACAD_REACTORS
330
367A
102
}
330
1F
100
AcDbEntity
  8
Bemaßung
100
AcDbDimension
  2
*D0
 10
740.7005389302237
 20
294.5264917622071
 30
0.0
 11
749.7005389302237
 21
296.4014917622071
 31
0.0
 70
    32
 71
     5
 42
18.0
  3
ISO-25
100
AcDbAlignedDimension
 13
758.7005389302237
 23
280.9436592553509
 33
0.0
 14
740.7005389302237
 24
280.9436592553509
 34
0.0
100
AcDbRotatedDimension
  0
DIMENSION
  5
3684
102
{ACAD_XDICTIONARY
360
3693
102
}
102
{ACAD_REACTORS
330
369F
102
}
330
1F
100
AcDbEntity
  8
Bemaßung
100
AcDbDimension
  2
*D1
 10
758.7005389302237
 20
294.5264917622071
 30
0.0
 11
760.2005389302237
 21
296.4014917622071
 31
0.0
 70
    32
 71
     5
 42
3.0
  3
ISO-25
100
AcDbAlignedDimension
 13
761.7005389302237
 23
250.0936612553508
 33
0.0
 14
758.7005389302237
 24
250.0936612553508
 34
0.0
100
AcDbRotatedDimension
  0
DIMENSION
  5
36AB
102
{ACAD_XDICTIONARY
360
36B8
102
}
102
{ACAD_REACTORS
330
36C2
102
}
330
1F
100
AcDbEntity
  8
Bemaßung
100
AcDbDimension
  2
*D2
 10
837.7005389302237
 20
273.6944459328388
 30
0.0
 11
800.2005389302237
 21
275.5694459328387
 31
0.0
 70
    32
 71
     5
 42
75.0
  3
ISO-25
100
AcDbAlignedDimension
 13
762.7005389302237
 23
212.9436582553509
 33
0.0
 14
837.7005389302237
 24
210.4436582553509
 34
0.0
100
AcDbRotatedDimension
  0
DIMENSION
  5
36CC
102
{ACAD_XDICTIONARY
360
36D9
102
}
102
{ACAD_REACTORS
330
36E3
102
}
330
1F
100
AcDbEntity
  8
Bemaßung
100
AcDbDimension
  2
*D3
 10
758.7005389302237
 20
308.4887338681314
 30
0.0
 11
798.2005389302237
 21
310.3637338681314
 31
0.0
 70
    32
 71
     5
 42
79.0
  3
ISO-25
100
AcDbAlignedDimension
 13
837.7005389302237
 23
210.4436582553509
 33
0.0
 14
758.7005389302237
 24
280.9436592553509
 34
0.0
100
AcDbRotatedDimension
  0
DIMENSION
  5
36ED
102
{ACAD_XDICTIONARY
360
36FA
102
}
102
{ACAD_REACTORS
330
3704
102
}
330
1F
100
AcDbEntity
  8
Bemaßung
100
AcDbDimension
  2
*D4
 10
758.7005389302237
 20
308.4887338681314
 30
0.0
 11
588.7005309302238
 21
310.3637338681314
 31
0.0
 70
    32
 71
     5
 42
340.0000159999997
  3
ISO-25
100
AcDbAlignedDimension
 13
418.700522930224
 23
192.1573439136489
 33
0.0
 14
758.7005389302237
 24
280.9436592553509
 34
0.0
100
AcDbRotatedDimension
  0
DIMENSION
  5
3730
102
{ACAD_XDICTIONARY
360
373D
102
}
102
{ACAD_REACTORS
330
3747
102
}
330
1F
100
AcDbEntity
  8
Bemaßung
100
AcDbDimension
  2
*D6
 10
864.2311006623858
 20
175.4436582553509
 30
0.0
 11
862.3561006623859
 21
192.943658255351
 31
0.0
 70
    32
 71
     5
 42
35.0
  3
ISO-25
100
AcDbAlignedDimension
 13
837.7005389302237
 23
210.4436582553509
 33
0.0
 14
837.7005389302237
 24
175.4436582553509
 34
0.0
 50
90.0
100
AcDbRotatedDimension
  0
DIMENSION
  5
3751
102
{ACAD_XDICTIONARY
360
375E
102
}
102
{ACAD_REACTORS
330
3768
102
}
330
1F
100
AcDbEntity
  8
Bemaßung
100
AcDbDimension
  2
*D7
 10
879.0066491243761
 20
135.7936682553508
 30
0.0
 11
876.9233157910427
 21
192.943664755351
 31
0.0
 70
    32
 71
     5
 42
114.2999929999999
  3
ISO-25
100
AcDbAlignedDimension
 13
761.7005389302237
 23
250.0936612553508
 33
0.0
 14
761.7005389302237
 24
135.7936682553509
 34
0.0
 50
90.0
100
AcDbRotatedDimension
  0
DIMENSION
  5
3773
102
{ACAD_XDICTIONARY
360
3780
102
}
102
{ACAD_REACTORS
330
378A
102
}
330
1F
100
AcDbEntity
  8
Bemaßung
100
AcDbDimension
  2
*D8
 10
758.7005389302237
 20
18.50058378856283
 30
0.0
 11
653.4505239302237
 21
20.58391712189616
 31
0.0
 70
    32
 71
     5
 42
210.5000299999999
  3
ISO-25
100
AcDbAlignedDimension
 13
548.2005089302238
 23
37.9436582553509
 33
0.0
 14
758.7005389302237
 24
104.9436582553509
 34
0.0
100
AcDbRotatedDimension
  0
DIMENSION
  5
3795
102
{ACAD_XDICTIONARY
360
37A2
102
}
102
{ACAD_REACTORS
330
37AC
102
}
330
1F
100
AcDbEntity
  8
Bemaßung
100
AcDbDimension
  2
*D9
 10
326.1908262758034
 20
308.0720672014647
 30
0.0
 11
238.1908399740264
 21
309.9470672014647
 31
0.0
 70
    32
 71
     5
 42
175.999972603554
  3
ISO-25
100
AcDbAlignedDimension
 13
150.1908536722494
 23
266.8281648255841
 33
0.0
 14
326.1908262758034
 24
266.8281578063968
 34
0.0
100
AcDbRotatedDimension
  0
DIMENSION
  5
37B6
102
{ACAD_XDICTIONARY
360
37C3
102
}
102
{ACAD_REACTORS
330
37CD
102
}
330
1F
100
AcDbEntity
  8
Bemaßung
100
AcDbDimension
  2
*D10
 10
120.4411407337911
 20
104.7943848255842
 30
0.0
 11
118.5661407337911
 21
192.7943874194934
 31
0.0
 70
    32
 71
     5
 42
176.0000051878183
  3
ISO-25
100
AcDbAlignedDimension
 13
164.1570537632145
 23
280.7943900134025
 33
0.0
 14
164.1570736722494
 24
104.7943848255841
 34
0.0
 50
90.0
100
AcDbRotatedDimension
  0
DIMENSION
  5
37D7
330
1F
100
AcDbEntity
  8
Bemaßung
100
AcDbDimension
  2
*D11
 10
160.8475336722494
 20
268.2177008255841
 30
0.0
 11
195.8826838458158
 21
293.0152965602289
 31
0.0
 70
    34
 71
     5
 42
0.7853982383070793
  3
ISO-25
100
AcDb2LineAngularDimension
 13
238.1908236722495
 23
39.88744482558416
 33
0.0
 14
238.1908236722495
 24
299.3016288255841
 34
0.0
 15
174.1969536722494
 25
254.8682828255842
 35
0.0
 16
210.0619823075488
 26
295.8526770590291
 36
0.0
  0
DIMENSION
  5
37FB
102
{ACAD_XDICTIONARY
360
3804
102
}
102
{ACAD_REACTORS
330
380A
102
}
330
1F
100
AcDbEntity
  8
Bemaßung
100
AcDbDimension
  2
*D12
 10
314.9947036921753
 20
128.7540536749347
 30
0.0
 11
296.7763096462995
 21
143.9448485596231
 31
0.0
 70
   163
 71
     5
 42
199.9999999999999
  3
ISO-25
100
AcDbDiametricDimension
 15
161.3869436523236
 25
256.8347159762335
 35
0.0
 40
0.0
1001
ACAD
1000
DSTYLE
1002
{
1070
   279
1070
     1
1070
   288
1070
     1
1002
}
  0
DIMENSION
  5
3810
102
{ACAD_XDICTIONARY
360
3819
102
}
102
{ACAD_REACTORS
330
381F
102
}
330
1F
100
AcDbEntity
  8
Bemaßung
100
AcDbDimension
  2
*D13
 10
151.4312097313049
 20
117.3108145018491
 30
0.0
 11
179.4102310966273
 21
141.6534358078425
 31
0.0
 70
   163
 71
     5
 42
229.9999999999999
  3
ISO-25
100
AcDbDiametricDimension
 15
324.950437613194
 25
268.2779551493192
 35
0.0
 40
0.0
1001
ACAD
1000
DSTYLE
1002
{
1070
   279
1070
     1
1070
   288
1070
     1
1002
}
  0
DIMENSION
  5
3825
102
{ACAD_XDICTIONARY
360
3832
102
}
102
{ACAD_REACTORS
330
383C
102
}
330
1F
100
AcDbEntity
  8
Bemaßung
100
AcDbDimension
  2
*D14
 10
350.7191746763419
 20
42.79439482558408
 30
0.0
 11
348.8441746763419
 21
117.7943898255841
 31
0.0
 70
    32
 71
     5
 42
149.9999900000001
  3
ISO-25
100
AcDbAlignedDimension
 13
337.1831936722493
 23
192.7943848255841
 33
0.0
 14
262.1909436722494
 24
42.79439482558411
 34
0.0
 50
90.0
100
AcDbRotatedDimension
  0
LINE
  5
3847
330
1F
100
AcDbEntity
  8
0
100
AcDbLine
 10
209.7409936722493
 20
66.94438482558417
 30
0.0
 11
266.6409536722494
 21
66.94438482558417
 31
0.0
  0
DIMENSION
  5
3848
102
{ACAD_XDICTIONARY
360
3855
102
}
102
{ACAD_REACTORS
330
385F
102
}
330
1F
100
AcDbEntity
  8
Bemaßung
100
AcDbDimension
  2
*D15
 10
267.1910036722493
 20
19.18632813176145
 30
0.0
 11
238.1909886722494
 21
21.06132813176145
 31
0.0
 70
    32
 71
     5
 42
58.00002999999993
  3
ISO-25
100
AcDbAlignedDimension
 13
209.1909736722494
 23
70.79438482558419
 33
0.0
 14
267.1910036722493
 24
70.79438482558419
 34
0.0
100
AcDbRotatedDimension
  0
LINE
  5
3DAF
330
1F
100
AcDbEntity
  8
0
100
AcDbLine
 10
-501.0130749561605
 20
108.2999791382295
 30
0.0
 11
-451.0130749561605
 21
108.2999791382295
 31
0.0
  0
LINE
  5
3DB0
330
1F
100
AcDbEntity
  8
Innenkanten
100
AcDbLine
 10
-483.3135549561607
 20
86.10034513822961
 30
0.0
 11
-468.7135649561606
 21
86.10034513822961
 31
0.0
  0
LINE
  5
3DB1
330
1F
100
AcDbEntity
  8
Innenkanten
100
AcDbLine
 10
-483.3135549561607
 20
77.10034513822961
 30
0.0
 11
-468.7135649561606
 21
77.10034513822961
 31
0.0
  0
LINE
  5
3DB2
330
1F
100
AcDbEntity
  8
0
100
AcDbLine
 10
-483.3135549561607
 20
76.10034513822961
 30
0.0
 11
-468.7135649561606
 21
76.10034513822961
 31
0.0
  0
LINE
  5
3DB3
330
1F
100
AcDbEntity
  8
0
100
AcDbLine
 10
-489.5133549561605
 20
92.79997513822957
 30
0.0
 11
-462.5133649561607
 21
92.79997513822957
 31
0.0
  0
LINE
  5
3DB4
330
1F
100
AcDbEntity
  8
0
100
AcDbLine
 10
-488.7135449561606
 20
90.6003451382296
 30
0.0
 11
-463.3135649561607
 21
90.6003451382296
 31
0.0
  0
LINE
  5
3DB5
330
1F
100
AcDbEntity
  8
0
100
AcDbLine
 10
-489.5133549561605
 20
92.79997513822957
 30
0.0
 11
-489.5133549561605
 21
104.8000781382295
 31
0.0
  0
LINE
  5
3DB6
330
1F
100
AcDbEntity
  8
0
100
AcDbLine
 10
-483.9515549561606
 20
77.4686851382296
 30
0.0
 11
-483.9515549561606
 21
90.6003451382296
 31
0.0
  0
LINE
  5
3DB7
330
1F
100
AcDbEntity
  8
Innenkanten
100
AcDbLine
 10
-483.9515549561606
 20
86.4686851382296
 30
0.0
 11
-483.3135549561607
 21
86.10034513822961
 31
0.0
  0
LINE
  5
3DB8
330
1F
100
AcDbEntity
  8
0
100
AcDbLine
 10
-483.9515549561606
 20
77.4686851382296
 30
0.0
 11
-483.3135549561607
 21
77.10034513822961
 31
0.0
  0
LINE
  5
3DB9
330
1F
100
AcDbEntity
  8
Innenkanten
100
AcDbLine
 10
-483.3135549561607
 20
76.10034513822961
 30
0.0
 11
-483.3135549561607
 21
86.10034513822961
 31
0.0
  0
LINE
  5
3DBA
330
1F
100
AcDbEntity
  8
0
100
AcDbLine
 10
-488.7135449561606
 20
90.6003451382296
 30
0.0
 11
-488.7135449561606
 21
92.79997513822957
 31
0.0
  0
LINE
  5
3DBB
330
1F
100
AcDbEntity
  8
0
100
AcDbLine
 10
-501.0130749561605
 20
104.8000781382295
 30
0.0
 11
-501.0130749561605
 21
108.2999791382295
 31
0.0
  0
LINE
  5
3DBC
330
1F
100
AcDbEntity
  8
0
100
AcDbLine
 10
-462.5133649561607
 20
92.79997513822957
 30
0.0
 11
-462.5133649561607
 21
104.8000781382295
 31
0.0
  0
LINE
  5
3DBD
330
1F
100
AcDbEntity
  8
0
100
AcDbLine
 10
-468.0755649561606
 20
77.4686851382296
 30
0.0
 11
-468.0755649561606
 21
90.6003451382296
 31
0.0
  0
LINE
  5
3DBE
330
1F
100
AcDbEntity
  8
Innenkanten
100
AcDbLine
 10
-468.0755649561606
 20
86.4686851382296
 30
0.0
 11
-468.7135649561606
 21
86.10034513822961
 31
0.0
  0
LINE
  5
3DBF
330
1F
100
AcDbEntity
  8
0
100
AcDbLine
 10
-468.0755649561606
 20
77.4686851382296
 30
0.0
 11
-468.7135649561606
 21
77.10034513822961
 31
0.0
  0
LINE
  5
3DC0
330
1F
100
AcDbEntity
  8
Innenkanten
100
AcDbLine
 10
-468.7135649561606
 20
76.10034513822961
 30
0.0
 11
-468.7135649561606
 21
86.10034513822961
 31
0.0
  0
LINE
  5
3DC1
330
1F
100
AcDbEntity
  8
0
100
AcDbLine
 10
-463.3135649561607
 20
90.6003451382296
 30
0.0
 11
-463.3135649561607
 21
92.79997513822957
 31
0.0
  0
LINE
  5
3DC2
330
1F
100
AcDbEntity
  8
0
100
AcDbLine
 10
-451.0130749561605
 20
104.8000781382295
 30
0.0
 11
-451.0130749561605
 21
108.2999791382295
 31
0.0
  0
LINE
  5
3E40
330
1F
100
AcDbEntity
  8
Innenkanten
100
AcDbLine
 10
458.2005229302239
 20
162.9436552553509
 30
0.0
 11
458.2005229302239
 21
235.4436552553509
 31
0.0
  0
LINE
  5
3E41
330
1F
100
AcDbEntity
  8
0
100
AcDbLine
 10
460.2005229302238
 20
127.9436592553509
 30
0.0
 11
460.2005229302238
 21
257.9436552553509
 31
0.0
  0
LINE
  5
3E42
330
1F
100
AcDbEntity
  8
0
100
AcDbLine
 10
460.2005229302238
 20
127.9436592553509
 30
0.0
 11
460.2005229302238
 21
257.9436552553509
 31
0.0
  0
LINE
  5
3E43
330
1F
100
AcDbEntity
  8
0
100
AcDbLine
 10
460.2005229302238
 20
127.9436592553509
 30
0.0
 11
460.2005229302238
 21
257.9436552553509
 31
0.0
  0
LINE
  5
3E44
330
1F
100
AcDbEntity
  8
Innenkanten
100
AcDbLine
 10
507.2005209302239
 20
104.9436592553509
 30
0.0
 11
507.2005209302239
 21
280.9436592553509
 31
0.0
  0
LINE
  5
3E45
330
1F
100
AcDbEntity
  8
0
100
AcDbLine
 10
460.2005229302238
 20
104.9436592553509
 30
0.0
 11
460.2005229302238
 21
169.9436552553509
 31
0.0
  0
LINE
  5
3E46
330
1F
100
AcDbEntity
  8
Innenkanten
100
AcDbLine
 10
451.2005229302238
 20
150.4436552553509
 30
0.0
 11
451.2005229302238
 21
235.4436552553509
 31
0.0
  0
LINE
  5
3E47
102
{ACAD_REACTORS
330
436E
102
}
330
1F
100
AcDbEntity
  8
0
100
AcDbLine
 10
418.7005229302238
 20
134.9436552553509
 30
0.0
 11
418.7005229302238
 21
222.9436552553509
 31
0.0
  0
LINE
  5
3E48
330
1F
100
AcDbEntity
  8
0
100
AcDbLine
 10
445.2005229302239
 20
150.4436552553509
 30
0.0
 11
445.2005229302239
 21
235.4436552553509
 31
0.0
  0
LINE
  5
3E49
330
1F
100
AcDbEntity
  8
0
100
AcDbLine
 10
420.2005229302239
 20
134.9436552553509
 30
0.0
 11
420.2005229302239
 21
222.9436552553509
 31
0.0
  0
LINE
  5
3E4A
330
1F
100
AcDbEntity
  8
Innenkanten
100
AcDbLine
 10
420.2005229302239
 20
134.9436552553509
 30
0.0
 11
420.2005229302239
 21
231.8626812553509
 31
0.0
  0
LINE
  5
3E4B
330
1F
100
AcDbEntity
  8
Innenkanten
100
AcDbLine
 10
420.2005229302239
 20
158.596270255351
 30
0.0
 11
445.2005229302239
 21
158.596270255351
 31
0.0
  0
LINE
  5
3E4C
330
1F
100
AcDbEntity
  8
Innenkanten
100
AcDbLine
 10
423.4005129302239
 20
112.8436532553509
 30
0.0
 11
453.0005229302239
 21
112.8436532553509
 31
0.0
  0
LINE
  5
3E4D
330
1F
100
AcDbEntity
  8
0
100
AcDbLine
 10
424.4005129302239
 20
111.8436532553509
 30
0.0
 11
452.0005229302239
 21
111.8436532553509
 31
0.0
  0
LINE
  5
3E4E
330
1F
100
AcDbEntity
  8
Innenkanten
100
AcDbLine
 10
418.7005229302238
 20
134.9436552553509
 30
0.0
 11
457.7005229302239
 21
134.9436552553509
 31
0.0
  0
LINE
  5
3E4F
330
1F
100
AcDbEntity
  8
Innenkanten
100
AcDbLine
 10
423.4005129302239
 20
128.143656255351
 30
0.0
 11
453.0005229302239
 21
128.143656255351
 31
0.0
  0
LINE
  5
3E50
330
1F
100
AcDbEntity
  8
Innenkanten
100
AcDbLine
 10
419.1505129302239
 20
133.9436552553509
 30
0.0
 11
457.7005229302239
 21
133.9436552553509
 31
0.0
  0
LINE
  5
3E51
330
1F
100
AcDbEntity
  8
0
100
AcDbLine
 10
419.1505129302239
 20
131.143656255351
 30
0.0
 11
457.2505229302239
 21
131.143656255351
 31
0.0
  0
LINE
  5
3E52
330
1F
100
AcDbEntity
  8
Innenkanten
100
AcDbLine
 10
424.4005129302239
 20
111.8436532553509
 30
0.0
 11
424.4005129302239
 21
128.143656255351
 31
0.0
  0
LINE
  5
3E53
330
1F
100
AcDbEntity
  8
0
100
AcDbLine
 10
423.4005129302239
 20
112.8436532553509
 30
0.0
 11
423.4005129302239
 21
131.143656255351
 31
0.0
  0
LINE
  5
3E54
330
1F
100
AcDbEntity
  8
Mittellinie
100
AcDbLine
 10
438.2005229302238
 20
105.1009012553509
 30
0.0
 11
438.2005229302238
 21
138.4028462553509
 31
0.0
  0
LINE
  5
3E55
330
1F
100
AcDbEntity
  8
0
100
AcDbLine
 10
423.4005129302239
 20
112.8436532553509
 30
0.0
 11
424.4005129302239
 21
111.8436532553509
 31
0.0
  0
LINE
  5
3E56
330
1F
100
AcDbEntity
  8
0
100
AcDbLine
 10
419.1505129302239
 20
131.143656255351
 30
0.0
 11
419.1505129302239
 21
134.9436552553509
 31
0.0
  0
LINE
  5
3E57
330
1F
100
AcDbEntity
  8
Innenkanten
100
AcDbLine
 10
418.7005229302238
 20
159.4586852553509
 30
0.0
 11
420.2005229302239
 21
158.596270255351
 31
0.0
  0
LINE
  5
3E58
102
{ACAD_REACTORS
330
436E
102
}
330
1F
100
AcDbEntity
  8
0
100
AcDbLine
 10
487.7005209302239
 20
71.39379525535099
 30
0.0
 11
487.7005209302239
 21
104.9436592553509
 31
0.0
  0
LINE
  5
3E59
330
1F
100
AcDbEntity
  8
Innenkanten
100
AcDbLine
 10
452.0005229302239
 20
111.8436532553509
 30
0.0
 11
452.0005229302239
 21
128.143656255351
 31
0.0
  0
LINE
  5
3E5A
330
1F
100
AcDbEntity
  8
0
100
AcDbLine
 10
453.0005229302239
 20
112.8436532553509
 30
0.0
 11
453.0005229302239
 21
131.143656255351
 31
0.0
  0
LINE
  5
3E5B
330
1F
100
AcDbEntity
  8
0
100
AcDbLine
 10
475.0003229302238
 20
90.744025255351
 30
0.0
 11
500.400326930224
 21
90.744025255351
 31
0.0
  0
LINE
  5
3E5C
330
1F
100
AcDbEntity
  8
Innenkanten
100
AcDbLine
 10
480.400322930224
 20
86.24402525535101
 30
0.0
 11
495.0003249302239
 21
86.24402525535101
 31
0.0
  0
LINE
  5
3E5D
330
1F
100
AcDbEntity
  8
0
100
AcDbLine
 10
474.2005229302239
 20
92.94365525535097
 30
0.0
 11
501.2005209302238
 21
92.94365525535097
 31
0.0
  0
LINE
  5
3E5E
330
1F
100
AcDbEntity
  8
0
100
AcDbLine
 10
480.400322930224
 20
76.244025255351
 30
0.0
 11
495.0003249302239
 21
76.244025255351
 31
0.0
  0
LINE
  5
3E5F
330
1F
100
AcDbEntity
  8
Innenkanten
100
AcDbLine
 10
480.400322930224
 20
77.24402525535101
 30
0.0
 11
495.0003249302239
 21
77.24402525535101
 31
0.0
  0
LINE
  5
3E60
330
1F
100
AcDbEntity
  8
0
100
AcDbLine
 10
474.2005229302239
 20
92.94365525535097
 30
0.0
 11
474.2005229302239
 21
104.9436592553509
 31
0.0
  0
LINE
  5
3E61
330
1F
100
AcDbEntity
  8
0
100
AcDbLine
 10
479.7623229302239
 20
77.612365255351
 30
0.0
 11
479.7623229302239
 21
90.744025255351
 31
0.0
  0
LINE
  5
3E62
330
1F
100
AcDbEntity
  8
Innenkanten
100
AcDbLine
 10
479.7623229302239
 20
86.612365255351
 30
0.0
 11
480.400322930224
 21
86.24402525535101
 31
0.0
  0
LINE
  5
3E63
330
1F
100
AcDbEntity
  8
0
100
AcDbLine
 10
479.7623229302239
 20
77.612365255351
 30
0.0
 11
480.400322930224
 21
77.24402525535101
 31
0.0
  0
LINE
  5
3E64
330
1F
100
AcDbEntity
  8
Innenkanten
100
AcDbLine
 10
480.400322930224
 20
76.244025255351
 30
0.0
 11
480.400322930224
 21
86.24402525535101
 31
0.0
  0
LINE
  5
3E65
330
1F
100
AcDbEntity
  8
0
100
AcDbLine
 10
475.0003229302238
 20
90.744025255351
 30
0.0
 11
475.0003229302238
 21
92.94365525535097
 31
0.0
  0
LINE
  5
3E66
330
1F
100
AcDbEntity
  8
Mittellinie
100
AcDbLine
 10
459.1845229302239
 20
113.7023342553509
 30
0.0
 11
473.0516029302239
 21
113.7023342553509
 31
0.0
  0
LINE
  5
3E67
330
1F
100
AcDbEntity
  8
Innenkanten
100
AcDbLine
 10
460.2005229302238
 20
121.7436542553509
 30
0.0
 11
471.2005229302238
 21
121.7436542553509
 31
0.0
  0
LINE
  5
3E68
330
1F
100
AcDbEntity
  8
0
100
AcDbLine
 10
453.0005229302239
 20
112.8436532553509
 30
0.0
 11
452.0005229302239
 21
111.8436532553509
 31
0.0
  0
LINE
  5
3E69
330
1F
100
AcDbEntity
  8
0
100
AcDbLine
 10
470.2005229302239
 20
106.0023292553509
 30
0.0
 11
470.2005229302239
 21
121.402331255351
 31
0.0
  0
LINE
  5
3E6A
330
1F
100
AcDbEntity
  8
0
100
AcDbLine
 10
462.2005229302239
 20
107.2023342553509
 30
0.0
 11
462.2005229302239
 21
120.2023342553509
 31
0.0
  0
LINE
  5
3E6B
330
1F
100
AcDbEntity
  8
Innenkanten
100
AcDbLine
 10
471.2005229302238
 20
104.9436592553509
 30
0.0
 11
471.2005229302238
 21
121.7436542553509
 31
0.0
  0
LINE
  5
3E6C
330
1F
100
AcDbEntity
  8
0
100
AcDbLine
 10
470.2005229302239
 20
106.0023292553509
 30
0.0
 11
471.2005229302238
 21
106.0023292553509
 31
0.0
  0
LINE
  5
3E6D
330
1F
100
AcDbEntity
  8
0
100
AcDbLine
 10
470.2005229302239
 20
107.2023342553509
 30
0.0
 11
462.2005229302239
 21
107.2023342553509
 31
0.0
  0
LINE
  5
3E6E
330
1F
100
AcDbEntity
  8
0
100
AcDbLine
 10
471.2005229302238
 20
121.402331255351
 30
0.0
 11
470.2005229302239
 21
121.402331255351
 31
0.0
  0
LINE
  5
3E6F
330
1F
100
AcDbEntity
  8
0
100
AcDbLine
 10
470.2005229302239
 20
120.2023342553509
 30
0.0
 11
462.2005229302239
 21
120.2023342553509
 31
0.0
  0
LINE
  5
3E70
330
1F
100
AcDbEntity
  8
0
100
AcDbLine
 10
501.2005209302238
 20
92.94365525535097
 30
0.0
 11
501.2005209302238
 21
104.9436592553509
 31
0.0
  0
LINE
  5
3E71
330
1F
100
AcDbEntity
  8
0
100
AcDbLine
 10
495.6383259302238
 20
77.612365255351
 30
0.0
 11
495.6383259302238
 21
90.744025255351
 31
0.0
  0
LINE
  5
3E72
330
1F
100
AcDbEntity
  8
Innenkanten
100
AcDbLine
 10
495.6383259302238
 20
86.612365255351
 30
0.0
 11
495.0003249302239
 21
86.24402525535101
 31
0.0
  0
LINE
  5
3E73
330
1F
100
AcDbEntity
  8
0
100
AcDbLine
 10
495.6383259302238
 20
77.612365255351
 30
0.0
 11
495.0003249302239
 21
77.24402525535101
 31
0.0
  0
LINE
  5
3E74
330
1F
100
AcDbEntity
  8
Innenkanten
100
AcDbLine
 10
495.0003249302239
 20
76.244025255351
 30
0.0
 11
495.0003249302239
 21
86.24402525535101
 31
0.0
  0
LINE
  5
3E75
330
1F
100
AcDbEntity
  8
0
100
AcDbLine
 10
500.400326930224
 20
90.744025255351
 30
0.0
 11
500.400326930224
 21
92.94365525535097
 31
0.0
  0
LINE
  5
3E76
330
1F
100
AcDbEntity
  8
0
100
AcDbLine
 10
457.7005229302239
 20
133.9436552553509
 30
0.0
 11
457.7005229302239
 21
150.4436552553509
 31
0.0
  0
LINE
  5
3E77
330
1F
100
AcDbEntity
  8
0
100
AcDbLine
 10
457.2505229302239
 20
131.143656255351
 30
0.0
 11
457.2505229302239
 21
133.9436552553509
 31
0.0
  0
LINE
  5
3E78
330
1F
100
AcDbEntity
  8
0
100
AcDbLine
 10
452.7005229302239
 20
152.9436552553509
 30
0.0
 11
452.7005229302239
 21
162.9436552553509
 31
0.0
  0
LINE
  5
3E79
330
1F
100
AcDbEntity
  8
0
100
AcDbLine
 10
450.2005229302239
 20
153.909228255351
 30
0.0
 11
450.2005229302239
 21
158.2844302553509
 31
0.0
  0
LINE
  5
3E7A
330
1F
100
AcDbEntity
  8
0
100
AcDbLine
 10
446.2005229302238
 20
154.5092302553509
 30
0.0
 11
446.2005229302238
 21
158.2844302553509
 31
0.0
  0
LINE
  5
3E7B
330
1F
100
AcDbEntity
  8
0
100
AcDbLine
 10
458.7005229302238
 20
151.8436572553509
 30
0.0
 11
458.7005229302238
 21
164.0436572553509
 31
0.0
  0
LINE
  5
3E7C
330
1F
100
AcDbEntity
  8
0
100
AcDbLine
 10
451.2005229302238
 20
150.4436552553509
 30
0.0
 11
460.2005229302238
 21
150.4436552553509
 31
0.0
  0
LINE
  5
3E7D
330
1F
100
AcDbEntity
  8
0
100
AcDbLine
 10
450.2005229302239
 20
153.909228255351
 30
0.0
 11
451.2005229302238
 21
153.909228255351
 31
0.0
  0
LINE
  5
3E7E
330
1F
100
AcDbEntity
  8
0
100
AcDbLine
 10
450.2005229302239
 20
154.5092302553509
 30
0.0
 11
446.2005229302238
 21
154.5092302553509
 31
0.0
  0
LINE
  5
3E7F
330
1F
100
AcDbEntity
  8
0
100
AcDbLine
 10
445.2005229302239
 20
150.4436552553509
 30
0.0
 11
451.2005229302238
 21
150.4436552553509
 31
0.0
  0
LINE
  5
3E80
330
1F
100
AcDbEntity
  8
Innenkanten
100
AcDbLine
 10
445.2005229302239
 20
151.9204692553509
 30
0.0
 11
451.2005229302238
 21
151.9204692553509
 31
0.0
  0
LINE
  5
3E81
330
1F
100
AcDbEntity
  8
0
100
AcDbLine
 10
458.7005229302238
 20
152.9436552553509
 30
0.0
 11
452.7005229302239
 21
152.9436552553509
 31
0.0
  0
LINE
  5
3E82
330
1F
100
AcDbEntity
  8
0
100
AcDbLine
 10
460.2005229302238
 20
151.8436572553509
 30
0.0
 11
458.7005229302238
 21
151.8436572553509
 31
0.0
  0
LINE
  5
3E83
330
1F
100
AcDbEntity
  8
Innenkanten
100
AcDbLine
 10
458.2005229302239
 20
150.4436552553509
 30
0.0
 11
458.2005229302239
 21
152.9436552553509
 31
0.0
  0
LINE
  5
3E84
330
1F
100
AcDbEntity
  8
Innenkanten
100
AcDbLine
 10
445.2005229302239
 20
165.4401862553509
 30
0.0
 11
458.2005229302239
 21
165.4401862553509
 31
0.0
  0
LINE
  5
3E85
330
1F
100
AcDbEntity
  8
Mittellinie
100
AcDbLine
 10
449.7110929302238
 20
157.9436552553509
 30
0.0
 11
458.897972930224
 21
157.9436552553509
 31
0.0
  0
LINE
  5
3E86
330
1F
100
AcDbEntity
  8
Mittellinie
100
AcDbLine
 10
444.4010229302238
 20
157.7592302553509
 30
0.0
 11
452.2119529302239
 21
157.7592302553509
 31
0.0
  0
LINE
  5
3E87
330
1F
100
AcDbEntity
  8
Innenkanten
100
AcDbLine
 10
445.2005229302239
 20
158.2844302553509
 30
0.0
 11
451.2005229302238
 21
158.2844302553509
 31
0.0
  0
LINE
  5
3E88
330
1F
100
AcDbEntity
  8
0
100
AcDbLine
 10
460.2005229302238
 20
164.0436572553509
 30
0.0
 11
458.7005229302238
 21
164.0436572553509
 31
0.0
  0
LINE
  5
3E89
330
1F
100
AcDbEntity
  8
0
100
AcDbLine
 10
452.7005229302239
 20
162.9436552553509
 30
0.0
 11
458.7005229302238
 21
162.9436552553509
 31
0.0
  0
LINE
  5
3E8A
330
1F
100
AcDbEntity
  8
0
100
AcDbLine
 10
420.8446429302239
 20
232.127939255351
 30
0.0
 11
445.2005229302239
 21
232.9784642553509
 31
0.0
  0
ARC
  5
3E8B
330
1F
100
AcDbEntity
  8
0
100
AcDbCircle
 10
448.7005229302239
 20
222.9436552553509
 30
0.0
 40
30.0
100
AcDbArc
 50
163.6062000000026
 51
180.0000100000009
  0
ARC
  5
3E8C
330
1F
100
AcDbEntity
  8
0
100
AcDbCircle
 10
420.8795329302239
 20
231.1285502553509
 30
0.0
 40
1.0
100
AcDbArc
 50
91.99999800000057
 51
163.6062000000026
  0
LINE
  5
3E8D
330
1F
100
AcDbEntity
  8
0
100
AcDbLine
 10
452.7005229302239
 20
257.9436552553509
 30
0.0
 11
452.7005229302239
 21
267.9436592553509
 31
0.0
  0
LINE
  5
3E8E
330
1F
100
AcDbEntity
  8
0
100
AcDbLine
 10
458.7005229302238
 20
256.8436572553509
 30
0.0
 11
458.7005229302238
 21
269.0436572553509
 31
0.0
  0
LINE
  5
3E8F
330
1F
100
AcDbEntity
  8
0
100
AcDbLine
 10
460.2005229302238
 20
215.9436552553509
 30
0.0
 11
460.2005229302238
 21
280.9436592553509
 31
0.0
  0
LINE
  5
3E90
330
1F
100
AcDbEntity
  8
0
100
AcDbLine
 10
507.2005209302239
 20
215.9436552553509
 30
0.0
 11
507.2005209302239
 21
280.9436592553509
 31
0.0
  0
LINE
  5
3E91
330
1F
100
AcDbEntity
  8
0
100
AcDbLine
 10
462.2005229302239
 20
232.1936552553509
 30
0.0
 11
462.2005229302239
 21
245.1936552553509
 31
0.0
  0
LINE
  5
3E92
330
1F
100
AcDbEntity
  8
0
100
AcDbLine
 10
470.2005229302239
 20
230.9936542553509
 30
0.0
 11
470.2005229302239
 21
246.3936562553509
 31
0.0
  0
LINE
  5
3E93
330
1F
100
AcDbEntity
  8
Innenkanten
100
AcDbLine
 10
471.2005229302238
 20
230.7436542553509
 30
0.0
 11
471.2005229302238
 21
250.9437582553509
 31
0.0
  0
LINE
  5
3E94
330
1F
100
AcDbEntity
  8
Innenkanten
100
AcDbLine
 10
460.2005229302238
 20
230.7436542553509
 30
0.0
 11
471.2005229302238
 21
230.7436542553509
 31
0.0
  0
LINE
  5
3E95
330
1F
100
AcDbEntity
  8
Mittellinie
100
AcDbLine
 10
459.650222930224
 20
238.6936552553509
 30
0.0
 11
474.6411629302238
 21
238.6936552553509
 31
0.0
  0
LINE
  5
3E96
330
1F
100
AcDbEntity
  8
Innenkanten
100
AcDbLine
 10
445.2005229302239
 20
220.4473292553509
 30
0.0
 11
458.2005229302239
 21
220.4473292553509
 31
0.0
  0
LINE
  5
3E97
330
1F
100
AcDbEntity
  8
Mittellinie
100
AcDbLine
 10
443.3305529302239
 20
222.5570092553509
 30
0.0
 11
452.7699529302238
 21
222.5570092553509
 31
0.0
  0
LINE
  5
3E98
330
1F
100
AcDbEntity
  8
0
100
AcDbLine
 10
451.2005229302238
 20
226.4070072553509
 30
0.0
 11
450.2005229302239
 21
226.4070072553509
 31
0.0
  0
LINE
  5
3E99
330
1F
100
AcDbEntity
  8
0
100
AcDbLine
 10
450.2005229302239
 20
221.9240422553509
 30
0.0
 11
450.2005229302239
 21
226.4070072553509
 31
0.0
  0
LINE
  5
3E9A
330
1F
100
AcDbEntity
  8
0
100
AcDbLine
 10
446.2005229302238
 20
221.9240422553509
 30
0.0
 11
446.2005229302238
 21
225.8070092553509
 31
0.0
  0
LINE
  5
3E9B
330
1F
100
AcDbEntity
  8
0
100
AcDbLine
 10
446.2005229302238
 20
225.8070092553509
 30
0.0
 11
450.2005229302239
 21
225.8070092553509
 31
0.0
  0
LINE
  5
3E9C
330
1F
100
AcDbEntity
  8
Innenkanten
100
AcDbLine
 10
445.2005229302239
 20
221.9240422553509
 30
0.0
 11
451.2005229302238
 21
221.9240422553509
 31
0.0
  0
LINE
  5
3E9D
330
1F
100
AcDbEntity
  8
0
100
AcDbLine
 10
445.2005229302239
 20
235.4436552553509
 30
0.0
 11
460.2005229302238
 21
235.4436552553509
 31
0.0
  0
LINE
  5
3E9E
330
1F
100
AcDbEntity
  8
0
100
AcDbLine
 10
445.2005229302239
 20
232.9436552553509
 30
0.0
 11
445.2005229302239
 21
235.4436552553509
 31
0.0
  0
LINE
  5
3E9F
330
1F
100
AcDbEntity
  8
Innenkanten
100
AcDbLine
 10
445.2005229302239
 20
228.288002255351
 30
0.0
 11
451.2005229302238
 21
228.288002255351
 31
0.0
  0
LINE
  5
3EA0
330
1F
100
AcDbEntity
  8
0
100
AcDbLine
 10
470.2005229302239
 20
230.9936542553509
 30
0.0
 11
471.2005229302238
 21
230.9936542553509
 31
0.0
  0
LINE
  5
3EA1
330
1F
100
AcDbEntity
  8
0
100
AcDbLine
 10
470.2005229302239
 20
232.1936552553509
 30
0.0
 11
462.2005229302239
 21
232.1936552553509
 31
0.0
  0
LINE
  5
3EA2
330
1F
100
AcDbEntity
  8
Mittellinie
100
AcDbLine
 10
451.2619629302239
 20
262.9436592553509
 30
0.0
 11
461.5199829302239
 21
262.9436592553509
 31
0.0
  0
LINE
  5
3EA3
330
1F
100
AcDbEntity
  8
0
100
AcDbLine
 10
452.7005229302239
 20
257.9436552553509
 30
0.0
 11
458.7005229302238
 21
257.9436552553509
 31
0.0
  0
LINE
  5
3EA4
330
1F
100
AcDbEntity
  8
0
100
AcDbLine
 10
460.2005229302238
 20
256.8436572553509
 30
0.0
 11
458.7005229302238
 21
256.8436572553509
 31
0.0
  0
LINE
  5
3EA5
330
1F
100
AcDbEntity
  8
0
100
AcDbLine
 10
471.2005229302238
 20
246.3936562553509
 30
0.0
 11
470.2005229302239
 21
246.3936562553509
 31
0.0
  0
LINE
  5
3EA6
330
1F
100
AcDbEntity
  8
0
100
AcDbLine
 10
470.2005229302239
 20
245.1936552553509
 30
0.0
 11
462.2005229302239
 21
245.1936552553509
 31
0.0
  0
LINE
  5
3EA7
330
1F
100
AcDbEntity
  8
0
100
AcDbLine
 10
458.7005229302238
 20
267.9436592553509
 30
0.0
 11
452.7005229302239
 21
267.9436592553509
 31
0.0
  0
LINE
  5
3EA8
330
1F
100
AcDbEntity
  8
0
100
AcDbLine
 10
460.2005229302238
 20
269.0436572553509
 30
0.0
 11
458.7005229302238
 21
269.0436572553509
 31
0.0
  0
LINE
  5
3EA9
330
1F
100
AcDbEntity
  8
0
100
AcDbLine
 10
506.2005209302238
 20
278.6849772553509
 30
0.0
 11
498.2005209302238
 21
278.6849772553509
 31
0.0
  0
LINE
  5
3EAA
330
1F
100
AcDbEntity
  8
Mittellinie
100
AcDbLine
 10
495.231724930224
 20
272.1849772553509
 30
0.0
 11
510.2226689302239
 21
272.1849772553509
 31
0.0
  0
LINE
  5
3EAB
330
1F
100
AcDbEntity
  8
0
100
AcDbLine
 10
506.2005209302238
 20
265.6849772553509
 30
0.0
 11
498.2005209302238
 21
265.6849772553509
 31
0.0
  0
LINE
  5
3EAC
330
1F
100
AcDbEntity
  8
Innenkanten
100
AcDbLine
 10
507.2005209302239
 20
264.143656255351
 30
0.0
 11
496.2005209302239
 21
264.143656255351
 31
0.0
  0
LINE
  5
3EAD
330
1F
100
AcDbEntity
  8
0
100
AcDbLine
 10
498.2005209302238
 20
265.6849772553509
 30
0.0
 11
498.2005209302238
 21
278.6849772553509
 31
0.0
  0
LINE
  5
3EAE
330
1F
100
AcDbEntity
  8
Innenkanten
100
AcDbLine
 10
496.2005209302239
 20
264.143656255351
 30
0.0
 11
496.2005209302239
 21
280.9436592553509
 31
0.0
  0
LINE
  5
3EAF
330
1F
100
AcDbEntity
  8
0
100
AcDbLine
 10
506.2005209302238
 20
264.484980255351
 30
0.0
 11
506.2005209302238
 21
279.8849812553509
 31
0.0
  0
LINE
  5
3EB0
330
1F
100
AcDbEntity
  8
0
100
AcDbLine
 10
506.2005209302238
 20
264.484980255351
 30
0.0
 11
507.2005209302239
 21
264.484980255351
 31
0.0
  0
LINE
  5
3EB1
330
1F
100
AcDbEntity
  8
0
100
AcDbLine
 10
507.2005209302239
 20
279.8849812553509
 30
0.0
 11
506.2005209302238
 21
279.8849812553509
 31
0.0
  0
LINE
  5
420B
330
1F
100
AcDbEntity
  8
Innenkanten
100
AcDbLine
 10
66.7850353526992
 20
134.7797691036842
 30
0.0
 11
66.7850353526992
 21
231.6987951036842
 31
0.0
  0
LINE
  5
420C
330
1F
100
AcDbEntity
  8
Innenkanten
100
AcDbLine
 10
-20.21496264730058
 20
104.7797731036842
 30
0.0
 11
-20.21496264730058
 21
280.7797731036842
 31
0.0
  0
LINE
  5
420D
330
1F
100
AcDbEntity
  8
0
100
AcDbLine
 10
29.2850353526992
 20
133.7797691036842
 30
0.0
 11
29.2850353526992
 21
150.2797691036842
 31
0.0
  0
LINE
  5
420E
330
1F
100
AcDbEntity
  8
0
100
AcDbLine
 10
26.7850353526992
 20
104.7797731036842
 30
0.0
 11
26.7850353526992
 21
169.7797691036841
 31
0.0
  0
LINE
  5
420F
330
1F
100
AcDbEntity
  8
0
100
AcDbLine
 10
26.7850353526992
 20
127.7797731036842
 30
0.0
 11
26.7850353526992
 21
257.7797691036841
 31
0.0
  0
LINE
  5
4210
330
1F
100
AcDbEntity
  8
0
100
AcDbLine
 10
26.7850353526992
 20
127.7797731036842
 30
0.0
 11
26.7850353526992
 21
257.7797691036841
 31
0.0
  0
LINE
  5
4211
330
1F
100
AcDbEntity
  8
0
100
AcDbLine
 10
26.7850353526992
 20
127.7797731036842
 30
0.0
 11
26.7850353526992
 21
257.7797691036841
 31
0.0
  0
LINE
  5
4212
330
1F
100
AcDbEntity
  8
0
100
AcDbLine
 10
68.2850353526992
 20
134.7797691036842
 30
0.0
 11
68.2850353526992
 21
222.7797691036842
 31
0.0
  0
LINE
  5
4213
330
1F
100
AcDbEntity
  8
0
100
AcDbLine
 10
66.7850353526992
 20
134.7797691036842
 30
0.0
 11
66.7850353526992
 21
222.7797691036842
 31
0.0
  0
LINE
  5
4214
330
1F
100
AcDbEntity
  8
0
100
AcDbLine
 10
-271.7149806473005
 20
104.7797721036841
 30
0.0
 11
-271.7149806473005
 21
169.7797721036842
 31
0.0
  0
LINE
  5
4215
330
1F
100
AcDbEntity
  8
Unsichtbar
100
AcDbLine
 10
-122.5149706473005
 20
134.7798821036841
 30
0.0
 11
-122.5149706473005
 21
155.7798821036841
 31
0.0
  0
LINE
  5
4216
330
1F
100
AcDbEntity
  8
Unsichtbar
100
AcDbLine
 10
-123.1649606473006
 20
134.7798821036841
 30
0.0
 11
-123.1649606473006
 21
158.7798821036841
 31
0.0
  0
LINE
  5
4217
330
1F
100
AcDbEntity
  8
Unsichtbar
100
AcDbLine
 10
-130.5149706473005
 20
134.7798821036841
 30
0.0
 11
-130.5149706473005
 21
155.7798821036841
 31
0.0
  0
LINE
  5
4218
330
1F
100
AcDbEntity
  8
Unsichtbar
100
AcDbLine
 10
-129.8649706473006
 20
134.7798821036841
 30
0.0
 11
-129.8649706473006
 21
158.7798821036841
 31
0.0
  0
LINE
  5
4219
330
1F
100
AcDbEntity
  8
Innenkanten
100
AcDbLine
 10
-251.7149806473005
 20
104.7797721036841
 30
0.0
 11
-251.7149806473005
 21
280.7797731036842
 31
0.0
  0
LINE
  5
421A
330
1F
100
AcDbEntity
  8
Innenkanten
100
AcDbLine
 10
-253.7149806473005
 20
104.7797721036841
 30
0.0
 11
-253.7149806473005
 21
280.7797731036842
 31
0.0
  0
LINE
  5
421B
330
1F
100
AcDbEntity
  8
0
100
AcDbLine
 10
-271.7149806473005
 20
104.7797721036841
 30
0.0
 11
-271.7149806473005
 21
280.7797731036842
 31
0.0
  0
LINE
  5
421C
330
1F
100
AcDbEntity
  8
0
100
AcDbLine
 10
-274.7149806473005
 20
135.6297821036841
 30
0.0
 11
-274.7149806473005
 21
249.9297751036841
 31
0.0
  0
LINE
  5
4220
330
1F
100
AcDbEntity
  8
Innenkanten
100
AcDbLine
 10
-30.71496264730058
 20
104.7797721036841
 30
0.0
 11
-30.71496264730058
 21
280.7797731036842
 31
0.0
  0
LINE
  5
4224
330
1F
100
AcDbEntity
  8
Innenkanten
100
AcDbLine
 10
-30.71496264730058
 20
134.7798821036841
 30
0.0
 11
-253.7149806473005
 21
134.7798821036841
 31
0.0
  0
LINE
  5
4225
330
1F
100
AcDbEntity
  8
0
100
AcDbLine
 10
-30.71496264730058
 20
104.7797721036841
 30
0.0
 11
-179.7149606473005
 21
104.7797721036841
 31
0.0
  0
LINE
  5
4226
330
1F
100
AcDbEntity
  8
Innenkanten
100
AcDbLine
 10
-30.71496264730058
 20
141.7797721036841
 30
0.0
 11
-179.7149606473005
 21
141.7797721036841
 31
0.0
  0
LINE
  5
4227
330
1F
100
AcDbEntity
  8
0
100
AcDbLine
 10
26.7850353526992
 20
104.7797731036842
 30
0.0
 11
-30.71496264730058
 21
104.7797721036841
 31
0.0
  0
LINE
  5
4228
330
1F
100
AcDbEntity
  8
Innenkanten
100
AcDbLine
 10
6.585235352699328
 20
77.08013910368435
 30
0.0
 11
-8.014766647300803
 21
77.08013910368435
 31
0.0
  0
LINE
  5
4229
330
1F
100
AcDbEntity
  8
Innenkanten
100
AcDbLine
 10
6.585235352699328
 20
86.08013910368436
 30
0.0
 11
-8.014766647300803
 21
86.08013910368436
 31
0.0
  0
LINE
  5
422A
330
1F
100
AcDbEntity
  8
Innenkanten
100
AcDbLine
 10
26.7850353526992
 20
134.7798821036841
 30
0.0
 11
-30.71496264730058
 21
134.7798821036841
 31
0.0
  0
LINE
  5
422B
330
1F
100
AcDbEntity
  8
0
100
AcDbLine
 10
11.98523535269941
 20
90.58013910368435
 30
0.0
 11
-13.41476864730066
 21
90.58013910368435
 31
0.0
  0
LINE
  5
422C
330
1F
100
AcDbEntity
  8
0
100
AcDbLine
 10
12.78503535269919
 20
92.77976910368421
 30
0.0
 11
-14.21496264730058
 21
92.77976910368421
 31
0.0
  0
LINE
  5
422D
330
1F
100
AcDbEntity
  8
0
100
AcDbLine
 10
6.585235352699328
 20
76.08013910368436
 30
0.0
 11
-8.014766647300803
 21
76.08013910368436
 31
0.0
  0
LINE
  5
422E
330
1F
100
AcDbEntity
  8
Innenkanten
100
AcDbLine
 10
67.83504535269912
 20
133.7797691036842
 30
0.0
 11
29.2850353526992
 21
133.7797691036842
 31
0.0
  0
LINE
  5
422F
330
1F
100
AcDbEntity
  8
Innenkanten
100
AcDbLine
 10
63.58504535269912
 20
127.9797701036843
 30
0.0
 11
33.98503535269924
 21
127.9797701036843
 31
0.0
  0
LINE
  5
4230
330
1F
100
AcDbEntity
  8
Innenkanten
100
AcDbLine
 10
68.2850353526992
 20
134.7797691036842
 30
0.0
 11
29.2850353526992
 21
134.7797691036842
 31
0.0
  0
LINE
  5
4231
330
1F
100
AcDbEntity
  8
Innenkanten
100
AcDbLine
 10
63.58504535269912
 20
112.6797671036843
 30
0.0
 11
33.98503535269924
 21
112.6797671036843
 31
0.0
  0
LINE
  5
4232
330
1F
100
AcDbEntity
  8
0
100
AcDbLine
 10
62.58504535269913
 20
111.6797671036843
 30
0.0
 11
34.98503535269924
 21
111.6797671036843
 31
0.0
  0
LINE
  5
4233
330
1F
100
AcDbEntity
  8
0
100
AcDbLine
 10
67.83504535269912
 20
130.9797701036843
 30
0.0
 11
29.73503535269924
 21
130.9797701036843
 31
0.0
  0
LINE
  5
4234
330
1F
100
AcDbEntity
  8
Innenkanten
100
AcDbLine
 10
62.58504535269913
 20
111.6797671036843
 30
0.0
 11
62.58504535269913
 21
127.9797701036843
 31
0.0
  0
LINE
  5
4235
330
1F
100
AcDbEntity
  8
0
100
AcDbLine
 10
63.58504535269912
 20
112.6797671036843
 30
0.0
 11
63.58504535269912
 21
130.9797701036843
 31
0.0
  0
LINE
  5
4236
330
1F
100
AcDbEntity
  8
0
100
AcDbLine
 10
63.58504535269912
 20
112.6797671036843
 30
0.0
 11
62.58504535269913
 21
111.6797671036843
 31
0.0
  0
LINE
  5
4237
330
1F
100
AcDbEntity
  8
0
100
AcDbLine
 10
67.83504535269912
 20
130.9797701036843
 30
0.0
 11
67.83504535269912
 21
134.7797691036842
 31
0.0
  0
LINE
  5
4238
330
1F
100
AcDbEntity
  8
0
100
AcDbLine
 10
12.78503535269919
 20
92.77976910368421
 30
0.0
 11
12.78503535269919
 21
104.7797731036842
 31
0.0
  0
LINE
  5
4239
330
1F
100
AcDbEntity
  8
0
100
AcDbLine
 10
-0.7149626473005811
 20
71.22990910368435
 30
0.0
 11
-0.7149626473005811
 21
104.7797731036842
 31
0.0
  0
LINE
  5
423A
330
1F
100
AcDbEntity
  8
Innenkanten
100
AcDbLine
 10
6.585235352699328
 20
76.08013910368436
 30
0.0
 11
6.585235352699328
 21
86.08013910368436
 31
0.0
  0
LINE
  5
423B
330
1F
100
AcDbEntity
  8
0
100
AcDbLine
 10
7.223235352699248
 20
77.44847910368434
 30
0.0
 11
7.223235352699248
 21
90.58013910368435
 31
0.0
  0
LINE
  5
423C
330
1F
100
AcDbEntity
  8
0
100
AcDbLine
 10
7.223235352699248
 20
77.44847910368434
 30
0.0
 11
6.585235352699328
 21
77.08013910368435
 31
0.0
  0
LINE
  5
423D
330
1F
100
AcDbEntity
  8
0
100
AcDbLine
 10
11.98523535269941
 20
90.58013910368435
 30
0.0
 11
11.98523535269941
 21
92.77976910368421
 31
0.0
  0
LINE
  5
423E
330
1F
100
AcDbEntity
  8
Innenkanten
100
AcDbLine
 10
7.223235352699248
 20
86.44847910368435
 30
0.0
 11
6.585235352699328
 21
86.08013910368436
 31
0.0
  0
LINE
  5
423F
330
1F
100
AcDbEntity
  8
Mittellinie
100
AcDbLine
 10
27.80103535269927
 20
113.5384481036842
 30
0.0
 11
13.93395535269928
 21
113.5384481036842
 31
0.0
  0
LINE
  5
4240
330
1F
100
AcDbEntity
  8
Innenkanten
100
AcDbLine
 10
26.7850353526992
 20
121.5797681036842
 30
0.0
 11
15.78503535269919
 21
121.5797681036842
 31
0.0
  0
LINE
  5
4241
330
1F
100
AcDbEntity
  8
0
100
AcDbLine
 10
16.78503535269919
 20
107.0384481036842
 30
0.0
 11
24.78503535269919
 21
107.0384481036842
 31
0.0
  0
LINE
  5
4242
330
1F
100
AcDbEntity
  8
0
100
AcDbLine
 10
16.78503535269919
 20
120.0384481036842
 30
0.0
 11
24.78503535269919
 21
120.0384481036842
 31
0.0
  0
LINE
  5
4243
330
1F
100
AcDbEntity
  8
Mittellinie
100
AcDbLine
 10
48.7850353526992
 20
104.9370151036841
 30
0.0
 11
48.7850353526992
 21
138.2389601036843
 31
0.0
  0
LINE
  5
4244
330
1F
100
AcDbEntity
  8
Innenkanten
100
AcDbLine
 10
34.98503535269924
 20
111.6797671036843
 30
0.0
 11
34.98503535269924
 21
127.9797701036843
 31
0.0
  0
LINE
  5
4245
330
1F
100
AcDbEntity
  8
0
100
AcDbLine
 10
33.98503535269924
 20
112.6797671036843
 30
0.0
 11
33.98503535269924
 21
130.9797701036843
 31
0.0
  0
LINE
  5
4246
330
1F
100
AcDbEntity
  8
0
100
AcDbLine
 10
33.98503535269924
 20
112.6797671036843
 30
0.0
 11
34.98503535269924
 21
111.6797671036843
 31
0.0
  0
LINE
  5
4247
330
1F
100
AcDbEntity
  8
0
100
AcDbLine
 10
24.78503535269919
 20
107.0384481036842
 30
0.0
 11
24.78503535269919
 21
120.0384481036842
 31
0.0
  0
LINE
  5
4248
330
1F
100
AcDbEntity
  8
0
100
AcDbLine
 10
29.73503535269924
 20
130.9797701036843
 30
0.0
 11
29.73503535269924
 21
133.7797691036842
 31
0.0
  0
LINE
  5
4249
330
1F
100
AcDbEntity
  8
Innenkanten
100
AcDbLine
 10
15.78503535269919
 20
104.7797731036842
 30
0.0
 11
15.78503535269919
 21
121.5797681036842
 31
0.0
  0
LINE
  5
424A
330
1F
100
AcDbEntity
  8
0
100
AcDbLine
 10
15.78503535269919
 20
121.2384451036844
 30
0.0
 11
16.78503535269919
 21
121.2384451036844
 31
0.0
  0
LINE
  5
424B
330
1F
100
AcDbEntity
  8
0
100
AcDbLine
 10
16.78503535269919
 20
105.8384431036843
 30
0.0
 11
15.78503535269919
 21
105.8384431036843
 31
0.0
  0
LINE
  5
424C
330
1F
100
AcDbEntity
  8
0
100
AcDbLine
 10
16.78503535269919
 20
105.8384431036843
 30
0.0
 11
16.78503535269919
 21
121.2384451036844
 31
0.0
  0
LINE
  5
424D
330
1F
100
AcDbEntity
  8
Innenkanten
100
AcDbLine
 10
-85.21495064730061
 20
44.69978210368412
 30
0.0
 11
-85.21495064730061
 21
60.57976210368429
 31
0.0
  0
LINE
  5
424E
330
1F
100
AcDbEntity
  8
0
100
AcDbLine
 10
-86.2149506473006
 20
45.69978210368413
 30
0.0
 11
-86.2149506473006
 21
66.92977210368417
 31
0.0
  0
LINE
  5
424F
330
1F
100
AcDbEntity
  8
Mittellinie
100
AcDbLine
 10
-61.21495064730061
 20
37.77977210368419
 30
0.0
 11
-61.21495064730061
 21
108.6408494030101
 31
0.0
  0
LINE
  5
4250
330
1F
100
AcDbEntity
  8
0
100
AcDbLine
 10
-36.2149476473005
 20
45.69978210368413
 30
0.0
 11
-36.2149476473005
 21
66.92977210368417
 31
0.0
  0
LINE
  5
4251
330
1F
100
AcDbEntity
  8
Innenkanten
100
AcDbLine
 10
-37.2149476473005
 20
44.69978210368412
 30
0.0
 11
-37.2149476473005
 21
60.57976210368429
 31
0.0
  0
LINE
  5
4252
330
1F
100
AcDbEntity
  8
0
100
AcDbLine
 10
-37.2149476473005
 20
44.69978210368412
 30
0.0
 11
-85.21495064730061
 21
44.69978210368412
 31
0.0
  0
LINE
  5
4253
330
1F
100
AcDbEntity
  8
0
100
AcDbLine
 10
-36.2149476473005
 20
45.69978210368413
 30
0.0
 11
-86.2149506473006
 21
45.69978210368413
 31
0.0
  0
LINE
  5
4254
330
1F
100
AcDbEntity
  8
0
100
AcDbLine
 10
-37.2149476473005
 20
44.69978210368412
 30
0.0
 11
-36.2149476473005
 21
45.69978210368413
 31
0.0
  0
LINE
  5
4255
330
1F
100
AcDbEntity
  8
0
100
AcDbLine
 10
-85.21495064730061
 20
44.69978210368412
 30
0.0
 11
-86.2149506473006
 21
45.69978210368413
 31
0.0
  0
LINE
  5
4256
330
1F
100
AcDbEntity
  8
0
100
AcDbLine
 10
-32.76495064730056
 20
66.92977210368417
 30
0.0
 11
-87.3249506473005
 21
66.92977210368417
 31
0.0
  0
LINE
  5
4257
330
1F
100
AcDbEntity
  8
Innenkanten
100
AcDbLine
 10
-36.2149476473005
 20
60.57976210368429
 30
0.0
 11
-86.2149506473006
 21
60.57976210368429
 31
0.0
  0
LINE
  5
4258
330
1F
100
AcDbEntity
  8
Innenkanten
100
AcDbLine
 10
-32.2149476473005
 20
103.7797721036841
 30
0.0
 11
-107.2149506473006
 21
103.7797721036841
 31
0.0
  0
LINE
  5
4259
330
1F
100
AcDbEntity
  8
0
100
AcDbLine
 10
-36.7149476473005
 20
103.7797721036841
 30
0.0
 11
-98.71495064730062
 21
103.7797721036841
 31
0.0
  0
LINE
  5
425A
330
1F
100
AcDbEntity
  8
0
100
AcDbLine
 10
-32.2149476473005
 20
70.7797721036842
 30
0.0
 11
-100.0915506473006
 21
70.7797721036842
 31
0.0
  0
LINE
  5
425B
330
1F
100
AcDbEntity
  8
0
100
AcDbLine
 10
-32.66494464730067
 20
66.92977210368417
 30
0.0
 11
-88.44494064730042
 21
66.92977210368417
 31
0.0
  0
LINE
  5
425C
330
1F
100
AcDbEntity
  8
0
100
AcDbLine
 10
-32.66494464730067
 20
66.92977210368417
 30
0.0
 11
-89.66494064730069
 21
66.92977210368417
 31
0.0
  0
LINE
  5
425D
330
1F
100
AcDbEntity
  8
Innenkanten
100
AcDbLine
 10
-32.76495064730056
 20
70.27977210368419
 30
0.0
 11
-89.66494064730069
 21
70.27977210368419
 31
0.0
  0
LINE
  5
425E
330
1F
100
AcDbEntity
  8
0
100
AcDbLine
 10
-14.21496264730058
 20
92.77976910368421
 30
0.0
 11
-14.21496264730058
 21
104.7797731036842
 31
0.0
  0
LINE
  5
425F
330
1F
100
AcDbEntity
  8
0
100
AcDbLine
 10
-32.2149476473005
 20
70.7797721036842
 30
0.0
 11
-32.2149476473005
 21
104.7797721036841
 31
0.0
  0
LINE
  5
4260
330
1F
100
AcDbEntity
  8
Innenkanten
100
AcDbLine
 10
-8.014766647300803
 20
76.08013910368436
 30
0.0
 11
-8.014766647300803
 21
86.08013910368436
 31
0.0
  0
LINE
  5
4261
330
1F
100
AcDbEntity
  8
0
100
AcDbLine
 10
-8.652767647300606
 20
77.44847910368434
 30
0.0
 11
-8.652767647300606
 21
90.58013910368435
 31
0.0
  0
LINE
  5
4262
330
1F
100
AcDbEntity
  8
0
100
AcDbLine
 10
-8.652767647300606
 20
77.44847910368434
 30
0.0
 11
-8.014766647300803
 21
77.08013910368435
 31
0.0
  0
LINE
  5
4263
330
1F
100
AcDbEntity
  8
0
100
AcDbLine
 10
-32.76495064730056
 20
66.92977210368417
 30
0.0
 11
-32.76495064730056
 21
70.7797721036842
 31
0.0
  0
LINE
  5
4264
330
1F
100
AcDbEntity
  8
Innenkanten
100
AcDbLine
 10
-8.652767647300606
 20
86.44847910368435
 30
0.0
 11
-8.014766647300803
 21
86.08013910368436
 31
0.0
  0
LINE
  5
4265
330
1F
100
AcDbEntity
  8
0
100
AcDbLine
 10
-13.41476864730066
 20
90.58013910368435
 30
0.0
 11
-13.41476864730066
 21
92.77976910368421
 31
0.0
  0
ARC
  5
4266
330
1F
100
AcDbEntity
  8
0
100
AcDbCircle
 10
-27.2149476473005
 20
103.7797721036841
 30
0.0
 40
80.0
100
AcDbArc
 50
180.0
 51
204.3619800000043
  0
LINE
  5
4267
330
1F
100
AcDbEntity
  8
0
100
AcDbLine
 10
-89.66494064730069
 20
66.92977210368417
 30
0.0
 11
-89.66494064730069
 21
70.7797721036842
 31
0.0
  0
LINE
  5
4268
330
1F
100
AcDbEntity
  8
0
100
AcDbLine
 10
-107.2149506473006
 20
103.7797721036841
 30
0.0
 11
-107.2149506473006
 21
104.7361521036841
 31
0.0
  0
LINE
  5
4269
330
1F
100
AcDbEntity
  8
Innenkanten
100
AcDbLine
 10
-179.7149606473005
 20
141.7797721036841
 30
0.0
 11
-251.7149806473005
 21
141.7797721036841
 31
0.0
  0
LINE
  5
426A
330
1F
100
AcDbEntity
  8
0
100
AcDbLine
 10
-179.7149606473005
 20
104.7797721036841
 30
0.0
 11
-249.7149806473005
 21
104.7797721036841
 31
0.0
  0
LINE
  5
426B
330
1F
100
AcDbEntity
  8
Mittellinie
100
AcDbLine
 10
-186.5149706473005
 20
107.7952921036842
 30
0.0
 11
-186.5149706473005
 21
122.5773621036842
 31
0.0
  0
LINE
  5
426C
330
1F
100
AcDbEntity
  8
Mittellinie
100
AcDbLine
 10
-177.7479206473005
 20
114.7797721036841
 30
0.0
 11
-196.3574806473004
 21
114.7797721036841
 31
0.0
  0
CIRCLE
  5
426D
330
1F
100
AcDbEntity
  8
Innenkanten
100
AcDbCircle
 10
-186.5149706473005
 20
114.7797721036841
 30
0.0
 40
3.349999899999999
  0
CIRCLE
  5
426E
330
1F
100
AcDbEntity
  8
Innenkanten
100
AcDbCircle
 10
-186.5149706473005
 20
114.7797721036841
 30
0.0
 40
4.0
  0
LINE
  5
426F
330
1F
100
AcDbEntity
  8
Innenkanten
100
AcDbLine
 10
-253.7149806473005
 20
118.9737721036841
 30
0.0
 11
-271.7149806473005
 21
118.9737721036841
 31
0.0
  0
LINE
  5
4270
330
1F
100
AcDbEntity
  8
0
100
AcDbLine
 10
-249.7149806473005
 20
104.7797721036841
 30
0.0
 11
-271.7149806473005
 21
104.7797721036841
 31
0.0
  0
LINE
  5
4271
330
1F
100
AcDbEntity
  8
0
100
AcDbLine
 10
-264.7149806473005
 20
104.7797721036841
 30
0.0
 11
-271.7149806473005
 21
104.7797721036841
 31
0.0
  0
LINE
  5
4272
330
1F
100
AcDbEntity
  8
0
100
AcDbLine
 10
-271.7149806473005
 20
135.6297821036841
 30
0.0
 11
-274.7149806473005
 21
135.6297821036841
 31
0.0
  0
LINE
  5
4273
330
1F
100
AcDbEntity
  8
0
100
AcDbLine
 10
26.7850353526992
 20
280.7797731036842
 30
0.0
 11
-179.7149606473005
 21
280.7797731036842
 31
0.0
  0
LINE
  5
4278
330
1F
100
AcDbEntity
  8
Innenkanten
100
AcDbLine
 10
-30.71496264730058
 20
250.7798721036841
 30
0.0
 11
-253.7149806473005
 21
250.7798721036841
 31
0.0
  0
LINE
  5
4279
330
1F
100
AcDbEntity
  8
Innenkanten
100
AcDbLine
 10
-30.71496264730058
 20
150.7797721036842
 30
0.0
 11
-179.7149606473005
 21
150.7797721036842
 31
0.0
  0
LINE
  5
427A
330
1F
100
AcDbEntity
  8
Innenkanten
100
AcDbLine
 10
-30.71496264730058
 20
147.7797721036842
 30
0.0
 11
-179.7149606473005
 21
147.7797721036842
 31
0.0
  0
LINE
  5
427B
330
1F
100
AcDbEntity
  8
Innenkanten
100
AcDbLine
 10
-30.71496264730058
 20
144.7797721036842
 30
0.0
 11
-179.7149606473005
 21
144.7797721036842
 31
0.0
  0
LINE
  5
427C
330
1F
100
AcDbEntity
  8
Innenkanten
100
AcDbLine
 10
-30.71496264730058
 20
234.7797731036842
 30
0.0
 11
-179.7149606473005
 21
234.7797731036842
 31
0.0
  0
LINE
  5
427D
330
1F
100
AcDbEntity
  8
Innenkanten
100
AcDbLine
 10
-30.71496264730058
 20
237.7797731036841
 30
0.0
 11
-179.7149606473005
 21
237.7797731036841
 31
0.0
  0
LINE
  5
427E
330
1F
100
AcDbEntity
  8
Innenkanten
100
AcDbLine
 10
-30.71496264730058
 20
240.7797731036842
 30
0.0
 11
-179.7149606473005
 21
240.7797731036842
 31
0.0
  0
LINE
  5
427F
330
1F
100
AcDbEntity
  8
Innenkanten
100
AcDbLine
 10
-30.71496264730058
 20
243.7797731036841
 30
0.0
 11
-179.7149606473005
 21
243.7797731036841
 31
0.0
  0
LINE
  5
4280
330
1F
100
AcDbEntity
  8
Innenkanten
100
AcDbLine
 10
26.7850353526992
 20
250.7798721036841
 30
0.0
 11
-30.71496264730058
 21
250.7798721036841
 31
0.0
  0
LINE
  5
4281
330
1F
100
AcDbEntity
  8
Innenkanten
100
AcDbLine
 10
35.78503535269919
 20
150.2797691036842
 30
0.0
 11
35.78503535269919
 21
235.2797691036842
 31
0.0
  0
LINE
  5
4282
330
1F
100
AcDbEntity
  8
Innenkanten
100
AcDbLine
 10
28.78503535269919
 20
162.7797691036842
 30
0.0
 11
28.78503535269919
 21
235.2797691036842
 31
0.0
  0
ARC
  5
4283
330
1F
100
AcDbEntity
  8
0
100
AcDbCircle
 10
38.2850353526992
 20
222.7797691036842
 30
0.0
 40
30.0
100
AcDbArc
 50
359.999989999999
 51
16.39379999999854
  0
LINE
  5
4284
330
1F
100
AcDbEntity
  8
0
100
AcDbLine
 10
41.7850353526992
 20
150.2797691036842
 30
0.0
 11
41.7850353526992
 21
235.2797691036842
 31
0.0
  0
LINE
  5
4285
330
1F
100
AcDbEntity
  8
0
100
AcDbLine
 10
26.7850353526992
 20
215.7797691036841
 30
0.0
 11
26.7850353526992
 21
280.7797731036842
 31
0.0
  0
LINE
  5
4286
330
1F
100
AcDbEntity
  8
Innenkanten
100
AcDbLine
 10
66.7850353526992
 20
158.4323841036844
 30
0.0
 11
41.7850353526992
 21
158.4323841036844
 31
0.0
  0
LINE
  5
4287
330
1F
100
AcDbEntity
  8
Innenkanten
100
AcDbLine
 10
68.2850353526992
 20
159.2947991036842
 30
0.0
 11
66.7850353526992
 21
158.4323841036844
 31
0.0
  0
LINE
  5
4288
330
1F
100
AcDbEntity
  8
Mittellinie
100
AcDbLine
 10
42.58453535269928
 20
157.5953441036842
 30
0.0
 11
34.77360535269918
 21
157.5953441036842
 31
0.0
  0
LINE
  5
4289
330
1F
100
AcDbEntity
  8
Mittellinie
100
AcDbLine
 10
37.27446535269928
 20
157.7797691036842
 30
0.0
 11
28.08758535269907
 21
157.7797691036842
 31
0.0
  0
LINE
  5
428A
330
1F
100
AcDbEntity
  8
0
100
AcDbLine
 10
35.78503535269919
 20
150.2797691036842
 30
0.0
 11
26.7850353526992
 21
150.2797691036842
 31
0.0
  0
LINE
  5
428B
330
1F
100
AcDbEntity
  8
Innenkanten
100
AcDbLine
 10
41.7850353526992
 20
158.1205441036843
 30
0.0
 11
35.78503535269919
 21
158.1205441036843
 31
0.0
  0
LINE
  5
428C
330
1F
100
AcDbEntity
  8
Innenkanten
100
AcDbLine
 10
41.7850353526992
 20
151.7565831036843
 30
0.0
 11
35.78503535269919
 21
151.7565831036843
 31
0.0
  0
LINE
  5
428D
330
1F
100
AcDbEntity
  8
0
100
AcDbLine
 10
36.7850353526992
 20
153.7453421036843
 30
0.0
 11
36.7850353526992
 21
158.1205441036843
 31
0.0
  0
LINE
  5
428E
330
1F
100
AcDbEntity
  8
0
100
AcDbLine
 10
40.78503535269919
 20
154.3453441036842
 30
0.0
 11
40.78503535269919
 21
158.1205441036843
 31
0.0
  0
LINE
  5
428F
330
1F
100
AcDbEntity
  8
0
100
AcDbLine
 10
36.7850353526992
 20
153.7453421036843
 30
0.0
 11
35.78503535269919
 21
153.7453421036843
 31
0.0
  0
LINE
  5
4290
330
1F
100
AcDbEntity
  8
0
100
AcDbLine
 10
36.7850353526992
 20
154.3453441036842
 30
0.0
 11
40.78503535269919
 21
154.3453441036842
 31
0.0
  0
LINE
  5
4291
330
1F
100
AcDbEntity
  8
0
100
AcDbLine
 10
41.7850353526992
 20
150.2797691036842
 30
0.0
 11
35.78503535269919
 21
150.2797691036842
 31
0.0
  0
LINE
  5
4292
330
1F
100
AcDbEntity
  8
Innenkanten
100
AcDbLine
 10
28.78503535269919
 20
150.2797691036842
 30
0.0
 11
28.78503535269919
 21
152.7797691036842
 31
0.0
  0
LINE
  5
4293
330
1F
100
AcDbEntity
  8
0
100
AcDbLine
 10
26.7850353526992
 20
163.8797711036843
 30
0.0
 11
28.2850353526992
 21
163.8797711036843
 31
0.0
  0
LINE
  5
4294
330
1F
100
AcDbEntity
  8
0
100
AcDbLine
 10
34.2850353526992
 20
162.7797691036842
 30
0.0
 11
28.2850353526992
 21
162.7797691036842
 31
0.0
  0
LINE
  5
4295
330
1F
100
AcDbEntity
  8
0
100
AcDbLine
 10
26.7850353526992
 20
151.6797711036842
 30
0.0
 11
28.2850353526992
 21
151.6797711036842
 31
0.0
  0
LINE
  5
4296
330
1F
100
AcDbEntity
  8
0
100
AcDbLine
 10
28.2850353526992
 20
152.7797691036842
 30
0.0
 11
34.2850353526992
 21
152.7797691036842
 31
0.0
  0
LINE
  5
4297
330
1F
100
AcDbEntity
  8
0
100
AcDbLine
 10
34.2850353526992
 20
152.7797691036842
 30
0.0
 11
34.2850353526992
 21
162.7797691036842
 31
0.0
  0
LINE
  5
4298
330
1F
100
AcDbEntity
  8
0
100
AcDbLine
 10
28.2850353526992
 20
151.6797711036842
 30
0.0
 11
28.2850353526992
 21
163.8797711036843
 31
0.0
  0
LINE
  5
4299
330
1F
100
AcDbEntity
  8
Innenkanten
100
AcDbLine
 10
41.7850353526992
 20
165.2763001036842
 30
0.0
 11
28.78503535269919
 21
165.2763001036842
 31
0.0
  0
LINE
  5
429A
330
1F
100
AcDbEntity
  8
Mittellinie
100
AcDbLine
 10
43.65500535269939
 20
222.3931231036842
 30
0.0
 11
34.21560535269918
 21
222.3931231036842
 31
0.0
  0
LINE
  5
429B
330
1F
100
AcDbEntity
  8
Innenkanten
100
AcDbLine
 10
41.7850353526992
 20
220.2834431036842
 30
0.0
 11
28.78503535269919
 21
220.2834431036842
 31
0.0
  0
LINE
  5
429C
330
1F
100
AcDbEntity
  8
Innenkanten
100
AcDbLine
 10
41.7850353526992
 20
228.1241161036843
 30
0.0
 11
35.78503535269919
 21
228.1241161036843
 31
0.0
  0
LINE
  5
429D
330
1F
100
AcDbEntity
  8
Innenkanten
100
AcDbLine
 10
41.7850353526992
 20
221.7601561036842
 30
0.0
 11
35.78503535269919
 21
221.7601561036842
 31
0.0
  0
LINE
  5
429E
330
1F
100
AcDbEntity
  8
0
100
AcDbLine
 10
35.78503535269919
 20
226.2431211036842
 30
0.0
 11
36.7850353526992
 21
226.2431211036842
 31
0.0
  0
LINE
  5
429F
330
1F
100
AcDbEntity
  8
0
100
AcDbLine
 10
36.7850353526992
 20
221.7601561036842
 30
0.0
 11
36.7850353526992
 21
226.2431211036842
 31
0.0
  0
LINE
  5
42A0
330
1F
100
AcDbEntity
  8
0
100
AcDbLine
 10
40.78503535269919
 20
221.7601561036842
 30
0.0
 11
40.78503535269919
 21
225.6431231036842
 31
0.0
  0
LINE
  5
42A1
330
1F
100
AcDbEntity
  8
0
100
AcDbLine
 10
40.78503535269919
 20
225.6431231036842
 30
0.0
 11
36.7850353526992
 21
225.6431231036842
 31
0.0
  0
LINE
  5
42A2
330
1F
100
AcDbEntity
  8
0
100
AcDbLine
 10
66.14091535269927
 20
231.9640531036843
 30
0.0
 11
41.7850353526992
 21
232.8145781036841
 31
0.0
  0
ARC
  5
42A3
330
1F
100
AcDbEntity
  8
0
100
AcDbCircle
 10
66.10602535269936
 20
230.9646641036843
 30
0.0
 40
1.0
100
AcDbArc
 50
16.39379999999854
 51
88.00000200000598
  0
LINE
  5
42A4
330
1F
100
AcDbEntity
  8
Mittellinie
100
AcDbLine
 10
27.33533535269907
 20
238.5297691036841
 30
0.0
 11
12.34439535269939
 21
238.5297691036841
 31
0.0
  0
LINE
  5
42A5
330
1F
100
AcDbEntity
  8
Innenkanten
100
AcDbLine
 10
26.7850353526992
 20
230.5797681036842
 30
0.0
 11
15.78503535269919
 21
230.5797681036842
 31
0.0
  0
LINE
  5
42A6
330
1F
100
AcDbEntity
  8
0
100
AcDbLine
 10
16.78503535269919
 20
245.0297691036841
 30
0.0
 11
24.78503535269919
 21
245.0297691036841
 31
0.0
  0
LINE
  5
42A7
330
1F
100
AcDbEntity
  8
0
100
AcDbLine
 10
16.78503535269919
 20
232.0297691036842
 30
0.0
 11
24.78503535269919
 21
232.0297691036842
 31
0.0
  0
LINE
  5
42A8
330
1F
100
AcDbEntity
  8
0
100
AcDbLine
 10
41.7850353526992
 20
235.2797691036842
 30
0.0
 11
26.7850353526992
 21
235.2797691036842
 31
0.0
  0
LINE
  5
42A9
330
1F
100
AcDbEntity
  8
0
100
AcDbLine
 10
41.7850353526992
 20
232.7797691036841
 30
0.0
 11
41.7850353526992
 21
235.2797691036842
 31
0.0
  0
LINE
  5
42AA
330
1F
100
AcDbEntity
  8
0
100
AcDbLine
 10
24.78503535269919
 20
232.0297691036842
 30
0.0
 11
24.78503535269919
 21
245.0297691036841
 31
0.0
  0
LINE
  5
42AB
330
1F
100
AcDbEntity
  8
Mittellinie
100
AcDbLine
 10
35.72359535269924
 20
262.7797731036841
 30
0.0
 11
25.46557535269926
 21
262.7797731036841
 31
0.0
  0
LINE
  5
42AC
330
1F
100
AcDbEntity
  8
0
100
AcDbLine
 10
26.7850353526992
 20
268.8797711036843
 30
0.0
 11
28.2850353526992
 21
268.8797711036843
 31
0.0
  0
LINE
  5
42AD
330
1F
100
AcDbEntity
  8
0
100
AcDbLine
 10
28.2850353526992
 20
267.7797731036842
 30
0.0
 11
34.2850353526992
 21
267.7797731036842
 31
0.0
  0
LINE
  5
42AE
330
1F
100
AcDbEntity
  8
0
100
AcDbLine
 10
26.7850353526992
 20
256.6797711036842
 30
0.0
 11
28.2850353526992
 21
256.6797711036842
 31
0.0
  0
LINE
  5
42AF
330
1F
100
AcDbEntity
  8
0
100
AcDbLine
 10
34.2850353526992
 20
257.7797691036841
 30
0.0
 11
28.2850353526992
 21
257.7797691036841
 31
0.0
  0
LINE
  5
42B0
330
1F
100
AcDbEntity
  8
0
100
AcDbLine
 10
34.2850353526992
 20
257.7797691036841
 30
0.0
 11
34.2850353526992
 21
267.7797731036842
 31
0.0
  0
LINE
  5
42B1
330
1F
100
AcDbEntity
  8
0
100
AcDbLine
 10
28.2850353526992
 20
256.6797711036842
 30
0.0
 11
28.2850353526992
 21
268.8797711036843
 31
0.0
  0
LINE
  5
42B2
330
1F
100
AcDbEntity
  8
Innenkanten
100
AcDbLine
 10
15.78503535269919
 20
230.5797681036842
 30
0.0
 11
15.78503535269919
 21
250.7798721036842
 31
0.0
  0
LINE
  5
42B3
330
1F
100
AcDbEntity
  8
0
100
AcDbLine
 10
15.78503535269919
 20
246.2297701036843
 30
0.0
 11
16.78503535269919
 21
246.2297701036843
 31
0.0
  0
LINE
  5
42B4
330
1F
100
AcDbEntity
  8
0
100
AcDbLine
 10
16.78503535269919
 20
230.8297681036842
 30
0.0
 11
15.78503535269919
 21
230.8297681036842
 31
0.0
  0
LINE
  5
42B5
330
1F
100
AcDbEntity
  8
0
100
AcDbLine
 10
16.78503535269919
 20
230.8297681036842
 30
0.0
 11
16.78503535269919
 21
246.2297701036843
 31
0.0
  0
LINE
  5
42B6
330
1F
100
AcDbEntity
  8
0
100
AcDbLine
 10
-20.21496264730058
 20
215.7797691036841
 30
0.0
 11
-20.21496264730058
 21
280.7797731036842
 31
0.0
  0
LINE
  5
42B7
330
1F
100
AcDbEntity
  8
Innenkanten
100
AcDbLine
 10
-9.214962647300581
 20
263.9797701036843
 30
0.0
 11
-9.214962647300581
 21
280.7797731036842
 31
0.0
  0
LINE
  5
42B8
330
1F
100
AcDbEntity
  8
0
100
AcDbLine
 10
-11.21496264730058
 20
265.5210911036842
 30
0.0
 11
-11.21496264730058
 21
278.5210911036843
 31
0.0
  0
LINE
  5
42B9
330
1F
100
AcDbEntity
  8
0
100
AcDbLine
 10
-19.21496264730058
 20
264.3210941036843
 30
0.0
 11
-19.21496264730058
 21
279.7210951036843
 31
0.0
  0
LINE
  5
42BA
330
1F
100
AcDbEntity
  8
Mittellinie
100
AcDbLine
 10
-8.246166647300924
 20
272.0210911036843
 30
0.0
 11
-23.23711064730059
 21
272.0210911036843
 31
0.0
  0
LINE
  5
42BB
330
1F
100
AcDbEntity
  8
Innenkanten
100
AcDbLine
 10
-20.21496264730058
 20
263.9797701036843
 30
0.0
 11
-9.214962647300581
 21
263.9797701036843
 31
0.0
  0
LINE
  5
42BC
330
1F
100
AcDbEntity
  8
0
100
AcDbLine
 10
-19.21496264730058
 20
264.3210941036843
 30
0.0
 11
-20.21496264730058
 21
264.3210941036843
 31
0.0
  0
LINE
  5
42BD
330
1F
100
AcDbEntity
  8
0
100
AcDbLine
 10
-19.21496264730058
 20
265.5210911036842
 30
0.0
 11
-11.21496264730058
 21
265.5210911036842
 31
0.0
  0
LINE
  5
42BE
330
1F
100
AcDbEntity
  8
0
100
AcDbLine
 10
-20.21496264730058
 20
279.7210951036843
 30
0.0
 11
-19.21496264730058
 21
279.7210951036843
 31
0.0
  0
LINE
  5
42BF
330
1F
100
AcDbEntity
  8
0
100
AcDbLine
 10
-19.21496264730058
 20
278.5210911036843
 30
0.0
 11
-11.21496264730058
 21
278.5210911036843
 31
0.0
  0
LINE
  5
42C3
330
1F
100
AcDbEntity
  8
0
100
AcDbLine
 10
-275.7149806473005
 20
210.2797721036842
 30
0.0
 11
-350.7149806473005
 21
210.2797721036842
 31
0.0
  0
LINE
  5
42C7
330
1F
100
AcDbEntity
  8
0
100
AcDbLine
 10
-275.7149806473005
 20
175.2797721036841
 30
0.0
 11
-350.7149806473005
 21
175.2797721036841
 31
0.0
  0
LINE
  5
42C8
330
1F
100
AcDbEntity
  8
0
100
AcDbLine
 10
-179.7149606473005
 20
280.7797731036842
 30
0.0
 11
-253.7149806473005
 21
280.7797731036842
 31
0.0
  0
LINE
  5
42C9
330
1F
100
AcDbEntity
  8
Innenkanten
100
AcDbLine
 10
-179.7149606473005
 20
243.7797731036841
 30
0.0
 11
-251.7149806473005
 21
243.7797731036841
 31
0.0
  0
LINE
  5
42CA
330
1F
100
AcDbEntity
  8
Innenkanten
100
AcDbLine
 10
-179.7149606473005
 20
240.7797731036842
 30
0.0
 11
-251.7149806473005
 21
240.7797731036842
 31
0.0
  0
LINE
  5
42CB
330
1F
100
AcDbEntity
  8
Innenkanten
100
AcDbLine
 10
-179.7149606473005
 20
237.7797731036841
 30
0.0
 11
-251.7149806473005
 21
237.7797731036841
 31
0.0
  0
LINE
  5
42CC
330
1F
100
AcDbEntity
  8
Innenkanten
100
AcDbLine
 10
-179.7149606473005
 20
234.7797731036842
 30
0.0
 11
-251.7149806473005
 21
234.7797731036842
 31
0.0
  0
LINE
  5
42CD
330
1F
100
AcDbEntity
  8
Innenkanten
100
AcDbLine
 10
-179.7149606473005
 20
150.7797721036842
 30
0.0
 11
-251.7149806473005
 21
150.7797721036842
 31
0.0
  0
LINE
  5
42CE
330
1F
100
AcDbEntity
  8
Innenkanten
100
AcDbLine
 10
-179.7149606473005
 20
147.7797721036842
 30
0.0
 11
-251.7149806473005
 21
147.7797721036842
 31
0.0
  0
LINE
  5
42CF
330
1F
100
AcDbEntity
  8
Innenkanten
100
AcDbLine
 10
-179.7149606473005
 20
144.7797721036842
 30
0.0
 11
-251.7149806473005
 21
144.7797721036842
 31
0.0
  0
LINE
  5
42D0
330
1F
100
AcDbEntity
  8
Unsichtbar
100
AcDbLine
 10
-126.5149706473005
 20
161.7798821036841
 30
0.0
 11
-129.8649706473006
 21
158.7798821036841
 31
0.0
  0
LINE
  5
42D1
330
1F
100
AcDbEntity
  8
Unsichtbar
100
AcDbLine
 10
-123.1649606473006
 20
158.7798821036841
 30
0.0
 11
-129.8649706473006
 21
158.7798821036841
 31
0.0
  0
LINE
  5
42D2
330
1F
100
AcDbEntity
  8
Unsichtbar
100
AcDbLine
 10
-122.5149706473005
 20
155.7798821036841
 30
0.0
 11
-130.5149706473005
 21
155.7798821036841
 31
0.0
  0
LINE
  5
42D3
330
1F
100
AcDbEntity
  8
Unsichtbar
100
AcDbLine
 10
-126.5149706473005
 20
161.7798821036841
 30
0.0
 11
-123.1649606473006
 21
158.7798821036841
 31
0.0
  0
LINE
  5
42D4
330
1F
100
AcDbEntity
  8
0
100
AcDbLine
 10
-271.7149806473005
 20
215.7797721036842
 30
0.0
 11
-271.7149806473005
 21
280.7797731036842
 31
0.0
  0
LINE
  5
42D5
330
1F
100
AcDbEntity
  8
0
100
AcDbLine
 10
-260.7149806473005
 20
229.5297731036841
 30
0.0
 11
-260.7149806473005
 21
247.5297731036842
 31
0.0
  0
LINE
  5
42D6
330
1F
100
AcDbEntity
  8
0
100
AcDbLine
 10
-275.7149806473005
 20
172.7797721036842
 30
0.0
 11
-275.7149806473005
 21
212.7797721036841
 31
0.0
  0
LINE
  5
42D7
330
1F
100
AcDbEntity
  8
0
100
AcDbLine
 10
-274.7149806473005
 20
172.7797721036842
 30
0.0
 11
-275.7149806473005
 21
172.7797721036842
 31
0.0
  0
LINE
  5
42D8
330
1F
100
AcDbEntity
  8
0
100
AcDbLine
 10
-260.7149806473005
 20
229.5297731036841
 30
0.0
 11
-271.7149806473005
 21
229.5297731036841
 31
0.0
  0
LINE
  5
42D9
330
1F
100
AcDbEntity
  8
0
100
AcDbLine
 10
-274.7149806473005
 20
212.7797721036841
 30
0.0
 11
-275.7149806473005
 21
212.7797721036841
 31
0.0
  0
LINE
  5
42DD
330
1F
100
AcDbEntity
  8
Innenkanten
100
AcDbLine
 10
-253.7149806473005
 20
266.5857771036842
 30
0.0
 11
-271.7149806473005
 21
266.5857771036842
 31
0.0
  0
LINE
  5
42DE
330
1F
100
AcDbEntity
  8
0
100
AcDbLine
 10
-260.7149806473005
 20
246.2297781036842
 30
0.0
 11
-262.7149806473005
 21
246.2297781036842
 31
0.0
  0
LINE
  5
42DF
330
1F
100
AcDbEntity
  8
Mittellinie
100
AcDbLine
 10
-272.4825606473004
 20
238.5297731036842
 30
0.0
 11
-259.3733306473004
 21
238.5297731036842
 31
0.0
  0
LINE
  5
42E0
330
1F
100
AcDbEntity
  8
0
100
AcDbLine
 10
-260.7149806473005
 20
247.5297731036842
 30
0.0
 11
-271.7149806473005
 21
247.5297731036842
 31
0.0
  0
LINE
  5
42E1
330
1F
100
AcDbEntity
  8
0
100
AcDbLine
 10
-260.7149806473005
 20
230.8297761036842
 30
0.0
 11
-262.7149806473005
 21
230.8297761036842
 31
0.0
  0
LINE
  5
42E2
330
1F
100
AcDbEntity
  8
0
100
AcDbLine
 10
-271.7149806473005
 20
249.9297751036841
 30
0.0
 11
-274.7149806473005
 21
249.9297751036841
 31
0.0
  0
LINE
  5
42E3
330
1F
100
AcDbEntity
  8
0
100
AcDbLine
 10
-270.7149806473005
 20
245.0297731036842
 30
0.0
 11
-262.7149806473005
 21
245.0297731036842
 31
0.0
  0
LINE
  5
42E4
330
1F
100
AcDbEntity
  8
0
100
AcDbLine
 10
-262.7149806473005
 20
232.0297731036841
 30
0.0
 11
-270.7149806473005
 21
232.0297731036841
 31
0.0
  0
LINE
  5
42E5
330
1F
100
AcDbEntity
  8
0
100
AcDbLine
 10
-270.7149806473005
 20
232.0297731036841
 30
0.0
 11
-270.7149806473005
 21
245.0297731036842
 31
0.0
  0
LINE
  5
42E6
330
1F
100
AcDbEntity
  8
0
100
AcDbLine
 10
-262.7149806473005
 20
246.2297781036842
 30
0.0
 11
-262.7149806473005
 21
230.8297761036842
 31
0.0
  0
LINE
  5
42E7
330
1F
100
AcDbEntity
  8
0
100
AcDbLine
 10
-253.7149806473005
 20
280.7797731036842
 30
0.0
 11
-271.7149806473005
 21
280.7797731036842
 31
0.0
  0
LINE
  5
42EB
330
1F
100
AcDbEntity
  8
0
100
AcDbLine
 10
-264.7149806473005
 20
280.7797731036842
 30
0.0
 11
-271.7149806473005
 21
280.7797731036842
 31
0.0
  0
LINE
  5
42EC
330
1F
100
AcDbEntity
  8
0
100
AcDbLine
 10
-350.7149806473005
 20
175.2797721036841
 30
0.0
 11
-350.7149806473005
 21
210.2797721036842
 31
0.0
  0
LINE
  5
4355
330
1F
100
AcDbEntity
  8
Mittellinie
100
AcDbLine
 10
-363.5786780226785
 20
192.7943848255841
 30
0.0
 11
84.67850254897076
 21
192.7943848255841
 31
0.0
  0
LINE
  5
4356
330
1F
100
AcDbEntity
  8
0
100
AcDbLine
 10
84.67850254897076
 20
192.7943848255841
 30
0.0
 11
84.67850254897076
 21
192.7943848255841
 31
0.0
  0
DIMENSION
  5
4357
102
{ACAD_XDICTIONARY
360
4364
102
}
102
{ACAD_REACTORS
330
436E
102
}
330
1F
100
AcDbEntity
  8
Bemaßung
100
AcDbDimension
  2
*D35
 10
487.7005209302238
 20
18.50058378856283
 30
0.0
 11
453.2005219302239
 21
20.37558378856283
 31
0.0
 70
    32
 71
     5
 42
68.99999799999978
  3
ISO-25
100
AcDbAlignedDimension
 13
418.700522930224
 23
134.9436552553509
 33
0.0
 14
487.7005209302238
 24
71.39379525535099
 34
0.0
100
AcDbRotatedDimension
  0
VIEWPORT
  5
FF1
330
FEA
100
AcDbEntity
 67
     1
  8
0
100
AcDbViewport
 10
261.828868127269
 20
164.4306744288919
 30
0.0
 40
611.754076381332
 41
348.5621296938007
 68
     1
 69
     1
 12
261.828868127269
 22
164.4306744288919
 13
0.0
 23
0.0
 14
10.0
 24
10.0
 15
10.0
 25
10.0
 16
0.0
 26
0.0
 36
1.0
 17
0.0
 27
0.0
 37
0.0
 42
50.0
 43
0.0
 44
0.0
 45
348.5621296938007
 50
0.0
 51
0.0
 72
   100
 90
    32800
  1

281
     0
 71
     1
 74
     0
110
0.0
120
0.0
130
0.0
111
1.0
121
0.0
131
0.0
112
0.0
122
1.0
132
0.0
 79
     0
146
0.0
  0
VIEWPORT
  5
FF3
330
FEA
100
AcDbEntity
 67
     1
  8
0
100
AcDbViewport
 10
144.7270812988279
 20
101.5933663914631
 30
0.0
 40
296.2546461044554
 41
209.0554971327303
 68
     2
 69
     2
 12
203.1282534378307
 22
126.0400189425975
 13
0.0
 23
0.0
 14
10.0
 24
10.0
 15
10.0
 25
10.0
 16
0.0
 26
0.0
 36
1.0
 17
0.0
 27
0.0
 37
0.0
 42
50.0
 43
0.0
 44
0.0
 45
382.825506506762
 50
0.0
 51
0.0
 72
   100
 90
    32864
  1

281
     0
 71
     1
 74
     0
110
-53.08748352590964
120
3.820899076262548
130
0.0
111
1.0
121
0.0
131
0.0
112
0.0
122
1.0
132
0.0
 79
     0
146
0.0
  0
ENDSEC
  0
SECTION
  2
OBJECTS
  0
DICTIONARY
  5
C
330
0
100
AcDbDictionary
281
     1
  3
ACAD_GROUP
350
D
  3
ACAD_LAYOUT
350
1A
  3
ACAD_MLINESTYLE
350
17
  3
ACAD_PLOTSETTINGS
350
19
  3
ACAD_PLOTSTYLENAME
350
E
  3
AcadDim
350
118B
  3
AcDbVariableDictionary
350
50
  3
DWGPROPS
350
A6A
  0
DICTIONARY
  5
3670
330
3663
100
AcDbDictionary
280
     1
281
     1
  3
ACAD_DIMASSOC
360
367A
  0
DICTIONARY
  5
3693
330
3684
100
AcDbDictionary
280
     1
281
     1
  3
ACAD_DIMASSOC
360
369F
  0
DICTIONARY
  5
36B8
330
36AB
100
AcDbDictionary
280
     1
281
     1
  3
ACAD_DIMASSOC
360
36C2
  0
DICTIONARY
  5
36D9
330
36CC
100
AcDbDictionary
280
     1
281
     1
  3
ACAD_DIMASSOC
360
36E3
  0
DICTIONARY
  5
36FA
330
36ED
100
AcDbDictionary
280
     1
281
     1
  3
ACAD_DIMASSOC
360
3704
  0
DICTIONARY
  5
373D
330
3730
100
AcDbDictionary
280
     1
281
     1
  3
ACAD_DIMASSOC
360
3747
  0
DICTIONARY
  5
375E
330
3751
100
AcDbDictionary
280
     1
281
     1
  3
ACAD_DIMASSOC
360
3768
  0
DICTIONARY
  5
3780
330
3773
100
AcDbDictionary
280
     1
281
     1
  3
ACAD_DIMASSOC
360
378A
  0
DICTIONARY
  5
37A2
330
3795
100
AcDbDictionary
280
     1
281
     1
  3
ACAD_DIMASSOC
360
37AC
  0
DICTIONARY
  5
37C3
330
37B6
100
AcDbDictionary
280
     1
281
     1
  3
ACAD_DIMASSOC
360
37CD
  0
DICTIONARY
  5
3804
330
37FB
100
AcDbDictionary
280
     1
281
     1
  3
ACAD_DIMASSOC
360
380A
  0
DICTIONARY
  5
3819
330
3810
100
AcDbDictionary
280
     1
281
     1
  3
ACAD_DIMASSOC
360
381F
  0
DICTIONARY
  5
3832
330
3825
100
AcDbDictionary
280
     1
281
     1
  3
ACAD_DIMASSOC
360
383C
  0
DICTIONARY
  5
3855
330
3848
100
AcDbDictionary
280
     1
281
     1
  3
ACAD_DIMASSOC
360
385F
  0
DICTIONARY
  5
4364
330
4357
100
AcDbDictionary
280
     1
281
     1
  3
ACAD_DIMASSOC
360
436E
  0
DICTIONARY
  5
D
102
{ACAD_REACTORS
330
C
102
}
330
C
100
AcDbDictionary
281
     1
  3
*A1
350
2A6
  3
*A10
350
25FE
  3
*A11
350
8E4
  3
*A12
350
1C68
  3
*A13
350
885
  3
*A14
350
886
  3
*A15
350
8D4
  3
*A16
350
905
  3
*A17
350
8E3
  3
*A18
350
8ED
  3
*A19
350
28E3
  3
*A2
350
A72
  3
*A20
350
93F
  3
*A21
350
90F
  3
*A22
350
91E
  3
*A23
350
1E89
  3
*A24
350
92D
  3
*A25
350
936
  3
*A26
350
1578
  3
*A27
350
3655
  3
*A28
350
85A
  3
*A29
350
1F44
  3
*A3
350
10FD
  3
*A30
350
94E
  3
*A31
350
3BE
  3
*A32
350
331
  3
*A33
350
369
  3
*A4
350
8F6
  3
*A5
350
413
  3
*A6
350
2093
  3
*A7
350
869
  3
*A8
350
23F7
  3
*A9
350
24C5
  0
DICTIONARY
  5
1A
102
{ACAD_REACTORS
330
C
102
}
330
C
100
AcDbDictionary
281
     1
  3
Layout1
350
FEB
  3
Model
350
22
  0
DICTIONARY
  5
17
102
{ACAD_REACTORS
330
C
102
}
330
C
100
AcDbDictionary
281
     1
  3
Standard
350
18
  0
DICTIONARY
  5
19
102
{ACAD_REACTORS
330
C
102
}
330
C
100
AcDbDictionary
281
     1
  0
ACDBDICTIONARYWDFLT
  5
E
102
{ACAD_REACTORS
330
C
102
}
330
C
100
AcDbDictionary
281
     1
  3
Normal
350
F
100
AcDbDictionaryWithDefault
340
F
  0
XRECORD
  5
118B
102
{ACAD_REACTORS
330
C
102
}
330
C
100
AcDbXrecord
280
     1
 90
   990106
  3

 60
     0
 61
     0
 62
     1
 63
     3
 64
     0
 65
     0
 66
     0
 67
     3
 68
     1
 69
     0
 70
     0
 71
     0
 72
     0
 40
2.0
170
     0
340
0
  0
DICTIONARY
  5
50
102
{ACAD_REACTORS
330
C
102
}
330
C
100
AcDbDictionary
281
     1
  3
DIMASSOC
350
52
  3
HIDETEXT
350
51
  0
XRECORD
  5
A6A
102
{ACAD_REACTORS
330
C
102
}
330
C
100
AcDbXrecord
280
     1
  1
DWGPROPS COOKIE
  2

  3

  4

  6

  7

  8

  9

300
=
301
=
302
=
303
=
304
=
305
=
306
=
307
=
308
=
309
=
 40
0.587026388888889
 41
2452181.498615972
 42
2452184.61255463
  1

 90
        0
  0
DIMASSOC
  5
367A
102
{ACAD_REACTORS
330
3670
102
}
330
3670
100
AcDbDimAssoc
330
3663
 90
        3
 70
     0
 71
     0
  1
AcDbOsnapPointRef
 72
     1
331
3608
 73
     2
 91
        0
 40
1.0
 10
758.7005389302237
 20
280.9436592553509
 30
0.0
 75
     0
  1
AcDbOsnapPointRef
 72
     1
331
3618
 73
     2
 91
        0
 40
1.0
 10
740.7005389302237
 20
280.9436592553509
 30
0.0
 75
     0
  0
DIMASSOC
  5
369F
102
{ACAD_REACTORS
330
3693
102
}
330
3693
100
AcDbDimAssoc
330
3684
 90
        3
 70
     0
 71
     0
  1
AcDbOsnapPointRef
 72
     1
331
360B
 73
     2
 91
        0
 40
1.0
 10
761.7005389302237
 20
250.0936612553508
 30
0.0
 75
     0
  1
AcDbOsnapPointRef
 72
     8
331
3617
 73
     2
 91
        0
 40
0.5253846534556203
 10
758.7005389302237
 20
250.0936612553508
 30
0.0
 75
     1
  1
AcDbOsnapPointRef
 72
     1
331
360B
 73
     2
 91
        0
 40
1.0
 10
761.7005389302237
 20
250.0936612553508
 30
0.0
 75
     0
  0
DIMASSOC
  5
36C2
102
{ACAD_REACTORS
330
36B8
102
}
330
36B8
100
AcDbDimAssoc
330
36AB
 90
        3
 70
     0
 71
     0
  1
AcDbOsnapPointRef
 72
     1
331
3607
 73
     2
 91
        0
 40
1.0
 10
762.7005389302237
 20
212.9436582553509
 30
0.0
 75
     0
  1
AcDbOsnapPointRef
 72
     1
331
3606
 73
     2
 91
        0
 40
1.0
 10
837.7005389302237
 20
210.4436582553509
 30
0.0
 75
     0
  0
DIMASSOC
  5
36E3
102
{ACAD_REACTORS
330
36D9
102
}
330
36D9
100
AcDbDimAssoc
330
36CC
 90
        3
 70
     0
 71
     0
  1
AcDbOsnapPointRef
 72
     1
331
3606
 73
     2
 91
        0
 40
1.0
 10
837.7005389302237
 20
210.4436582553509
 30
0.0
 75
     0
  1
AcDbOsnapPointRef
 72
     1
331
3608
 73
     2
 91
        0
 40
1.0
 10
758.7005389302237
 20
280.9436592553509
 30
0.0
 75
     0
  0
DIMASSOC
  5
3704
102
{ACAD_REACTORS
330
36FA
102
}
330
36FA
100
AcDbDimAssoc
330
36ED
 90
        2
 70
     0
 71
     0
  1
AcDbOsnapPointRef
 72
     1
331
3608
 73
     2
 91
        0
 40
1.0
 10
758.7005389302237
 20
280.9436592553509
 30
0.0
 75
     0
  0
DIMASSOC
  5
3747
102
{ACAD_REACTORS
330
373D
102
}
330
373D
100
AcDbDimAssoc
330
3730
 90
        3
 70
     0
 71
     0
  1
AcDbOsnapPointRef
 72
     1
331
3606
 73
     2
 91
        0
 40
1.0
 10
837.7005389302237
 20
210.4436582553509
 30
0.0
 75
     0
  1
AcDbOsnapPointRef
 72
    13
331
3606
 73
     2
 91
        0
 40
0.0
 10
837.7005389302237
 20
175.4436582553509
 30
0.0
 75
     0
  0
DIMASSOC
  5
3768
102
{ACAD_REACTORS
330
375E
102
}
330
375E
100
AcDbDimAssoc
330
3751
 90
        3
 70
     0
 71
     0
  1
AcDbOsnapPointRef
 72
     1
331
360B
 73
     2
 91
        0
 40
1.0
 10
761.7005389302237
 20
250.0936612553508
 30
0.0
 75
     0
  1
AcDbOsnapPointRef
 72
    13
331
360B
 73
     2
 91
        0
 40
0.0
 10
761.7005389302237
 20
135.7936682553509
 30
0.0
 75
     0
  0
DIMASSOC
  5
378A
102
{ACAD_REACTORS
330
3780
102
}
330
3780
100
AcDbDimAssoc
330
3773
 90
        3
 70
     0
 71
     0
  1
AcDbOsnapPointRef
 72
    13
331
35D0
 73
     2
 91
        0
 40
0.0
 10
548.2005089302238
 20
37.9436582553509
 30
0.0
 75
     0
  1
AcDbOsnapPointRef
 72
    13
331
3608
 73
     2
 91
        0
 40
0.0
 10
758.7005389302237
 20
104.9436582553509
 30
0.0
 75
     0
  0
DIMASSOC
  5
37AC
102
{ACAD_REACTORS
330
37A2
102
}
330
37A2
100
AcDbDimAssoc
330
3795
 90
        3
 70
     0
 71
     0
  1
AcDbOsnapPointRef
 72
     1
331
3402
 73
     2
 91
        0
 40
1.0
 10
150.1908536722494
 20
266.8281648255841
 30
0.0
 75
     0
  1
AcDbOsnapPointRef
 72
    13
331
34C0
 73
     2
 91
        0
 40
0.6994173452313427
 10
326.1908262758034
 20
266.8281578063968
 30
0.0
 75
     0
  0
DIMASSOC
  5
37CD
102
{ACAD_REACTORS
330
37C3
102
}
330
37C3
100
AcDbDimAssoc
330
37B6
 90
        3
 70
     0
 71
     0
  1
AcDbOsnapPointRef
 72
    13
331
34AE
 73
     2
 91
        0
 40
2.270213637119677
 10
164.1570537632145
 20
280.7943900134025
 30
0.0
 75
     0
  1
AcDbOsnapPointRef
 72
    13
331
340D
 73
     2
 91
        0
 40
0.0
 10
164.1570736722494
 20
104.7943848255841
 30
0.0
 75
     0
  0
DIMASSOC
  5
380A
102
{ACAD_REACTORS
330
3804
102
}
330
3804
100
AcDbDimAssoc
330
37FB
 90
        2
 70
     0
 71
     0
  1
AcDbOsnapPointRef
 72
     3
331
34A3
 73
     2
 91
        0
 40
0.0
 10
0.0
 20
0.0
 30
0.0
 75
     0
  0
DIMASSOC
  5
381F
102
{ACAD_REACTORS
330
3819
102
}
330
3819
100
AcDbDimAssoc
330
3810
 90
        2
 70
     0
 71
     0
  1
AcDbOsnapPointRef
 72
     3
331
34C0
 73
     2
 91
        0
 40
0.0
 10
0.0
 20
0.0
 30
0.0
 75
     0
  0
DIMASSOC
  5
383C
102
{ACAD_REACTORS
330
3832
102
}
330
3832
100
AcDbDimAssoc
330
3825
 90
        3
 70
     0
 71
     0
  1
AcDbOsnapPointRef
 72
     1
331
340C
 73
     2
 91
        0
 40
0.9999999999999998
 10
337.1831936722493
 20
192.7943848255841
 30
0.0
 75
     0
  1
AcDbOsnapPointRef
 72
     4
331
3440
 73
     2
 91
        0
 40
0.0
 10
262.1909436722494
 20
42.79439482558411
 30
0.0
 75
     0
  0
DIMASSOC
  5
385F
102
{ACAD_REACTORS
330
3855
102
}
330
3855
100
AcDbDimAssoc
330
3848
 90
        3
 70
     0
 71
     0
  1
AcDbOsnapPointRef
 72
    13
331
3441
 73
     2
 91
        0
 40
0.0
 10
209.1909736722494
 20
70.79438482558419
 30
0.0
 75
     0
  1
AcDbOsnapPointRef
 72
     1
331
3441
 73
     2
 91
        0
 40
1.0
 10
267.1910036722493
 20
70.79438482558419
 30
0.0
 75
     0
  0
DIMASSOC
  5
436E
102
{ACAD_REACTORS
330
4364
102
}
330
4364
100
AcDbDimAssoc
330
4357
 90
        3
 70
     0
 71
     0
  1
AcDbOsnapPointRef
 72
    13
331
3E47
 73
     2
 91
        0
 40
0.0
 10
418.7005229302238
 20
134.9436552553509
 30
0.0
 75
     0
  1
AcDbOsnapPointRef
 72
    13
331
3E58
 73
     2
 91
        0
 40
0.0
 10
487.7005209302239
 20
71.39379525535099
 30
0.0
 75
     0
  0
GROUP
  5
2A6
102
{ACAD_REACTORS
330
D
102
}
330
D
100
AcDbGroup
300

 70
     1
 71
     1
  0
GROUP
  5
25FE
102
{ACAD_REACTORS
330
D
102
}
330
D
100
AcDbGroup
300

 70
     1
 71
     1
  0
GROUP
  5
8E4
102
{ACAD_REACTORS
330
D
102
}
330
D
100
AcDbGroup
300

 70
     1
 71
     1
  0
GROUP
  5
1C68
102
{ACAD_REACTORS
330
D
102
}
330
D
100
AcDbGroup
300

 70
     1
 71
     1
  0
GROUP
  5
885
102
{ACAD_REACTORS
330
D
102
}
330
D
100
AcDbGroup
300

 70
     1
 71
     1
  0
GROUP
  5
886
102
{ACAD_REACTORS
330
D
102
}
330
D
100
AcDbGroup
300

 70
     1
 71
     1
  0
GROUP
  5
8D4
102
{ACAD_REACTORS
330
D
102
}
330
D
100
AcDbGroup
300

 70
     1
 71
     1
  0
GROUP
  5
905
102
{ACAD_REACTORS
330
D
102
}
330
D
100
AcDbGroup
300

 70
     1
 71
     1
  0
GROUP
  5
8E3
102
{ACAD_REACTORS
330
D
102
}
330
D
100
AcDbGroup
300

 70
     1
 71
     1
  0
GROUP
  5
8ED
102
{ACAD_REACTORS
330
D
102
}
330
D
100
AcDbGroup
300

 70
     1
 71
     1
  0
GROUP
  5
28E3
102
{ACAD_REACTORS
330
D
102
}
330
D
100
AcDbGroup
300

 70
     1
 71
     1
  0
GROUP
  5
A72
102
{ACAD_REACTORS
330
D
102
}
330
D
100
AcDbGroup
300

 70
     1
 71
     1
  0
GROUP
  5
93F
102
{ACAD_REACTORS
330
D
102
}
330
D
100
AcDbGroup
300

 70
     1
 71
     1
  0
GROUP
  5
90F
102
{ACAD_REACTORS
330
D
102
}
330
D
100
AcDbGroup
300

 70
     1
 71
     1
  0
GROUP
  5
91E
102
{ACAD_REACTORS
330
D
102
}
330
D
100
AcDbGroup
300

 70
     1
 71
     1
  0
GROUP
  5
1E89
102
{ACAD_REACTORS
330
D
102
}
330
D
100
AcDbGroup
300

 70
     1
 71
     1
  0
GROUP
  5
92D
102
{ACAD_REACTORS
330
D
102
}
330
D
100
AcDbGroup
300

 70
     1
 71
     1
  0
GROUP
  5
936
102
{ACAD_REACTORS
330
D
102
}
330
D
100
AcDbGroup
300

 70
     1
 71
     1
  0
GROUP
  5
1578
102
{ACAD_REACTORS
330
D
102
}
330
D
100
AcDbGroup
300

 70
     1
 71
     1
  0
GROUP
  5
3655
102
{ACAD_REACTORS
330
D
102
}
330
D
100
AcDbGroup
300

 70
     1
 71
     1
340
364B
340
364D
340
364E
340
3647
340
3646
340
3650
340
364A
340
3649
340
3648
340
364F
  0
GROUP
  5
85A
102
{ACAD_REACTORS
330
D
102
}
330
D
100
AcDbGroup
300

 70
     1
 71
     1
  0
GROUP
  5
1F44
102
{ACAD_REACTORS
330
D
102
}
330
D
100
AcDbGroup
300

 70
     1
 71
     1
  0
GROUP
  5
10FD
102
{ACAD_REACTORS
330
D
102
}
330
D
100
AcDbGroup
300

 70
     1
 71
     1
  0
GROUP
  5
94E
102
{ACAD_REACTORS
330
D
102
}
330
D
100
AcDbGroup
300

 70
     1
 71
     1
  0
GROUP
  5
3BE
102
{ACAD_REACTORS
330
D
102
}
330
D
100
AcDbGroup
300

 70
     1
 71
     1
  0
GROUP
  5
331
102
{ACAD_REACTORS
330
D
102
}
330
D
100
AcDbGroup
300

 70
     1
 71
     1
  0
GROUP
  5
369
102
{ACAD_REACTORS
330
D
102
}
330
D
100
AcDbGroup
300

 70
     1
 71
     1
  0
GROUP
  5
8F6
102
{ACAD_REACTORS
330
D
102
}
330
D
100
AcDbGroup
300

 70
     1
 71
     1
  0
GROUP
  5
413
102
{ACAD_REACTORS
330
D
102
}
330
D
100
AcDbGroup
300

 70
     1
 71
     1
  0
GROUP
  5
2093
102
{ACAD_REACTORS
330
D
102
}
330
D
100
AcDbGroup
300

 70
     1
 71
     1
  0
GROUP
  5
869
102
{ACAD_REACTORS
330
D
102
}
330
D
100
AcDbGroup
300

 70
     1
 71
     1
  0
GROUP
  5
23F7
102
{ACAD_REACTORS
330
D
102
}
330
D
100
AcDbGroup
300

 70
     1
 71
     1
  0
GROUP
  5
24C5
102
{ACAD_REACTORS
330
D
102
}
330
D
100
AcDbGroup
300

 70
     1
 71
     1
  0
LAYOUT
  5
FEB
102
{ACAD_REACTORS
330
1A
102
}
330
1A
100
AcDbPlotSettings
  1

  2
EPSON Stylus COLOR 1520
  4
A4
  6

 40
3.757083177566528
 41
14.7637300491333
 42
3.757080078125
 43
3.757080078125
 44
209.9733276367187
 45
296.9683227539062
 46
0.0
 47
0.0
 48
0.0
 49
0.0
140
0.0
141
0.0
142
1.0
143
1.0
 70
   688
 72
     1
 73
     1
 74
     5
  7

 75
    16
147
1.0
148
0.0
149
0.0
100
AcDbLayout
  1
Layout1
 70
     1
 71
     1
 10
-3.757080078125
 20
-3.757083177566528
 11
293.2112426757812
 21
206.2162444591522
 12
0.0
 22
0.0
 32
0.0
 14
-3.400241753399768
 24
-2.934382174902054
 34
0.0
 15
292.8544043510557
 25
206.1211149578283
 35
0.0
146
0.0
 13
0.0
 23
0.0
 33
0.0
 16
1.0
 26
0.0
 36
0.0
 17
0.0
 27
1.0
 37
0.0
 76
     0
330
FEA
331
FF1
  0
LAYOUT
  5
22
102
{ACAD_REACTORS
330
1A
102
}
330
1A
100
AcDbPlotSettings
  1

  2
EPSON Stylus COLOR 1520
  4
A4
  6

 40
3.757083177566528
 41
14.7637300491333
 42
3.757080078125
 43
3.757080078125
 44
209.9733276367187
 45
296.9683227539062
 46
0.0
 47
0.0
 48
0.0
 49
0.0
140
0.0
141
0.0
142
1.0
143
1.0
 70
 11952
 72
     1
 73
     1
 74
     0
  7

 75
     0
147
1.0
148
-89.73529411764705
149
0.0
100
AcDbLayout
  1
Model
 70
     1
 71
     0
 10
0.0
 20
0.0
 11
12.0
 21
9.0
 12
0.0
 22
0.0
 32
0.0
 14
0.0
 24
0.0
 34
0.0
 15
0.0
 25
0.0
 35
0.0
146
0.0
 13
0.0
 23
0.0
 33
0.0
 16
1.0
 26
0.0
 36
0.0
 17
0.0
 27
1.0
 37
0.0
 76
     0
330
1F
  0
MLINESTYLE
  5
18
102
{ACAD_REACTORS
330
17
102
}
330
17
100
AcDbMlineStyle
  2
STANDARD
 70
     0
  3

 62
   256
 51
90.0
 52
90.0
 71
     2
 49
0.5
 62
   256
  6
BYLAYER
 49
-0.5
 62
   256
  6
BYLAYER
  0
ACDBPLACEHOLDER
  5
F
102
{ACAD_REACTORS
330
E
102
}
330
E
  0
DICTIONARYVAR
  5
52
102
{ACAD_REACTORS
330
50
102
}
330
50
100
DictionaryVariables
280
     0
  1
2
  0
DICTIONARYVAR
  5
51
102
{ACAD_REACTORS
330
50
102
}
330
50
100
DictionaryVariables
280
     0
  1
1
  0
ENDSEC
  0
EOF
