  0
SECTION
  2
HEADER
  9
$ACADVER
  1
AC1015
  9
$ACADMAINTVER
 70
    13
  9
$DWGCODEPAGE
  3
ANSI_1252
  9
$INSBASE
 10
0.0
 20
0.0
 30
0.0
  9
$EXTMIN
 10
-33.28866411106992
 20
-40.88990701922864
 30
-0.0015258207003583
  9
$EXTMAX
 10
441.8578725685331
 20
229.368400558455
 30
0.0000000349246037
  9
$LIMMIN
 10
0.0
 20
0.0
  9
$LIMMAX
 10
420.0
 20
297.0
  9
$ORTHOMODE
 70
     1
  9
$REGENMODE
 70
     1
  9
$FILLMODE
 70
     1
  9
$QTEXTMODE
 70
     0
  9
$MIRRTEXT
 70
     1
  9
$LTSCALE
 40
1.0
  9
$ATTMODE
 70
     1
  9
$TEXTSIZE
 40
26.5350450929028
  9
$TRACEWID
 40
1.0
  9
$TEXTSTYLE
  7
Standard
  9
$CLAYER
  8
0
  9
$CELTYPE
  6
ByLayer
  9
$CECOLOR
 62
   256
  9
$CELTSCALE
 40
1.0
  9
$DISPSILH
 70
     0
  9
$DIMSCALE
 40
1.0
  9
$DIMASZ
 40
2.5
  9
$DIMEXO
 40
0.625
  9
$DIMDLI
 40
3.75
  9
$DIMRND
 40
0.0
  9
$DIMDLE
 40
0.0
  9
$DIMEXE
 40
1.25
  9
$DIMTP
 40
0.0
  9
$DIMTM
 40
0.0
  9
$DIMTXT
 40
2.5
  9
$DIMCEN
 40
2.5
  9
$DIMTSZ
 40
0.0
  9
$DIMTOL
 70
     0
  9
$DIMLIM
 70
     0
  9
$DIMTIH
 70
     0
  9
$DIMTOH
 70
     0
  9
$DIMSE1
 70
     0
  9
$DIMSE2
 70
     0
  9
$DIMTAD
 70
     1
  9
$DIMZIN
 70
     8
  9
$DIMBLK
  1

  9
$DIMASO
 70
     1
  9
$DIMSHO
 70
     1
  9
$DIMPOST
  1

  9
$DIMAPOST
  1

  9
$DIMALT
 70
     0
  9
$DIMALTD
 70
     3
  9
$DIMALTF
 40
0.03937007874016
  9
$DIMLFAC
 40
1.0
  9
$DIMTOFL
 70
     1
  9
$DIMTVP
 40
0.0
  9
$DIMTIX
 70
     0
  9
$DIMSOXD
 70
     0
  9
$DIMSAH
 70
     0
  9
$DIMBLK1
  1

  9
$DIMBLK2
  1

  9
$DIMSTYLE
  2
ISO-25
  9
$DIMCLRD
 70
     0
  9
$DIMCLRE
 70
     0
  9
$DIMCLRT
 70
     0
  9
$DIMTFAC
 40
1.0
  9
$DIMGAP
 40
0.625
  9
$DIMJUST
 70
     0
  9
$DIMSD1
 70
     0
  9
$DIMSD2
 70
     0
  9
$DIMTOLJ
 70
     0
  9
$DIMTZIN
 70
     8
  9
$DIMALTZ
 70
     0
  9
$DIMALTTZ
 70
     0
  9
$DIMUPT
 70
     0
  9
$DIMDEC
 70
     2
  9
$DIMTDEC
 70
     2
  9
$DIMALTU
 70
     2
  9
$DIMALTTD
 70
     3
  9
$DIMTXSTY
  7
Standard
  9
$DIMAUNIT
 70
     0
  9
$DIMADEC
 70
     0
  9
$DIMALTRND
 40
0.0
  9
$DIMAZIN
 70
     0
  9
$DIMDSEP
 70
    44
  9
$DIMATFIT
 70
     3
  9
$DIMFRAC
 70
     0
  9
$DIMLDRBLK
  1

  9
$DIMLUNIT
 70
     2
  9
$DIMLWD
 70
    -2
  9
$DIMLWE
 70
    -2
  9
$DIMTMOVE
 70
     0
  9
$LUNITS
 70
     2
  9
$LUPREC
 70
     4
  9
$SKETCHINC
 40
1.0
  9
$FILLETRAD
 40
3.0
  9
$AUNITS
 70
     0
  9
$AUPREC
 70
     0
  9
$MENU
  1
.
  9
$ELEVATION
 40
0.0
  9
$PELEVATION
 40
0.0
  9
$THICKNESS
 40
0.0
  9
$LIMCHECK
 70
     0
  9
$CHAMFERA
 40
10.0
  9
$CHAMFERB
 40
10.0
  9
$CHAMFERC
 40
20.0
  9
$CHAMFERD
 40
0.0
  9
$SKPOLY
 70
     0
  9
$TDCREATE
 40
2452181.456949305
  9
$TDUCREATE
 40
2452181.415282638
  9
$TDUPDATE
 40
2452321.498605786
  9
$TDUUPDATE
 40
2452321.456939120
  9
$TDINDWG
 40
0.6908908565
  9
$TDUSRTIMER
 40
0.6908813657
  9
$USRTIMER
 70
     1
  9
$ANGBASE
 50
0.0
  9
$ANGDIR
 70
     0
  9
$PDMODE
 70
     0
  9
$PDSIZE
 40
0.0
  9
$PLINEWID
 40
0.0
  9
$SPLFRAME
 70
     0
  9
$SPLINETYPE
 70
     6
  9
$SPLINESEGS
 70
     8
  9
$HANDSEED
  5
14BF
  9
$SURFTAB1
 70
     6
  9
$SURFTAB2
 70
     6
  9
$SURFTYPE
 70
     6
  9
$SURFU
 70
     6
  9
$SURFV
 70
     6
  9
$UCSBASE
  2

  9
$UCSNAME
  2

  9
$UCSORG
 10
-53.08748352590964
 20
3.820899076262548
 30
0.0
  9
$UCSXDIR
 10
1.0
 20
0.0
 30
0.0
  9
$UCSYDIR
 10
0.0
 20
1.0
 30
0.0
  9
$UCSORTHOREF
  2

  9
$UCSORTHOVIEW
 70
     0
  9
$UCSORGTOP
 10
0.0
 20
0.0
 30
0.0
  9
$UCSORGBOTTOM
 10
0.0
 20
0.0
 30
0.0
  9
$UCSORGLEFT
 10
0.0
 20
0.0
 30
0.0
  9
$UCSORGRIGHT
 10
0.0
 20
0.0
 30
0.0
  9
$UCSORGFRONT
 10
0.0
 20
0.0
 30
0.0
  9
$UCSORGBACK
 10
0.0
 20
0.0
 30
0.0
  9
$PUCSBASE
  2

  9
$PUCSNAME
  2

  9
$PUCSORG
 10
0.0
 20
0.0
 30
0.0
  9
$PUCSXDIR
 10
1.0
 20
0.0
 30
0.0
  9
$PUCSYDIR
 10
0.0
 20
1.0
 30
0.0
  9
$PUCSORTHOREF
  2

  9
$PUCSORTHOVIEW
 70
     0
  9
$PUCSORGTOP
 10
0.0
 20
0.0
 30
0.0
  9
$PUCSORGBOTTOM
 10
0.0
 20
0.0
 30
0.0
  9
$PUCSORGLEFT
 10
0.0
 20
0.0
 30
0.0
  9
$PUCSORGRIGHT
 10
0.0
 20
0.0
 30
0.0
  9
$PUCSORGFRONT
 10
0.0
 20
0.0
 30
0.0
  9
$PUCSORGBACK
 10
0.0
 20
0.0
 30
0.0
  9
$USERI1
 70
     0
  9
$USERI2
 70
     0
  9
$USERI3
 70
     0
  9
$USERI4
 70
     0
  9
$USERI5
 70
     0
  9
$USERR1
 40
0.0
  9
$USERR2
 40
0.0
  9
$USERR3
 40
0.0
  9
$USERR4
 40
0.0
  9
$USERR5
 40
0.0
  9
$WORLDVIEW
 70
     1
  9
$SHADEDGE
 70
     3
  9
$SHADEDIF
 70
    70
  9
$TILEMODE
 70
     1
  9
$MAXACTVP
 70
    64
  9
$PINSBASE
 10
0.0
 20
0.0
 30
0.0
  9
$PLIMCHECK
 70
     0
  9
$PEXTMIN
 10
-3.400241753399768
 20
-2.934382174902054
 30
0.0
  9
$PEXTMAX
 10
292.8544043510557
 20
206.1211149578283
 30
0.0
  9
$PLIMMIN
 10
-3.757080078125
 20
-3.757083177566528
  9
$PLIMMAX
 10
293.2112426757812
 20
206.2162444591522
  9
$UNITMODE
 70
     0
  9
$VISRETAIN
 70
     1
  9
$PLINEGEN
 70
     0
  9
$PSLTSCALE
 70
     1
  9
$TREEDEPTH
 70
  3020
  9
$CMLSTYLE
  2
Standard
  9
$CMLJUST
 70
     0
  9
$CMLSCALE
 40
20.0
  9
$PROXYGRAPHICS
 70
     1
  9
$MEASUREMENT
 70
     1
  9
$CELWEIGHT
370
    -1
  9
$ENDCAPS
280
     0
  9
$JOINSTYLE
280
     0
  9
$LWDISPLAY
290
     0
  9
$INSUNITS
 70
     4
  9
$HYPERLINKBASE
  1

  9
$STYLESHEET
  1

  9
$XEDIT
290
     1
  9
$CEPSNTYPE
380
     0
  9
$PSTYLEMODE
290
     1
  9
$FINGERPRINTGUID
  2
{F84AA5D3-2765-4D6B-8594-ABD9F52FB735}
  9
$VERSIONGUID
  2
{D193A918-A99D-4395-BF8E-FF2461C421BC}
  9
$EXTNAMES
290
     1
  9
$PSVPSCALE
 40
0.0
  9
$OLESTARTUP
290
     0
  0
ENDSEC
  0
SECTION
  2
CLASSES
  0
CLASS
  1
ACDBDICTIONARYWDFLT
  2
AcDbDictionaryWithDefault
  3
AutoCAD 2000
 90
        0
280
     0
281
     0
  0
CLASS
  1
ACDBPLACEHOLDER
  2
AcDbPlaceHolder
  3
AutoCAD 2000
 90
        0
280
     0
281
     0
  0
CLASS
  1
LAYOUT
  2
AcDbLayout
  3
AutoCAD 2000
 90
        0
280
     0
281
     0
  0
CLASS
  1
DICTIONARYVAR
  2
AcDbDictionaryVar
  3
AutoCAD 2000
 90
        0
280
     0
281
     0
  0
CLASS
  1
DIMASSOC
  2
AcDbDimAssoc
  3
"AcDbDimAssoc|Product Desc:     AcDim ARX App For Dimension|Company:          Autodesk, Inc.|WEB Address:      www.autodesk.com"
 90
        0
280
     0
281
     0
  0
ENDSEC
  0
SECTION
  2
TABLES
  0
TABLE
  2
VPORT
  5
8
330
0
100
AcDbSymbolTable
 70
     3
  0
VPORT
  5
14BE
330
8
100
AcDbSymbolTableRecord
100
AcDbViewportTableRecord
  2
*Active
 70
     0
 10
0.0
 20
0.0
 11
1.0
 21
1.0
 12
204.2846042287316
 22
128.0550464903856
 13
0.0
 23
0.0
 14
10.0
 24
10.0
 15
10.0
 25
10.0
 16
0.0
 26
0.0
 36
1.0
 17
0.0
 27
0.0
 37
0.0
 40
340.1031596852934
 41
1.699453551912568
 42
50.0
 43
0.0
 44
0.0
 50
0.0
 51
0.0
 71
     0
 72
   100
 73
     1
 74
     3
 75
     1
 76
     0
 77
     0
 78
     0
281
     0
 65
     1
110
-53.08748352590964
120
3.820899076262548
130
0.0
111
1.0
121
0.0
131
0.0
112
0.0
122
1.0
132
0.0
 79
     0
146
0.0
  0
ENDTAB
  0
TABLE
  2
LTYPE
  5
5
330
0
100
AcDbSymbolTable
 70
     4
  0
LTYPE
  5
14
330
5
100
AcDbSymbolTableRecord
100
AcDbLinetypeTableRecord
  2
ByBlock
 70
     0
  3

 72
    65
 73
     0
 40
0.0
  0
LTYPE
  5
15
330
5
100
AcDbSymbolTableRecord
100
AcDbLinetypeTableRecord
  2
ByLayer
 70
     0
  3

 72
    65
 73
     0
 40
0.0
  0
LTYPE
  5
16
330
5
100
AcDbSymbolTableRecord
100
AcDbLinetypeTableRecord
  2
Continuous
 70
     0
  3
Solid line
 72
    65
 73
     0
 40
0.0
  0
LTYPE
  5
2D
330
5
100
AcDbSymbolTableRecord
100
AcDbLinetypeTableRecord
  2
MITTE
 70
     0
  3
Mitte ____ _ ____ _ ____ _ ____ _ ____ _ ____
 72
    65
 73
     4
 40
50.8
 49
31.75
 74
     0
 49
-6.349999999999999
 74
     0
 49
6.349999999999999
 74
     0
 49
-6.349999999999999
 74
     0
  0
LTYPE
  5
39
330
5
100
AcDbSymbolTableRecord
100
AcDbLinetypeTableRecord
  2
VERDECKT
 70
     0
  3
Verdeckt __ __ __ __ __ __ __ __ __ __ __ __ __
 72
    65
 73
     2
 40
9.524999999999998
 49
6.349999999999999
 74
     0
 49
-3.174999999999999
 74
     0
  0
LTYPE
  5
AE7
330
5
100
AcDbSymbolTableRecord
100
AcDbLinetypeTableRecord
  2
CENTER
 70
     0
  3
____ _ ____ _ ____ _ ____ _ ____ _ ____ _ ____
 72
    65
 73
     4
 40
17.5
 49
13.0
 74
     0
 49
-1.5
 74
     0
 49
1.5
 74
     0
 49
-1.5
 74
     0
  0
ENDTAB
  0
TABLE
  2
LAYER
  5
2
330
0
100
AcDbSymbolTable
 70
     6
  0
LAYER
  5
10
330
2
100
AcDbSymbolTableRecord
100
AcDbLayerTableRecord
  2
0
 70
     0
 62
     7
  6
Continuous
370
    35
390
F
  0
LAYER
  5
2E
330
2
100
AcDbSymbolTableRecord
100
AcDbLayerTableRecord
  2
Mittellinie
 70
     0
 62
     3
  6
MITTE
370
    18
390
F
  0
LAYER
  5
3A
330
2
100
AcDbSymbolTableRecord
100
AcDbLayerTableRecord
  2
Unsichtbar
 70
     0
 62
     5
  6
Continuous
370
    18
390
F
  0
LAYER
  5
87
330
2
100
AcDbSymbolTableRecord
100
AcDbLayerTableRecord
  2
Innenkanten
 70
     0
 62
     1
  6
Continuous
370
    25
390
F
  0
LAYER
  5
46F
330
2
100
AcDbSymbolTableRecord
100
AcDbLayerTableRecord
  2
Defpoints
 70
     0
 62
     6
  6
Continuous
290
     0
370
    15
390
F
  0
LAYER
  5
9F1
330
2
100
AcDbSymbolTableRecord
100
AcDbLayerTableRecord
  2
Bemaßung
 70
     0
 62
     6
  6
Continuous
370
    15
390
F
  0
ENDTAB
  0
TABLE
  2
STYLE
  5
3
330
0
100
AcDbSymbolTable
 70
     2
  0
STYLE
  5
11
330
3
100
AcDbSymbolTableRecord
100
AcDbTextStyleTableRecord
  2
Standard
 70
     0
 40
0.0
 41
1.0
 50
0.0
 71
     0
 42
26.5350450929028
  3
txt
  4

  0
STYLE
  5
2C
330
3
100
AcDbSymbolTableRecord
100
AcDbTextStyleTableRecord
  2

 70
     1
 40
0.0
 41
1.0
 50
0.0
 71
     0
 42
2.5
  3
ltypeshp.shx
  4

  0
ENDTAB
  0
TABLE
  2
VIEW
  5
6
330
0
100
AcDbSymbolTable
 70
     1
  0
VIEW
  5
81C
330
6
100
AcDbSymbolTableRecord
100
AcDbViewTableRecord
  2
tom
 70
     0
 40
127.2859585283894
 10
166.2856675397948
 20
206.2562233711272
 41
204.2020725054376
 11
0.0
 21
0.0
 31
1.0
 12
0.0
 22
0.0
 32
0.0
 42
50.0
 43
0.0
 44
0.0
 50
0.0
 71
     0
281
     0
 72
     1
110
-53.08748352590964
120
3.820899076262548
130
0.0
111
1.0
121
0.0
131
0.0
112
0.0
122
1.0
132
0.0
 79
     0
146
0.0
  0
ENDTAB
  0
TABLE
  2
UCS
  5
7
330
0
100
AcDbSymbolTable
 70
     0
  0
ENDTAB
  0
TABLE
  2
APPID
  5
9
330
0
100
AcDbSymbolTable
 70
     1
  0
APPID
  5
12
330
9
100
AcDbSymbolTableRecord
100
AcDbRegAppTableRecord
  2
ACAD
 70
     0
  0
ENDTAB
  0
TABLE
  2
DIMSTYLE
  5
A
330
0
100
AcDbSymbolTable
 70
     2
100
AcDbDimStyleTable
 71
     1
340
27
  0
DIMSTYLE
105
27
102
{ACAD_REACTORS
330
EE7
330
F08
330
FBA
330
FF5
330
1086
330
1119
330
119B
330
124A
330
12E0
330
1345
330
138C
330
1407
330
144A
102
}
330
A
100
AcDbSymbolTableRecord
100
AcDbDimStyleTableRecord
  2
ISO-25
 70
     0
 41
2.5
 42
0.625
 43
3.75
 44
1.25
 73
     0
 74
     0
 77
     1
 78
     8
140
2.5
141
2.5
143
0.03937007874016
147
0.625
171
     3
172
     1
271
     2
272
     2
274
     3
278
    44
283
     0
284
     8
340
11
  0
DIMSTYLE
105
AE8
102
{ACAD_REACTORS
330
CA1
330
CAE
102
}
330
A
100
AcDbSymbolTableRecord
100
AcDbDimStyleTableRecord
  2
STANDARD
 70
     0
 41
2.5
 73
     0
 77
     1
140
2.5
141
-0.09
147
0.2
176
     6
178
     6
271
     0
272
     0
279
     1
289
     2
340
11
371
    15
  0
ENDTAB
  0
TABLE
  2
BLOCK_RECORD
  5
1
330
0
100
AcDbSymbolTable
 70
    15
  0
BLOCK_RECORD
  5
1F
330
1
100
AcDbSymbolTableRecord
100
AcDbBlockTableRecord
  2
*Model_Space
340
22
  0
BLOCK_RECORD
  5
FEA
330
1
100
AcDbSymbolTableRecord
100
AcDbBlockTableRecord
  2
*Paper_Space
340
FEB
  0
BLOCK_RECORD
  5
E5B
330
1
100
AcDbSymbolTableRecord
100
AcDbBlockTableRecord
  2
*D0
340
0
  0
BLOCK_RECORD
  5
E67
330
1
100
AcDbSymbolTableRecord
100
AcDbBlockTableRecord
  2
*D1
340
0
  0
BLOCK_RECORD
  5
EE8
330
1
100
AcDbSymbolTableRecord
100
AcDbBlockTableRecord
  2
*D2
340
0
  0
BLOCK_RECORD
  5
F09
330
1
100
AcDbSymbolTableRecord
100
AcDbBlockTableRecord
  2
*D3
340
0
  0
BLOCK_RECORD
  5
FBB
330
1
100
AcDbSymbolTableRecord
100
AcDbBlockTableRecord
  2
*D4
340
0
  0
BLOCK_RECORD
  5
FF6
330
1
100
AcDbSymbolTableRecord
100
AcDbBlockTableRecord
  2
*D5
340
0
  0
BLOCK_RECORD
  5
1087
330
1
100
AcDbSymbolTableRecord
100
AcDbBlockTableRecord
  2
*D6
340
0
  0
BLOCK_RECORD
  5
111A
330
1
100
AcDbSymbolTableRecord
100
AcDbBlockTableRecord
  2
*D7
340
0
  0
BLOCK_RECORD
  5
119C
330
1
100
AcDbSymbolTableRecord
100
AcDbBlockTableRecord
  2
*D8
340
0
  0
BLOCK_RECORD
  5
124B
330
1
100
AcDbSymbolTableRecord
100
AcDbBlockTableRecord
  2
*D9
340
0
  0
BLOCK_RECORD
  5
12E1
330
1
100
AcDbSymbolTableRecord
100
AcDbBlockTableRecord
  2
*D10
340
0
  0
BLOCK_RECORD
  5
1346
330
1
100
AcDbSymbolTableRecord
100
AcDbBlockTableRecord
  2
*D11
340
0
  0
BLOCK_RECORD
  5
138D
330
1
100
AcDbSymbolTableRecord
100
AcDbBlockTableRecord
  2
*D12
340
0
  0
BLOCK_RECORD
  5
1408
330
1
100
AcDbSymbolTableRecord
100
AcDbBlockTableRecord
  2
*D13
340
0
  0
BLOCK_RECORD
  5
144B
330
1
100
AcDbSymbolTableRecord
100
AcDbBlockTableRecord
  2
*D14
340
0
  0
ENDTAB
  0
ENDSEC
  0
SECTION
  2
BLOCKS
  0
BLOCK
  5
20
330
1F
100
AcDbEntity
  8
0
100
AcDbBlockBegin
  2
*Model_Space
 70
     0
 10
0.0
 20
0.0
 30
0.0
  3
*Model_Space
  1

  0
ENDBLK
  5
21
330
1F
100
AcDbEntity
  8
0
100
AcDbBlockEnd
  0
BLOCK
  5
FEC
330
FEA
100
AcDbEntity
 67
     1
  8
0
100
AcDbBlockBegin
  2
*Paper_Space
 70
     0
 10
0.0
 20
0.0
 30
0.0
  3
*Paper_Space
  1

  0
ENDBLK
  5
FED
330
FEA
100
AcDbEntity
 67
     1
  8
0
100
AcDbBlockEnd
  0
BLOCK
  5
E65
330
E5B
100
AcDbEntity
  8
0
100
AcDbBlockBegin
  2
*D0
 70
     1
 10
0.0
 20
0.0
 30
0.0
  3
*D0
  1

  0
LINE
  5
149D
330
E5B
100
AcDbEntity
  8
Bemaßung
  6
Continuous
 62
     0
370
    -2
100
AcDbLine
 10
-0.8555737420334992
 20
164.182737985582
 30
0.0
 11
-30.75416578069365
 21
164.182737985582
 31
0.0
  0
LINE
  5
149E
330
E5B
100
AcDbEntity
  8
Bemaßung
  6
Continuous
 62
     0
370
    -2
100
AcDbLine
 10
-20.85556974203348
 20
192.182757985582
 30
0.0
 11
-30.75416578069364
 21
192.182757985582
 31
0.0
  0
LINE
  5
149F
330
E5B
100
AcDbEntity
  8
Bemaßung
  6
Continuous
 62
     6
370
    15
100
AcDbLine
 10
-30.57416578069365
 20
166.682737985582
 30
0.0
 11
-30.57416578069364
 21
189.682757985582
 31
0.0
  0
SOLID
  5
14A0
330
E5B
100
AcDbEntity
  8
Bemaßung
  6
Continuous
 62
     6
100
AcDbTrace
 10
-30.99083244736032
 20
166.682737985582
 30
0.0
 11
-30.15749911402698
 21
166.682737985582
 31
0.0
 12
-30.57416578069365
 22
164.182737985582
 32
0.0
 13
-30.57416578069365
 23
164.182737985582
 33
0.0
  0
SOLID
  5
14A1
330
E5B
100
AcDbEntity
  8
Bemaßung
  6
Continuous
 62
     6
100
AcDbTrace
 10
-30.99083244736031
 20
189.682757985582
 30
0.0
 11
-30.15749911402698
 21
189.682757985582
 31
0.0
 12
-30.57416578069364
 22
192.182757985582
 32
0.0
 13
-30.57416578069364
 23
192.182757985582
 33
0.0
  0
MTEXT
  5
14A2
330
E5B
100
AcDbEntity
  8
Bemaßung
  6
Continuous
 62
     6
370
    25
100
AcDbMText
 10
-32.02416578069367
 20
178.182747985582
 30
0.0
 40
2.5
 41
0.0
 71
     5
 72
     1
  1
\A1;28
 11
0.0000000000000001
 21
1.0
 31
0.0
 73
     1
 44
1.0
  0
POINT
  5
14A3
330
E5B
100
AcDbEntity
  8
Defpoints
  6
Continuous
 62
     0
100
AcDbPoint
 10
-0.7930737420334993
 20
164.182737985582
 30
0.0
  0
POINT
  5
14A4
330
E5B
100
AcDbEntity
  8
Defpoints
  6
Continuous
 62
     0
100
AcDbPoint
 10
-20.79306974203348
 20
192.182757985582
 30
0.0
  0
POINT
  5
14A5
330
E5B
100
AcDbEntity
  8
Defpoints
  6
Continuous
 62
     0
100
AcDbPoint
 10
-30.57416578069364
 20
192.182757985582
 30
0.0
  0
ENDBLK
  5
E66
330
E5B
100
AcDbEntity
  8
0
100
AcDbBlockEnd
  0
BLOCK
  5
E71
330
E67
100
AcDbEntity
  8
0
100
AcDbBlockBegin
  2
*D1
 70
     1
 10
0.0
 20
0.0
 30
0.0
  3
*D1
  1

  0
LINE
  5
14A6
330
E67
100
AcDbEntity
  8
Bemaßung
  6
Continuous
 62
     0
370
    -2
100
AcDbLine
 10
-13.34061872468641
 20
165.0162508076211
 30
0.0
 11
-13.34061872468641
 21
137.9328999786935
 31
0.0
  0
LINE
  5
14A7
330
E67
100
AcDbEntity
  8
Bemaßung
  6
Continuous
 62
     0
370
    -2
100
AcDbLine
 10
11.77037625092324
 20
165.107814909768
 30
0.0
 11
11.77037625092324
 21
137.9328999786935
 31
0.0
  0
LINE
  5
14A8
330
E67
100
AcDbEntity
  8
Bemaßung
  6
Continuous
 62
     6
370
    15
100
AcDbLine
 10
-10.84061872468641
 20
138.1128999786935
 30
0.0
 11
9.270376250923247
 21
138.1128999786935
 31
0.0
  0
SOLID
  5
14A9
330
E67
100
AcDbEntity
  8
Bemaßung
  6
Continuous
 62
     6
100
AcDbTrace
 10
-10.84061872468641
 20
138.5295666453602
 30
0.0
 11
-10.84061872468641
 21
137.6962333120269
 31
0.0
 12
-13.34061872468641
 22
138.1128999786935
 32
0.0
 13
-13.34061872468641
 23
138.1128999786935
 33
0.0
  0
SOLID
  5
14AA
330
E67
100
AcDbEntity
  8
Bemaßung
  6
Continuous
 62
     6
100
AcDbTrace
 10
9.270376250923247
 20
138.5295666453602
 30
0.0
 11
9.270376250923247
 21
137.6962333120269
 31
0.0
 12
11.77037625092324
 22
138.1128999786935
 32
0.0
 13
11.77037625092324
 23
138.1128999786935
 33
0.0
  0
MTEXT
  5
14AB
330
E67
100
AcDbEntity
  8
Bemaßung
  6
Continuous
 62
     6
370
    25
100
AcDbMText
 10
-0.785121236881582
 20
139.5628999786935
 30
0.0
 40
2.5
 41
0.0
 71
     5
 72
     1
  1
\A1;25
 73
     1
 44
1.0
  0
POINT
  5
14AC
330
E67
100
AcDbEntity
  8
Defpoints
  6
Continuous
 62
     0
100
AcDbPoint
 10
-13.34061872468641
 20
165.0787508076211
 30
0.0
  0
POINT
  5
14AD
330
E67
100
AcDbEntity
  8
Defpoints
  6
Continuous
 62
     0
100
AcDbPoint
 10
11.77037625092324
 20
165.170314909768
 30
0.0
  0
POINT
  5
14AE
330
E67
100
AcDbEntity
  8
Defpoints
  6
Continuous
 62
     0
100
AcDbPoint
 10
11.77037625092324
 20
138.1128999786935
 30
0.0
  0
ENDBLK
  5
E72
330
E67
100
AcDbEntity
  8
0
100
AcDbBlockEnd
  0
BLOCK
  5
EF2
330
EE8
100
AcDbEntity
  8
0
100
AcDbBlockBegin
  2
*D2
 70
     1
 10
0.0
 20
0.0
 30
0.0
  3
*D2
  1

  0
LINE
  5
EFF
330
EE8
100
AcDbEntity
  8
Bemaßung
 62
     0
370
    -2
100
AcDbLine
 10
218.2180935938226
 20
210.6517333107568
 30
0.0
 11
218.2180935938226
 21
221.8502446659901
 31
0.0
  0
LINE
  5
F00
330
EE8
100
AcDbEntity
  8
Bemaßung
 62
     0
370
    -2
100
AcDbLine
 10
258.2180635938225
 20
210.6517333107568
 30
0.0
 11
258.2180635938225
 21
221.8502446659901
 31
0.0
  0
LINE
  5
F01
330
EE8
100
AcDbEntity
  8
Bemaßung
 62
     0
370
    -2
100
AcDbLine
 10
220.7180935938226
 20
220.60024466599
 30
0.0
 11
255.7180635938225
 21
220.60024466599
 31
0.0
  0
SOLID
  5
F02
330
EE8
100
AcDbEntity
  8
Bemaßung
 62
     0
100
AcDbTrace
 10
220.7180935938226
 20
221.0169113326567
 30
0.0
 11
220.7180935938226
 21
220.1835779993234
 31
0.0
 12
218.2180935938226
 22
220.60024466599
 32
0.0
 13
218.2180935938226
 23
220.60024466599
 33
0.0
  0
SOLID
  5
F03
330
EE8
100
AcDbEntity
  8
Bemaßung
 62
     0
100
AcDbTrace
 10
255.7180635938225
 20
221.0169113326567
 30
0.0
 11
255.7180635938225
 21
220.1835779993234
 31
0.0
 12
258.2180635938225
 22
220.60024466599
 32
0.0
 13
258.2180635938225
 23
220.60024466599
 33
0.0
  0
MTEXT
  5
F04
330
EE8
100
AcDbEntity
  8
Bemaßung
 62
     0
100
AcDbMText
 10
238.2180785938226
 20
222.4752446659901
 30
0.0
 40
2.5
 41
0.0
 71
     5
 72
     1
  1
40
 73
     1
 44
1.0
  0
POINT
  5
F05
330
EE8
100
AcDbEntity
  8
Defpoints
 62
     0
100
AcDbPoint
 10
218.2180935938226
 20
210.0267333107569
 30
0.0
  0
POINT
  5
F06
330
EE8
100
AcDbEntity
  8
Defpoints
 62
     0
100
AcDbPoint
 10
258.2180635938225
 20
210.0267333107569
 30
0.0
  0
POINT
  5
F07
330
EE8
100
AcDbEntity
  8
Defpoints
 62
     0
100
AcDbPoint
 10
258.2180635938225
 20
220.60024466599
 30
0.0
  0
ENDBLK
  5
EF3
330
EE8
100
AcDbEntity
  8
0
100
AcDbBlockEnd
  0
BLOCK
  5
F13
330
F09
100
AcDbEntity
  8
0
100
AcDbBlockBegin
  2
*D3
 70
     1
 10
0.0
 20
0.0
 30
0.0
  3
*D3
  1

  0
LINE
  5
F20
330
F09
100
AcDbEntity
  8
Bemaßung
 62
     0
370
    -2
100
AcDbLine
 10
220.0930943792207
 20
212.5267333107567
 30
0.0
 11
207.226045965725
 21
212.5267333107567
 31
0.0
  0
LINE
  5
F21
330
F09
100
AcDbEntity
  8
Bemaßung
 62
     0
370
    -2
100
AcDbLine
 10
220.0930935414627
 20
172.5267243107568
 30
0.0
 11
207.226045965725
 21
172.5267243107568
 31
0.0
  0
LINE
  5
F22
330
F09
100
AcDbEntity
  8
Bemaßung
 62
     0
370
    -2
100
AcDbLine
 10
208.476045965725
 20
210.0267333107567
 30
0.0
 11
208.476045965725
 21
175.0267243107568
 31
0.0
  0
SOLID
  5
F23
330
F09
100
AcDbEntity
  8
Bemaßung
 62
     0
100
AcDbTrace
 10
208.0593792990583
 20
210.0267333107567
 30
0.0
 11
208.8927126323917
 21
210.0267333107567
 31
0.0
 12
208.476045965725
 22
212.5267333107567
 32
0.0
 13
208.476045965725
 23
212.5267333107567
 33
0.0
  0
SOLID
  5
F24
330
F09
100
AcDbEntity
  8
Bemaßung
 62
     0
100
AcDbTrace
 10
208.0593792990583
 20
175.0267243107568
 30
0.0
 11
208.8927126323916
 21
175.0267243107568
 31
0.0
 12
208.476045965725
 22
172.5267243107568
 32
0.0
 13
208.476045965725
 23
172.5267243107568
 33
0.0
  0
MTEXT
  5
F25
330
F09
100
AcDbEntity
  8
Bemaßung
 62
     0
100
AcDbMText
 10
206.6010459657249
 20
192.5267288107568
 30
0.0
 40
2.5
 41
0.0
 71
     5
 72
     1
  1
40
 11
0.0000000000000001
 21
1.0
 31
0.0
 73
     1
 44
1.0
  0
POINT
  5
F26
330
F09
100
AcDbEntity
  8
Defpoints
 62
     0
100
AcDbPoint
 10
220.7180943792208
 20
212.5267333107567
 30
0.0
  0
POINT
  5
F27
330
F09
100
AcDbEntity
  8
Defpoints
 62
     0
100
AcDbPoint
 10
220.7180935414627
 20
172.5267243107568
 30
0.0
  0
POINT
  5
F28
330
F09
100
AcDbEntity
  8
Defpoints
 62
     0
100
AcDbPoint
 10
208.476045965725
 20
172.5267243107568
 30
0.0
  0
ENDBLK
  5
F14
330
F09
100
AcDbEntity
  8
0
100
AcDbBlockEnd
  0
BLOCK
  5
FC4
330
FBB
100
AcDbEntity
  8
0
100
AcDbBlockBegin
  2
*D4
 70
     1
 10
0.0
 20
0.0
 30
0.0
  3
*D4
  1

  0
LINE
  5
FE4
330
FBB
100
AcDbEntity
  8
Bemaßung
 62
     0
370
    -2
100
AcDbLine
 10
243.8553603127353
 20
188.3977514322451
 30
0.0
 11
254.7564216211934
 21
180.4133544127551
 31
0.0
  0
MTEXT
  5
FE5
330
FBB
100
AcDbEntity
  8
Bemaßung
 62
     0
100
AcDbMText
 10
248.1566667416181
 20
187.57143987924
 30
0.0
 40
2.5
 41
0.0
 71
     5
 72
     1
  1
\U+220546
 11
0.8067477086522385
 21
-0.5908960438049681
 31
0.0
 73
     1
 44
1.0
  0
SOLID
  5
FE6
330
FBB
100
AcDbEntity
  8
Bemaßung
 62
     0
100
AcDbTrace
 10
255.0026283061122
 20
180.7494992913601
 30
0.0
 11
254.5102149362747
 21
180.0772095341499
 31
0.0
 12
256.7732908928241
 22
178.9361143032426
 32
0.0
 13
256.7732908928241
 23
178.9361143032426
 33
0.0
  0
POINT
  5
FE7
330
FBB
100
AcDbEntity
  8
Defpoints
 62
     0
100
AcDbPoint
 10
256.7732908928241
 20
178.9361143032426
 30
0.0
  0
POINT
  5
FE8
330
FBB
100
AcDbEntity
  8
Defpoints
 62
     0
100
AcDbPoint
 10
219.6628962948211
 20
206.1173323182711
 30
0.0
  0
ENDBLK
  5
FC5
330
FBB
100
AcDbEntity
  8
0
100
AcDbBlockEnd
  0
BLOCK
  5
1000
330
FF6
100
AcDbEntity
  8
0
100
AcDbBlockBegin
  2
*D5
 70
     1
 10
0.0
 20
0.0
 30
0.0
  3
*D5
  1

  0
LINE
  5
1110
330
FF6
100
AcDbEntity
  8
Bemaßung
 62
     0
370
    -2
100
AcDbLine
 10
228.8180935938226
 20
156.9017273107568
 30
0.0
 11
228.8180935938226
 21
138.4027393879797
 31
0.0
  0
LINE
  5
1111
330
FF6
100
AcDbEntity
  8
Bemaßung
 62
     0
370
    -2
100
AcDbLine
 10
248.8180935938226
 20
156.9017273107568
 30
0.0
 11
248.8180935938226
 21
138.4027393879797
 31
0.0
  0
LINE
  5
1112
330
FF6
100
AcDbEntity
  8
Bemaßung
 62
     0
370
    -2
100
AcDbLine
 10
231.3180935938226
 20
139.6527393879798
 30
0.0
 11
246.3180935938226
 21
139.6527393879798
 31
0.0
  0
SOLID
  5
1113
330
FF6
100
AcDbEntity
  8
Bemaßung
 62
     0
100
AcDbTrace
 10
231.3180935938226
 20
140.0694060546464
 30
0.0
 11
231.3180935938226
 21
139.2360727213131
 31
0.0
 12
228.8180935938226
 22
139.6527393879798
 32
0.0
 13
228.8180935938226
 23
139.6527393879798
 33
0.0
  0
SOLID
  5
1114
330
FF6
100
AcDbEntity
  8
Bemaßung
 62
     0
100
AcDbTrace
 10
246.3180935938226
 20
140.0694060546464
 30
0.0
 11
246.3180935938226
 21
139.2360727213131
 31
0.0
 12
248.8180935938226
 22
139.6527393879798
 32
0.0
 13
248.8180935938226
 23
139.6527393879798
 33
0.0
  0
MTEXT
  5
1115
330
FF6
100
AcDbEntity
  8
Bemaßung
 62
     0
100
AcDbMText
 10
238.8180935938226
 20
141.5277393879797
 30
0.0
 40
2.5
 41
0.0
 71
     5
 72
     1
  1
20
 73
     1
 44
1.0
  0
POINT
  5
1116
330
FF6
100
AcDbEntity
  8
Defpoints
 62
     0
100
AcDbPoint
 10
228.8180935938226
 20
157.5267273107568
 30
0.0
  0
POINT
  5
1117
330
FF6
100
AcDbEntity
  8
Defpoints
 62
     0
100
AcDbPoint
 10
248.8180935938226
 20
157.5267273107568
 30
0.0
  0
POINT
  5
1118
330
FF6
100
AcDbEntity
  8
Defpoints
 62
     0
100
AcDbPoint
 10
248.8180935938226
 20
139.6527393879798
 30
0.0
  0
ENDBLK
  5
1001
330
FF6
100
AcDbEntity
  8
0
100
AcDbBlockEnd
  0
BLOCK
  5
1091
330
1087
100
AcDbEntity
  8
0
100
AcDbBlockBegin
  2
*D6
 70
     1
 10
0.0
 20
0.0
 30
0.0
  3
*D6
  1

  0
LINE
  5
1107
330
1087
100
AcDbEntity
  8
Bemaßung
 62
     0
370
    -2
100
AcDbLine
 10
258.8430635938225
 20
192.5267288107568
 30
0.0
 11
270.7840250047091
 21
192.5267288107568
 31
0.0
  0
LINE
  5
1108
330
1087
100
AcDbEntity
  8
Bemaßung
 62
     0
370
    -2
100
AcDbLine
 10
248.4430935938226
 20
156.5267273107568
 30
0.0
 11
270.7840250047091
 21
156.5267273107568
 31
0.0
  0
LINE
  5
1109
330
1087
100
AcDbEntity
  8
Bemaßung
 62
     0
370
    -2
100
AcDbLine
 10
269.5340250047091
 20
190.0267288107568
 30
0.0
 11
269.5340250047091
 21
159.0267273107568
 31
0.0
  0
SOLID
  5
110A
330
1087
100
AcDbEntity
  8
Bemaßung
 62
     0
100
AcDbTrace
 10
269.1173583380424
 20
190.0267288107568
 30
0.0
 11
269.9506916713758
 21
190.0267288107568
 31
0.0
 12
269.5340250047091
 22
192.5267288107568
 32
0.0
 13
269.5340250047091
 23
192.5267288107568
 33
0.0
  0
SOLID
  5
110B
330
1087
100
AcDbEntity
  8
Bemaßung
 62
     0
100
AcDbTrace
 10
269.1173583380424
 20
159.0267273107568
 30
0.0
 11
269.9506916713758
 21
159.0267273107568
 31
0.0
 12
269.5340250047091
 22
156.5267273107568
 32
0.0
 13
269.5340250047091
 23
156.5267273107568
 33
0.0
  0
MTEXT
  5
110C
330
1087
100
AcDbEntity
  8
Bemaßung
 62
     0
100
AcDbMText
 10
267.6590250047091
 20
174.5267280607569
 30
0.0
 40
2.5
 41
0.0
 71
     5
 72
     1
  1
36
 11
0.0000000000000001
 21
1.0
 31
0.0
 73
     1
 44
1.0
  0
POINT
  5
110D
330
1087
100
AcDbEntity
  8
Defpoints
 62
     0
100
AcDbPoint
 10
258.2180635938225
 20
192.5267288107568
 30
0.0
  0
POINT
  5
110E
330
1087
100
AcDbEntity
  8
Defpoints
 62
     0
100
AcDbPoint
 10
247.8180935938226
 20
156.5267273107568
 30
0.0
  0
POINT
  5
110F
330
1087
100
AcDbEntity
  8
Defpoints
 62
     0
100
AcDbPoint
 10
269.5340250047091
 20
156.5267273107568
 30
0.0
  0
ENDBLK
  5
1092
330
1087
100
AcDbEntity
  8
0
100
AcDbBlockEnd
  0
BLOCK
  5
1124
330
111A
100
AcDbEntity
  8
0
100
AcDbBlockBegin
  2
*D7
 70
     1
 10
0.0
 20
0.0
 30
0.0
  3
*D7
  1

  0
ARC
  5
1131
330
111A
100
AcDbEntity
  8
Bemaßung
 62
     0
370
    -2
100
AcDbCircle
 10
238.2180935938225
 20
192.5265660568632
 30
0.0
 40
24.3521830303597
100
AcDbArc
 50
95.88458225776834
 51
129.1152367961911
  0
SOLID
  5
1132
330
111A
100
AcDbEntity
  8
Bemaßung
 62
     0
100
AcDbTrace
 10
235.7000016982539
 20
217.1665412285024
 30
0.0
 11
235.7427767819237
 21
216.3343064439245
 31
0.0
 12
238.2180935938226
 22
216.8787490872229
 32
0.0
 13
238.2180935938226
 23
216.8787490872229
 33
0.0
  0
SOLID
  5
1133
330
111A
100
AcDbEntity
  8
Bemaßung
 62
     0
100
AcDbTrace
 10
223.1338509178953
 20
211.1115416702643
 30
0.0
 11
222.5756205639119
 21
211.7302688446601
 31
0.0
 12
220.9985542177161
 22
209.7462141955116
 32
0.0
 13
220.9985542177161
 23
209.7462141955116
 33
0.0
  0
MTEXT
  5
1134
330
111A
100
AcDbEntity
  8
Bemaßung
 62
     0
100
AcDbMText
 10
228.1814234321379
 20
216.757339502495
 30
0.0
 40
2.5
 41
0.0
 71
     5
 72
     1
  1
45°
 11
0.9238801367872074
 21
0.382681973510709
 31
0.0
 73
     1
 44
1.0
  0
POINT
  5
1135
330
111A
100
AcDbEntity
  8
Defpoints
 62
     0
100
AcDbPoint
 10
231.9153095978124
 20
216.0489752073686
 30
0.0
  0
POINT
  5
1136
330
111A
100
AcDbEntity
  8
Defpoints
 62
     0
100
AcDbPoint
 10
219.6541835938226
 20
211.0905933107569
 30
0.0
  0
POINT
  5
1137
330
111A
100
AcDbEntity
  8
Defpoints
 62
     0
100
AcDbPoint
 10
238.2180935938226
 20
217.7247345689725
 30
0.0
  0
POINT
  5
1138
330
111A
100
AcDbEntity
  8
Defpoints
 62
     0
100
AcDbPoint
 10
238.2180935938226
 20
146.6081603107569
 30
0.0
  0
POINT
  5
1139
330
111A
100
AcDbEntity
  8
Defpoints
 62
     0
100
AcDbPoint
 10
224.4038535938225
 20
206.3408933107568
 30
0.0
  0
ENDBLK
  5
1125
330
111A
100
AcDbEntity
  8
0
100
AcDbBlockEnd
  0
BLOCK
  5
11A6
330
119C
100
AcDbEntity
  8
0
100
AcDbBlockBegin
  2
*D8
 70
     1
 10
0.0
 20
0.0
 30
0.0
  3
*D8
  1

  0
LINE
  5
11B3
330
119C
100
AcDbEntity
  8
Bemaßung
 62
     0
370
    -2
100
AcDbLine
 10
343.9469155368936
 20
152.2630753107569
 30
0.0
 11
343.9469155368936
 21
145.5465691721643
 31
0.0
  0
LINE
  5
11B4
330
119C
100
AcDbEntity
  8
Bemaßung
 62
     0
370
    -2
100
AcDbLine
 10
396.4516455368936
 20
171.9017243107568
 30
0.0
 11
396.4516455368936
 21
145.5465691721643
 31
0.0
  0
LINE
  5
11B5
330
119C
100
AcDbEntity
  8
Bemaßung
 62
     0
370
    -2
100
AcDbLine
 10
346.4469155368936
 20
146.7965691721643
 30
0.0
 11
393.9516455368936
 21
146.7965691721643
 31
0.0
  0
SOLID
  5
11B6
330
119C
100
AcDbEntity
  8
Bemaßung
 62
     0
100
AcDbTrace
 10
346.4469155368936
 20
147.213235838831
 30
0.0
 11
346.4469155368936
 21
146.3799025054977
 31
0.0
 12
343.9469155368936
 22
146.7965691721643
 32
0.0
 13
343.9469155368936
 23
146.7965691721643
 33
0.0
  0
SOLID
  5
11B7
330
119C
100
AcDbEntity
  8
Bemaßung
 62
     0
100
AcDbTrace
 10
393.9516455368936
 20
147.213235838831
 30
0.0
 11
393.9516455368936
 21
146.3799025054977
 31
0.0
 12
396.4516455368936
 22
146.7965691721643
 32
0.0
 13
396.4516455368936
 23
146.7965691721643
 33
0.0
  0
MTEXT
  5
11B8
330
119C
100
AcDbEntity
  8
Bemaßung
 62
     0
100
AcDbMText
 10
370.1992805368936
 20
148.8799025054977
 30
0.0
 40
2.5
 41
0.0
 71
     5
 72
     1
  1
52,5
 73
     1
 44
1.0
  0
POINT
  5
11B9
330
119C
100
AcDbEntity
  8
Defpoints
 62
     0
100
AcDbPoint
 10
343.9469155368936
 20
152.8880753107569
 30
0.0
  0
POINT
  5
11BA
330
119C
100
AcDbEntity
  8
Defpoints
 62
     0
100
AcDbPoint
 10
396.4516455368936
 20
172.5267243107568
 30
0.0
  0
POINT
  5
11BB
330
119C
100
AcDbEntity
  8
Defpoints
 62
     0
100
AcDbPoint
 10
396.4516455368936
 20
146.7965691721643
 30
0.0
  0
ENDBLK
  5
11A7
330
119C
100
AcDbEntity
  8
0
100
AcDbBlockEnd
  0
BLOCK
  5
1257
330
124B
100
AcDbEntity
  8
0
100
AcDbBlockBegin
  2
*D9
 70
     1
 10
0.0
 20
0.0
 30
0.0
  3
*D9
  1

  0
LINE
  5
1266
330
124B
100
AcDbEntity
  8
Bemaßung
 62
     0
370
    -2
100
AcDbLine
 10
391.4516455368936
 20
213.1517333107569
 30
0.0
 11
391.4516455368936
 21
219.3509718871891
 31
0.0
  0
LINE
  5
1267
330
124B
100
AcDbEntity
  8
Bemaßung
 62
     0
370
    -2
100
AcDbLine
 10
396.4516155368936
 20
213.1517333107569
 30
0.0
 11
396.4516155368936
 21
219.3509718871891
 31
0.0
  0
LINE
  5
1268
330
124B
100
AcDbEntity
  8
Bemaßung
 62
     0
370
    -2
100
AcDbLine
 10
388.9516455368936
 20
218.1009718871891
 30
0.0
 11
386.4516455368936
 21
218.1009718871891
 31
0.0
  0
LINE
  5
1269
330
124B
100
AcDbEntity
  8
Bemaßung
 62
     0
370
    -2
100
AcDbLine
 10
398.9516155368936
 20
218.1009718871891
 30
0.0
 11
401.4516155368936
 21
218.1009718871891
 31
0.0
  0
LINE
  5
126A
330
124B
100
AcDbEntity
  8
Bemaßung
 62
     0
370
    -2
100
AcDbLine
 10
391.4516455368936
 20
218.1009718871891
 30
0.0
 11
396.4516155368936
 21
218.1009718871891
 31
0.0
  0
SOLID
  5
126B
330
124B
100
AcDbEntity
  8
Bemaßung
 62
     0
100
AcDbTrace
 10
388.9516455368936
 20
218.5176385538558
 30
0.0
 11
388.9516455368936
 21
217.6843052205225
 31
0.0
 12
391.4516455368936
 22
218.1009718871891
 32
0.0
 13
391.4516455368936
 23
218.1009718871891
 33
0.0
  0
SOLID
  5
126C
330
124B
100
AcDbEntity
  8
Bemaßung
 62
     0
100
AcDbTrace
 10
398.9516155368936
 20
218.5176385538558
 30
0.0
 11
398.9516155368936
 21
217.6843052205225
 31
0.0
 12
396.4516155368936
 22
218.1009718871891
 32
0.0
 13
396.4516155368936
 23
218.1009718871891
 33
0.0
  0
MTEXT
  5
126D
330
124B
100
AcDbEntity
  8
Bemaßung
 62
     0
100
AcDbMText
 10
393.9516305368936
 20
219.9759718871892
 30
0.0
 40
2.5
 41
0.0
 71
     5
 72
     1
  1
5
 73
     1
 44
1.0
  0
POINT
  5
126E
330
124B
100
AcDbEntity
  8
Defpoints
 62
     0
100
AcDbPoint
 10
391.4516455368936
 20
212.5267333107569
 30
0.0
  0
POINT
  5
126F
330
124B
100
AcDbEntity
  8
Defpoints
 62
     0
100
AcDbPoint
 10
396.4516155368936
 20
212.5267333107569
 30
0.0
  0
POINT
  5
1270
330
124B
100
AcDbEntity
  8
Defpoints
 62
     0
100
AcDbPoint
 10
396.4516155368936
 20
218.1009718871891
 30
0.0
  0
ENDBLK
  5
1258
330
124B
100
AcDbEntity
  8
0
100
AcDbBlockEnd
  0
BLOCK
  5
12EB
330
12E1
100
AcDbEntity
  8
0
100
AcDbBlockBegin
  2
*D10
 70
     1
 10
0.0
 20
0.0
 30
0.0
  3
*D10
  1

  0
LINE
  5
132F
330
12E1
100
AcDbEntity
  8
Bemaßung
 62
     0
370
    -2
100
AcDbLine
 10
396.4516155368936
 20
213.7767333107568
 30
0.0
 11
396.4516155368936
 21
227.0718033220965
 31
0.0
  0
LINE
  5
1330
330
12E1
100
AcDbEntity
  8
Bemaßung
 62
     0
370
    -2
100
AcDbLine
 10
301.9468958266539
 20
193.1517133107569
 30
0.0
 11
301.9468958266539
 21
227.0718033220965
 31
0.0
  0
LINE
  5
1331
330
12E1
100
AcDbEntity
  8
Bemaßung
 62
     0
370
    -2
100
AcDbLine
 10
393.9516155368936
 20
225.8218033220965
 30
0.0
 11
304.446895826654
 21
225.8218033220965
 31
0.0
  0
SOLID
  5
1332
330
12E1
100
AcDbEntity
  8
Bemaßung
 62
     0
100
AcDbTrace
 10
393.9516155368936
 20
226.2384699887632
 30
0.0
 11
393.9516155368936
 21
225.4051366554299
 31
0.0
 12
396.4516155368936
 22
225.8218033220965
 32
0.0
 13
396.4516155368936
 23
225.8218033220965
 33
0.0
  0
SOLID
  5
1333
330
12E1
100
AcDbEntity
  8
Bemaßung
 62
     0
100
AcDbTrace
 10
304.446895826654
 20
226.2384699887632
 30
0.0
 11
304.446895826654
 21
225.4051366554299
 31
0.0
 12
301.9468958266539
 22
225.8218033220965
 32
0.0
 13
301.9468958266539
 23
225.8218033220965
 33
0.0
  0
MTEXT
  5
1334
330
12E1
100
AcDbEntity
  8
Bemaßung
 62
     0
100
AcDbMText
 10
348.9790610541721
 20
227.9051366554299
 30
0.0
 40
2.5
 41
0.0
 71
     5
 72
     1
  1
94,5
 73
     1
 44
1.0
  0
POINT
  5
1335
330
12E1
100
AcDbEntity
  8
Defpoints
 62
     0
100
AcDbPoint
 10
396.4516155368936
 20
213.1517333107569
 30
0.0
  0
POINT
  5
1336
330
12E1
100
AcDbEntity
  8
Defpoints
 62
     0
100
AcDbPoint
 10
301.9468958266539
 20
192.5267133107569
 30
0.0
  0
POINT
  5
1337
330
12E1
100
AcDbEntity
  8
Defpoints
 62
     0
100
AcDbPoint
 10
301.9468958266539
 20
225.8218033220965
 30
0.0
  0
ENDBLK
  5
12EC
330
12E1
100
AcDbEntity
  8
0
100
AcDbBlockEnd
  0
BLOCK
  5
1350
330
1346
100
AcDbEntity
  8
0
100
AcDbBlockBegin
  2
*D11
 70
     1
 10
0.0
 20
0.0
 30
0.0
  3
*D11
  1

  0
LINE
  5
135D
330
1346
100
AcDbEntity
  8
Bemaßung
 62
     0
370
    -2
100
AcDbLine
 10
396.4516155368936
 20
226.4468033220965
 30
0.0
 11
396.4516155368936
 21
224.5718033220965
 31
0.0
  0
LINE
  5
135E
330
1346
100
AcDbEntity
  8
Bemaßung
 62
     0
370
    -2
100
AcDbLine
 10
421.4516455368936
 20
197.1517233107569
 30
0.0
 11
421.4516455368936
 21
227.0718033220965
 31
0.0
  0
LINE
  5
135F
330
1346
100
AcDbEntity
  8
Bemaßung
 62
     0
370
    -2
100
AcDbLine
 10
398.9516155368936
 20
225.8218033220965
 30
0.0
 11
418.9516455368936
 21
225.8218033220965
 31
0.0
  0
SOLID
  5
1360
330
1346
100
AcDbEntity
  8
Bemaßung
 62
     0
100
AcDbTrace
 10
398.9516155368936
 20
226.2384699887632
 30
0.0
 11
398.9516155368936
 21
225.4051366554299
 31
0.0
 12
396.4516155368936
 22
225.8218033220965
 32
0.0
 13
396.4516155368936
 23
225.8218033220965
 33
0.0
  0
SOLID
  5
1361
330
1346
100
AcDbEntity
  8
Bemaßung
 62
     0
100
AcDbTrace
 10
418.9516455368936
 20
226.2384699887632
 30
0.0
 11
418.9516455368936
 21
225.4051366554299
 31
0.0
 12
421.4516455368936
 22
225.8218033220965
 32
0.0
 13
421.4516455368936
 23
225.8218033220965
 33
0.0
  0
MTEXT
  5
1362
330
1346
100
AcDbEntity
  8
Bemaßung
 62
     0
100
AcDbMText
 10
408.9516305368936
 20
227.6968033220965
 30
0.0
 40
2.5
 41
0.0
 71
     5
 72
     1
  1
25
 73
     1
 44
1.0
  0
POINT
  5
1363
330
1346
100
AcDbEntity
  8
Defpoints
 62
     0
100
AcDbPoint
 10
396.4516155368936
 20
227.0718033220965
 30
0.0
  0
POINT
  5
1364
330
1346
100
AcDbEntity
  8
Defpoints
 62
     0
100
AcDbPoint
 10
421.4516455368936
 20
196.5267233107568
 30
0.0
  0
POINT
  5
1365
330
1346
100
AcDbEntity
  8
Defpoints
 62
     0
100
AcDbPoint
 10
421.4516455368936
 20
225.8218033220965
 30
0.0
  0
ENDBLK
  5
1351
330
1346
100
AcDbEntity
  8
0
100
AcDbBlockEnd
  0
BLOCK
  5
139C
330
138D
100
AcDbEntity
  8
0
100
AcDbBlockBegin
  2
*D12
 70
     1
 10
0.0
 20
0.0
 30
0.0
  3
*D12
  1

  0
LINE
  5
13AE
330
138D
100
AcDbEntity
  8
Bemaßung
 62
     0
370
    -2
100
AcDbLine
 10
396.4516455368936
 20
171.9017243107568
 30
0.0
 11
396.4516455368936
 21
145.5465691721643
 31
0.0
  0
LINE
  5
13AF
330
138D
100
AcDbEntity
  8
Bemaßung
 62
     0
370
    -2
100
AcDbLine
 10
398.9516455368936
 20
176.9017233107568
 30
0.0
 11
398.9516455368936
 21
145.5465691721643
 31
0.0
  0
LINE
  5
13B0
330
138D
100
AcDbEntity
  8
Bemaßung
 62
     0
370
    -2
100
AcDbLine
 10
393.9516455368936
 20
146.7965691721643
 30
0.0
 11
391.4516455368936
 21
146.7965691721643
 31
0.0
  0
LINE
  5
13B1
330
138D
100
AcDbEntity
  8
Bemaßung
 62
     0
370
    -2
100
AcDbLine
 10
401.4516455368936
 20
146.7965691721643
 30
0.0
 11
403.9516455368936
 21
146.7965691721643
 31
0.0
  0
LINE
  5
13B2
330
138D
100
AcDbEntity
  8
Bemaßung
 62
     0
370
    -2
100
AcDbLine
 10
397.7016455368936
 20
146.7965691721643
 30
0.0
 11
399.6703955368936
 21
140.2340691721643
 31
0.0
  0
LINE
  5
13B3
330
138D
100
AcDbEntity
  8
Bemaßung
 62
     0
370
    -2
100
AcDbLine
 10
399.6703955368936
 20
140.2340691721643
 30
0.0
 11
406.3370622035603
 21
140.2340691721643
 31
0.0
  0
MTEXT
  5
13B4
330
138D
100
AcDbEntity
  8
Bemaßung
 62
     0
100
AcDbMText
 10
403.0037288702269
 20
142.3174025054977
 30
0.0
 40
2.5
 41
0.0
 71
     5
 72
     1
  1
2,5
 73
     1
 44
1.0
  0
LINE
  5
13B5
330
138D
100
AcDbEntity
  8
Bemaßung
 62
     0
370
    -2
100
AcDbLine
 10
396.4516455368936
 20
146.7965691721643
 30
0.0
 11
398.9516455368936
 21
146.7965691721643
 31
0.0
  0
LINE
  5
13B6
330
138D
100
AcDbEntity
  8
Bemaßung
 62
     0
370
    -2
100
AcDbLine
 10
396.4516455368936
 20
146.7965691721643
 30
0.0
 11
398.9516455368936
 21
146.7965691721643
 31
0.0
  0
SOLID
  5
13B7
330
138D
100
AcDbEntity
  8
Bemaßung
 62
     0
100
AcDbTrace
 10
393.9516455368936
 20
147.213235838831
 30
0.0
 11
393.9516455368936
 21
146.3799025054977
 31
0.0
 12
396.4516455368936
 22
146.7965691721643
 32
0.0
 13
396.4516455368936
 23
146.7965691721643
 33
0.0
  0
SOLID
  5
13B8
330
138D
100
AcDbEntity
  8
Bemaßung
 62
     0
100
AcDbTrace
 10
401.4516455368936
 20
147.213235838831
 30
0.0
 11
401.4516455368936
 21
146.3799025054977
 31
0.0
 12
398.9516455368936
 22
146.7965691721643
 32
0.0
 13
398.9516455368936
 23
146.7965691721643
 33
0.0
  0
POINT
  5
13B9
330
138D
100
AcDbEntity
  8
Defpoints
 62
     0
100
AcDbPoint
 10
396.4516455368936
 20
172.5267243107568
 30
0.0
  0
POINT
  5
13BA
330
138D
100
AcDbEntity
  8
Defpoints
 62
     0
100
AcDbPoint
 10
398.9516455368936
 20
177.5267233107568
 30
0.0
  0
POINT
  5
13BB
330
138D
100
AcDbEntity
  8
Defpoints
 62
     0
100
AcDbPoint
 10
398.9516455368936
 20
146.7965691721643
 30
0.0
  0
ENDBLK
  5
139D
330
138D
100
AcDbEntity
  8
0
100
AcDbBlockEnd
  0
BLOCK
  5
1412
330
1408
100
AcDbEntity
  8
0
100
AcDbBlockBegin
  2
*D13
 70
     1
 10
0.0
 20
0.0
 30
0.0
  3
*D13
  1

  0
LINE
  5
1429
330
1408
100
AcDbEntity
  8
Bemaßung
 62
     0
370
    -2
100
AcDbLine
 10
422.0766455368936
 20
196.5267233107568
 30
0.0
 11
433.628240890633
 21
196.5267233107568
 31
0.0
  0
LINE
  5
142A
330
1408
100
AcDbEntity
  8
Bemaßung
 62
     0
370
    -2
100
AcDbLine
 10
422.0766455368936
 20
188.5267233107569
 30
0.0
 11
433.628240890633
 21
188.5267233107569
 31
0.0
  0
LINE
  5
142B
330
1408
100
AcDbEntity
  8
Bemaßung
 62
     0
370
    -2
100
AcDbLine
 10
432.3782408906331
 20
194.0267233107569
 30
0.0
 11
432.3782408906331
 21
191.0267233107568
 31
0.0
  0
SOLID
  5
142C
330
1408
100
AcDbEntity
  8
Bemaßung
 62
     0
100
AcDbTrace
 10
431.9615742239664
 20
194.0267233107569
 30
0.0
 11
432.7949075572997
 21
194.0267233107569
 31
0.0
 12
432.3782408906331
 22
196.5267233107568
 32
0.0
 13
432.3782408906331
 23
196.5267233107568
 33
0.0
  0
SOLID
  5
142D
330
1408
100
AcDbEntity
  8
Bemaßung
 62
     0
100
AcDbTrace
 10
431.9615742239664
 20
191.0267233107568
 30
0.0
 11
432.7949075572997
 21
191.0267233107568
 31
0.0
 12
432.3782408906331
 22
188.5267233107569
 32
0.0
 13
432.3782408906331
 23
188.5267233107569
 33
0.0
  0
MTEXT
  5
142E
330
1408
100
AcDbEntity
  8
Bemaßung
 62
     0
100
AcDbMText
 10
430.503240890633
 20
192.6683754133188
 30
0.0
 40
2.5
 41
0.0
 71
     5
 72
     1
  1
8
 11
0.0000000000000001
 21
1.0
 31
0.0
 73
     1
 44
1.0
  0
POINT
  5
142F
330
1408
100
AcDbEntity
  8
Defpoints
 62
     0
100
AcDbPoint
 10
421.4516455368936
 20
196.5267233107568
 30
0.0
  0
POINT
  5
1430
330
1408
100
AcDbEntity
  8
Defpoints
 62
     0
100
AcDbPoint
 10
421.4516455368936
 20
188.5267233107569
 30
0.0
  0
POINT
  5
1431
330
1408
100
AcDbEntity
  8
Defpoints
 62
     0
100
AcDbPoint
 10
432.3782408906331
 20
188.5267233107569
 30
0.0
  0
ENDBLK
  5
1413
330
1408
100
AcDbEntity
  8
0
100
AcDbBlockEnd
  0
BLOCK
  5
1455
330
144B
100
AcDbEntity
  8
0
100
AcDbBlockBegin
  2
*D14
 70
     1
 10
0.0
 20
0.0
 30
0.0
  3
*D14
  1

  0
LINE
  5
1462
330
144B
100
AcDbEntity
  8
Bemaßung
 62
     0
370
    -2
100
AcDbLine
 10
399.5766455368936
 20
207.5267333107568
 30
0.0
 11
441.8433720257183
 21
207.5267333107568
 31
0.0
  0
LINE
  5
1463
330
144B
100
AcDbEntity
  8
Bemaßung
 62
     0
370
    -2
100
AcDbLine
 10
399.5766455368936
 20
177.5267233107568
 30
0.0
 11
441.8433720257183
 21
177.5267233107568
 31
0.0
  0
LINE
  5
1464
330
144B
100
AcDbEntity
  8
Bemaßung
 62
     0
370
    -2
100
AcDbLine
 10
440.5933720257183
 20
205.0267333107568
 30
0.0
 11
440.5933720257183
 21
180.0267233107568
 31
0.0
  0
SOLID
  5
1465
330
144B
100
AcDbEntity
  8
Bemaßung
 62
     0
100
AcDbTrace
 10
440.1767053590517
 20
205.0267333107568
 30
0.0
 11
441.0100386923851
 21
205.0267333107568
 31
0.0
 12
440.5933720257183
 22
207.5267333107568
 32
0.0
 13
440.5933720257183
 23
207.5267333107568
 33
0.0
  0
SOLID
  5
1466
330
144B
100
AcDbEntity
  8
Bemaßung
 62
     0
100
AcDbTrace
 10
440.1767053590517
 20
180.0267233107568
 30
0.0
 11
441.0100386923851
 21
180.0267233107568
 31
0.0
 12
440.5933720257183
 22
177.5267233107568
 32
0.0
 13
440.5933720257183
 23
177.5267233107568
 33
0.0
  0
MTEXT
  5
1467
330
144B
100
AcDbEntity
  8
Bemaßung
 62
     0
100
AcDbMText
 10
438.7183720257183
 20
192.5267283107569
 30
0.0
 40
2.5
 41
0.0
 71
     5
 72
     1
  1
30
 11
0.0000000000000001
 21
1.0
 31
0.0
 73
     1
 44
1.0
  0
POINT
  5
1468
330
144B
100
AcDbEntity
  8
Defpoints
 62
     0
100
AcDbPoint
 10
398.9516455368936
 20
207.5267333107568
 30
0.0
  0
POINT
  5
1469
330
144B
100
AcDbEntity
  8
Defpoints
 62
     0
100
AcDbPoint
 10
398.9516455368936
 20
177.5267233107568
 30
0.0
  0
POINT
  5
146A
330
144B
100
AcDbEntity
  8
Defpoints
 62
     0
100
AcDbPoint
 10
440.5933720257183
 20
177.5267233107568
 30
0.0
  0
ENDBLK
  5
1456
330
144B
100
AcDbEntity
  8
0
100
AcDbBlockEnd
  0
ENDSEC
  0
SECTION
  2
ENTITIES
  0
LINE
  5
CA0
330
1F
100
AcDbEntity
  8
0
  6
CENTER
 62
     3
370
    18
100
AcDbLine
 10
-0.7915437420334684
 20
219.851347985582
 30
0.0
 11
-0.7928750522722794
 21
147.8260433458431
 31
0.0
  0
DIMENSION
  5
CA1
102
{ACAD_XDICTIONARY
360
CA2
102
}
102
{ACAD_REACTORS
330
CA3
102
}
330
1F
100
AcDbEntity
  8
Bemaßung
  6
Continuous
370
    25
100
AcDbDimension
  2
*D0
 10
-30.57416578069364
 20
192.182757985582
 30
0.0
 11
-32.02416578069367
 21
178.182747985582
 31
0.0
 70
    32
 71
     5
 42
28.00001999999997
  3
STANDARD
100
AcDbAlignedDimension
 13
-0.7930737420334993
 23
164.182737985582
 33
0.0
 14
-20.79306974203348
 24
192.182757985582
 34
0.0
 50
90.0
100
AcDbRotatedDimension
  0
ARC
  5
CA4
330
1F
100
AcDbEntity
  8
0
  6
CENTER
 62
     3
370
    18
100
AcDbCircle
 10
-0.7915437420334684
 20
192.182757985582
 30
0.0
 40
19.5
100
AcDbArc
 50
315.0000399999999
 51
338.9330199999999
  0
ARC
  5
CA5
330
1F
100
AcDbEntity
  8
0
  6
Continuous
 62
     1
370
    25
100
AcDbCircle
 10
15.63396325796657
 20
181.718557985582
 30
0.0
 40
3.599999899999999
100
AcDbArc
 50
89.67067800000005
 51
270.3269799999999
  0
CIRCLE
  5
CA6
330
1F
100
AcDbEntity
  8
0
  6
Continuous
 62
     1
370
    25
100
AcDbCircle
 10
15.63396325796657
 20
181.718557985582
 30
0.0
 40
3.5
  0
CIRCLE
  5
CA7
330
1F
100
AcDbEntity
  8
0
  6
Continuous
 62
     1
370
    25
100
AcDbCircle
 10
15.63396325796657
 20
181.718557985582
 30
0.0
 40
2.75
  0
LINE
  5
CA8
330
1F
100
AcDbEntity
  8
0
  6
Continuous
 62
     1
370
    25
100
AcDbLine
 10
-19.26990074203343
 20
181.129847985582
 30
0.0
 11
-15.42451974203345
 21
179.239937985582
 31
0.0
  0
LINE
  5
CA9
330
1F
100
AcDbEntity
  8
0
  6
CENTER
 62
     3
370
    18
100
AcDbLine
 10
18.97048825796656
 20
179.592947985582
 30
0.0
 11
11.96694425796653
 21
184.054717985582
 31
0.0
  0
LINE
  5
CAA
330
1F
100
AcDbEntity
  8
0
  6
Continuous
 62
     1
370
    25
100
AcDbLine
 10
11.76277725796654
 20
212.182767985582
 30
0.0
 11
11.77037625796651
 21
172.182758985582
 31
0.0
  0
LINE
  5
CAB
330
1F
100
AcDbEntity
  8
0
  6
Continuous
 62
     1
370
    25
100
AcDbLine
 10
-13.35653074203344
 20
212.182767985582
 30
0.0
 11
-13.34894374203344
 21
172.182758985582
 31
0.0
  0
LINE
  5
CAC
330
1F
100
AcDbEntity
  8
0
  6
Continuous
100
AcDbLine
 10
19.20693025796651
 20
209.682767985582
 30
0.0
 11
19.20693025796651
 21
174.682758985582
 31
0.0
  0
LINE
  5
CAD
330
1F
100
AcDbEntity
  8
0
  6
Continuous
100
AcDbLine
 10
-20.79306974203348
 20
209.682767985582
 30
0.0
 11
-20.79306974203348
 21
174.682758985582
 31
0.0
  0
DIMENSION
  5
CAE
102
{ACAD_XDICTIONARY
360
CAF
102
}
102
{ACAD_REACTORS
330
CB0
102
}
330
1F
100
AcDbEntity
  8
Bemaßung
  6
Continuous
370
    25
100
AcDbDimension
  2
*D1
 10
11.77037625092324
 20
138.1128999786935
 30
0.0
 11
-0.785121236881582
 21
139.5628999786935
 31
0.0
 70
    32
 71
     5
 42
25.11099497560965
  3
STANDARD
100
AcDbAlignedDimension
 13
-13.34061872468641
 23
165.0787508076211
 33
0.0
 14
11.77037625092324
 24
165.170314909768
 34
0.0
100
AcDbRotatedDimension
  0
LINE
  5
CB1
330
1F
100
AcDbEntity
  8
0
  6
Continuous
 62
     7
370
    35
100
AcDbLine
 10
4.70712494772772
 20
146.8260433458431
 30
0.0
 11
4.70712494772772
 21
136.0631533458431
 31
0.0
  0
LINE
  5
CB2
330
1F
100
AcDbEntity
  8
0
  6
Continuous
 62
     7
370
    35
100
AcDbLine
 10
-6.292875052272279
 20
146.8260433458431
 30
0.0
 11
-6.292875052272279
 21
136.0631493458431
 31
0.0
  0
LINE
  5
CB3
330
1F
100
AcDbEntity
  8
0
  6
Continuous
 62
     7
370
    35
100
AcDbLine
 10
-7.792875052272279
 20
120.7119073458432
 30
0.0
 11
6.20712494772772
 21
120.7119073458432
 31
0.0
  0
LINE
  5
CB4
330
1F
100
AcDbEntity
  8
0
  6
Continuous
 62
     7
370
    35
100
AcDbLine
 10
-9.692876052272254
 20
127.2119073458432
 30
0.0
 11
8.107126947727749
 21
127.2119073458432
 31
0.0
  0
LINE
  5
CB5
330
1F
100
AcDbEntity
  8
0
  6
Continuous
 62
     7
370
    35
100
AcDbLine
 10
-6.585767052272274
 20
135.3560423458431
 30
0.0
 11
-9.499979052272237
 21
132.4418463458431
 31
0.0
  0
LINE
  5
CB6
330
1F
100
AcDbEntity
  8
0
  6
Continuous
 62
     7
370
    35
100
AcDbLine
 10
-9.792875052272279
 20
131.7347383458431
 30
0.0
 11
-9.792875052272279
 21
127.3119053458431
 31
0.0
  0
LINE
  5
CB7
330
1F
100
AcDbEntity
  8
0
  6
Continuous
 62
     7
370
    35
100
AcDbLine
 10
-7.792875052272279
 20
127.2119073458432
 30
0.0
 11
-7.792875052272279
 21
120.7119073458432
 31
0.0
  0
ARC
  5
CB8
330
1F
100
AcDbEntity
  8
0
  6
Continuous
 62
     7
370
    35
100
AcDbCircle
 10
-9.692876052272254
 20
127.3119053458431
 30
0.0
 40
0.1
100
AcDbArc
 50
179.99998
 51
270.0000299999999
  0
ARC
  5
CB9
330
1F
100
AcDbEntity
  8
0
  6
Continuous
 62
     7
370
    35
100
AcDbCircle
 10
-8.792875052272279
 20
131.7347383458431
 30
0.0
 40
1.0
100
AcDbArc
 50
134.9998599999999
 51
179.99996
  0
LINE
  5
CBA
330
1F
100
AcDbEntity
  8
0
  6
Continuous
 62
     7
370
    35
100
AcDbLine
 10
5.20712494772772
 20
114.2119073458432
 30
0.0
 11
5.20712494772772
 21
120.7119073458432
 31
0.0
  0
LINE
  5
CBB
330
1F
100
AcDbEntity
  8
0
  6
Continuous
 62
     7
370
    35
100
AcDbLine
 10
1.807130947727728
 20
120.7119073458432
 30
0.0
 11
1.807130947727728
 21
114.2119073458432
 31
0.0
  0
LINE
  5
CBC
330
1F
100
AcDbEntity
  8
0
  6
Continuous
 62
     7
370
    35
100
AcDbLine
 10
0.9071369477277357
 20
114.2119073458432
 30
0.0
 11
0.9071369477277357
 21
120.7119073458432
 31
0.0
  0
LINE
  5
CBD
330
1F
100
AcDbEntity
  8
0
  6
Continuous
 62
     7
370
    35
100
AcDbLine
 10
-2.492857052272256
 20
120.7119073458432
 30
0.0
 11
-2.492857052272256
 21
114.2119073458432
 31
0.0
  0
LINE
  5
CBE
330
1F
100
AcDbEntity
  8
0
  6
Continuous
 62
     7
370
    35
100
AcDbLine
 10
-3.392866052272268
 20
114.2119073458432
 30
0.0
 11
-3.392866052272268
 21
120.7119073458432
 31
0.0
  0
LINE
  5
CBF
330
1F
100
AcDbEntity
  8
0
  6
Continuous
 62
     7
370
    35
100
AcDbLine
 10
-6.792875052272279
 20
120.7119073458432
 30
0.0
 11
-6.792875052272279
 21
114.2119073458432
 31
0.0
  0
LINE
  5
CC0
330
1F
100
AcDbEntity
  8
0
  6
Continuous
 62
     7
370
    35
100
AcDbLine
 10
-6.792875052272279
 20
114.2119073458432
 30
0.0
 11
-3.392866052272268
 21
114.2119073458432
 31
0.0
  0
LINE
  5
CC1
330
1F
100
AcDbEntity
  8
0
  6
Continuous
 62
     7
370
    35
100
AcDbLine
 10
-2.492857052272256
 20
114.2119073458432
 30
0.0
 11
0.9071369477277357
 21
114.2119073458432
 31
0.0
  0
LINE
  5
CC2
330
1F
100
AcDbEntity
  8
0
  6
Continuous
 62
     7
370
    35
100
AcDbLine
 10
1.807130947727728
 20
114.2119073458432
 30
0.0
 11
5.20712494772772
 21
114.2119073458432
 31
0.0
  0
LINE
  5
CC3
330
1F
100
AcDbEntity
  8
0
  6
Continuous
 62
     7
370
    35
100
AcDbLine
 10
8.20712494772772
 20
131.7347383458431
 30
0.0
 11
8.20712494772772
 21
127.3119053458431
 31
0.0
  0
LINE
  5
CC4
330
1F
100
AcDbEntity
  8
0
  6
Continuous
 62
     7
370
    35
100
AcDbLine
 10
6.20712494772772
 20
120.7119073458432
 30
0.0
 11
6.20712494772772
 21
127.2119073458432
 31
0.0
  0
ARC
  5
CC5
330
1F
100
AcDbEntity
  8
0
  6
Continuous
 62
     7
370
    35
100
AcDbCircle
 10
8.107126947727749
 20
127.3119053458431
 30
0.0
 40
0.1
100
AcDbArc
 50
270.0000199999999
 51
0.0
  0
ARC
  5
CC6
330
1F
100
AcDbEntity
  8
0
  6
Continuous
 62
     7
370
    35
100
AcDbCircle
 10
-7.292875052272279
 20
136.0631493458431
 30
0.0
 40
1.0
100
AcDbArc
 50
314.99985
 51
0.0
  0
LINE
  5
CC7
330
1F
100
AcDbEntity
  8
0
  6
Continuous
 62
     7
370
    35
100
AcDbLine
 10
5.000017947727769
 20
135.3560423458431
 30
0.0
 11
7.914228947727735
 21
132.4418463458431
 31
0.0
  0
ARC
  5
CC8
330
1F
100
AcDbEntity
  8
0
  6
Continuous
 62
     7
370
    35
100
AcDbCircle
 10
7.20712494772772
 20
131.7347383458431
 30
0.0
 40
1.0
100
AcDbArc
 50
0.0
 51
45.00015499999999
  0
ARC
  5
CC9
330
1F
100
AcDbEntity
  8
0
  6
Continuous
 62
     7
370
    35
100
AcDbCircle
 10
5.70712494772772
 20
136.0631533458431
 30
0.0
 40
1.0
100
AcDbArc
 50
179.99998
 51
225.0001299999999
  0
ARC
  5
CCA
102
{ACAD_REACTORS
330
CA3
102
}
330
1F
100
AcDbEntity
  8
0
  6
Continuous
100
AcDbCircle
 10
-0.7930737420334708
 20
314.183697985582
 30
0.0
 40
150.00096
100
AcDbArc
 50
265.37458
 51
274.6283099999999
  0
LINE
  5
CCB
330
1F
100
AcDbEntity
  8
0
  6
Continuous
 62
     1
370
    25
100
AcDbLine
 10
-13.34975275264244
 20
170.1826185841445
 30
0.0
 11
11.77037625796651
 21
170.182758985582
 31
0.0
  0
LINE
  5
CCC
330
1F
100
AcDbEntity
  8
0
  6
Continuous
100
AcDbLine
 10
-13.34894673501509
 20
165.1695442097783
 30
0.0
 11
-13.35653074203344
 21
172.182758985582
 31
0.0
  0
ARC
  5
CCD
102
{ACAD_REACTORS
330
CB0
102
}
330
1F
100
AcDbEntity
  8
0
  6
Continuous
 62
     5
100
AcDbCircle
 10
-12.84894674203349
 20
165.169627985582
 30
0.0
 40
0.5
100
AcDbArc
 50
180.0096
 51
265.37444
  0
CIRCLE
  5
CCE
330
1F
100
AcDbEntity
  8
0
  6
Continuous
 62
     1
370
    25
100
AcDbCircle
 10
-17.05576874203347
 20
175.920067985582
 30
0.0
 40
2.25
  0
ARC
  5
CCF
330
1F
100
AcDbEntity
  8
0
  6
CENTER
 62
     3
370
    18
100
AcDbCircle
 10
-0.7915437420334684
 20
192.182757985582
 30
0.0
 40
23.0
100
AcDbArc
 50
216.7269699999999
 51
233.4874199999999
  0
ARC
  5
CD0
330
1F
100
AcDbEntity
  8
0
  6
Continuous
 62
     1
370
    25
100
AcDbCircle
 10
-17.05711574203348
 20
175.918937985582
 30
0.0
 40
3.700587
100
AcDbArc
 50
0.0056590002000441
 51
63.82134900000005
  0
LINE
  5
CD1
330
1F
100
AcDbEntity
  8
0
  6
CENTER
 62
     3
370
    18
100
AcDbLine
 10
-14.97013674203344
 20
178.005707985582
 30
0.0
 11
-19.28670074203341
 21
173.689136985582
 31
0.0
  0
LINE
  5
CD2
330
1F
100
AcDbEntity
  8
0
  6
Continuous
100
AcDbLine
 10
-18.29306974203348
 20
172.182758985582
 30
0.0
 11
-13.35653074203344
 21
172.182758985582
 31
0.0
  0
ARC
  5
CD3
330
1F
100
AcDbEntity
  8
0
  6
Continuous
100
AcDbCircle
 10
-18.29306974203348
 20
174.682758985582
 30
0.0
 40
2.5
100
AcDbArc
 50
179.99998
 51
270.0000299999999
  0
LINE
  5
CD4
330
1F
100
AcDbEntity
  8
0
  6
Continuous
 62
     7
370
    35
100
AcDbLine
 10
2.706598257966561
 20
164.183009985582
 30
0.0
 11
2.710352257966519
 21
154.061534985582
 31
0.0
  0
LINE
  5
CD5
330
1F
100
AcDbEntity
  8
0
  6
Continuous
 62
     7
370
    35
100
AcDbLine
 10
-4.29340474203343
 20
164.183017985582
 30
0.0
 11
-4.293427742033486
 21
154.061443985582
 31
0.0
  0
LINE
  5
CD6
330
1F
100
AcDbEntity
  8
0
  6
Continuous
 62
     7
370
    35
100
AcDbLine
 10
2.70712494772772
 20
150.6192173458432
 30
0.0
 11
2.70712494772772
 21
147.8260433458431
 31
0.0
  0
LINE
  5
CD7
330
1F
100
AcDbEntity
  8
0
  6
Continuous
 62
     7
370
    35
100
AcDbLine
 10
-4.292875052272279
 20
150.6191263458432
 30
0.0
 11
-4.292875052272279
 21
147.8260433458431
 31
0.0
  0
LINE
  5
CD8
330
1F
100
AcDbEntity
  8
0
  6
Continuous
 62
     7
370
    35
100
AcDbLine
 10
-5.292875052272279
 20
147.8260433458431
 30
0.0
 11
3.70712494772772
 21
147.8260433458431
 31
0.0
  0
ARC
  5
CD9
330
1F
100
AcDbEntity
  8
0
  6
Continuous
 62
     7
370
    35
100
AcDbCircle
 10
-5.292875052272279
 20
146.8260433458431
 30
0.0
 40
1.0
100
AcDbArc
 50
89.99998199999998
 51
179.99996
  0
ARC
  5
CDA
330
1F
100
AcDbEntity
  8
0
  6
Continuous
 62
     7
370
    35
100
AcDbCircle
 10
3.70712494772772
 20
146.8260433458431
 30
0.0
 40
1.0
100
AcDbArc
 50
0.0
 51
89.99998199999998
  0
ARC
  5
CDB
330
1F
100
AcDbEntity
  8
0
  6
Continuous
 62
     7
370
    35
100
AcDbCircle
 10
0.957204947727746
 20
147.5884183458432
 30
0.0
 40
3.4997101
100
AcDbArc
 50
59.99875900000006
 51
120.00427
  0
ARC
  5
CDC
330
1F
100
AcDbEntity
  8
0
  6
Continuous
 62
     7
370
    35
100
AcDbCircle
 10
0.9594131668869181
 20
157.0292540371629
 30
0.0
 40
3.501288899999999
100
AcDbArc
 50
239.9944199999999
 51
300.0055599999999
  0
ARC
  5
CDD
330
1F
100
AcDbEntity
  8
0
  6
Continuous
 62
     7
370
    35
100
AcDbCircle
 10
0.9594142579665572
 20
151.028362985582
 30
0.0
 40
3.502275
100
AcDbArc
 50
60.00376499999996
 51
119.99626
  0
ARC
  5
CDE
330
1F
100
AcDbEntity
  8
0
  6
Continuous
 62
     7
370
    35
100
AcDbCircle
 10
-2.542875052272279
 20
153.6507883458431
 30
0.0
 40
3.500498999999999
100
AcDbArc
 50
240.0047
 51
299.9952899999998
  0
ARC
  5
CDF
330
1F
100
AcDbEntity
  8
0
  6
Continuous
 62
     7
370
    35
100
AcDbCircle
 10
-2.542875052272279
 20
147.5887153458431
 30
0.0
 40
3.499413999999999
100
AcDbArc
 50
59.99446200000005
 51
120.0055599999999
  0
ARC
  5
CE0
330
1F
100
AcDbEntity
  8
0
  6
Continuous
 62
     7
370
    35
100
AcDbCircle
 10
-2.542555833113055
 20
157.0295900371629
 30
0.0
 40
3.5016279
100
AcDbArc
 50
239.9988999999999
 51
300.0040599999999
  0
LINE
  5
CE1
102
{ACAD_REACTORS
330
CB0
102
}
330
1F
100
AcDbEntity
  8
0
  6
Continuous
100
AcDbLine
 10
11.77037625092324
 20
165.1703149097361
 30
0.0
 11
11.77037625796651
 21
172.182758985582
 31
0.0
  0
ARC
  5
CE2
102
{ACAD_REACTORS
330
CB0
102
}
330
1F
100
AcDbEntity
  8
0
  6
Continuous
 62
     5
100
AcDbCircle
 10
11.27037625796651
 20
165.170230985582
 30
0.0
 40
0.5
100
AcDbArc
 50
274.62824
 51
0.0096169997000655
  0
ARC
  5
CE3
330
1F
100
AcDbEntity
  8
0
  6
Continuous
100
AcDbCircle
 10
16.70693025796651
 20
174.682758985582
 30
0.0
 40
2.5
100
AcDbArc
 50
270.0000199999999
 51
0.0
  0
LINE
  5
CE4
330
1F
100
AcDbEntity
  8
0
  6
Continuous
 62
     1
370
    25
100
AcDbLine
 10
18.20997425796656
 20
178.105427985582
 30
0.0
 11
15.61566725796654
 21
178.118607985582
 31
0.0
  0
LINE
  5
CE5
330
1F
100
AcDbEntity
  8
0
  6
Continuous
100
AcDbLine
 10
11.77037625796651
 20
172.182758985582
 30
0.0
 11
16.70693025796651
 21
172.182758985582
 31
0.0
  0
ARC
  5
CE6
330
1F
100
AcDbEntity
  8
0
  6
Continuous
 62
     1
370
    25
100
AcDbCircle
 10
18.20994425796652
 20
177.105377985582
 30
0.0
 40
1.000038999999999
100
AcDbArc
 50
0.0026770000000325
 51
80.00095400000009
  0
LINE
  5
CE7
330
1F
100
AcDbEntity
  8
0
  6
CENTER
 62
     3
370
    18
100
AcDbLine
 10
-24.65415374203348
 20
192.182757985582
 30
0.0
 11
24.45303925796656
 21
192.182757985582
 31
0.0
  0
LINE
  5
CE8
330
1F
100
AcDbEntity
  8
0
  6
Continuous
 62
     7
370
    35
100
AcDbLine
 10
-18.29306974203348
 20
212.182767985582
 30
0.0
 11
16.70693025796651
 21
212.182767985582
 31
0.0
  0
ARC
  5
CE9
330
1F
100
AcDbEntity
  8
0
  6
CENTER
 62
     3
370
    18
100
AcDbCircle
 10
-0.7915437420334684
 20
192.182757985582
 30
0.0
 40
19.5
100
AcDbArc
 50
135.0000100000001
 51
158.9330099999999
  0
CIRCLE
  5
CEA
330
1F
100
AcDbEntity
  8
0
  6
Continuous
 62
     1
370
    25
100
AcDbCircle
 10
-17.21704874203345
 20
202.646957985582
 30
0.0
 40
2.75
  0
CIRCLE
  5
CEB
330
1F
100
AcDbEntity
  8
0
  6
Continuous
 62
     1
370
    25
100
AcDbCircle
 10
-17.21704874203345
 20
202.646957985582
 30
0.0
 40
3.5
  0
ARC
  5
CEC
330
1F
100
AcDbEntity
  8
0
  6
Continuous
 62
     1
370
    25
100
AcDbCircle
 10
-17.21704874203345
 20
202.646957985582
 30
0.0
 40
3.599999899999999
100
AcDbArc
 50
269.6706699999999
 51
90.32695700000008
  0
LINE
  5
CED
330
1F
100
AcDbEntity
  8
0
  6
CENTER
 62
     3
370
    18
100
AcDbLine
 10
-20.55357374203345
 20
204.772567985582
 30
0.0
 11
-13.55002374203343
 21
200.310807985582
 31
0.0
  0
LINE
  5
CEE
330
1F
100
AcDbEntity
  8
0
  6
Continuous
 62
     1
370
    25
100
AcDbLine
 10
-20.79306974203348
 20
192.182757985582
 30
0.0
 11
-20.38583374203347
 21
182.837707985582
 31
0.0
  0
ARC
  5
CEF
330
1F
100
AcDbEntity
  8
0
  6
Continuous
 62
     1
370
    25
100
AcDbCircle
 10
-18.38772974203345
 20
182.924787985582
 30
0.0
 40
2.0
100
AcDbArc
 50
182.49527
 51
243.8268999999999
  0
LINE
  5
CF0
330
1F
100
AcDbEntity
  8
0
  6
Continuous
 62
     1
370
    25
100
AcDbLine
 10
-19.79306774203348
 20
199.060097985582
 30
0.0
 11
-17.23546574203345
 21
199.046997985582
 31
0.0
  0
ARC
  5
CF1
330
1F
100
AcDbEntity
  8
0
  6
Continuous
 62
     1
370
    25
100
AcDbCircle
 10
-19.79300274203342
 20
198.060027985582
 30
0.0
 40
1.000067
100
AcDbArc
 50
90.00385500000005
 51
179.9961900000001
  0
ARC
  5
CF2
330
1F
100
AcDbEntity
  8
0
  6
Continuous
100
AcDbCircle
 10
-18.29306974203348
 20
209.682767985582
 30
0.0
 40
2.5
100
AcDbArc
 50
89.99998199999998
 51
179.99996
  0
ARC
  5
CF3
330
1F
100
AcDbEntity
  8
0
  6
Continuous
 62
     1
370
    25
100
AcDbCircle
 10
-19.79303174203346
 20
207.260147985582
 30
0.0
 40
1.000038999999999
100
AcDbArc
 50
180.0026699999999
 51
260.0009499999999
  0
LINE
  5
CF4
330
1F
100
AcDbEntity
  8
0
  6
Continuous
 62
     1
370
    25
100
AcDbLine
 10
-19.79306974203348
 20
206.260097985582
 30
0.0
 11
-17.19875674203342
 21
206.246917985582
 31
0.0
  0
LINE
  5
CF5
330
1F
100
AcDbEntity
  8
0
  6
Continuous
 62
     1
370
    25
100
AcDbLine
 10
19.20998225796654
 20
192.182777985582
 30
0.0
 11
18.80274825796652
 21
201.527817985582
 31
0.0
  0
LINE
  5
CF6
330
1F
100
AcDbEntity
  8
0
  6
Continuous
 62
     1
370
    25
100
AcDbLine
 10
18.20999025796652
 20
185.305417985582
 30
0.0
 11
15.65238025796657
 21
185.318497985582
 31
0.0
  0
ARC
  5
CF7
330
1F
100
AcDbEntity
  8
0
  6
Continuous
 62
     1
370
    25
100
AcDbCircle
 10
18.20991325796654
 20
186.305487985582
 30
0.0
 40
1.000067
100
AcDbArc
 50
270.0038699999999
 51
359.9962299999999
  0
ARC
  5
CF8
330
1F
100
AcDbEntity
  8
0
  6
Continuous
100
AcDbCircle
 10
16.70693025796651
 20
209.682767985582
 30
0.0
 40
2.5
100
AcDbArc
 50
0.0
 51
89.99998199999998
  0
ARC
  5
CF9
330
1F
100
AcDbEntity
  8
0
  6
Continuous
 62
     1
370
    25
100
AcDbCircle
 10
16.80464725796656
 20
201.440727985582
 30
0.0
 40
2.0
100
AcDbArc
 50
2.495272999999984
 51
63.82690200000004
  0
CIRCLE
  5
CFA
330
1F
100
AcDbEntity
  8
0
  6
Continuous
 62
     1
370
    25
100
AcDbCircle
 10
15.47268525796653
 20
208.445447985582
 30
0.0
 40
2.25
  0
ARC
  5
CFB
330
1F
100
AcDbEntity
  8
0
  6
CENTER
 62
     3
370
    18
100
AcDbCircle
 10
-0.7915437420334684
 20
192.182757985582
 30
0.0
 40
23.0
100
AcDbArc
 50
36.72697899999992
 51
53.48742999999994
  0
ARC
  5
CFC
330
1F
100
AcDbEntity
  8
0
  6
Continuous
 62
     1
370
    25
100
AcDbCircle
 10
15.47402825796655
 20
208.446577985582
 30
0.0
 40
3.700587
100
AcDbArc
 50
180.00568
 51
243.82138
  0
LINE
  5
CFD
330
1F
100
AcDbEntity
  8
0
  6
CENTER
 62
     3
370
    18
100
AcDbLine
 10
13.38705625796654
 20
206.359817985582
 30
0.0
 11
17.70362725796656
 21
210.676387985582
 31
0.0
  0
LINE
  5
CFE
330
1F
100
AcDbEntity
  8
0
  6
Continuous
 62
     1
370
    25
100
AcDbLine
 10
17.68681925796653
 20
203.235657985582
 30
0.0
 11
13.84143325796651
 21
205.125587985582
 31
0.0
  0
LINE
  5
D02
330
1F
100
AcDbEntity
  8
0
  6
Continuous
 62
     7
370
    35
100
AcDbLine
 10
77.10412077250001
 20
207.5267333107568
 30
0.0
 11
77.10412077250001
 21
177.5267233107568
 31
0.0
  0
LINE
  5
D03
330
1F
100
AcDbEntity
  8
0
  6
Continuous
 62
     7
370
    35
100
AcDbLine
 10
79.60415077250002
 20
212.5267333107569
 30
0.0
 11
79.60412077250001
 21
172.5267243107568
 31
0.0
  0
LINE
  5
D04
330
1F
100
AcDbEntity
  8
0
  6
Continuous
 62
     1
370
    25
100
AcDbLine
 10
84.60412077250001
 20
212.5267333107569
 30
0.0
 11
84.60412077250001
 21
172.5267243107568
 31
0.0
  0
LINE
  5
D05
330
1F
100
AcDbEntity
  8
0
  6
Continuous
 62
     1
370
    25
100
AcDbLine
 10
137.6088507725
 20
212.5267333107569
 30
0.0
 11
137.6088507725
 21
172.5267243107568
 31
0.0
  0
LINE
  5
D06
330
1F
100
AcDbEntity
  8
0
  6
Continuous
 62
     1
370
    25
100
AcDbLine
 10
144.1088507725
 20
212.5267333107569
 30
0.0
 11
144.1088507725
 21
172.5267243107568
 31
0.0
  0
LINE
  5
D07
330
1F
100
AcDbEntity
  8
0
  6
Continuous
 62
     1
370
    25
100
AcDbLine
 10
144.8088607725
 20
212.5267333107569
 30
0.0
 11
144.8088607725
 21
172.5267243107568
 31
0.0
  0
ARC
  5
D08
330
1F
100
AcDbEntity
  8
0
  6
Continuous
 62
     7
370
    35
100
AcDbCircle
 10
-25.67281922750391
 20
192.5374733107567
 30
0.0
 40
199.7816900000039
100
AcDbArc
 50
356.2524900000001
 51
2.335732975267769
  0
LINE
  5
D09
330
1F
100
AcDbEntity
  8
0
  6
Continuous
 62
     7
370
    35
100
AcDbLine
 10
173.1066107724999
 20
172.5267243107568
 30
0.0
 11
79.60412077251632
 21
172.5267460642769
 31
0.0
  0
LINE
  5
D0A
330
1F
100
AcDbEntity
  8
0
  6
Continuous
 62
     7
370
    35
100
AcDbLine
 10
79.60412077250001
 20
177.5267233107568
 30
0.0
 11
77.10412077250001
 21
177.5267233107568
 31
0.0
  0
LINE
  5
D0B
330
1F
100
AcDbEntity
  8
0
  6
Continuous
 62
     7
370
    35
100
AcDbLine
 10
156.1372907725
 20
147.8451903107568
 30
0.0
 11
156.1372907725
 21
127.2310543107569
 31
0.0
  0
LINE
  5
D0C
330
1F
100
AcDbEntity
  8
0
  6
Continuous
 62
     7
370
    35
100
AcDbLine
 10
174.1373107725
 20
127.2310543107569
 30
0.0
 11
174.1373107725
 21
147.8451903107568
 31
0.0
  0
LINE
  5
D0D
330
1F
100
AcDbEntity
  8
0
  6
Continuous
 62
     7
370
    35
100
AcDbLine
 10
167.8226607725
 20
114.2310543107569
 30
0.0
 11
167.7373007725
 21
120.7310543107569
 31
0.0
  0
LINE
  5
D0E
330
1F
100
AcDbEntity
  8
0
  6
Continuous
 62
     7
370
    35
100
AcDbLine
 10
166.8373107725
 20
120.7310543107569
 30
0.0
 11
166.8226607725
 21
114.2310543107569
 31
0.0
  0
LINE
  5
D0F
330
1F
100
AcDbEntity
  8
0
  6
Continuous
 62
     7
370
    35
100
AcDbLine
 10
163.4542507725
 20
114.2310543107569
 30
0.0
 11
163.4372807725
 21
120.7310543107569
 31
0.0
  0
LINE
  5
D10
330
1F
100
AcDbEntity
  8
0
  6
Continuous
 62
     7
370
    35
100
AcDbLine
 10
162.5373207725
 20
120.7310543107569
 30
0.0
 11
162.5373207725
 21
114.2310543107569
 31
0.0
  0
LINE
  5
D11
330
1F
100
AcDbEntity
  8
0
  6
Continuous
 62
     7
370
    35
100
AcDbLine
 10
159.1372907725
 20
114.2310543107569
 30
0.0
 11
159.1372907725
 21
120.7310543107569
 31
0.0
  0
LINE
  5
D12
330
1F
100
AcDbEntity
  8
0
  6
Continuous
 62
     7
370
    35
100
AcDbLine
 10
171.1372907725
 20
120.7310543107569
 30
0.0
 11
171.1372907725
 21
114.2310543107569
 31
0.0
  0
LINE
  5
D13
330
1F
100
AcDbEntity
  8
0
  6
Continuous
 62
     7
370
    35
100
AcDbLine
 10
166.8226607725
 20
114.2310543107569
 30
0.0
 11
163.4542507725
 21
114.2310543107569
 31
0.0
  0
LINE
  5
D14
330
1F
100
AcDbEntity
  8
0
  6
Continuous
 62
     7
370
    35
100
AcDbLine
 10
162.5373207725
 20
114.2310543107569
 30
0.0
 11
159.1372907725
 21
114.2310543107569
 31
0.0
  0
LINE
  5
D15
330
1F
100
AcDbEntity
  8
0
  6
Continuous
 62
     7
370
    35
100
AcDbLine
 10
171.1372907725
 20
114.2310543107569
 30
0.0
 11
167.8226607725
 21
114.2310543107569
 31
0.0
  0
LINE
  5
D16
330
1F
100
AcDbEntity
  8
0
  6
Continuous
 62
     7
370
    35
100
AcDbLine
 10
156.1372907725
 20
127.2310543107569
 30
0.0
 11
174.1373107725
 21
127.2310543107569
 31
0.0
  0
LINE
  5
D17
330
1F
100
AcDbEntity
  8
0
  6
Continuous
 62
     1
370
    25
100
AcDbLine
 10
174.1373107725
 20
135.6730863107568
 30
0.0
 11
156.1372907725
 21
135.6730863107568
 31
0.0
  0
LINE
  5
D18
330
1F
100
AcDbEntity
  8
0
  6
Continuous
 62
     1
370
    25
100
AcDbLine
 10
156.1372907725
 20
132.0730193107569
 30
0.0
 11
174.1373107725
 21
132.0730193107569
 31
0.0
  0
LINE
  5
D19
330
1F
100
AcDbEntity
  8
0
  6
Continuous
 62
     7
370
    35
100
AcDbLine
 10
172.1372907725
 20
120.7310543107569
 30
0.0
 11
158.1372907725
 21
120.7310543107569
 31
0.0
  0
LINE
  5
D1A
330
1F
100
AcDbEntity
  8
0
  6
Continuous
 62
     7
370
    35
100
AcDbLine
 10
158.1372907725
 20
120.7310543107569
 30
0.0
 11
158.1372907725
 21
127.2310543107569
 31
0.0
  0
LINE
  5
D1B
330
1F
100
AcDbEntity
  8
0
  6
Continuous
 62
     7
370
    35
100
AcDbLine
 10
172.1372907725
 20
127.2310543107569
 30
0.0
 11
172.1372907725
 21
120.7310543107569
 31
0.0
  0
LINE
  5
D1C
330
1F
100
AcDbEntity
  8
0
  6
CENTER
 62
     3
370
    18
100
AcDbLine
 10
132.1088507725
 20
152.8880753107569
 30
0.0
 11
132.1088507725
 21
173.0697763107569
 31
0.0
  0
LINE
  5
D1D
330
1F
100
AcDbEntity
  8
0
  6
Continuous
 62
     7
370
    35
100
AcDbLine
 10
137.0588507725
 20
157.8266963107569
 30
0.0
 11
137.0588507725
 21
166.8266963107569
 31
0.0
  0
LINE
  5
D1E
330
1F
100
AcDbEntity
  8
0
  6
Continuous
 62
     7
370
    35
100
AcDbLine
 10
127.1588607725
 20
157.8266963107569
 30
0.0
 11
127.1588607725
 21
166.8266963107569
 31
0.0
  0
LINE
  5
D1F
330
1F
100
AcDbEntity
  8
0
  6
Continuous
 62
     7
370
    35
100
AcDbLine
 10
127.1588607725
 20
157.8266963107569
 30
0.0
 11
137.0588507725
 21
157.8266963107569
 31
0.0
  0
LINE
  5
D20
330
1F
100
AcDbEntity
  8
0
  6
Continuous
 62
     7
370
    35
100
AcDbLine
 10
128.1588607725
 20
156.8266963107569
 30
0.0
 11
136.0588507725
 21
156.8266963107569
 31
0.0
  0
LINE
  5
D21
330
1F
100
AcDbEntity
  8
0
  6
Continuous
 62
     7
370
    35
100
AcDbLine
 10
131.2586007725
 20
151.1894283107569
 30
0.0
 11
131.2586007725
 21
156.8266963107569
 31
0.0
  0
LINE
  5
D22
330
1F
100
AcDbEntity
  8
0
  6
Continuous
 62
     7
370
    35
100
AcDbLine
 10
132.9591007725
 20
156.8266963107569
 30
0.0
 11
132.9591007725
 21
151.1894433107569
 31
0.0
  0
ARC
  5
D23
330
1F
100
AcDbEntity
  8
0
  6
Continuous
 62
     7
370
    35
100
AcDbCircle
 10
131.6835907725
 20
151.9255583107569
 30
0.0
 40
0.8500000199999998
100
AcDbArc
 50
240.00097
 51
299.9990499999999
  0
ARC
  5
D24
330
1F
100
AcDbEntity
  8
0
  6
Continuous
 62
     7
370
    35
100
AcDbCircle
 10
131.6835907725
 20
150.4532983107569
 30
0.0
 40
0.8500000199999998
100
AcDbArc
 50
60.00097000000002
 51
119.9990149999999
  0
ARC
  5
D25
330
1F
100
AcDbEntity
  8
0
  6
Continuous
 62
     7
370
    35
100
AcDbCircle
 10
132.5335707725
 20
151.9255583107569
 30
0.0
 40
0.8500000199999998
100
AcDbArc
 50
240.00097
 51
300.0013399999999
  0
ARC
  5
D26
330
1F
100
AcDbEntity
  8
0
  6
Continuous
 62
     7
370
    35
100
AcDbCircle
 10
128.1588607725
 20
157.8266963107569
 30
0.0
 40
1.0
100
AcDbArc
 50
180.0
 51
270.0
  0
ARC
  5
D27
330
1F
100
AcDbEntity
  8
0
  6
Continuous
 62
     7
370
    35
100
AcDbCircle
 10
136.0588507725
 20
157.8266963107569
 30
0.0
 40
1.0
100
AcDbArc
 50
270.0
 51
0.0000099999999887
  0
LINE
  5
D28
330
1F
100
AcDbEntity
  8
0
  6
Continuous
 62
     7
370
    35
100
AcDbLine
 10
127.1088507725
 20
169.6266993107569
 30
0.0
 11
137.1088507725
 21
169.6266993107569
 31
0.0
  0
LINE
  5
D29
330
1F
100
AcDbEntity
  8
0
  6
Continuous
 62
     7
370
    35
100
AcDbLine
 10
127.1588607725
 20
166.8266963107569
 30
0.0
 11
137.0588507725
 21
166.8266963107569
 31
0.0
  0
LINE
  5
D2A
330
1F
100
AcDbEntity
  8
0
  6
Continuous
 62
     7
370
    35
100
AcDbLine
 10
126.6088507725
 20
170.1266993107569
 30
0.0
 11
126.6088507725
 21
172.5267243107568
 31
0.0
  0
ARC
  5
D2B
330
1F
100
AcDbEntity
  8
0
  6
Continuous
 62
     7
370
    35
100
AcDbCircle
 10
127.1088507725
 20
170.1266993107569
 30
0.0
 40
0.5
100
AcDbArc
 50
180.0
 51
270.0
  0
LINE
  5
D2C
330
1F
100
AcDbEntity
  8
0
  6
Continuous
 62
     7
370
    35
100
AcDbLine
 10
128.2088607724999
 20
166.8266963107569
 30
0.0
 11
128.2088607724999
 21
169.6266993107569
 31
0.0
  0
LINE
  5
D2D
330
1F
100
AcDbEntity
  8
0
  6
Continuous
 62
     7
370
    35
100
AcDbLine
 10
137.6088507725
 20
170.1266993107569
 30
0.0
 11
137.6088507725
 21
172.5267243107568
 31
0.0
  0
ARC
  5
D2E
330
1F
100
AcDbEntity
  8
0
  6
Continuous
 62
     7
370
    35
100
AcDbCircle
 10
137.1088507725
 20
170.1266993107569
 30
0.0
 40
0.5
100
AcDbArc
 50
270.0
 51
0.0000099999999887
  0
LINE
  5
D2F
330
1F
100
AcDbEntity
  8
0
  6
Continuous
 62
     7
370
    35
100
AcDbLine
 10
136.0088507725
 20
166.8266963107569
 30
0.0
 11
136.0088507725
 21
169.6266993107569
 31
0.0
  0
LINE
  5
D30
330
1F
100
AcDbEntity
  8
0
  6
Continuous
 62
     7
370
    35
100
AcDbLine
 10
168.6391907725
 20
164.5269833107569
 30
0.0
 11
168.6391907725
 21
154.2905563107569
 31
0.0
  0
LINE
  5
D31
330
1F
100
AcDbEntity
  8
0
  6
Continuous
 62
     7
370
    35
100
AcDbLine
 10
161.6391907725
 20
154.2906473107569
 30
0.0
 11
161.6391907725
 21
164.5269833107569
 31
0.0
  0
ARC
  5
D32
330
1F
100
AcDbEntity
  8
0
  6
Continuous
 62
     7
370
    35
100
AcDbCircle
 10
166.8892607724999
 20
157.3213563107569
 30
0.0
 40
3.4997101
100
AcDbArc
 50
239.99575
 51
300.0012599999998
  0
ARC
  5
D33
330
1F
100
AcDbEntity
  8
0
  6
Continuous
 62
     7
370
    35
100
AcDbCircle
 10
166.8872207725
 20
147.6070693107569
 30
0.0
 40
3.5002029
100
AcDbArc
 50
60.00041000000005
 51
119.9965829999998
  0
ARC
  5
D34
330
1F
100
AcDbEntity
  8
0
  6
Continuous
 62
     7
370
    35
100
AcDbCircle
 10
166.8873707725
 20
153.6691493107569
 30
0.0
 40
3.4997101
100
AcDbArc
 50
239.99575
 51
300.0012599999998
  0
LINE
  5
D35
330
1F
100
AcDbEntity
  8
0
  6
Continuous
 62
     7
370
    35
100
AcDbLine
 10
174.1373107725
 20
147.8451903107568
 30
0.0
 11
156.1372907725
 21
147.8451903107568
 31
0.0
  0
LINE
  5
D36
330
1F
100
AcDbEntity
  8
0
  6
Continuous
 62
     7
370
    35
100
AcDbLine
 10
161.6372907725
 20
147.8451903107568
 30
0.0
 11
161.6372907725
 21
150.6383643107569
 31
0.0
  0
ARC
  5
D37
330
1F
100
AcDbEntity
  8
0
  6
Continuous
 62
     7
370
    35
100
AcDbCircle
 10
163.3891907725
 20
151.2588713107569
 30
0.0
 40
3.500598
100
AcDbArc
 50
60.00562000000009
 51
119.9943499999999
  0
ARC
  5
D38
330
1F
100
AcDbEntity
  8
0
  6
Continuous
 62
     7
370
    35
100
AcDbCircle
 10
163.3873607725
 20
147.6070233107569
 30
0.0
 40
3.500251999999999
100
AcDbArc
 50
60.00362000000013
 51
119.9988649999999
  0
LINE
  5
D39
330
1F
100
AcDbEntity
  8
0
  6
Continuous
 62
     7
370
    35
100
AcDbLine
 10
168.6372907725
 20
150.6383493107569
 30
0.0
 11
168.6372907725
 21
147.8451903107568
 31
0.0
  0
LINE
  5
D3A
330
1F
100
AcDbEntity
  8
0
  6
Continuous
 62
     7
370
    35
100
AcDbLine
 10
160.9065207725
 20
164.5269833107569
 30
0.0
 11
169.2781907725
 21
164.5269833107569
 31
0.0
  0
LINE
  5
D3B
330
1F
100
AcDbEntity
  8
0
  6
Continuous
 62
     7
370
    35
100
AcDbLine
 10
158.4921707725
 20
170.6737733107568
 30
0.0
 11
159.9405907725
 21
165.2681563107569
 31
0.0
  0
LINE
  5
D3C
330
1F
100
AcDbEntity
  8
0
  6
Continuous
 62
     1
370
    25
100
AcDbLine
 10
165.1391907725
 20
172.5267243107568
 30
0.0
 11
165.1391907725
 21
164.5269833107569
 31
0.0
  0
ARC
  5
D3D
330
1F
100
AcDbEntity
  8
0
  6
Continuous
 62
     7
370
    35
100
AcDbCircle
 10
160.9065207725
 20
165.5269833107569
 30
0.0
 40
1.0
100
AcDbArc
 50
195.0000099999999
 51
269.99998
  0
ARC
  5
D3E
330
1F
100
AcDbEntity
  8
0
  6
Continuous
 62
     7
370
    35
100
AcDbCircle
 10
156.0771607725
 20
170.0264723107569
 30
0.0
 40
2.500252
100
AcDbArc
 50
15.0044500000001
 51
89.99545500000008
  0
LINE
  5
D3F
330
1F
100
AcDbEntity
  8
0
  6
Continuous
 62
     7
370
    35
100
AcDbLine
 10
170.9009707725
 20
170.5267163107569
 30
0.0
 11
170.2707007725
 21
165.4048523107569
 31
0.0
  0
ARC
  5
D40
330
1F
100
AcDbEntity
  8
0
  6
Continuous
 62
     7
370
    35
100
AcDbCircle
 10
169.2781907725
 20
165.5269833107569
 30
0.0
 40
1.0
100
AcDbArc
 50
269.99998
 51
352.9849099999999
  0
ARC
  5
D41
330
1F
100
AcDbEntity
  8
0
  6
Continuous
 62
     7
370
    35
100
AcDbCircle
 10
-25.67281922749998
 20
192.5374733107569
 30
0.0
 40
199.78169
100
AcDbArc
 50
353.93265
 51
356.2524899999999
  0
LINE
  5
D42
330
1F
100
AcDbEntity
  8
0
  6
Continuous
 62
     7
370
    35
100
AcDbLine
 10
170.9009707725
 20
170.5267243107568
 30
0.0
 11
171.9953607725
 21
170.5267243107568
 31
0.0
  0
ARC
  5
D43
330
1F
100
AcDbEntity
  8
0
  6
Continuous
 62
     7
370
    35
100
AcDbCircle
 10
171.9953607725
 20
171.5267243107568
 30
0.0
 40
1.0
100
AcDbArc
 50
269.99998
 51
353.93263
  0
LINE
  5
D44
330
1F
100
AcDbEntity
  8
0
  6
Continuous
 62
     1
370
    25
100
AcDbLine
 10
171.328643126296
 20
181.8933622180286
 30
0.0
 11
84.60412077250001
 21
181.8933622180286
 31
0.0
  0
LINE
  5
D45
330
1F
100
AcDbEntity
  8
0
  6
CENTER
 62
     3
370
    18
100
AcDbLine
 10
49.77405356218469
 20
192.4677356700501
 30
0.0
 11
181.4393007725
 21
192.5267133107569
 31
0.0
  0
LINE
  5
D46
330
1F
100
AcDbEntity
  8
0
  6
Continuous
 62
     7
370
    35
100
AcDbLine
 10
172.6535807724999
 20
212.5267333107569
 30
0.0
 11
79.62247815150909
 21
212.5074101803174
 31
0.0
  0
LINE
  5
D47
330
1F
100
AcDbEntity
  8
0
  6
Continuous
 62
     7
370
    35
100
AcDbLine
 10
77.10412077250001
 20
196.5267233107568
 30
0.0
 11
54.60412077250001
 21
196.5267233107568
 31
0.0
  0
LINE
  5
D48
330
1F
100
AcDbEntity
  8
0
  6
Continuous
 62
     7
370
    35
100
AcDbLine
 10
54.60412077250001
 20
188.5267233107569
 30
0.0
 11
77.10412077250001
 21
188.5267233107569
 31
0.0
  0
LINE
  5
D49
330
1F
100
AcDbEntity
  8
0
  6
Continuous
 62
     7
370
    35
100
AcDbLine
 10
54.60412077250001
 20
196.5267233107568
 30
0.0
 11
54.60412077250001
 21
188.5267233107569
 31
0.0
  0
LINE
  5
D4A
330
1F
100
AcDbEntity
  8
0
  6
Continuous
 62
     7
370
    35
100
AcDbLine
 10
77.10412077250001
 20
207.5267333107568
 30
0.0
 11
79.60412077250001
 21
207.5267333107568
 31
0.0
  0
LINE
  5
D4B
330
1F
100
AcDbEntity
  8
0
  6
Continuous
 62
     7
370
    35
100
AcDbLine
 10
174.0857132833756
 20
201.1945922180286
 30
0.0
 11
174.0857132833756
 21
204.6945922180286
 31
0.0
  0
LINE
  5
D4C
330
1F
100
AcDbEntity
  8
0
  6
Continuous
 62
     1
370
    25
100
AcDbLine
 10
172.0857232833756
 20
200.4445922180286
 30
0.0
 11
172.0857232833756
 21
205.4445922180286
 31
0.0
  0
LINE
  5
D4D
330
1F
100
AcDbEntity
  8
0
  6
Continuous
 62
     1
370
    25
100
AcDbLine
 10
170.0857232833756
 20
199.3446022180286
 30
0.0
 11
170.0857232833756
 21
206.5446022180286
 31
0.0
  0
ARC
  5
D4E
330
1F
100
AcDbEntity
  8
0
  6
Continuous
 62
     1
370
    25
100
AcDbCircle
 10
-25.91488671662432
 20
192.4670822180286
 30
0.0
 40
198.00061
100
AcDbArc
 50
357.0763199999999
 51
2.160889999999946
  0
ARC
  5
D4F
330
1F
100
AcDbEntity
  8
0
  6
Continuous
 62
     1
370
    25
100
AcDbCircle
 10
171.3286432833756
 20
182.3933622180286
 30
0.0
 40
0.5
100
AcDbArc
 50
269.9999819999999
 51
357.0760999999999
  0
LINE
  5
D50
330
1F
100
AcDbEntity
  8
0
  6
Continuous
 62
     1
370
    25
100
AcDbLine
 10
170.0857232833756
 20
199.3446022180286
 30
0.0
 11
170.9980332833756
 21
199.3446022180286
 31
0.0
  0
LINE
  5
D51
330
1F
100
AcDbEntity
  8
0
  6
Continuous
 62
     1
370
    25
100
AcDbLine
 10
171.0857232833756
 20
199.4445922180286
 30
0.0
 11
170.0857232833756
 21
199.4445922180286
 31
0.0
  0
ARC
  5
D52
330
1F
100
AcDbEntity
  8
0
  6
Continuous
 62
     7
370
    35
100
AcDbCircle
 10
173.0857132833756
 20
201.1945922180286
 30
0.0
 40
1.0
100
AcDbArc
 50
269.9999819999999
 51
359.99996
  0
LINE
  5
D53
330
1F
100
AcDbEntity
  8
0
  6
Continuous
 62
     7
370
    35
100
AcDbLine
 10
173.0857132833756
 20
200.1945922180286
 30
0.0
 11
172.0857232833756
 21
200.1945922180286
 31
0.0
  0
ARC
  5
D54
330
1F
100
AcDbEntity
  8
0
  6
Continuous
 62
     1
370
    25
100
AcDbCircle
 10
171.0857232833756
 20
200.4445922180286
 30
0.0
 40
1.0
100
AcDbArc
 50
269.9999819999999
 51
359.99996
  0
ARC
  5
D55
330
1F
100
AcDbEntity
  8
0
  6
Continuous
 62
     1
370
    25
100
AcDbCircle
 10
170.9980332833756
 20
198.3446022180286
 30
0.0
 40
1.0
100
AcDbArc
 50
1.709840000000077
 51
90.00001999999998
  0
ARC
  5
D56
330
1F
100
AcDbEntity
  8
0
  6
Continuous
 62
     7
370
    35
100
AcDbCircle
 10
-25.67281922750391
 20
192.5374733107567
 30
0.0
 40
199.7816900000039
100
AcDbArc
 50
3.714399443545902
 51
5.612329999999888
  0
ARC
  5
D57
330
1F
100
AcDbEntity
  8
0
  6
Continuous
 62
     1
370
    25
100
AcDbCircle
 10
170.1672732833756
 20
211.4672512180286
 30
0.0
 40
1.0
100
AcDbArc
 50
4.769759999999942
 51
90.00001999999998
  0
ARC
  5
D58
330
1F
100
AcDbEntity
  8
0
  6
Continuous
 62
     1
370
    25
100
AcDbCircle
 10
-25.91488671662432
 20
192.4670822180286
 30
0.0
 40
198.00061
100
AcDbArc
 50
4.006419999999995
 51
5.534619999999965
  0
ARC
  5
D59
330
1F
100
AcDbEntity
  8
0
  6
Continuous
 62
     1
370
    25
100
AcDbCircle
 10
170.5078932833756
 20
207.5446022180286
 30
0.0
 40
1.0
100
AcDbArc
 50
269.9999819999999
 51
4.389520000000064
  0
ARC
  5
D5A
330
1F
100
AcDbEntity
  8
0
  6
Continuous
 62
     1
370
    25
100
AcDbCircle
 10
171.0857232833756
 20
205.4445922180286
 30
0.0
 40
1.0
100
AcDbArc
 50
359.9999799999999
 51
90.00002999999997
  0
LINE
  5
D5B
330
1F
100
AcDbEntity
  8
0
  6
CENTER
 62
     3
370
    18
100
AcDbLine
 10
174.6319432833756
 20
202.9445922180286
 30
0.0
 11
169.7212232833756
 21
202.9445922180286
 31
0.0
  0
LINE
  5
D5C
330
1F
100
AcDbEntity
  8
0
  6
Continuous
 62
     1
370
    25
100
AcDbLine
 10
171.0857232833756
 20
206.4445922180286
 30
0.0
 11
170.0857232833756
 21
206.4445922180286
 31
0.0
  0
LINE
  5
D5D
330
1F
100
AcDbEntity
  8
0
  6
Continuous
 62
     1
370
    25
100
AcDbLine
 10
170.0857232833756
 20
206.5446022180286
 30
0.0
 11
170.5078932833756
 21
206.5446022180286
 31
0.0
  0
ARC
  5
D5E
330
1F
100
AcDbEntity
  8
0
  6
Continuous
 62
     7
370
    35
100
AcDbCircle
 10
173.0857132833756
 20
204.6945922180286
 30
0.0
 40
1.0
100
AcDbArc
 50
359.9999799999999
 51
90.00002999999997
  0
LINE
  5
D5F
330
1F
100
AcDbEntity
  8
0
  6
Continuous
 62
     7
370
    35
100
AcDbLine
 10
173.0857132833756
 20
205.6945922180286
 30
0.0
 11
172.0539832833756
 21
205.6945922180286
 31
0.0
  0
ARC
  5
D60
330
1F
100
AcDbEntity
  8
0
  6
Continuous
 62
     5
100
AcDbCircle
 10
172.6535807724999
 20
212.0267333107569
 30
0.0
 40
0.5
100
AcDbArc
 50
5.613060000000031
 51
90.00001800000001
  0
LINE
  5
D61
330
1F
100
AcDbEntity
  8
0
  6
CENTER
 62
     3
370
    18
100
AcDbLine
 10
238.2180935938226
 20
-40.87959653891971
 30
0.0
 11
238.2180095250861
 21
86.51624094392378
 31
0.0
  0
LINE
  5
D62
330
1F
100
AcDbEntity
  8
0
  6
Continuous
 62
     7
370
    35
100
AcDbLine
 10
253.2180935938226
 20
-15.30469691096279
 30
0.0
 11
253.2180935938226
 21
-12.80469691096279
 31
0.0
  0
LINE
  5
D63
330
1F
100
AcDbEntity
  8
0
  6
Continuous
 62
     7
370
    35
100
AcDbLine
 10
223.2180935938226
 20
-15.30469691096279
 30
0.0
 11
223.2180935938226
 21
-12.80469691096279
 31
0.0
  0
LINE
  5
D64
330
1F
100
AcDbEntity
  8
0
  6
Continuous
 62
     7
370
    35
100
AcDbLine
 10
223.2180935938226
 20
-15.30469691096279
 30
0.0
 11
253.2180935938226
 21
-15.30469691096279
 31
0.0
  0
LINE
  5
D65
330
1F
100
AcDbEntity
  8
0
  6
Continuous
 62
     7
370
    35
100
AcDbLine
 10
243.2180935938226
 20
-37.80469691096278
 30
0.0
 11
243.2180935938226
 21
-15.30469691096279
 31
0.0
  0
LINE
  5
D66
330
1F
100
AcDbEntity
  8
0
  6
Continuous
 62
     7
370
    35
100
AcDbLine
 10
233.2180935938226
 20
-15.30469691096279
 30
0.0
 11
233.2180935938226
 21
-37.80469691096278
 31
0.0
  0
LINE
  5
D67
330
1F
100
AcDbEntity
  8
0
  6
Continuous
 62
     7
370
    35
100
AcDbLine
 10
233.2180935938226
 20
-37.80469691096278
 30
0.0
 11
243.2180935938226
 21
-37.80469691096278
 31
0.0
  0
LINE
  5
D69
330
1F
100
AcDbEntity
  8
0
  6
Continuous
 62
     7
370
    35
100
AcDbLine
 10
225.6823792601166
 20
81.69968335621186
 30
0.0
 11
250.8017071519557
 21
81.70000335012636
 31
0.0
  0
LINE
  5
D6A
330
1F
100
AcDbEntity
  8
0
  6
Continuous
 62
     1
370
    25
100
AcDbLine
 10
218.2180497198669
 20
-7.804696910962793
 30
0.0
 11
258.2180641018479
 21
-7.804696910962793
 31
0.0
  0
LINE
  5
D6B
330
1F
100
AcDbEntity
  8
0
  6
Continuous
 62
     7
370
    35
100
AcDbLine
 10
218.2180497198669
 20
-12.80469691096279
 30
0.0
 11
258.2180641018479
 21
-12.80469691096279
 31
0.0
  0
LINE
  5
D6D
330
1F
100
AcDbEntity
  8
0
  6
Continuous
 62
     7
370
    35
100
AcDbLine
 10
218.2180492118416
 20
80.24470335012637
 30
0.0
 11
218.2180497198669
 21
-12.80469691096279
 31
0.0
  0
ARC
  5
D6E
330
1F
100
AcDbEntity
  8
0
  6
Continuous
 62
     7
370
    35
100
AcDbCircle
 10
223.5569665096893
 20
81.25097204014947
 30
0.0
 40
1.0
100
AcDbArc
 50
359.9999820000007
 51
89.99996000000004
  0
LINE
  5
D6F
330
1F
100
AcDbEntity
  8
0
  6
Continuous
 62
     7
370
    35
100
AcDbLine
 10
218.2180492118416
 20
80.24470335012637
 30
0.0
 11
225.6823792601166
 21
80.24470335012637
 31
0.0
  0
LINE
  5
D70
330
1F
100
AcDbEntity
  8
0
  6
CENTER
 62
     3
370
    18
100
AcDbLine
 10
221.8069665096892
 20
82.7972020401495
 30
0.0
 11
221.8069665096892
 21
77.88648204014947
 31
0.0
  0
ARC
  5
D71
330
1F
100
AcDbEntity
  8
0
  6
Continuous
 62
     7
370
    35
100
AcDbCircle
 10
220.0569665096892
 20
81.25097204014947
 30
0.0
 40
1.0
100
AcDbArc
 50
89.9999799999996
 51
180.0000299999997
  0
LINE
  5
D72
330
1F
100
AcDbEntity
  8
0
  6
Continuous
 62
     7
370
    35
100
AcDbLine
 10
219.0569665096893
 20
81.25097204014947
 30
0.0
 11
219.0569665096893
 21
80.24470335012637
 31
0.0
  0
LINE
  5
D73
330
1F
100
AcDbEntity
  8
0
  6
Continuous
 62
     7
370
    35
100
AcDbLine
 10
223.5569665096893
 20
82.25097204014947
 30
0.0
 11
220.0569665096892
 21
82.25097204014947
 31
0.0
  0
LINE
  5
D74
330
1F
100
AcDbEntity
  8
0
  6
Continuous
 62
     7
370
    35
100
AcDbLine
 10
224.5569665096892
 20
81.25097204014947
 30
0.0
 11
224.5569665096892
 21
80.2509820401495
 31
0.0
  0
LINE
  5
D75
330
1F
100
AcDbEntity
  8
0
  6
Continuous
 62
     7
370
    35
100
AcDbLine
 10
225.6823792601166
 20
81.69968335621186
 30
0.0
 11
225.6823792601166
 21
80.24470335012637
 31
0.0
  0
LINE
  5
D76
330
1F
100
AcDbEntity
  8
0
  6
Continuous
 62
     7
370
    35
100
AcDbLine
 10
258.2180635938225
 20
80.24470335012637
 30
0.0
 11
258.2180641018479
 21
-12.80469691096279
 31
0.0
  0
LINE
  5
D77
330
1F
100
AcDbEntity
  8
0
  6
CENTER
 62
     3
370
    18
100
AcDbLine
 10
254.6996588146736
 20
82.74229066331793
 30
0.0
 11
254.6996588146736
 21
77.8315706633179
 31
0.0
  0
ARC
  5
D78
330
1F
100
AcDbEntity
  8
0
  6
Continuous
 62
     7
370
    35
100
AcDbCircle
 10
256.4496588146736
 20
81.1960606633179
 30
0.0
 40
1.0
100
AcDbArc
 50
359.9999820000007
 51
89.99995999999923
  0
ARC
  5
D79
330
1F
100
AcDbEntity
  8
0
  6
Continuous
 62
     7
370
    35
100
AcDbCircle
 10
252.9496588146737
 20
81.1960606633179
 30
0.0
 40
1.0
100
AcDbArc
 50
89.99997999999798
 51
180.0000299999997
  0
LINE
  5
D7A
330
1F
100
AcDbEntity
  8
0
  6
Continuous
 62
     7
370
    35
100
AcDbLine
 10
251.9496588146736
 20
81.19606066331789
 30
0.0
 11
251.9496588146736
 21
80.24417120981093
 31
0.0
  0
LINE
  5
D7B
330
1F
100
AcDbEntity
  8
0
  6
Continuous
 62
     7
370
    35
100
AcDbLine
 10
250.8017071519557
 20
81.70000335012636
 30
0.0
 11
250.8017071519557
 21
80.24470335012637
 31
0.0
  0
LINE
  5
D7C
330
1F
100
AcDbEntity
  8
0
  6
Continuous
 62
     7
370
    35
100
AcDbLine
 10
257.4496588146736
 20
81.19606066331789
 30
0.0
 11
257.4496588146736
 21
80.24417120981093
 31
0.0
  0
LINE
  5
D7D
330
1F
100
AcDbEntity
  8
0
  6
Continuous
 62
     7
370
    35
100
AcDbLine
 10
256.4496588146736
 20
82.1960606633179
 30
0.0
 11
252.9496588146737
 21
82.1960606633179
 31
0.0
  0
ARC
  5
D81
330
1F
100
AcDbEntity
  8
0
  6
Continuous
 62
     7
370
    35
100
AcDbCircle
 10
315.1492455368936
 20
165.5269833107569
 30
0.0
 40
1.0
100
AcDbArc
 50
270.0000199999999
 51
344.99999
  0
LINE
  5
D82
330
1F
100
AcDbEntity
  8
0
  6
Continuous
 62
     7
370
    35
100
AcDbLine
 10
313.5184455368936
 20
114.2310543107569
 30
0.0
 11
316.9184755368936
 21
114.2310543107569
 31
0.0
  0
LINE
  5
D83
330
1F
100
AcDbEntity
  8
0
  6
Continuous
 62
     7
370
    35
100
AcDbLine
 10
303.9184755368936
 20
120.7310543107569
 30
0.0
 11
317.9184755368936
 21
120.7310543107569
 31
0.0
  0
LINE
  5
D84
330
1F
100
AcDbEntity
  8
0
  6
Continuous
 62
     1
370
    25
100
AcDbLine
 10
319.9184755368936
 20
132.0730193107569
 30
0.0
 11
301.9184555368936
 21
132.0730193107569
 31
0.0
  0
LINE
  5
D85
330
1F
100
AcDbEntity
  8
0
  6
Continuous
 62
     1
370
    25
100
AcDbLine
 10
301.9184555368936
 20
135.6730863107568
 30
0.0
 11
319.9184755368936
 21
135.6730863107568
 31
0.0
  0
LINE
  5
D86
330
1F
100
AcDbEntity
  8
0
  6
Continuous
 62
     7
370
    35
100
AcDbLine
 10
319.9184755368936
 20
127.2310543107569
 30
0.0
 11
301.9184555368936
 21
127.2310543107569
 31
0.0
  0
LINE
  5
D87
330
1F
100
AcDbEntity
  8
0
  6
Continuous
 62
     7
370
    35
100
AcDbLine
 10
301.9184555368936
 20
147.8451903107568
 30
0.0
 11
319.9184755368936
 21
147.8451903107568
 31
0.0
  0
LINE
  5
D88
102
{ACAD_REACTORS
330
1265
102
}
330
1F
100
AcDbEntity
  8
0
  6
Continuous
 62
     7
370
    35
100
AcDbLine
 10
303.4021855368937
 20
212.5267333107569
 30
0.0
 11
396.4516155368936
 21
212.5267333107569
 31
0.0
  0
LINE
  5
D89
102
{ACAD_REACTORS
330
11B2
330
13AD
102
}
330
1F
100
AcDbEntity
  8
0
  6
Continuous
 62
     7
370
    35
100
AcDbLine
 10
302.9491555368936
 20
172.5267243107568
 30
0.0
 11
396.4516455368936
 21
172.5267243107568
 31
0.0
  0
LINE
  5
D8A
330
1F
100
AcDbEntity
  8
Innenkanten
  6
Continuous
 62
     1
370
    25
100
AcDbLine
 10
304.7039956939733
 20
203.1006133107568
 30
0.0
 11
391.4516455368936
 21
203.1006133107569
 31
0.0
  0
LINE
  5
D8B
330
1F
100
AcDbEntity
  8
0
  6
CENTER
 62
     3
370
    18
100
AcDbLine
 10
425.6835155368936
 20
192.5267133107569
 30
0.0
 11
294.6164655368936
 21
192.5267133107569
 31
0.0
  0
CIRCLE
  5
D93
330
1F
100
AcDbEntity
  8
0
  6
Continuous
 62
     1
370
    25
100
AcDbCircle
 10
238.2180935938226
 20
192.5267233107568
 30
0.0
 40
15.0
  0
LINE
  5
D94
330
1F
100
AcDbEntity
  8
0
  6
Continuous
 62
     1
370
    25
100
AcDbLine
 10
301.9469255368936
 20
183.7993833107569
 30
0.0
 11
301.9469255368936
 21
180.2993833107569
 31
0.0
  0
LINE
  5
D95
330
1F
100
AcDbEntity
  8
0
  6
Continuous
 62
     1
370
    25
100
AcDbLine
 10
303.9469155368936
 20
184.5493833107569
 30
0.0
 11
303.9469155368936
 21
179.5493833107569
 31
0.0
  0
LINE
  5
D96
330
1F
100
AcDbEntity
  8
0
  6
Continuous
 62
     1
370
    25
100
AcDbLine
 10
305.9469155368936
 20
185.6493733107569
 30
0.0
 11
305.9469155368936
 21
178.4493733107568
 31
0.0
  0
LINE
  5
D97
102
{ACAD_REACTORS
330
EFE
330
109D
102
}
330
1F
100
AcDbEntity
  8
0
  6
Continuous
 62
     7
370
    35
100
AcDbLine
 10
258.2180635938225
 20
175.0267243107568
 30
0.0
 11
258.2180635938225
 21
210.0267333107569
 31
0.0
  0
LINE
  5
D98
102
{ACAD_REACTORS
330
EFE
102
}
330
1F
100
AcDbEntity
  8
0
  6
Continuous
 62
     7
370
    35
100
AcDbLine
 10
218.2180935938226
 20
210.0267333107569
 30
0.0
 11
218.2180935938226
 21
175.0267243107568
 31
0.0
  0
LINE
  5
D99
102
{ACAD_REACTORS
330
1130
102
}
330
1F
100
AcDbEntity
  8
0
  6
CENTER
 62
     3
370
    18
100
AcDbLine
 10
238.2180935938226
 20
217.7247345689725
 30
0.0
 11
238.2180935938226
 21
146.6081603107569
 31
0.0
  0
LINE
  5
D9A
330
1F
100
AcDbEntity
  8
0
  6
Continuous
 62
     7
370
    35
100
AcDbLine
 10
248.8180935938226
 20
164.9129393107568
 30
0.0
 11
249.8820335938225
 21
164.9811003107569
 31
0.0
  0
LINE
  5
D9B
330
1F
100
AcDbEntity
  8
0
  6
Continuous
 62
     7
370
    35
100
AcDbLine
 10
249.8180935938226
 20
169.6267303107569
 30
0.0
 11
227.8180935938226
 21
169.6267303107569
 31
0.0
  0
LINE
  5
D9C
330
1F
100
AcDbEntity
  8
0
  6
Continuous
 62
     7
370
    35
100
AcDbLine
 10
220.7180935938226
 20
172.5267243107568
 30
0.0
 11
255.7180635938225
 21
172.5267243107568
 31
0.0
  0
LINE
  5
D9D
330
1F
100
AcDbEntity
  8
0
  6
Continuous
 62
     7
370
    35
100
AcDbLine
 10
243.7195835938226
 20
146.8451903107568
 30
0.0
 11
243.7195835938226
 21
136.0822963107569
 31
0.0
  0
LINE
  5
D9E
330
1F
100
AcDbEntity
  8
0
  6
Continuous
 62
     7
370
    35
100
AcDbLine
 10
232.7196135938226
 20
146.8451903107568
 30
0.0
 11
232.7196135938226
 21
136.0822963107569
 31
0.0
  0
LINE
  5
D9F
330
1F
100
AcDbEntity
  8
0
  6
Continuous
 62
     7
370
    35
100
AcDbLine
 10
244.2195835938226
 20
114.2310543107569
 30
0.0
 11
244.2195835938226
 21
120.7310543107569
 31
0.0
  0
LINE
  5
DA0
330
1F
100
AcDbEntity
  8
0
  6
Continuous
 62
     7
370
    35
100
AcDbLine
 10
240.8196235938226
 20
120.7310543107569
 30
0.0
 11
240.8196235938226
 21
114.2310543107569
 31
0.0
  0
LINE
  5
DA1
330
1F
100
AcDbEntity
  8
0
  6
Continuous
 62
     7
370
    35
100
AcDbLine
 10
239.9196335938226
 20
114.2310543107569
 30
0.0
 11
239.9196335938226
 21
120.7310543107569
 31
0.0
  0
LINE
  5
DA2
330
1F
100
AcDbEntity
  8
0
  6
Continuous
 62
     7
370
    35
100
AcDbLine
 10
236.5196335938226
 20
120.7310433107569
 30
0.0
 11
236.5342835938226
 21
114.2310393107569
 31
0.0
  0
LINE
  5
DA3
330
1F
100
AcDbEntity
  8
0
  6
Continuous
 62
     7
370
    35
100
AcDbLine
 10
235.6196135938225
 20
114.2310543107569
 30
0.0
 11
235.6196135938225
 21
120.7310543107569
 31
0.0
  0
LINE
  5
DA4
330
1F
100
AcDbEntity
  8
0
  6
Continuous
 62
     7
370
    35
100
AcDbLine
 10
232.2196135938225
 20
120.7310543107569
 30
0.0
 11
232.2196135938225
 21
114.2310543107569
 31
0.0
  0
LINE
  5
DA5
330
1F
100
AcDbEntity
  8
0
  6
Continuous
 62
     7
370
    35
100
AcDbLine
 10
232.2196135938225
 20
114.2310543107569
 30
0.0
 11
235.6196135938225
 21
114.2310543107569
 31
0.0
  0
LINE
  5
DA6
330
1F
100
AcDbEntity
  8
0
  6
Continuous
 62
     7
370
    35
100
AcDbLine
 10
240.8196235938226
 20
114.2310543107569
 30
0.0
 11
244.2195835938226
 21
114.2310543107569
 31
0.0
  0
LINE
  5
DA7
330
1F
100
AcDbEntity
  8
0
  6
Continuous
 62
     7
370
    35
100
AcDbLine
 10
236.5342835938226
 20
114.2310543107569
 30
0.0
 11
239.9196335938226
 21
114.2310543107569
 31
0.0
  0
LINE
  5
DA8
330
1F
100
AcDbEntity
  8
0
  6
Continuous
 62
     7
370
    35
100
AcDbLine
 10
231.2196135938226
 20
120.7310543107569
 30
0.0
 11
245.2195835938226
 21
120.7310543107569
 31
0.0
  0
LINE
  5
DA9
330
1F
100
AcDbEntity
  8
0
  6
Continuous
 62
     7
370
    35
100
AcDbLine
 10
229.3196835938226
 20
127.2310393107568
 30
0.0
 11
247.1196435938226
 21
127.2444023107569
 31
0.0
  0
LINE
  5
DAA
330
1F
100
AcDbEntity
  8
0
  6
Continuous
 62
     7
370
    35
100
AcDbLine
 10
229.2196135938226
 20
131.7538813107569
 30
0.0
 11
229.2196135938226
 21
127.3310453107569
 31
0.0
  0
LINE
  5
DAB
330
1F
100
AcDbEntity
  8
0
  6
Continuous
 62
     7
370
    35
100
AcDbLine
 10
231.2196135938226
 20
127.2310543107569
 30
0.0
 11
231.2196135938226
 21
120.7310543107569
 31
0.0
  0
ARC
  5
DAC
330
1F
100
AcDbEntity
  8
0
  6
Continuous
 62
     7
370
    35
100
AcDbCircle
 10
229.3196235938225
 20
127.3310453107569
 30
0.0
 40
0.1
100
AcDbArc
 50
179.99998
 51
270.0349699999999
  0
LINE
  5
DAD
330
1F
100
AcDbEntity
  8
0
  6
Continuous
 62
     7
370
    35
100
AcDbLine
 10
229.5125235938225
 20
132.4610043107568
 30
0.0
 11
232.4267135938226
 21
135.3752003107568
 31
0.0
  0
ARC
  5
DAE
330
1F
100
AcDbEntity
  8
0
  6
Continuous
 62
     7
370
    35
100
AcDbCircle
 10
230.2196135938225
 20
131.7538853107569
 30
0.0
 40
1.0
100
AcDbArc
 50
134.9998599999999
 51
179.99996
  0
ARC
  5
DAF
330
1F
100
AcDbEntity
  8
0
  6
Continuous
 62
     7
370
    35
100
AcDbCircle
 10
231.7196135938226
 20
136.0822963107569
 30
0.0
 40
1.0
100
AcDbArc
 50
314.99985
 51
0.0
  0
LINE
  5
DB0
330
1F
100
AcDbEntity
  8
0
  6
Continuous
 62
     7
370
    35
100
AcDbLine
 10
247.2195835938226
 20
131.7538813107569
 30
0.0
 11
247.2195835938226
 21
127.3444043107569
 31
0.0
  0
LINE
  5
DB1
330
1F
100
AcDbEntity
  8
0
  6
Continuous
 62
     7
370
    35
100
AcDbLine
 10
245.2195835938226
 20
120.7310543107569
 30
0.0
 11
245.2195835938226
 21
127.2310543107569
 31
0.0
  0
ARC
  5
DB2
330
1F
100
AcDbEntity
  8
0
  6
Continuous
 62
     7
370
    35
100
AcDbCircle
 10
247.1195835938226
 20
127.3444043107569
 30
0.0
 40
0.1
100
AcDbArc
 50
270.0349699999999
 51
0.0
  0
LINE
  5
DB3
330
1F
100
AcDbEntity
  8
0
  6
Continuous
 62
     7
370
    35
100
AcDbLine
 10
244.0124635938226
 20
135.3751923107569
 30
0.0
 11
246.9266535938225
 21
132.4609933107569
 31
0.0
  0
ARC
  5
DB4
330
1F
100
AcDbEntity
  8
0
  6
Continuous
 62
     7
370
    35
100
AcDbCircle
 10
246.2196135938226
 20
131.7538853107569
 30
0.0
 40
1.0
100
AcDbArc
 50
0.0
 51
45.00015499999999
  0
ARC
  5
DB5
330
1F
100
AcDbEntity
  8
0
  6
Continuous
 62
     7
370
    35
100
AcDbCircle
 10
244.7196135938225
 20
136.0823003107568
 30
0.0
 40
1.0
100
AcDbArc
 50
179.99998
 51
225.0001299999999
  0
LINE
  5
DB6
330
1F
100
AcDbEntity
  8
0
  6
Continuous
 62
     7
370
    35
100
AcDbLine
 10
248.8180935938227
 20
157.5267273107568
 30
0.0
 11
248.8180935938226
 21
166.8267273107568
 31
0.0
  0
LINE
  5
DB7
330
1F
100
AcDbEntity
  8
0
  6
Continuous
 62
     7
370
    35
100
AcDbLine
 10
228.8180935938227
 20
157.5267273107568
 30
0.0
 11
228.8180935938226
 21
166.8267273107568
 31
0.0
  0
ARC
  5
DBB
102
{ACAD_REACTORS
330
10FD
102
}
330
1F
100
AcDbEntity
  8
0
  6
Continuous
 62
     7
370
    35
100
AcDbCircle
 10
233.3930835938226
 20
154.5947503107568
 30
0.0
 40
1.149999999999999
100
AcDbArc
 50
239.9999799999998
 51
299.4263499999999
  0
ARC
  5
DBC
330
1F
100
AcDbEntity
  8
0
  6
Continuous
 62
     7
370
    35
100
AcDbCircle
 10
233.7196135938226
 20
146.8451903107568
 30
0.0
 40
1.0
100
AcDbArc
 50
89.99998199999998
 51
179.99996
  0
LINE
  5
DBD
102
{ACAD_REACTORS
330
100C
330
10FD
102
}
330
1F
100
AcDbEntity
  8
0
  6
Continuous
 62
     1
370
    25
100
AcDbLine
 10
248.8180935938226
 20
157.5267273107568
 30
0.0
 11
228.8180935938226
 21
157.5267273107568
 31
0.0
  0
LINE
  5
DBE
102
{ACAD_REACTORS
330
109D
330
10FD
102
}
330
1F
100
AcDbEntity
  8
0
  6
Continuous
 62
     7
370
    35
100
AcDbLine
 10
247.8180935938226
 20
156.5267273107568
 30
0.0
 11
229.8180935938226
 21
156.5267273107568
 31
0.0
  0
LINE
  5
DBF
102
{ACAD_REACTORS
330
10FD
102
}
330
1F
100
AcDbEntity
  8
0
  6
Continuous
 62
     7
370
    35
100
AcDbLine
 10
231.6780835938226
 20
156.5267273107568
 30
0.0
 11
231.6780835938226
 21
153.5931183107568
 31
0.0
  0
ARC
  5
DC0
102
{ACAD_REACTORS
330
10FD
102
}
330
1F
100
AcDbEntity
  8
0
  6
Continuous
 62
     7
370
    35
100
AcDbCircle
 10
232.2430835938226
 20
154.5947503107568
 30
0.0
 40
1.149999999999999
100
AcDbArc
 50
240.57365
 51
299.9999799999999
  0
ARC
  5
DC1
102
{ACAD_REACTORS
330
10FD
102
}
330
1F
100
AcDbEntity
  8
0
  6
Continuous
 62
     7
370
    35
100
AcDbCircle
 10
232.2430835938226
 20
152.6028983107568
 30
0.0
 40
1.149999999999999
100
AcDbArc
 50
59.99997399999998
 51
119.4262899999999
  0
ARC
  5
DC2
102
{ACAD_REACTORS
330
10FD
102
}
330
1F
100
AcDbEntity
  8
0
  6
Continuous
 62
     7
370
    35
100
AcDbCircle
 10
229.8180935938226
 20
157.5267273107568
 30
0.0
 40
1.0
100
AcDbArc
 50
180.0000099999999
 51
270.0
  0
LINE
  5
DC3
330
1F
100
AcDbEntity
  8
0
  6
Continuous
 62
     7
370
    35
100
AcDbLine
 10
241.7196135938226
 20
150.6383643107569
 30
0.0
 11
241.7196135938226
 21
147.8451903107568
 31
0.0
  0
LINE
  5
DC4
330
1F
100
AcDbEntity
  8
0
  6
Continuous
 62
     7
370
    35
100
AcDbLine
 10
234.7196135938225
 20
150.6382733107569
 30
0.0
 11
234.7196135938225
 21
147.8451903107568
 31
0.0
  0
LINE
  5
DC5
330
1F
100
AcDbEntity
  8
0
  6
Continuous
 62
     7
370
    35
100
AcDbLine
 10
233.7196135938226
 20
147.8451903107568
 30
0.0
 11
242.7195835938226
 21
147.8451903107568
 31
0.0
  0
ARC
  5
DC6
330
1F
100
AcDbEntity
  8
0
  6
Continuous
 62
     7
370
    35
100
AcDbCircle
 10
242.7195835938226
 20
146.8451903107568
 30
0.0
 40
1.0
100
AcDbArc
 50
0.0
 51
89.99998199999998
  0
ARC
  5
DC7
330
1F
100
AcDbEntity
  8
0
  6
Continuous
 62
     7
370
    35
100
AcDbCircle
 10
239.9702535938225
 20
147.6062833107569
 30
0.0
 40
3.500962
100
AcDbArc
 50
60.00799299999998
 51
119.99502
  0
ARC
  5
DC8
102
{ACAD_REACTORS
330
10FD
102
}
330
1F
100
AcDbEntity
  8
0
  6
Continuous
 62
     7
370
    35
100
AcDbCircle
 10
241.3930835938226
 20
154.5947503107568
 30
0.0
 40
1.149999999999999
100
AcDbArc
 50
239.9999799999998
 51
299.4263499999999
  0
LINE
  5
DC9
102
{ACAD_REACTORS
330
10FD
102
}
330
1F
100
AcDbEntity
  8
0
  6
Continuous
 62
     7
370
    35
100
AcDbLine
 10
233.9580835938225
 20
156.5267273107568
 30
0.0
 11
233.9580835938225
 21
153.5988243107568
 31
0.0
  0
LINE
  5
DCA
102
{ACAD_REACTORS
330
10FD
102
}
330
1F
100
AcDbEntity
  8
0
  6
Continuous
 62
     7
370
    35
100
AcDbLine
 10
237.9580835938226
 20
156.5267273107568
 30
0.0
 11
237.9580835938226
 21
153.5988243107568
 31
0.0
  0
LINE
  5
DCB
102
{ACAD_REACTORS
330
10FD
102
}
330
1F
100
AcDbEntity
  8
0
  6
Continuous
 62
     7
370
    35
100
AcDbLine
 10
239.6780835938226
 20
156.5267273107568
 30
0.0
 11
239.6780835938226
 21
153.5931183107568
 31
0.0
  0
LINE
  5
DCC
102
{ACAD_REACTORS
330
10FD
102
}
330
1F
100
AcDbEntity
  8
0
  6
Continuous
 62
     7
370
    35
100
AcDbLine
 10
235.6780835938226
 20
156.5267273107568
 30
0.0
 11
235.6780835938226
 21
153.5931183107568
 31
0.0
  0
ARC
  5
DCD
330
1F
100
AcDbEntity
  8
0
  6
Continuous
 62
     7
370
    35
100
AcDbCircle
 10
236.4696135938225
 20
147.6078623107569
 30
0.0
 40
3.499413999999999
100
AcDbArc
 50
59.99446200000005
 51
120.0055599999999
  0
ARC
  5
DCE
330
1F
100
AcDbEntity
  8
0
  6
Continuous
 62
     7
370
    35
100
AcDbCircle
 10
236.4697735938225
 20
153.6694923107569
 30
0.0
 40
3.500186
100
AcDbArc
 50
239.9990999999998
 51
300.0036500000001
  0
ARC
  5
DCF
102
{ACAD_REACTORS
330
10FD
102
}
330
1F
100
AcDbEntity
  8
0
  6
Continuous
 62
     7
370
    35
100
AcDbCircle
 10
237.3930835938226
 20
154.5947503107568
 30
0.0
 40
1.149999999999999
100
AcDbArc
 50
239.9999799999998
 51
299.4263499999999
  0
ARC
  5
DD0
102
{ACAD_REACTORS
330
10FD
102
}
330
1F
100
AcDbEntity
  8
0
  6
Continuous
 62
     7
370
    35
100
AcDbCircle
 10
236.2430835938226
 20
154.5947503107568
 30
0.0
 40
1.149999999999999
100
AcDbArc
 50
240.57365
 51
299.9999799999999
  0
ARC
  5
DD1
102
{ACAD_REACTORS
330
10FD
102
}
330
1F
100
AcDbEntity
  8
0
  6
Continuous
 62
     7
370
    35
100
AcDbCircle
 10
236.2430835938226
 20
152.6028983107568
 30
0.0
 40
1.149999999999999
100
AcDbArc
 50
59.99997399999998
 51
119.4262899999999
  0
ARC
  5
DD2
102
{ACAD_REACTORS
330
10FD
102
}
330
1F
100
AcDbEntity
  8
0
  6
Continuous
 62
     7
370
    35
100
AcDbCircle
 10
240.2430835938226
 20
154.5947503107568
 30
0.0
 40
1.149999999999999
100
AcDbArc
 50
240.57365
 51
299.9999799999999
  0
ARC
  5
DD3
102
{ACAD_REACTORS
330
10FD
102
}
330
1F
100
AcDbEntity
  8
0
  6
Continuous
 62
     7
370
    35
100
AcDbCircle
 10
240.2430835938226
 20
152.6028983107568
 30
0.0
 40
1.149999999999999
100
AcDbArc
 50
59.99997399999998
 51
119.4262899999999
  0
LINE
  5
DD4
102
{ACAD_REACTORS
330
10FD
102
}
330
1F
100
AcDbEntity
  8
0
  6
Continuous
 62
     7
370
    35
100
AcDbLine
 10
241.9580835938226
 20
156.5267273107568
 30
0.0
 11
241.9580835938226
 21
153.5988243107568
 31
0.0
  0
LINE
  5
DD5
102
{ACAD_REACTORS
330
10FD
102
}
330
1F
100
AcDbEntity
  8
0
  6
Continuous
 62
     7
370
    35
100
AcDbLine
 10
243.6780835938226
 20
156.5267273107568
 30
0.0
 11
243.6780835938226
 21
153.5931183107568
 31
0.0
  0
LINE
  5
DD6
102
{ACAD_REACTORS
330
10FD
102
}
330
1F
100
AcDbEntity
  8
0
  6
Continuous
 62
     7
370
    35
100
AcDbLine
 10
245.9580835938226
 20
156.5267273107568
 30
0.0
 11
245.9580835938226
 21
153.5988243107568
 31
0.0
  0
ARC
  5
DD7
102
{ACAD_REACTORS
330
10FD
102
}
330
1F
100
AcDbEntity
  8
0
  6
Continuous
 62
     7
370
    35
100
AcDbCircle
 10
245.3930835938226
 20
154.5947503107568
 30
0.0
 40
1.149999999999999
100
AcDbArc
 50
239.9999799999998
 51
299.4263499999999
  0
ARC
  5
DD8
102
{ACAD_REACTORS
330
10FD
102
}
330
1F
100
AcDbEntity
  8
0
  6
Continuous
 62
     7
370
    35
100
AcDbCircle
 10
244.2430835938226
 20
152.6028983107568
 30
0.0
 40
1.149999999999999
100
AcDbArc
 50
59.99997399999998
 51
119.4262899999999
  0
ARC
  5
DD9
102
{ACAD_REACTORS
330
10FD
102
}
330
1F
100
AcDbEntity
  8
0
  6
Continuous
 62
     7
370
    35
100
AcDbCircle
 10
244.2430835938226
 20
154.5947503107568
 30
0.0
 40
1.149999999999999
100
AcDbArc
 50
240.57365
 51
299.9999799999999
  0
ARC
  5
DDA
102
{ACAD_REACTORS
330
10FD
102
}
330
1F
100
AcDbEntity
  8
0
  6
Continuous
 62
     7
370
    35
100
AcDbCircle
 10
247.8180935938226
 20
157.5267273107568
 30
0.0
 40
1.0
100
AcDbArc
 50
270.0
 51
0.0
  0
LINE
  5
DDB
330
1F
100
AcDbEntity
  8
0
  6
Continuous
 62
     7
370
    35
100
AcDbLine
 10
248.8180935938226
 20
166.8267273107568
 30
0.0
 11
228.8180935938226
 21
166.8267273107568
 31
0.0
  0
ARC
  5
DDC
330
1F
100
AcDbEntity
  8
0
  6
Continuous
 62
     7
370
    35
100
AcDbCircle
 10
227.8180935938226
 20
170.6267303107568
 30
0.0
 40
1.0
100
AcDbArc
 50
180.0000099999999
 51
270.0
  0
LINE
  5
DDD
330
1F
100
AcDbEntity
  8
0
  6
Continuous
 62
     7
370
    35
100
AcDbLine
 10
225.6180835938226
 20
172.5267243107568
 30
0.0
 11
225.6180835938226
 21
165.9790403107568
 31
0.0
  0
ARC
  5
DDE
330
1F
100
AcDbEntity
  8
0
  6
Continuous
 62
     7
370
    35
100
AcDbCircle
 10
226.6180835938226
 20
165.9790403107568
 30
0.0
 40
1.0
100
AcDbArc
 50
179.99998
 51
266.33429
  0
LINE
  5
DDF
330
1F
100
AcDbEntity
  8
0
  6
Continuous
 62
     7
370
    35
100
AcDbLine
 10
226.5541535938226
 20
164.9811073107569
 30
0.0
 11
228.8180935938226
 21
164.8360573107569
 31
0.0
  0
LINE
  5
DE0
330
1F
100
AcDbEntity
  8
0
  6
Continuous
 62
     7
370
    35
100
AcDbLine
 10
229.8180935938226
 20
166.8267273107568
 30
0.0
 11
229.8180935938226
 21
169.6267303107569
 31
0.0
  0
ARC
  5
DE1
102
{ACAD_REACTORS
330
F1F
102
}
330
1F
100
AcDbEntity
  8
0
  6
Continuous
 62
     7
370
    35
100
AcDbCircle
 10
220.7180935938226
 20
175.0267243107568
 30
0.0
 40
2.5
100
AcDbArc
 50
179.99998
 51
270.0000299999999
  0
LINE
  5
DE2
330
1F
100
AcDbEntity
  8
0
  6
Continuous
 62
     7
370
    35
100
AcDbLine
 10
226.8180935938226
 20
170.6267303107568
 30
0.0
 11
226.8180935938226
 21
172.5267243107568
 31
0.0
  0
LINE
  5
DE3
330
1F
100
AcDbEntity
  8
0
  6
Continuous
 62
     7
370
    35
100
AcDbLine
 10
247.8180935938226
 20
166.8267273107568
 30
0.0
 11
247.8180935938226
 21
169.6267303107569
 31
0.0
  0
LINE
  5
DE4
330
1F
100
AcDbEntity
  8
0
  6
Continuous
 62
     7
370
    35
100
AcDbLine
 10
301.9184555368936
 20
127.2310543107569
 30
0.0
 11
301.9184555368936
 21
147.8451903107568
 31
0.0
  0
LINE
  5
DE5
330
1F
100
AcDbEntity
  8
0
  6
Continuous
 62
     7
370
    35
100
AcDbLine
 10
313.5184455368936
 20
120.7310543107569
 30
0.0
 11
313.5184455368936
 21
114.2310543107569
 31
0.0
  0
LINE
  5
DE6
330
1F
100
AcDbEntity
  8
0
  6
Continuous
 62
     7
370
    35
100
AcDbLine
 10
312.6015155368936
 20
114.2310543107569
 30
0.0
 11
312.6184855368936
 21
120.7310543107569
 31
0.0
  0
LINE
  5
DE7
330
1F
100
AcDbEntity
  8
0
  6
Continuous
 62
     7
370
    35
100
AcDbLine
 10
309.2184555368936
 20
120.7310543107569
 30
0.0
 11
309.2331055368936
 21
114.2310543107569
 31
0.0
  0
LINE
  5
DE8
330
1F
100
AcDbEntity
  8
0
  6
Continuous
 62
     7
370
    35
100
AcDbLine
 10
308.2331055368936
 20
114.2310543107569
 30
0.0
 11
308.3184655368936
 21
120.7310543107569
 31
0.0
  0
LINE
  5
DE9
330
1F
100
AcDbEntity
  8
0
  6
Continuous
 62
     7
370
    35
100
AcDbLine
 10
304.9184755368936
 20
120.7310543107569
 30
0.0
 11
304.9184755368936
 21
114.2310543107569
 31
0.0
  0
LINE
  5
DEA
330
1F
100
AcDbEntity
  8
0
  6
Continuous
 62
     7
370
    35
100
AcDbLine
 10
304.9184755368936
 20
114.2310543107569
 30
0.0
 11
308.2331055368936
 21
114.2310543107569
 31
0.0
  0
LINE
  5
DEB
330
1F
100
AcDbEntity
  8
0
  6
Continuous
 62
     7
370
    35
100
AcDbLine
 10
309.2331055368936
 20
114.2310543107569
 30
0.0
 11
312.6015155368936
 21
114.2310543107569
 31
0.0
  0
LINE
  5
DEC
330
1F
100
AcDbEntity
  8
0
  6
Continuous
 62
     7
370
    35
100
AcDbLine
 10
303.9184755368936
 20
127.2310543107569
 30
0.0
 11
303.9184755368936
 21
120.7310543107569
 31
0.0
  0
ARC
  5
DED
330
1F
100
AcDbEntity
  8
0
  6
Continuous
 62
     7
370
    35
100
AcDbCircle
 10
249.8180935938226
 20
170.6267303107568
 30
0.0
 40
1.0
100
AcDbArc
 50
270.0
 51
0.0
  0
LINE
  5
DEE
330
1F
100
AcDbEntity
  8
0
  6
Continuous
 62
     7
370
    35
100
AcDbLine
 10
250.8308672220556
 20
172.5267243107568
 30
0.0
 11
250.8308672220556
 21
165.9790403107568
 31
0.0
  0
ARC
  5
DEF
330
1F
100
AcDbEntity
  8
0
  6
Continuous
 62
     7
370
    35
100
AcDbCircle
 10
249.8180935938226
 20
165.9790403107568
 30
0.0
 40
1.0
100
AcDbArc
 50
273.6656599999999
 51
0.0
  0
ARC
  5
DF0
330
1F
100
AcDbEntity
  8
0
  6
Continuous
 62
     7
370
    35
100
AcDbCircle
 10
255.7180635938225
 20
175.0267243107568
 30
0.0
 40
2.5
100
AcDbArc
 50
270.0000199999999
 51
0.0
  0
CIRCLE
  5
DF1
330
1F
100
AcDbEntity
  8
0
  6
Continuous
 62
     1
370
    25
100
AcDbCircle
 10
254.4815535938226
 20
176.2632633107568
 30
0.0
 40
2.25
  0
ARC
  5
DF2
330
1F
100
AcDbEntity
  8
0
  6
CENTER
 62
     3
370
    18
100
AcDbCircle
 10
238.2180935938226
 20
192.5267233107568
 30
0.0
 40
23.0
100
AcDbArc
 50
307.39002
 51
323.14946
  0
LINE
  5
DF3
330
1F
100
AcDbEntity
  8
0
  6
CENTER
 62
     3
370
    18
100
AcDbLine
 10
251.9968135938225
 20
178.7479733107568
 30
0.0
 11
256.8790435938226
 21
173.8657363107569
 31
0.0
  0
LINE
  5
DF4
330
1F
100
AcDbEntity
  8
0
  6
Continuous
 62
     7
370
    35
100
AcDbLine
 10
314.4165755368936
 20
154.2906473107569
 30
0.0
 11
314.4165755368936
 21
164.5269833107569
 31
0.0
  0
LINE
  5
DF5
330
1F
100
AcDbEntity
  8
0
  6
Continuous
 62
     7
370
    35
100
AcDbLine
 10
307.4165755368936
 20
164.5269833107569
 30
0.0
 11
307.4165755368936
 21
154.2905563107569
 31
0.0
  0
LINE
  5
DF6
330
1F
100
AcDbEntity
  8
0
  6
Continuous
 62
     7
370
    35
100
AcDbLine
 10
314.4184755368936
 20
147.8451903107568
 30
0.0
 11
314.4184755368936
 21
150.6383643107569
 31
0.0
  0
LINE
  5
DF7
330
1F
100
AcDbEntity
  8
0
  6
Continuous
 62
     7
370
    35
100
AcDbLine
 10
307.4184755368936
 20
150.6383493107569
 30
0.0
 11
307.4184755368936
 21
147.8451903107568
 31
0.0
  0
ARC
  5
DF8
330
1F
100
AcDbEntity
  8
0
  6
Continuous
 62
     7
370
    35
100
AcDbCircle
 10
309.1665055368936
 20
157.3213563107569
 30
0.0
 40
3.4997101
100
AcDbArc
 50
239.9987399999998
 51
300.0042499999999
  0
ARC
  5
DF9
330
1F
100
AcDbEntity
  8
0
  6
Continuous
 62
     7
370
    35
100
AcDbCircle
 10
309.1683955368936
 20
153.6691493107569
 30
0.0
 40
3.4997101
100
AcDbArc
 50
239.9987399999998
 51
300.0042499999999
  0
ARC
  5
DFA
330
1F
100
AcDbEntity
  8
0
  6
Continuous
 62
     7
370
    35
100
AcDbCircle
 10
309.1685455368936
 20
147.6070693107569
 30
0.0
 40
3.5002029
100
AcDbArc
 50
60.00341700000011
 51
119.9995899999999
  0
ARC
  5
DFB
330
1F
100
AcDbEntity
  8
0
  6
Continuous
 62
     7
370
    35
100
AcDbCircle
 10
312.6665755368936
 20
151.2588713107569
 30
0.0
 40
3.500598
100
AcDbArc
 50
60.00565000000002
 51
119.9943799999999
  0
ARC
  5
DFC
330
1F
100
AcDbEntity
  8
0
  6
Continuous
 62
     7
370
    35
100
AcDbCircle
 10
312.6684055368936
 20
147.6070233107569
 30
0.0
 40
3.500251999999999
100
AcDbArc
 50
60.00113500000004
 51
119.9963799999998
  0
LINE
  5
DFD
330
1F
100
AcDbEntity
  8
0
  6
Continuous
 62
     7
370
    35
100
AcDbLine
 10
305.1547955368936
 20
170.5267163107569
 30
0.0
 11
305.7850655368936
 21
165.4048523107569
 31
0.0
  0
LINE
  5
DFE
330
1F
100
AcDbEntity
  8
Innenkanten
  6
Continuous
 62
     1
370
    25
100
AcDbLine
 10
310.9165755368936
 20
172.5267243107568
 30
0.0
 11
310.9165755368936
 21
164.5269833107569
 31
0.0
  0
LINE
  5
DFF
330
1F
100
AcDbEntity
  8
0
  6
Continuous
 62
     7
370
    35
100
AcDbLine
 10
315.1492455368936
 20
164.5269833107569
 30
0.0
 11
306.7775755368936
 21
164.5269833107569
 31
0.0
  0
ARC
  5
E00
330
1F
100
AcDbEntity
  8
0
  6
Continuous
 62
     7
370
    35
100
AcDbCircle
 10
306.7775755368936
 20
165.5269833107569
 30
0.0
 40
1.0
100
AcDbArc
 50
187.01509
 51
270.0000199999999
  0
ARC
  5
E01
330
1F
100
AcDbEntity
  8
0
  6
Continuous
 62
     7
370
    35
100
AcDbCircle
 10
501.7285855368936
 20
192.5374733107569
 30
0.0
 40
199.78169
100
AcDbArc
 50
183.74751
 51
186.0673499999999
  0
ARC
  5
E02
330
1F
100
AcDbEntity
  8
0
  6
Continuous
 62
     1
370
    25
100
AcDbCircle
 10
501.9475255368936
 20
192.5268933107568
 30
0.0
 40
198.00061
100
AcDbArc
 50
184.00642
 51
185.5346199999999
  0
ARC
  5
E03
330
1F
100
AcDbEntity
  8
0
  6
Continuous
 62
     7
370
    35
100
AcDbCircle
 10
304.0604055368936
 20
171.5267243107568
 30
0.0
 40
1.0
100
AcDbArc
 50
186.0673699999999
 51
270.0000199999999
  0
ARC
  5
E04
330
1F
100
AcDbEntity
  8
0
  6
Continuous
 62
     1
370
    25
100
AcDbCircle
 10
305.8653655368936
 20
173.5267243107568
 30
0.0
 40
1.0
100
AcDbArc
 50
184.7697600000001
 51
270.0000199999999
  0
LINE
  5
E05
330
1F
100
AcDbEntity
  8
0
  6
Continuous
 62
     7
370
    35
100
AcDbLine
 10
305.1547955368936
 20
170.5267243107568
 30
0.0
 11
304.0604055368936
 21
170.5267243107568
 31
0.0
  0
LINE
  5
E06
330
1F
100
AcDbEntity
  8
0
  6
Continuous
 62
     1
370
    25
100
AcDbLine
 10
302.9469255368936
 20
179.2993833107569
 30
0.0
 11
303.9786555368936
 21
179.2993833107569
 31
0.0
  0
ARC
  5
E07
330
1F
100
AcDbEntity
  8
0
  6
Continuous
 62
     1
370
    25
100
AcDbCircle
 10
302.9469255368936
 20
180.2993833107569
 30
0.0
 40
1.0
100
AcDbArc
 50
179.99998
 51
270.0000299999999
  0
ARC
  5
E08
330
1F
100
AcDbEntity
  8
0
  6
Continuous
 62
     1
370
    25
100
AcDbCircle
 10
305.5247455368936
 20
177.4493733107568
 30
0.0
 40
1.0
100
AcDbArc
 50
89.99998199999998
 51
184.38952
  0
ARC
  5
E09
330
1F
100
AcDbEntity
  8
0
  6
Continuous
 62
     1
370
    25
100
AcDbCircle
 10
304.9469155368936
 20
179.5493833107569
 30
0.0
 40
1.0
100
AcDbArc
 50
179.99998
 51
270.0000299999999
  0
LINE
  5
E0A
330
1F
100
AcDbEntity
  8
0
  6
Continuous
 62
     1
370
    25
100
AcDbLine
 10
305.9469155368936
 20
178.4493733107568
 30
0.0
 11
305.5247455368936
 21
178.4493733107568
 31
0.0
  0
LINE
  5
E0B
330
1F
100
AcDbEntity
  8
0
  6
Continuous
 62
     1
370
    25
100
AcDbLine
 10
304.9469155368936
 20
178.5493833107569
 30
0.0
 11
305.9469155368936
 21
178.5493833107569
 31
0.0
  0
LINE
  5
E0F
330
1F
100
AcDbEntity
  8
0
  6
Continuous
 62
     7
370
    35
100
AcDbLine
 10
220.7180935938226
 20
212.5267333107569
 30
0.0
 11
255.7180635938225
 21
212.5267333107569
 31
0.0
  0
LINE
  5
E10
330
1F
100
AcDbEntity
  8
0
  6
CENTER
 62
     3
370
    18
100
AcDbLine
 10
218.2180935938226
 20
192.5267233107568
 30
0.0
 11
258.2180635938225
 21
192.5267233107568
 31
0.0
  0
CIRCLE
  5
E15
330
1F
100
AcDbEntity
  8
0
  6
Continuous
 62
     1
370
    25
100
AcDbCircle
 10
238.2180935938226
 20
192.5267233107568
 30
0.0
 40
5.0
  0
CIRCLE
  5
E16
330
1F
100
AcDbEntity
  8
0
  6
Continuous
 62
     1
370
    25
100
AcDbCircle
 10
238.2180935938226
 20
192.5267233107568
 30
0.0
 40
4.0
  0
ARC
  5
E17
102
{ACAD_REACTORS
330
F1F
102
}
330
1F
100
AcDbEntity
  8
0
  6
Continuous
 62
     7
370
    35
100
AcDbCircle
 10
220.7180935938226
 20
210.0267333107569
 30
0.0
 40
2.5
100
AcDbArc
 50
89.99998199999998
 51
179.99996
  0
CIRCLE
  5
E18
330
1F
100
AcDbEntity
  8
0
  6
Continuous
 62
     1
370
    25
100
AcDbCircle
 10
221.9546635938225
 20
208.7901733107568
 30
0.0
 40
2.25
  0
ARC
  5
E19
330
1F
100
AcDbEntity
  8
0
  6
CENTER
 62
     3
370
    18
100
AcDbCircle
 10
238.2180935938226
 20
192.5267233107568
 30
0.0
 40
23.0
100
AcDbArc
 50
126.73596
 51
143.7793799999999
  0
LINE
  5
E1A
102
{ACAD_REACTORS
330
1130
102
}
330
1F
100
AcDbEntity
  8
0
  6
CENTER
 62
     3
370
    18
100
AcDbLine
 10
219.6541835938226
 20
211.0905933107569
 30
0.0
 11
224.4038535938225
 21
206.3408933107568
 31
0.0
  0
ARC
  5
E1B
330
1F
100
AcDbEntity
  8
0
  6
Continuous
 62
     7
370
    35
100
AcDbCircle
 10
255.7180635938225
 20
210.0267333107569
 30
0.0
 40
2.5
100
AcDbArc
 50
0.0
 51
89.99998199999998
  0
ARC
  5
E1C
330
1F
100
AcDbEntity
  8
Innenkanten
  6
Continuous
 62
     1
370
    25
100
AcDbCircle
 10
501.9475255368936
 20
192.5268933107568
 30
0.0
 40
198.00061
100
AcDbArc
 50
177.0763199999999
 51
182.1608899999999
  0
ARC
  5
E1D
330
1F
100
AcDbEntity
  8
0
  6
Continuous
 62
     7
370
    35
100
AcDbCircle
 10
501.7285855368936
 20
192.5374733107569
 30
0.0
 40
199.78169
100
AcDbArc
 50
174.3876699999999
 51
182.3476799999998
  0
ARC
  5
E1E
330
1F
100
AcDbEntity
  8
0
  6
Continuous
 62
     1
370
    25
100
AcDbCircle
 10
305.0346055368936
 20
186.6493733107569
 30
0.0
 40
1.0
100
AcDbArc
 50
181.70984
 51
270.0000199999999
  0
LINE
  5
E1F
330
1F
100
AcDbEntity
  8
0
  6
Continuous
 62
     1
370
    25
100
AcDbLine
 10
301.4006955368936
 20
182.0493833107569
 30
0.0
 11
306.3114155368936
 21
182.0493833107569
 31
0.0
  0
LINE
  5
E20
330
1F
100
AcDbEntity
  8
0
  6
Continuous
 62
     1
370
    25
100
AcDbLine
 10
302.9469255368936
 20
184.7993833107569
 30
0.0
 11
303.9469155368936
 21
184.7993833107569
 31
0.0
  0
ARC
  5
E21
330
1F
100
AcDbEntity
  8
0
  6
Continuous
 62
     1
370
    25
100
AcDbCircle
 10
302.9469255368936
 20
183.7993833107569
 30
0.0
 40
1.0
100
AcDbArc
 50
89.99998199999998
 51
179.99996
  0
ARC
  5
E22
330
1F
100
AcDbEntity
  8
0
  6
Continuous
 62
     1
370
    25
100
AcDbCircle
 10
304.9469155368936
 20
184.5493833107569
 30
0.0
 40
1.0
100
AcDbArc
 50
89.99998199999998
 51
179.99996
  0
LINE
  5
E23
330
1F
100
AcDbEntity
  8
0
  6
Continuous
 62
     1
370
    25
100
AcDbLine
 10
304.9469155368936
 20
185.5493833107569
 30
0.0
 11
305.9469155368936
 21
185.5493833107569
 31
0.0
  0
LINE
  5
E24
330
1F
100
AcDbEntity
  8
0
  6
Continuous
 62
     1
370
    25
100
AcDbLine
 10
305.9469155368936
 20
185.6493733107569
 30
0.0
 11
305.0346055368936
 21
185.6493733107569
 31
0.0
  0
ARC
  5
E25
330
1F
100
AcDbEntity
  8
Innenkanten
  6
Continuous
 62
     1
370
    25
100
AcDbCircle
 10
304.7039955368936
 20
202.6006133107569
 30
0.0
 40
0.5
100
AcDbArc
 50
89.99998199999998
 51
177.0760999999999
  0
ARC
  5
E26
330
1F
100
AcDbEntity
  8
0
  6
Continuous
 62
     5
100
AcDbCircle
 10
303.4021855368937
 20
212.0267333107569
 30
0.0
 40
0.5
100
AcDbArc
 50
89.99998199999998
 51
174.3869399999999
  0
LINE
  5
E27
330
1F
100
AcDbEntity
  8
0
  6
Continuous
 62
     1
370
    25
100
AcDbLine
 10
331.2469055368936
 20
212.5267333107569
 30
0.0
 11
331.2469055368936
 21
172.5267243107568
 31
0.0
  0
LINE
  5
E28
330
1F
100
AcDbEntity
  8
0
  6
Continuous
 62
     1
370
    25
100
AcDbLine
 10
331.9469155368936
 20
212.5267333107569
 30
0.0
 11
331.9469155368936
 21
172.5267243107568
 31
0.0
  0
LINE
  5
E29
330
1F
100
AcDbEntity
  8
0
  6
Continuous
 62
     1
370
    25
100
AcDbLine
 10
338.4469155368936
 20
212.5267333107569
 30
0.0
 11
338.4469155368936
 21
172.5267243107568
 31
0.0
  0
LINE
  5
E2A
102
{ACAD_REACTORS
330
1265
102
}
330
1F
100
AcDbEntity
  8
0
  6
Continuous
 62
     1
370
    25
100
AcDbLine
 10
391.4516455368936
 20
212.5267333107569
 30
0.0
 11
391.4516455368936
 21
172.5267243107568
 31
0.0
  0
LINE
  5
E2B
330
1F
100
AcDbEntity
  8
0
  6
Continuous
 62
     7
370
    35
100
AcDbLine
 10
396.4516155368936
 20
212.5267333107569
 30
0.0
 11
396.4516455368936
 21
172.5267243107568
 31
0.0
  0
LINE
  5
E2C
102
{ACAD_REACTORS
330
13AD
330
1461
102
}
330
1F
100
AcDbEntity
  8
0
  6
Continuous
 62
     7
370
    35
100
AcDbLine
 10
398.9516455368936
 20
207.5267333107568
 30
0.0
 11
398.9516455368936
 21
177.5267233107568
 31
0.0
  0
LINE
  5
E2D
330
1F
100
AcDbEntity
  8
0
  6
Continuous
 62
     7
370
    35
100
AcDbLine
 10
319.9184755368936
 20
147.8451903107568
 30
0.0
 11
319.9184755368936
 21
127.2310543107569
 31
0.0
  0
LINE
  5
E2E
330
1F
100
AcDbEntity
  8
0
  6
Continuous
 62
     7
370
    35
100
AcDbLine
 10
316.9184755368936
 20
114.2310543107569
 30
0.0
 11
316.9184755368936
 21
120.7310543107569
 31
0.0
  0
LINE
  5
E2F
330
1F
100
AcDbEntity
  8
0
  6
Continuous
 62
     7
370
    35
100
AcDbLine
 10
317.9184755368936
 20
120.7310543107569
 30
0.0
 11
317.9184755368936
 21
127.2310543107569
 31
0.0
  0
ARC
  5
E33
330
1F
100
AcDbEntity
  8
0
  6
Continuous
 62
     7
370
    35
100
AcDbCircle
 10
348.9469155368936
 20
170.1266993107569
 30
0.0
 40
0.5
100
AcDbArc
 50
270.0
 51
0.0
  0
LINE
  5
E34
330
1F
100
AcDbEntity
  8
0
  6
Continuous
 62
     7
370
    35
100
AcDbLine
 10
348.8969055368936
 20
157.8266963107569
 30
0.0
 11
348.8969055368936
 21
166.8266963107569
 31
0.0
  0
LINE
  5
E35
330
1F
100
AcDbEntity
  8
0
  6
Continuous
 62
     7
370
    35
100
AcDbLine
 10
338.9969155368936
 20
157.8266963107569
 30
0.0
 11
338.9969155368936
 21
166.8266963107569
 31
0.0
  0
LINE
  5
E36
102
{ACAD_REACTORS
330
11B2
102
}
330
1F
100
AcDbEntity
  8
0
  6
CENTER
 62
     3
370
    18
100
AcDbLine
 10
343.9469155368936
 20
152.8880753107569
 30
0.0
 11
343.9469155368936
 21
173.0697763107569
 31
0.0
  0
LINE
  5
E37
330
1F
100
AcDbEntity
  8
0
  6
Continuous
 62
     7
370
    35
100
AcDbLine
 10
347.8969055368936
 20
156.8266963107569
 30
0.0
 11
339.9969155368936
 21
156.8266963107569
 31
0.0
  0
LINE
  5
E38
330
1F
100
AcDbEntity
  8
0
  6
Continuous
 62
     1
370
    25
100
AcDbLine
 10
348.8969055368936
 20
157.8266963107569
 30
0.0
 11
338.9969155368936
 21
157.8266963107569
 31
0.0
  0
ARC
  5
E39
330
1F
100
AcDbEntity
  8
0
  6
Continuous
 62
     7
370
    35
100
AcDbCircle
 10
339.9969155368936
 20
157.8266963107569
 30
0.0
 40
1.0
100
AcDbArc
 50
179.9999899999999
 51
270.0
  0
LINE
  5
E3A
330
1F
100
AcDbEntity
  8
0
  6
Continuous
 62
     7
370
    35
100
AcDbLine
 10
343.0966655368936
 20
156.8266963107569
 30
0.0
 11
343.0966655368936
 21
151.1894433107569
 31
0.0
  0
LINE
  5
E3B
330
1F
100
AcDbEntity
  8
0
  6
Continuous
 62
     7
370
    35
100
AcDbLine
 10
344.7971655368936
 20
151.1894283107569
 30
0.0
 11
344.7971655368936
 21
156.8266963107569
 31
0.0
  0
ARC
  5
E3C
330
1F
100
AcDbEntity
  8
0
  6
Continuous
 62
     7
370
    35
100
AcDbCircle
 10
343.5221955368936
 20
151.9255583107569
 30
0.0
 40
0.8500000199999998
100
AcDbArc
 50
239.99866
 51
299.9990299999999
  0
ARC
  5
E3D
330
1F
100
AcDbEntity
  8
0
  6
Continuous
 62
     7
370
    35
100
AcDbCircle
 10
344.3721755368936
 20
150.4532983107569
 30
0.0
 40
0.8500000199999998
100
AcDbArc
 50
60.000985
 51
119.9990299999999
  0
ARC
  5
E3E
330
1F
100
AcDbEntity
  8
0
  6
Continuous
 62
     7
370
    35
100
AcDbCircle
 10
344.3721755368936
 20
151.9255583107569
 30
0.0
 40
0.8500000199999998
100
AcDbArc
 50
240.00095
 51
299.9990299999999
  0
ARC
  5
E3F
330
1F
100
AcDbEntity
  8
0
  6
Continuous
 62
     7
370
    35
100
AcDbCircle
 10
347.8969055368936
 20
157.8266963107569
 30
0.0
 40
1.0
100
AcDbArc
 50
270.0
 51
0.0
  0
LINE
  5
E40
330
1F
100
AcDbEntity
  8
0
  6
Continuous
 62
     7
370
    35
100
AcDbLine
 10
317.5635955368936
 20
170.6737733107568
 30
0.0
 11
316.1151755368936
 21
165.2681563107569
 31
0.0
  0
ARC
  5
E41
330
1F
100
AcDbEntity
  8
0
  6
Continuous
 62
     7
370
    35
100
AcDbCircle
 10
319.9786055368936
 20
170.0264723107569
 30
0.0
 40
2.500252
100
AcDbArc
 50
90.00454499999989
 51
164.9955499999999
  0
LINE
  5
E42
330
1F
100
AcDbEntity
  8
0
  6
Continuous
 62
     7
370
    35
100
AcDbLine
 10
338.4469155368936
 20
170.1266993107569
 30
0.0
 11
338.4469155368936
 21
172.5267243107568
 31
0.0
  0
LINE
  5
E43
330
1F
100
AcDbEntity
  8
0
  6
Continuous
 62
     7
370
    35
100
AcDbLine
 10
348.8969055368936
 20
166.8266963107569
 30
0.0
 11
338.9969155368936
 21
166.8266963107569
 31
0.0
  0
LINE
  5
E44
330
1F
100
AcDbEntity
  8
0
  6
Continuous
 62
     7
370
    35
100
AcDbLine
 10
348.9469155368936
 20
169.6266993107569
 30
0.0
 11
338.9469155368936
 21
169.6266993107569
 31
0.0
  0
ARC
  5
E45
330
1F
100
AcDbEntity
  8
0
  6
Continuous
 62
     7
370
    35
100
AcDbCircle
 10
338.9469155368936
 20
170.1266993107569
 30
0.0
 40
0.5
100
AcDbArc
 50
179.9999899999999
 51
270.0
  0
LINE
  5
E46
330
1F
100
AcDbEntity
  8
0
  6
Continuous
 62
     7
370
    35
100
AcDbLine
 10
340.0469155368936
 20
166.8266963107569
 30
0.0
 11
340.0469155368936
 21
169.6266993107569
 31
0.0
  0
LINE
  5
E47
330
1F
100
AcDbEntity
  8
0
  6
Continuous
 62
     7
370
    35
100
AcDbLine
 10
347.8469055368937
 20
166.8266963107569
 30
0.0
 11
347.8469055368937
 21
169.6266993107569
 31
0.0
  0
LINE
  5
E48
330
1F
100
AcDbEntity
  8
0
  6
Continuous
 62
     7
370
    35
100
AcDbLine
 10
349.4469155368936
 20
170.1266993107569
 30
0.0
 11
349.4469155368936
 21
172.5267243107568
 31
0.0
  0
LINE
  5
E49
330
1F
100
AcDbEntity
  8
0
  6
Continuous
 62
     7
370
    35
100
AcDbLine
 10
396.4516455368936
 20
177.5267233107568
 30
0.0
 11
398.9516455368936
 21
177.5267233107568
 31
0.0
  0
LINE
  5
E4D
102
{ACAD_REACTORS
330
141E
102
}
330
1F
100
AcDbEntity
  8
0
  6
Continuous
 62
     7
370
    35
100
AcDbLine
 10
421.4516455368936
 20
188.5267233107569
 30
0.0
 11
398.9516455368936
 21
188.5267233107569
 31
0.0
  0
LINE
  5
E4E
102
{ACAD_REACTORS
330
135C
102
}
330
1F
100
AcDbEntity
  8
0
  6
Continuous
 62
     7
370
    35
100
AcDbLine
 10
398.9516455368936
 20
196.5267233107568
 30
0.0
 11
421.4516455368936
 21
196.5267233107568
 31
0.0
  0
LINE
  5
E4F
330
1F
100
AcDbEntity
  8
0
  6
Continuous
100
AcDbLine
 10
319.3331735938226
 20
212.5267333107569
 30
0.0
 11
319.3331735938226
 21
212.5267333107569
 31
0.0
  0
LINE
  5
E50
330
1F
100
AcDbEntity
  8
0
  6
Continuous
100
AcDbLine
 10
319.3331735938226
 20
212.5267333107569
 30
0.0
 11
319.3331735938226
 21
212.5267333107569
 31
0.0
  0
LINE
  5
E51
330
1F
100
AcDbEntity
  8
0
  6
Continuous
 62
     7
370
    35
100
AcDbLine
 10
398.9516455368936
 20
207.5267333107568
 30
0.0
 11
396.4516455368936
 21
207.5267333107568
 31
0.0
  0
LINE
  5
E52
330
1F
100
AcDbEntity
  8
0
  6
Continuous
 62
     7
370
    35
100
AcDbLine
 10
421.4516455368936
 20
196.5267233107568
 30
0.0
 11
421.4516455368936
 21
188.5267233107569
 31
0.0
  0
DIMENSION
  5
EE7
102
{ACAD_XDICTIONARY
360
EF4
102
}
102
{ACAD_REACTORS
330
EFE
102
}
330
1F
100
AcDbEntity
  8
Bemaßung
100
AcDbDimension
  2
*D2
 10
258.2180635938225
 20
220.60024466599
 30
0.0
 11
238.2180785938226
 21
222.4752446659901
 31
0.0
 70
    32
 71
     5
 42
39.99996999999996
  3
ISO-25
100
AcDbAlignedDimension
 13
218.2180935938226
 23
210.0267333107569
 33
0.0
 14
258.2180635938225
 24
210.0267333107569
 34
0.0
100
AcDbRotatedDimension
  0
DIMENSION
  5
F08
102
{ACAD_XDICTIONARY
360
F15
102
}
102
{ACAD_REACTORS
330
F1F
102
}
330
1F
100
AcDbEntity
  8
Bemaßung
100
AcDbDimension
  2
*D3
 10
208.476045965725
 20
172.5267243107568
 30
0.0
 11
206.6010459657249
 21
192.5267288107568
 31
0.0
 70
    32
 71
     5
 42
40.00000899999989
  3
ISO-25
100
AcDbAlignedDimension
 13
220.7180943792208
 23
212.5267333107567
 33
0.0
 14
220.7180935414627
 24
172.5267243107568
 34
0.0
 50
90.0
100
AcDbRotatedDimension
  0
DIMENSION
  5
FBA
330
1F
100
AcDbEntity
  8
Bemaßung
100
AcDbDimension
  2
*D4
 10
219.6628962948211
 20
206.1173323182711
 30
0.0
 11
247.0487366594838
 21
186.058787925517
 31
0.0
 70
   163
 71
     5
 42
45.99999999999996
  3
ISO-25
100
AcDbDiametricDimension
 15
256.7732908928241
 25
178.9361143032426
 35
0.0
 40
0.0
1001
ACAD
1000
DSTYLE
1002
{
1070
   344
1005
0
1070
   173
1070
     1
1070
   343
1005
0
1070
   288
1070
     1
1002
}
  0
DIMENSION
  5
FF5
102
{ACAD_XDICTIONARY
360
1002
102
}
102
{ACAD_REACTORS
330
100C
102
}
330
1F
100
AcDbEntity
  8
Bemaßung
100
AcDbDimension
  2
*D5
 10
248.8180935938226
 20
139.6527393879798
 30
0.0
 11
238.8180935938226
 21
141.5277393879797
 31
0.0
 70
    32
 71
     5
 42
20.0
  3
ISO-25
100
AcDbAlignedDimension
 13
228.8180935938226
 23
157.5267273107568
 33
0.0
 14
248.8180935938226
 24
157.5267273107568
 34
0.0
100
AcDbRotatedDimension
  0
DIMENSION
  5
1086
102
{ACAD_XDICTIONARY
360
1093
102
}
102
{ACAD_REACTORS
330
109D
102
}
330
1F
100
AcDbEntity
  8
Bemaßung
100
AcDbDimension
  2
*D6
 10
269.5340250047091
 20
156.5267273107568
 30
0.0
 11
267.6590250047091
 21
174.5267280607569
 31
0.0
 70
    32
 71
     5
 42
36.00000149999999
  3
ISO-25
100
AcDbAlignedDimension
 13
258.2180635938225
 23
192.5267288107568
 33
0.0
 14
247.8180935938226
 24
156.5267273107568
 34
0.0
 50
90.0
100
AcDbRotatedDimension
1001
ACAD
1000
DSTYLE
1002
{
1070
   271
1070
     2
1070
   277
1070
     2
1070
   279
1070
     0
1070
    74
1070
     0
1070
   340
1005
11
1002
}
  0
DIMENSION
  5
1119
102
{ACAD_XDICTIONARY
360
1126
102
}
102
{ACAD_REACTORS
330
1130
102
}
330
1F
100
AcDbEntity
  8
Bemaßung
100
AcDbDimension
  2
*D7
 10
224.4038535938225
 20
206.3408933107568
 30
0.0
 11
228.1814234321379
 21
216.757339502495
 31
0.0
 70
    34
 71
     5
 42
0.7853950052932735
  3
ISO-25
100
AcDb2LineAngularDimension
 13
238.2180935938226
 23
217.7247345689725
 33
0.0
 14
238.2180935938226
 24
146.6081603107569
 34
0.0
 15
219.6541835938226
 25
211.0905933107569
 35
0.0
 16
231.9153095978124
 26
216.0489752073686
 36
0.0
  0
LEADER
  5
118C
330
1F
100
AcDbEntity
  8
Bemaßung
100
AcDbLeader
  3
ISO-25
 40
3.333333333333333
 41
11.25
 76
     3
 10
220.0842473914548
 20
210.0407904503804
 30
0.0
 10
213.3649535304742
 20
217.8043810691852
 30
0.0
 10
193.6551528285361
 20
217.8265735583153
 30
0.0
213
0.0
223
1.25
233
0.0
1001
ACAD
1000
DSTYLE
1002
{
1070
   147
1040
0.625
1070
    77
1070
     0
1002
}
  0
MTEXT
  5
1192
330
1F
100
AcDbEntity
  8
Bemaßung
100
AcDbMText
 10
194.9523090346677
 20
221.0239639311666
 30
0.0
 40
2.5
 41
20.27039229650449
 71
     1
 72
     5
  1
2 - ø4.5
 73
     1
 44
1.0
  0
DIMENSION
  5
119B
102
{ACAD_XDICTIONARY
360
11A8
102
}
102
{ACAD_REACTORS
330
11B2
102
}
330
1F
100
AcDbEntity
  8
Bemaßung
100
AcDbDimension
  2
*D8
 10
396.4516455368936
 20
146.7965691721643
 30
0.0
 11
370.1992805368936
 21
148.8799025054977
 31
0.0
 70
    32
 71
     5
 42
52.50472999999999
  3
ISO-25
100
AcDbAlignedDimension
 13
343.9469155368936
 23
152.8880753107569
 33
0.0
 14
396.4516455368936
 24
172.5267243107568
 34
0.0
100
AcDbRotatedDimension
  0
DIMENSION
  5
124A
102
{ACAD_XDICTIONARY
360
1259
102
}
102
{ACAD_REACTORS
330
1265
102
}
330
1F
100
AcDbEntity
  8
Bemaßung
100
AcDbDimension
  2
*D9
 10
396.4516155368936
 20
218.1009718871891
 30
0.0
 11
393.9516305368936
 21
219.9759718871892
 31
0.0
 70
    32
 71
     5
 42
4.999970000000018
  3
ISO-25
100
AcDbAlignedDimension
 13
391.4516455368936
 23
212.5267333107569
 33
0.0
 14
396.4516155368936
 24
212.5267333107569
 34
0.0
100
AcDbRotatedDimension
  0
DIMENSION
  5
12E0
330
1F
100
AcDbEntity
  8
Bemaßung
100
AcDbDimension
  2
*D10
 10
301.9468958266539
 20
225.8218033220965
 30
0.0
 11
348.9790610541721
 21
225.8218033220965
 31
0.0
 70
   160
 71
     5
 42
94.50471971023967
  3
ISO-25
100
AcDbAlignedDimension
 13
396.4516155368936
 23
213.1517333107569
 33
0.0
 14
301.9468958266539
 24
192.5267133107569
 34
0.0
100
AcDbRotatedDimension
  0
DIMENSION
  5
1345
102
{ACAD_XDICTIONARY
360
1352
102
}
102
{ACAD_REACTORS
330
135C
102
}
330
1F
100
AcDbEntity
  8
Bemaßung
100
AcDbDimension
  2
*D11
 10
421.4516455368936
 20
225.8218033220965
 30
0.0
 11
408.9516305368936
 21
227.6968033220965
 31
0.0
 70
    32
 71
     5
 42
25.00002999999998
  3
ISO-25
100
AcDbAlignedDimension
 13
396.4516155368936
 23
227.0718033220965
 33
0.0
 14
421.4516455368936
 24
196.5267233107568
 34
0.0
100
AcDbRotatedDimension
1001
ACAD
1000
DSTYLE
1002
{
1070
   279
1070
     1
1002
}
  0
DIMENSION
  5
138C
102
{ACAD_XDICTIONARY
360
139E
102
}
102
{ACAD_REACTORS
330
13AD
102
}
330
1F
100
AcDbEntity
  8
Bemaßung
100
AcDbDimension
  2
*D12
 10
398.9516455368936
 20
146.7965691721643
 30
0.0
 11
400.2953955368936
 21
142.3174025054977
 31
0.0
 70
    32
 71
     5
 42
2.5
  3
ISO-25
100
AcDbAlignedDimension
 13
396.4516455368936
 23
172.5267243107568
 33
0.0
 14
398.9516455368936
 24
177.5267233107568
 34
0.0
100
AcDbRotatedDimension
1001
ACAD
1000
DSTYLE
1002
{
1070
   279
1070
     1
1002
}
  0
DIMENSION
  5
1407
102
{ACAD_XDICTIONARY
360
1414
102
}
102
{ACAD_REACTORS
330
141E
102
}
330
1F
100
AcDbEntity
  8
Bemaßung
100
AcDbDimension
  2
*D13
 10
432.3782408906331
 20
188.5267233107569
 30
0.0
 11
432.378240890633
 21
192.6683754133188
 31
0.0
 70
   160
 71
     5
 42
8.0
  3
ISO-25
100
AcDbAlignedDimension
 13
421.4516455368936
 23
196.5267233107568
 33
0.0
 14
421.4516455368936
 24
188.5267233107569
 34
0.0
 50
90.0
100
AcDbRotatedDimension
  0
DIMENSION
  5
144A
102
{ACAD_XDICTIONARY
360
1457
102
}
102
{ACAD_REACTORS
330
1461
102
}
330
1F
100
AcDbEntity
  8
Bemaßung
100
AcDbDimension
  2
*D14
 10
440.5933720257183
 20
177.5267233107568
 30
0.0
 11
438.7183720257183
 21
192.5267283107569
 31
0.0
 70
    32
 71
     5
 42
30.00001
  3
ISO-25
100
AcDbAlignedDimension
 13
398.9516455368936
 23
207.5267333107568
 33
0.0
 14
398.9516455368936
 24
177.5267233107568
 34
0.0
 50
90.0
100
AcDbRotatedDimension
  0
LINE
  5
14B5
330
1F
100
AcDbEntity
  8
Innenkanten
100
AcDbLine
 10
225.6823792601165
 20
80.24470335012637
 30
0.0
 11
225.6823792601165
 21
-7.804696910962793
 31
0.0
  0
LINE
  5
14BC
330
1F
100
AcDbEntity
  8
0
100
AcDbLine
 10
225.6823792601165
 20
80.24470335012637
 30
0.0
 11
258.2180635938225
 21
80.24470335012637
 31
0.0
  0
VIEWPORT
  5
FF1
330
FEA
100
AcDbEntity
 67
     1
  8
0
100
AcDbViewport
 10
144.7270812988281
 20
101.2295806407928
 30
0.0
 40
377.5505027244501
 41
222.1599421176024
 68
     1
 69
     1
 12
144.7270812988281
 22
101.2295806407928
 13
0.0
 23
0.0
 14
10.0
 24
10.0
 15
10.0
 25
10.0
 16
0.0
 26
0.0
 36
1.0
 17
0.0
 27
0.0
 37
0.0
 42
50.0
 43
0.0
 44
0.0
 45
222.1599421176024
 50
0.0
 51
0.0
 72
   100
 90
    32800
  1

281
     0
 71
     1
 74
     0
110
0.0
120
0.0
130
0.0
111
1.0
121
0.0
131
0.0
112
0.0
122
1.0
132
0.0
 79
     0
146
0.0
  0
VIEWPORT
  5
FF3
330
FEA
100
AcDbEntity
 67
     1
  8
0
100
AcDbViewport
 10
144.7270812988279
 20
101.5933663914631
 30
0.0
 40
296.2546461044554
 41
209.0554971327303
 68
     2
 69
     2
 12
203.1282534378307
 22
126.0400189425975
 13
0.0
 23
0.0
 14
10.0
 24
10.0
 15
10.0
 25
10.0
 16
0.0
 26
0.0
 36
1.0
 17
0.0
 27
0.0
 37
0.0
 42
50.0
 43
0.0
 44
0.0
 45
382.825506506762
 50
0.0
 51
0.0
 72
   100
 90
    32864
  1

281
     0
 71
     1
 74
     0
110
-53.08748352590964
120
3.820899076262548
130
0.0
111
1.0
121
0.0
131
0.0
112
0.0
122
1.0
132
0.0
 79
     0
146
0.0
  0
ENDSEC
  0
SECTION
  2
OBJECTS
  0
DICTIONARY
  5
C
330
0
100
AcDbDictionary
281
     1
  3
ACAD_GROUP
350
D
  3
ACAD_LAYOUT
350
1A
  3
ACAD_MLINESTYLE
350
17
  3
ACAD_PLOTSETTINGS
350
19
  3
ACAD_PLOTSTYLENAME
350
E
  3
AcadDim
350
118B
  3
AcDbVariableDictionary
350
50
  3
DWGPROPS
350
A6A
  0
DICTIONARY
  5
CA2
330
CA1
100
AcDbDictionary
280
     1
281
     1
  3
ACAD_DIMASSOC
360
CA3
  0
DICTIONARY
  5
CAF
330
CAE
100
AcDbDictionary
280
     1
281
     1
  3
ACAD_DIMASSOC
360
CB0
  0
DICTIONARY
  5
EF4
330
EE7
100
AcDbDictionary
280
     1
281
     1
  3
ACAD_DIMASSOC
360
EFE
  0
DICTIONARY
  5
F15
330
F08
100
AcDbDictionary
280
     1
281
     1
  3
ACAD_DIMASSOC
360
F1F
  0
DICTIONARY
  5
1002
330
FF5
100
AcDbDictionary
280
     1
281
     1
  3
ACAD_DIMASSOC
360
100C
  0
DICTIONARY
  5
1093
330
1086
100
AcDbDictionary
280
     1
281
     1
  3
ACAD_DIMASSOC
360
109D
  0
DICTIONARY
  5
1126
330
1119
100
AcDbDictionary
280
     1
281
     1
  3
ACAD_DIMASSOC
360
1130
  0
DICTIONARY
  5
11A8
330
119B
100
AcDbDictionary
280
     1
281
     1
  3
ACAD_DIMASSOC
360
11B2
  0
DICTIONARY
  5
1259
330
124A
100
AcDbDictionary
280
     1
281
     1
  3
ACAD_DIMASSOC
360
1265
  0
DICTIONARY
  5
1352
330
1345
100
AcDbDictionary
280
     1
281
     1
  3
ACAD_DIMASSOC
360
135C
  0
DICTIONARY
  5
139E
330
138C
100
AcDbDictionary
280
     1
281
     1
  3
ACAD_DIMASSOC
360
13AD
  0
DICTIONARY
  5
1414
330
1407
100
AcDbDictionary
280
     1
281
     1
  3
ACAD_DIMASSOC
360
141E
  0
DICTIONARY
  5
1457
330
144A
100
AcDbDictionary
280
     1
281
     1
  3
ACAD_DIMASSOC
360
1461
  0
DICTIONARY
  5
D
102
{ACAD_REACTORS
330
C
102
}
330
C
100
AcDbDictionary
281
     1
  3
*A1
350
2A6
  3
*A10
350
85A
  3
*A11
350
869
  3
*A12
350
8E4
  3
*A13
350
885
  3
*A14
350
886
  3
*A15
350
8D4
  3
*A16
350
8E3
  3
*A17
350
8ED
  3
*A18
350
8F6
  3
*A19
350
905
  3
*A2
350
93F
  3
*A20
350
90F
  3
*A21
350
91E
  3
*A22
350
92D
  3
*A23
350
936
  3
*A3
350
94E
  3
*A4
350
3BE
  3
*A5
350
331
  3
*A6
350
369
  3
*A7
350
A72
  3
*A8
350
10FD
  3
*A9
350
413
  0
DICTIONARY
  5
1A
102
{ACAD_REACTORS
330
C
102
}
330
C
100
AcDbDictionary
281
     1
  3
Layout1
350
FEB
  3
Model
350
22
  0
DICTIONARY
  5
17
102
{ACAD_REACTORS
330
C
102
}
330
C
100
AcDbDictionary
281
     1
  3
Standard
350
18
  0
DICTIONARY
  5
19
102
{ACAD_REACTORS
330
C
102
}
330
C
100
AcDbDictionary
281
     1
  0
ACDBDICTIONARYWDFLT
  5
E
102
{ACAD_REACTORS
330
C
102
}
330
C
100
AcDbDictionary
281
     1
  3
Normal
350
F
100
AcDbDictionaryWithDefault
340
F
  0
XRECORD
  5
118B
102
{ACAD_REACTORS
330
C
102
}
330
C
100
AcDbXrecord
280
     1
 90
   990106
  3

 60
     0
 61
     0
 62
     1
 63
     3
 64
     0
 65
     0
 66
     0
 67
     3
 68
     1
 69
     0
 70
     0
 71
     0
 72
     0
 40
2.0
170
     0
340
0
  0
DICTIONARY
  5
50
102
{ACAD_REACTORS
330
C
102
}
330
C
100
AcDbDictionary
281
     1
  3
DIMASSOC
350
52
  3
HIDETEXT
350
51
  0
XRECORD
  5
A6A
102
{ACAD_REACTORS
330
C
102
}
330
C
100
AcDbXrecord
280
     1
  1
DWGPROPS COOKIE
  2

  3

  4

  6

  7

  8

  9

300
=
301
=
302
=
303
=
304
=
305
=
306
=
307
=
308
=
309
=
 40
0.587026388888889
 41
2452181.498615972
 42
2452184.61255463
  1

 90
        0
  0
DIMASSOC
  5
CA3
102
{ACAD_REACTORS
330
CA2
102
}
330
CA2
100
AcDbDimAssoc
330
CA1
 90
        1
 70
     0
 71
     0
  1
AcDbOsnapPointRef
 72
     5
331
CCA
 73
     2
 91
        0
 40
4.712388980384689
 10
-0.7930737420334984
 20
164.182737985582
 30
0.0
 75
     0
  0
DIMASSOC
  5
CB0
102
{ACAD_REACTORS
330
CAF
102
}
330
CAF
100
AcDbDimAssoc
330
CAE
 90
        3
 70
     0
 71
     0
  1
AcDbOsnapPointRef
 72
     8
331
CCD
 73
     2
 91
        0
 40
3.195404685660849
 10
-13.34061872468641
 20
165.0787508076211
 30
0.0
 75
     1
  1
AcDbOsnapPointRef
 72
     0
 40
0.0
 10
236.6474602699514
 20
211.2847823580328
 30
0.0
 75
     0
  1
AcDbOsnapPointRef
 72
    11
331
CE1
 73
     2
 91
        0
 40
0.0000000000045556
 10
11.77037625092324
 20
165.1703149097687
 30
0.0
332
CE2
 74
     2
 92
        0
 75
     0
  0
DIMASSOC
  5
EFE
102
{ACAD_REACTORS
330
EF4
102
}
330
EF4
100
AcDbDimAssoc
330
EE7
 90
        3
 70
     0
 71
     0
  1
AcDbOsnapPointRef
 72
    13
331
D98
 73
     2
 91
        0
 40
0.0
 10
218.2180935938226
 20
210.0267333107569
 30
0.0
 75
     0
  1
AcDbOsnapPointRef
 72
     1
331
D97
 73
     2
 91
        0
 40
1.0
 10
258.2180635938225
 20
210.0267333107569
 30
0.0
 75
     0
  0
DIMASSOC
  5
F1F
102
{ACAD_REACTORS
330
F15
102
}
330
F15
100
AcDbDimAssoc
330
F08
 90
        3
 70
     0
 71
     0
  1
AcDbOsnapPointRef
 72
    13
331
E17
 73
     2
 91
        0
 40
1.570796012635621
 10
220.7180943792208
 20
212.5267333107567
 30
0.0
 75
     0
  1
AcDbOsnapPointRef
 72
     8
331
DE1
 73
     2
 91
        0
 40
4.712388959440731
 10
220.7180935414627
 20
172.5267243107568
 30
0.0
 75
     1
  1
AcDbOsnapPointRef
 72
    13
331
E17
 73
     2
 91
        0
 40
1.570796012635621
 10
220.7180943792208
 20
212.5267333107567
 30
0.0
 75
     0
  0
DIMASSOC
  5
100C
102
{ACAD_REACTORS
330
1002
102
}
330
1002
100
AcDbDimAssoc
330
FF5
 90
        3
 70
     0
 71
     0
  1
AcDbOsnapPointRef
 72
     1
331
DBD
 73
     2
 91
        0
 40
1.0
 10
228.8180935938226
 20
157.5267273107568
 30
0.0
 75
     0
  1
AcDbOsnapPointRef
 72
    13
331
DBD
 73
     2
 91
        0
 40
0.0
 10
248.8180935938226
 20
157.5267273107568
 30
0.0
 75
     0
  0
DIMASSOC
  5
109D
102
{ACAD_REACTORS
330
1093
102
}
330
1093
100
AcDbDimAssoc
330
1086
 90
        3
 70
     0
 71
     0
  1
AcDbOsnapPointRef
 72
     2
331
D97
 73
     2
 91
        0
 40
0.4999999999999997
 10
258.2180635938225
 20
192.5267288107568
 30
0.0
 75
     0
  1
AcDbOsnapPointRef
 72
    13
331
DBE
 73
     2
 91
        0
 40
0.0
 10
247.8180935938226
 20
156.5267273107568
 30
0.0
 75
     0
  0
DIMASSOC
  5
1130
102
{ACAD_REACTORS
330
1126
102
}
330
1126
100
AcDbDimAssoc
330
1119
 90
       15
 70
     0
 71
     0
  1
AcDbOsnapPointRef
 72
    13
331
D99
 73
     2
 91
        0
 40
0.0
 10
238.2180935938226
 20
217.7247345689725
 30
0.0
 75
     0
  1
AcDbOsnapPointRef
 72
     1
331
D99
 73
     2
 91
        0
 40
1.0
 10
238.2180935938226
 20
146.6081603107569
 30
0.0
 75
     0
  1
AcDbOsnapPointRef
 72
    13
331
E1A
 73
     2
 91
        0
 40
0.0
 10
219.6541835938226
 20
211.0905933107569
 30
0.0
 75
     0
  1
AcDbOsnapPointRef
 72
     1
331
E1A
 73
     2
 91
        0
 40
1.0
 10
224.4038535938225
 20
206.3408933107568
 30
0.0
 75
     0
  0
DIMASSOC
  5
11B2
102
{ACAD_REACTORS
330
11A8
102
}
330
11A8
100
AcDbDimAssoc
330
119B
 90
        3
 70
     0
 71
     0
  1
AcDbOsnapPointRef
 72
    13
331
E36
 73
     2
 91
        0
 40
0.0
 10
343.9469155368936
 20
152.8880753107569
 30
0.0
 75
     0
  1
AcDbOsnapPointRef
 72
     1
331
D89
 73
     2
 91
        0
 40
1.0
 10
396.4516455368936
 20
172.5267243107568
 30
0.0
 75
     0
  0
DIMASSOC
  5
1265
102
{ACAD_REACTORS
330
1259
102
}
330
1259
100
AcDbDimAssoc
330
124A
 90
        3
 70
     0
 71
     0
  1
AcDbOsnapPointRef
 72
    13
331
E2A
 73
     2
 91
        0
 40
0.0
 10
391.4516455368936
 20
212.5267333107569
 30
0.0
 75
     0
  1
AcDbOsnapPointRef
 72
     1
331
D88
 73
     2
 91
        0
 40
1.0
 10
396.4516155368936
 20
212.5267333107569
 30
0.0
 75
     0
  0
DIMASSOC
  5
135C
102
{ACAD_REACTORS
330
1352
102
}
330
1352
100
AcDbDimAssoc
330
1345
 90
        2
 70
     0
 71
     0
  1
AcDbOsnapPointRef
 72
     1
331
E4E
 73
     2
 91
        0
 40
1.0
 10
421.4516455368936
 20
196.5267233107568
 30
0.0
 75
     0
  0
DIMASSOC
  5
13AD
102
{ACAD_REACTORS
330
139E
102
}
330
139E
100
AcDbDimAssoc
330
138C
 90
        3
 70
     0
 71
     0
  1
AcDbOsnapPointRef
 72
     1
331
D89
 73
     2
 91
        0
 40
1.0
 10
396.4516455368936
 20
172.5267243107568
 30
0.0
 75
     0
  1
AcDbOsnapPointRef
 72
     1
331
E2C
 73
     2
 91
        0
 40
1.0
 10
398.9516455368936
 20
177.5267233107568
 30
0.0
 75
     0
  0
DIMASSOC
  5
141E
102
{ACAD_REACTORS
330
1414
102
}
330
1414
100
AcDbDimAssoc
330
1407
 90
        2
 70
     0
 71
     0
  1
AcDbOsnapPointRef
 72
    13
331
E4D
 73
     2
 91
        0
 40
0.0
 10
421.4516455368936
 20
188.5267233107569
 30
0.0
 75
     0
  0
DIMASSOC
  5
1461
102
{ACAD_REACTORS
330
1457
102
}
330
1457
100
AcDbDimAssoc
330
144A
 90
        1
 70
     0
 71
     0
  1
AcDbOsnapPointRef
 72
    13
331
E2C
 73
     2
 91
        0
 40
0.0
 10
398.9516455368936
 20
207.5267333107568
 30
0.0
 75
     0
  0
GROUP
  5
2A6
102
{ACAD_REACTORS
330
D
102
}
330
D
100
AcDbGroup
300

 70
     1
 71
     1
  0
GROUP
  5
85A
102
{ACAD_REACTORS
330
D
102
}
330
D
100
AcDbGroup
300

 70
     1
 71
     1
  0
GROUP
  5
869
102
{ACAD_REACTORS
330
D
102
}
330
D
100
AcDbGroup
300

 70
     1
 71
     1
  0
GROUP
  5
8E4
102
{ACAD_REACTORS
330
D
102
}
330
D
100
AcDbGroup
300

 70
     1
 71
     1
  0
GROUP
  5
885
102
{ACAD_REACTORS
330
D
102
}
330
D
100
AcDbGroup
300

 70
     1
 71
     1
  0
GROUP
  5
886
102
{ACAD_REACTORS
330
D
102
}
330
D
100
AcDbGroup
300

 70
     1
 71
     1
  0
GROUP
  5
8D4
102
{ACAD_REACTORS
330
D
102
}
330
D
100
AcDbGroup
300

 70
     1
 71
     1
  0
GROUP
  5
8E3
102
{ACAD_REACTORS
330
D
102
}
330
D
100
AcDbGroup
300

 70
     1
 71
     1
  0
GROUP
  5
8ED
102
{ACAD_REACTORS
330
D
102
}
330
D
100
AcDbGroup
300

 70
     1
 71
     1
  0
GROUP
  5
8F6
102
{ACAD_REACTORS
330
D
102
}
330
D
100
AcDbGroup
300

 70
     1
 71
     1
  0
GROUP
  5
905
102
{ACAD_REACTORS
330
D
102
}
330
D
100
AcDbGroup
300

 70
     1
 71
     1
  0
GROUP
  5
93F
102
{ACAD_REACTORS
330
D
102
}
330
D
100
AcDbGroup
300

 70
     1
 71
     1
  0
GROUP
  5
90F
102
{ACAD_REACTORS
330
D
102
}
330
D
100
AcDbGroup
300

 70
     1
 71
     1
  0
GROUP
  5
91E
102
{ACAD_REACTORS
330
D
102
}
330
D
100
AcDbGroup
300

 70
     1
 71
     1
  0
GROUP
  5
92D
102
{ACAD_REACTORS
330
D
102
}
330
D
100
AcDbGroup
300

 70
     1
 71
     1
  0
GROUP
  5
936
102
{ACAD_REACTORS
330
D
102
}
330
D
100
AcDbGroup
300

 70
     1
 71
     1
  0
GROUP
  5
94E
102
{ACAD_REACTORS
330
D
102
}
330
D
100
AcDbGroup
300

 70
     1
 71
     1
  0
GROUP
  5
3BE
102
{ACAD_REACTORS
330
D
102
}
330
D
100
AcDbGroup
300

 70
     1
 71
     1
  0
GROUP
  5
331
102
{ACAD_REACTORS
330
D
102
}
330
D
100
AcDbGroup
300

 70
     1
 71
     1
  0
GROUP
  5
369
102
{ACAD_REACTORS
330
D
102
}
330
D
100
AcDbGroup
300

 70
     1
 71
     1
  0
GROUP
  5
A72
102
{ACAD_REACTORS
330
D
102
}
330
D
100
AcDbGroup
300

 70
     1
 71
     1
  0
GROUP
  5
10FD
102
{ACAD_REACTORS
330
D
102
}
330
D
100
AcDbGroup
300

 70
     1
 71
     1
340
DBD
340
DBE
340
DC2
340
DC9
340
DC1
340
DC0
340
DBF
340
DBB
340
DD1
340
DD0
340
DCF
340
DCC
340
DCA
340
DD4
340
DD3
340
DD2
340
DCB
340
DC8
340
DD9
340
DD8
340
DD7
340
DD6
340
DD5
340
DDA
  0
GROUP
  5
413
102
{ACAD_REACTORS
330
D
102
}
330
D
100
AcDbGroup
300

 70
     1
 71
     1
  0
LAYOUT
  5
FEB
102
{ACAD_REACTORS
330
1A
102
}
330
1A
100
AcDbPlotSettings
  1

  2
EPSON Stylus COLOR 1520
  4
A4
  6

 40
3.757083177566528
 41
14.7637300491333
 42
3.757080078125
 43
3.757080078125
 44
209.9733276367187
 45
296.9683227539062
 46
0.0
 47
0.0
 48
0.0
 49
0.0
140
0.0
141
0.0
142
1.0
143
1.0
 70
   688
 72
     1
 73
     1
 74
     5
  7

 75
    16
147
1.0
148
0.0
149
0.0
100
AcDbLayout
  1
Layout1
 70
     1
 71
     1
 10
-3.757080078125
 20
-3.757083177566528
 11
293.2112426757812
 21
206.2162444591522
 12
0.0
 22
0.0
 32
0.0
 14
-3.400241753399768
 24
-2.934382174902054
 34
0.0
 15
292.8544043510557
 25
206.1211149578283
 35
0.0
146
0.0
 13
0.0
 23
0.0
 33
0.0
 16
1.0
 26
0.0
 36
0.0
 17
0.0
 27
1.0
 37
0.0
 76
     0
330
FEA
331
FF1
  0
LAYOUT
  5
22
102
{ACAD_REACTORS
330
1A
102
}
330
1A
100
AcDbPlotSettings
  1

  2
EPSON Stylus COLOR 1520
  4
A4
  6

 40
3.757083177566528
 41
14.7637300491333
 42
3.757080078125
 43
3.757080078125
 44
209.9733276367187
 45
296.9683227539062
 46
0.0
 47
0.0
 48
0.0
 49
0.0
140
0.0
141
0.0
142
1.0
143
1.0
 70
 11952
 72
     1
 73
     1
 74
     0
  7

 75
     0
147
1.0
148
-89.73529411764705
149
0.0
100
AcDbLayout
  1
Model
 70
     1
 71
     0
 10
0.0
 20
0.0
 11
12.0
 21
9.0
 12
0.0
 22
0.0
 32
0.0
 14
0.0
 24
0.0
 34
0.0
 15
0.0
 25
0.0
 35
0.0
146
0.0
 13
0.0
 23
0.0
 33
0.0
 16
1.0
 26
0.0
 36
0.0
 17
0.0
 27
1.0
 37
0.0
 76
     0
330
1F
  0
MLINESTYLE
  5
18
102
{ACAD_REACTORS
330
17
102
}
330
17
100
AcDbMlineStyle
  2
STANDARD
 70
     0
  3

 62
   256
 51
90.0
 52
90.0
 71
     2
 49
0.5
 62
   256
  6
BYLAYER
 49
-0.5
 62
   256
  6
BYLAYER
  0
ACDBPLACEHOLDER
  5
F
102
{ACAD_REACTORS
330
E
102
}
330
E
  0
DICTIONARYVAR
  5
52
102
{ACAD_REACTORS
330
50
102
}
330
50
100
DictionaryVariables
280
     0
  1
2
  0
DICTIONARYVAR
  5
51
102
{ACAD_REACTORS
330
50
102
}
330
50
100
DictionaryVariables
280
     0
  1
1
  0
ENDSEC
  0
EOF
