  0
SECTION
  2
HEADER
  9
$ACADVER
  1
AC1015
  9
$ACADMAINTVER
 70
    13
  9
$DWGCODEPAGE
  3
ANSI_1252
  9
$INSBASE
 10
0.0
 20
0.0
 30
0.0
  9
$EXTMIN
 10
-421.4700443307842
 20
-276.4313830982678
 30
0.0
  9
$EXTMAX
 10
679.4964173140528
 20
304.5928320722919
 30
0.0
  9
$LIMMIN
 10
0.0
 20
0.0
  9
$LIMMAX
 10
420.0
 20
297.0
  9
$ORTHOMODE
 70
     1
  9
$REGENMODE
 70
     1
  9
$FILLMODE
 70
     1
  9
$QTEXTMODE
 70
     0
  9
$MIRRTEXT
 70
     1
  9
$LTSCALE
 40
1.0
  9
$ATTMODE
 70
     1
  9
$TEXTSIZE
 40
26.5350450929028
  9
$TRACEWID
 40
1.0
  9
$TEXTSTYLE
  7
Standard
  9
$CLAYER
  8
0
  9
$CELTYPE
  6
ByLayer
  9
$CECOLOR
 62
   256
  9
$CELTSCALE
 40
1.0
  9
$DISPSILH
 70
     0
  9
$DIMSCALE
 40
1.0
  9
$DIMASZ
 40
2.5
  9
$DIMEXO
 40
0.625
  9
$DIMDLI
 40
3.75
  9
$DIMRND
 40
0.0
  9
$DIMDLE
 40
0.0
  9
$DIMEXE
 40
1.25
  9
$DIMTP
 40
0.0
  9
$DIMTM
 40
0.0
  9
$DIMTXT
 40
2.5
  9
$DIMCEN
 40
2.5
  9
$DIMTSZ
 40
0.0
  9
$DIMTOL
 70
     0
  9
$DIMLIM
 70
     0
  9
$DIMTIH
 70
     0
  9
$DIMTOH
 70
     0
  9
$DIMSE1
 70
     0
  9
$DIMSE2
 70
     0
  9
$DIMTAD
 70
     1
  9
$DIMZIN
 70
     8
  9
$DIMBLK
  1

  9
$DIMASO
 70
     1
  9
$DIMSHO
 70
     1
  9
$DIMPOST
  1

  9
$DIMAPOST
  1

  9
$DIMALT
 70
     0
  9
$DIMALTD
 70
     3
  9
$DIMALTF
 40
0.03937007874016
  9
$DIMLFAC
 40
1.0
  9
$DIMTOFL
 70
     1
  9
$DIMTVP
 40
0.0
  9
$DIMTIX
 70
     0
  9
$DIMSOXD
 70
     0
  9
$DIMSAH
 70
     0
  9
$DIMBLK1
  1

  9
$DIMBLK2
  1

  9
$DIMSTYLE
  2
ISO-25
  9
$DIMCLRD
 70
     0
  9
$DIMCLRE
 70
     0
  9
$DIMCLRT
 70
     0
  9
$DIMTFAC
 40
1.0
  9
$DIMGAP
 40
0.625
  9
$DIMJUST
 70
     0
  9
$DIMSD1
 70
     0
  9
$DIMSD2
 70
     0
  9
$DIMTOLJ
 70
     0
  9
$DIMTZIN
 70
     8
  9
$DIMALTZ
 70
     0
  9
$DIMALTTZ
 70
     0
  9
$DIMUPT
 70
     0
  9
$DIMDEC
 70
     2
  9
$DIMTDEC
 70
     2
  9
$DIMALTU
 70
     2
  9
$DIMALTTD
 70
     3
  9
$DIMTXSTY
  7
Standard
  9
$DIMAUNIT
 70
     0
  9
$DIMADEC
 70
     0
  9
$DIMALTRND
 40
0.0
  9
$DIMAZIN
 70
     0
  9
$DIMDSEP
 70
    44
  9
$DIMATFIT
 70
     3
  9
$DIMFRAC
 70
     0
  9
$DIMLDRBLK
  1

  9
$DIMLUNIT
 70
     2
  9
$DIMLWD
 70
    -2
  9
$DIMLWE
 70
    -2
  9
$DIMTMOVE
 70
     0
  9
$LUNITS
 70
     2
  9
$LUPREC
 70
     4
  9
$SKETCHINC
 40
1.0
  9
$FILLETRAD
 40
3.0
  9
$AUNITS
 70
     0
  9
$AUPREC
 70
     0
  9
$MENU
  1
.
  9
$ELEVATION
 40
0.0
  9
$PELEVATION
 40
0.0
  9
$THICKNESS
 40
0.0
  9
$LIMCHECK
 70
     0
  9
$CHAMFERA
 40
10.0
  9
$CHAMFERB
 40
10.0
  9
$CHAMFERC
 40
20.0
  9
$CHAMFERD
 40
0.0
  9
$SKPOLY
 70
     0
  9
$TDCREATE
 40
2452181.456949305
  9
$TDUCREATE
 40
2452181.415282638
  9
$TDUPDATE
 40
2452321.502963657
  9
$TDUUPDATE
 40
2452321.461296990
  9
$TDINDWG
 40
1.0778078704
  9
$TDUSRTIMER
 40
1.0777983796
  9
$USRTIMER
 70
     1
  9
$ANGBASE
 50
0.0
  9
$ANGDIR
 70
     0
  9
$PDMODE
 70
     0
  9
$PDSIZE
 40
0.0
  9
$PLINEWID
 40
0.0
  9
$SPLFRAME
 70
     0
  9
$SPLINETYPE
 70
     6
  9
$SPLINESEGS
 70
     8
  9
$HANDSEED
  5
333A
  9
$SURFTAB1
 70
     6
  9
$SURFTAB2
 70
     6
  9
$SURFTYPE
 70
     6
  9
$SURFU
 70
     6
  9
$SURFV
 70
     6
  9
$UCSBASE
  2

  9
$UCSNAME
  2

  9
$UCSORG
 10
-53.08748352590964
 20
3.820899076262548
 30
0.0
  9
$UCSXDIR
 10
1.0
 20
0.0
 30
0.0
  9
$UCSYDIR
 10
0.0
 20
1.0
 30
0.0
  9
$UCSORTHOREF
  2

  9
$UCSORTHOVIEW
 70
     0
  9
$UCSORGTOP
 10
0.0
 20
0.0
 30
0.0
  9
$UCSORGBOTTOM
 10
0.0
 20
0.0
 30
0.0
  9
$UCSORGLEFT
 10
0.0
 20
0.0
 30
0.0
  9
$UCSORGRIGHT
 10
0.0
 20
0.0
 30
0.0
  9
$UCSORGFRONT
 10
0.0
 20
0.0
 30
0.0
  9
$UCSORGBACK
 10
0.0
 20
0.0
 30
0.0
  9
$PUCSBASE
  2

  9
$PUCSNAME
  2

  9
$PUCSORG
 10
0.0
 20
0.0
 30
0.0
  9
$PUCSXDIR
 10
1.0
 20
0.0
 30
0.0
  9
$PUCSYDIR
 10
0.0
 20
1.0
 30
0.0
  9
$PUCSORTHOREF
  2

  9
$PUCSORTHOVIEW
 70
     0
  9
$PUCSORGTOP
 10
0.0
 20
0.0
 30
0.0
  9
$PUCSORGBOTTOM
 10
0.0
 20
0.0
 30
0.0
  9
$PUCSORGLEFT
 10
0.0
 20
0.0
 30
0.0
  9
$PUCSORGRIGHT
 10
0.0
 20
0.0
 30
0.0
  9
$PUCSORGFRONT
 10
0.0
 20
0.0
 30
0.0
  9
$PUCSORGBACK
 10
0.0
 20
0.0
 30
0.0
  9
$USERI1
 70
     0
  9
$USERI2
 70
     0
  9
$USERI3
 70
     0
  9
$USERI4
 70
     0
  9
$USERI5
 70
     0
  9
$USERR1
 40
0.0
  9
$USERR2
 40
0.0
  9
$USERR3
 40
0.0
  9
$USERR4
 40
0.0
  9
$USERR5
 40
0.0
  9
$WORLDVIEW
 70
     1
  9
$SHADEDGE
 70
     3
  9
$SHADEDIF
 70
    70
  9
$TILEMODE
 70
     1
  9
$MAXACTVP
 70
    64
  9
$PINSBASE
 10
0.0
 20
0.0
 30
0.0
  9
$PLIMCHECK
 70
     0
  9
$PEXTMIN
 10
-3.400241753399768
 20
-2.934382174902054
 30
0.0
  9
$PEXTMAX
 10
292.8544043510557
 20
206.1211149578283
 30
0.0
  9
$PLIMMIN
 10
-3.757080078125
 20
-3.757083177566528
  9
$PLIMMAX
 10
293.2112426757812
 20
206.2162444591522
  9
$UNITMODE
 70
     0
  9
$VISRETAIN
 70
     1
  9
$PLINEGEN
 70
     0
  9
$PSLTSCALE
 70
     1
  9
$TREEDEPTH
 70
  3020
  9
$CMLSTYLE
  2
Standard
  9
$CMLJUST
 70
     0
  9
$CMLSCALE
 40
20.0
  9
$PROXYGRAPHICS
 70
     1
  9
$MEASUREMENT
 70
     1
  9
$CELWEIGHT
370
    -1
  9
$ENDCAPS
280
     0
  9
$JOINSTYLE
280
     0
  9
$LWDISPLAY
290
     0
  9
$INSUNITS
 70
     4
  9
$HYPERLINKBASE
  1

  9
$STYLESHEET
  1

  9
$XEDIT
290
     1
  9
$CEPSNTYPE
380
     0
  9
$PSTYLEMODE
290
     1
  9
$FINGERPRINTGUID
  2
{F84AA5D3-2765-4D6B-8594-ABD9F52FB735}
  9
$VERSIONGUID
  2
{64E23468-ECA7-4600-A8E9-790936CF51DE}
  9
$EXTNAMES
290
     1
  9
$PSVPSCALE
 40
0.0
  9
$OLESTARTUP
290
     0
  0
ENDSEC
  0
SECTION
  2
CLASSES
  0
CLASS
  1
ACDBDICTIONARYWDFLT
  2
AcDbDictionaryWithDefault
  3
AutoCAD 2000
 90
        0
280
     0
281
     0
  0
CLASS
  1
ACDBPLACEHOLDER
  2
AcDbPlaceHolder
  3
AutoCAD 2000
 90
        0
280
     0
281
     0
  0
CLASS
  1
LAYOUT
  2
AcDbLayout
  3
AutoCAD 2000
 90
        0
280
     0
281
     0
  0
CLASS
  1
DICTIONARYVAR
  2
AcDbDictionaryVar
  3
AutoCAD 2000
 90
        0
280
     0
281
     0
  0
CLASS
  1
DIMASSOC
  2
AcDbDimAssoc
  3
"AcDbDimAssoc|Product Desc:     AcDim ARX App For Dimension|Company:          Autodesk, Inc.|WEB Address:      www.autodesk.com"
 90
        0
280
     0
281
     0
  0
ENDSEC
  0
SECTION
  2
TABLES
  0
TABLE
  2
VPORT
  5
8
330
0
100
AcDbSymbolTable
 70
     2
  0
VPORT
  5
3339
330
8
100
AcDbSymbolTableRecord
100
AcDbViewportTableRecord
  2
*Active
 70
     0
 10
0.0
 20
0.0
 11
1.0
 21
1.0
 12
251.5315841507809
 22
14.08616476416347
 13
0.0
 23
0.0
 14
10.0
 24
10.0
 15
10.0
 25
10.0
 16
0.0
 26
0.0
 36
1.0
 17
0.0
 27
0.0
 37
0.0
 40
795.2086329750725
 41
1.699453551912568
 42
50.0
 43
0.0
 44
0.0
 50
0.0
 51
0.0
 71
     0
 72
   100
 73
     1
 74
     3
 75
     1
 76
     0
 77
     0
 78
     0
281
     0
 65
     1
110
-53.08748352590964
120
3.820899076262548
130
0.0
111
1.0
121
0.0
131
0.0
112
0.0
122
1.0
132
0.0
 79
     0
146
0.0
  0
ENDTAB
  0
TABLE
  2
LTYPE
  5
5
330
0
100
AcDbSymbolTable
 70
     4
  0
LTYPE
  5
14
330
5
100
AcDbSymbolTableRecord
100
AcDbLinetypeTableRecord
  2
ByBlock
 70
     0
  3

 72
    65
 73
     0
 40
0.0
  0
LTYPE
  5
15
330
5
100
AcDbSymbolTableRecord
100
AcDbLinetypeTableRecord
  2
ByLayer
 70
     0
  3

 72
    65
 73
     0
 40
0.0
  0
LTYPE
  5
16
330
5
100
AcDbSymbolTableRecord
100
AcDbLinetypeTableRecord
  2
Continuous
 70
     0
  3
Solid line
 72
    65
 73
     0
 40
0.0
  0
LTYPE
  5
2D
330
5
100
AcDbSymbolTableRecord
100
AcDbLinetypeTableRecord
  2
MITTE
 70
     0
  3
Mitte ____ _ ____ _ ____ _ ____ _ ____ _ ____
 72
    65
 73
     4
 40
50.8
 49
31.75
 74
     0
 49
-6.349999999999999
 74
     0
 49
6.349999999999999
 74
     0
 49
-6.349999999999999
 74
     0
  0
LTYPE
  5
39
330
5
100
AcDbSymbolTableRecord
100
AcDbLinetypeTableRecord
  2
VERDECKT
 70
     0
  3
Verdeckt __ __ __ __ __ __ __ __ __ __ __ __ __
 72
    65
 73
     2
 40
9.524999999999998
 49
6.349999999999999
 74
     0
 49
-3.174999999999999
 74
     0
  0
LTYPE
  5
AE7
330
5
100
AcDbSymbolTableRecord
100
AcDbLinetypeTableRecord
  2
CENTER
 70
     0
  3
____ _ ____ _ ____ _ ____ _ ____ _ ____ _ ____
 72
    65
 73
     4
 40
17.5
 49
13.0
 74
     0
 49
-1.5
 74
     0
 49
1.5
 74
     0
 49
-1.5
 74
     0
  0
ENDTAB
  0
TABLE
  2
LAYER
  5
2
330
0
100
AcDbSymbolTable
 70
     6
  0
LAYER
  5
10
330
2
100
AcDbSymbolTableRecord
100
AcDbLayerTableRecord
  2
0
 70
     0
 62
     7
  6
Continuous
370
    35
390
F
  0
LAYER
  5
2E
330
2
100
AcDbSymbolTableRecord
100
AcDbLayerTableRecord
  2
Mittellinie
 70
     0
 62
     3
  6
MITTE
370
    18
390
F
  0
LAYER
  5
3A
330
2
100
AcDbSymbolTableRecord
100
AcDbLayerTableRecord
  2
Unsichtbar
 70
     0
 62
     5
  6
Continuous
370
    18
390
F
  0
LAYER
  5
87
330
2
100
AcDbSymbolTableRecord
100
AcDbLayerTableRecord
  2
Innenkanten
 70
     0
 62
     1
  6
Continuous
370
    25
390
F
  0
LAYER
  5
46F
330
2
100
AcDbSymbolTableRecord
100
AcDbLayerTableRecord
  2
Defpoints
 70
     0
 62
     6
  6
Continuous
290
     0
370
    15
390
F
  0
LAYER
  5
9F1
330
2
100
AcDbSymbolTableRecord
100
AcDbLayerTableRecord
  2
Bemaßung
 70
     0
 62
     6
  6
Continuous
370
    15
390
F
  0
ENDTAB
  0
TABLE
  2
STYLE
  5
3
330
0
100
AcDbSymbolTable
 70
     2
  0
STYLE
  5
11
330
3
100
AcDbSymbolTableRecord
100
AcDbTextStyleTableRecord
  2
Standard
 70
     0
 40
0.0
 41
1.0
 50
0.0
 71
     0
 42
26.5350450929028
  3
txt
  4

  0
STYLE
  5
2C
330
3
100
AcDbSymbolTableRecord
100
AcDbTextStyleTableRecord
  2

 70
     1
 40
0.0
 41
1.0
 50
0.0
 71
     0
 42
2.5
  3
ltypeshp.shx
  4

  0
ENDTAB
  0
TABLE
  2
VIEW
  5
6
330
0
100
AcDbSymbolTable
 70
     1
  0
VIEW
  5
81C
330
6
100
AcDbSymbolTableRecord
100
AcDbViewTableRecord
  2
tom
 70
     0
 40
127.2859585283894
 10
166.2856675397948
 20
206.2562233711272
 41
204.2020725054376
 11
0.0
 21
0.0
 31
1.0
 12
0.0
 22
0.0
 32
0.0
 42
50.0
 43
0.0
 44
0.0
 50
0.0
 71
     0
281
     0
 72
     1
110
-53.08748352590964
120
3.820899076262548
130
0.0
111
1.0
121
0.0
131
0.0
112
0.0
122
1.0
132
0.0
 79
     0
146
0.0
  0
ENDTAB
  0
TABLE
  2
UCS
  5
7
330
0
100
AcDbSymbolTable
 70
     0
  0
ENDTAB
  0
TABLE
  2
APPID
  5
9
330
0
100
AcDbSymbolTable
 70
     1
  0
APPID
  5
12
330
9
100
AcDbSymbolTableRecord
100
AcDbRegAppTableRecord
  2
ACAD
 70
     0
  0
ENDTAB
  0
TABLE
  2
DIMSTYLE
  5
A
330
0
100
AcDbSymbolTable
 70
     2
100
AcDbDimStyleTable
 71
     1
340
27
  0
DIMSTYLE
105
27
102
{ACAD_REACTORS
330
2D71
330
2D92
330
2DD1
330
2DF2
330
2E13
330
2E34
330
2E59
330
2EA5
330
2ED0
330
2EF1
330
2F12
330
2F36
330
2F4B
330
2F78
330
2F99
330
30B6
102
}
330
A
100
AcDbSymbolTableRecord
100
AcDbDimStyleTableRecord
  2
ISO-25
 70
     0
 41
2.5
 42
0.625
 43
3.75
 44
1.25
 73
     0
 74
     0
 77
     1
 78
     8
140
2.5
141
2.5
143
0.03937007874016
147
0.625
171
     3
172
     1
271
     2
272
     2
274
     3
278
    44
283
     0
284
     8
340
11
  0
DIMSTYLE
105
AE8
330
A
100
AcDbSymbolTableRecord
100
AcDbDimStyleTableRecord
  2
STANDARD
 70
     0
 41
2.5
 73
     0
 77
     1
140
2.5
141
-0.09
147
0.2
176
     6
178
     6
271
     0
272
     0
279
     1
289
     2
340
11
371
    15
  0
ENDTAB
  0
TABLE
  2
BLOCK_RECORD
  5
1
330
0
100
AcDbSymbolTable
 70
    35
  0
BLOCK_RECORD
  5
1F
330
1
100
AcDbSymbolTableRecord
100
AcDbBlockTableRecord
  2
*Model_Space
340
22
  0
BLOCK_RECORD
  5
FEA
330
1
100
AcDbSymbolTableRecord
100
AcDbBlockTableRecord
  2
*Paper_Space
340
FEB
  0
BLOCK_RECORD
  5
2D72
330
1
100
AcDbSymbolTableRecord
100
AcDbBlockTableRecord
  2
*D0
340
0
  0
BLOCK_RECORD
  5
2D93
330
1
100
AcDbSymbolTableRecord
100
AcDbBlockTableRecord
  2
*D1
340
0
  0
BLOCK_RECORD
  5
2DD2
330
1
100
AcDbSymbolTableRecord
100
AcDbBlockTableRecord
  2
*D2
340
0
  0
BLOCK_RECORD
  5
2DF3
330
1
100
AcDbSymbolTableRecord
100
AcDbBlockTableRecord
  2
*D3
340
0
  0
BLOCK_RECORD
  5
2E14
330
1
100
AcDbSymbolTableRecord
100
AcDbBlockTableRecord
  2
*D4
340
0
  0
BLOCK_RECORD
  5
2E35
330
1
100
AcDbSymbolTableRecord
100
AcDbBlockTableRecord
  2
*D5
340
0
  0
BLOCK_RECORD
  5
2E5A
330
1
100
AcDbSymbolTableRecord
100
AcDbBlockTableRecord
  2
*D6
340
0
  0
BLOCK_RECORD
  5
2EA6
330
1
100
AcDbSymbolTableRecord
100
AcDbBlockTableRecord
  2
*D8
340
0
  0
BLOCK_RECORD
  5
2ED1
330
1
100
AcDbSymbolTableRecord
100
AcDbBlockTableRecord
  2
*D9
340
0
  0
BLOCK_RECORD
  5
2EF2
330
1
100
AcDbSymbolTableRecord
100
AcDbBlockTableRecord
  2
*D10
340
0
  0
BLOCK_RECORD
  5
2F13
330
1
100
AcDbSymbolTableRecord
100
AcDbBlockTableRecord
  2
*D11
340
0
  0
BLOCK_RECORD
  5
2F37
330
1
100
AcDbSymbolTableRecord
100
AcDbBlockTableRecord
  2
*D12
340
0
  0
BLOCK_RECORD
  5
2F4C
330
1
100
AcDbSymbolTableRecord
100
AcDbBlockTableRecord
  2
*D13
340
0
  0
BLOCK_RECORD
  5
2F79
330
1
100
AcDbSymbolTableRecord
100
AcDbBlockTableRecord
  2
*D14
340
0
  0
BLOCK_RECORD
  5
2F9A
330
1
100
AcDbSymbolTableRecord
100
AcDbBlockTableRecord
  2
*D15
340
0
  0
BLOCK_RECORD
  5
30B7
330
1
100
AcDbSymbolTableRecord
100
AcDbBlockTableRecord
  2
*D16
340
0
  0
ENDTAB
  0
ENDSEC
  0
SECTION
  2
BLOCKS
  0
BLOCK
  5
20
330
1F
100
AcDbEntity
  8
0
100
AcDbBlockBegin
  2
*Model_Space
 70
     0
 10
0.0
 20
0.0
 30
0.0
  3
*Model_Space
  1

  0
ENDBLK
  5
21
330
1F
100
AcDbEntity
  8
0
100
AcDbBlockEnd
  0
BLOCK
  5
FEC
330
FEA
100
AcDbEntity
 67
     1
  8
0
100
AcDbBlockBegin
  2
*Paper_Space
 70
     0
 10
0.0
 20
0.0
 30
0.0
  3
*Paper_Space
  1

  0
ENDBLK
  5
FED
330
FEA
100
AcDbEntity
 67
     1
  8
0
100
AcDbBlockEnd
  0
BLOCK
  5
2D7C
330
2D72
100
AcDbEntity
  8
0
100
AcDbBlockBegin
  2
*D0
 70
     1
 10
0.0
 20
0.0
 30
0.0
  3
*D0
  1

  0
LINE
  5
2D89
330
2D72
100
AcDbEntity
  8
Bemaßung
 62
     0
370
    -2
100
AcDbLine
 10
568.6876724188466
 20
281.4731641762991
 30
0.0
 11
568.6876724188466
 21
293.6328665057017
 31
0.0
  0
LINE
  5
2D8A
330
2D72
100
AcDbEntity
  8
Bemaßung
 62
     0
370
    -2
100
AcDbLine
 10
550.6876724188466
 20
281.4731641762991
 30
0.0
 11
550.6876724188466
 21
293.6328665057017
 31
0.0
  0
LINE
  5
2D8B
330
2D72
100
AcDbEntity
  8
Bemaßung
 62
     0
370
    -2
100
AcDbLine
 10
566.1876724188466
 20
292.3828665057017
 30
0.0
 11
553.1876724188466
 21
292.3828665057017
 31
0.0
  0
SOLID
  5
2D8C
330
2D72
100
AcDbEntity
  8
Bemaßung
 62
     0
100
AcDbTrace
 10
566.1876724188466
 20
292.7995331723684
 30
0.0
 11
566.1876724188466
 21
291.966199839035
 31
0.0
 12
568.6876724188466
 22
292.3828665057017
 32
0.0
 13
568.6876724188466
 23
292.3828665057017
 33
0.0
  0
SOLID
  5
2D8D
330
2D72
100
AcDbEntity
  8
Bemaßung
 62
     0
100
AcDbTrace
 10
553.1876724188466
 20
292.7995331723684
 30
0.0
 11
553.1876724188466
 21
291.966199839035
 31
0.0
 12
550.6876724188466
 22
292.3828665057017
 32
0.0
 13
550.6876724188466
 23
292.3828665057017
 33
0.0
  0
MTEXT
  5
2D8E
330
2D72
100
AcDbEntity
  8
Bemaßung
 62
     0
100
AcDbMText
 10
559.6876724188466
 20
294.2578665057017
 30
0.0
 40
2.5
 41
0.0
 71
     5
 72
     1
  1
18
 73
     1
 44
1.0
  0
POINT
  5
2D8F
330
2D72
100
AcDbEntity
  8
Defpoints
 62
     0
100
AcDbPoint
 10
568.6876724188466
 20
280.8481641762991
 30
0.0
  0
POINT
  5
2D90
330
2D72
100
AcDbEntity
  8
Defpoints
 62
     0
100
AcDbPoint
 10
550.6876724188466
 20
280.8481641762991
 30
0.0
  0
POINT
  5
2D91
330
2D72
100
AcDbEntity
  8
Defpoints
 62
     0
100
AcDbPoint
 10
550.6876724188466
 20
292.3828665057017
 30
0.0
  0
ENDBLK
  5
2D7D
330
2D72
100
AcDbEntity
  8
0
100
AcDbBlockEnd
  0
BLOCK
  5
2D9F
330
2D93
100
AcDbEntity
  8
0
100
AcDbBlockBegin
  2
*D1
 70
     1
 10
0.0
 20
0.0
 30
0.0
  3
*D1
  1

  0
LINE
  5
2DAE
330
2D93
100
AcDbEntity
  8
Bemaßung
 62
     0
370
    -2
100
AcDbLine
 10
571.6876724188466
 20
250.6231941762993
 30
0.0
 11
571.6876724188466
 21
293.6328665057017
 31
0.0
  0
LINE
  5
2DAF
330
2D93
100
AcDbEntity
  8
Bemaßung
 62
     0
370
    -2
100
AcDbLine
 10
568.6876724188466
 20
281.4731641762991
 30
0.0
 11
568.6876724188466
 21
293.6328665057017
 31
0.0
  0
LINE
  5
2DB0
330
2D93
100
AcDbEntity
  8
Bemaßung
 62
     0
370
    -2
100
AcDbLine
 10
574.1876724188466
 20
292.3828665057017
 30
0.0
 11
576.6876724188466
 21
292.3828665057017
 31
0.0
  0
LINE
  5
2DB1
330
2D93
100
AcDbEntity
  8
Bemaßung
 62
     0
370
    -2
100
AcDbLine
 10
566.1876724188466
 20
292.3828665057017
 30
0.0
 11
563.6876724188466
 21
292.3828665057017
 31
0.0
  0
LINE
  5
2DB2
330
2D93
100
AcDbEntity
  8
Bemaßung
 62
     0
370
    -2
100
AcDbLine
 10
571.6876724188466
 20
292.3828665057017
 30
0.0
 11
568.6876724188466
 21
292.3828665057017
 31
0.0
  0
SOLID
  5
2DB3
330
2D93
100
AcDbEntity
  8
Bemaßung
 62
     0
100
AcDbTrace
 10
574.1876724188466
 20
292.7995331723684
 30
0.0
 11
574.1876724188466
 21
291.966199839035
 31
0.0
 12
571.6876724188466
 22
292.3828665057017
 32
0.0
 13
571.6876724188466
 23
292.3828665057017
 33
0.0
  0
SOLID
  5
2DB4
330
2D93
100
AcDbEntity
  8
Bemaßung
 62
     0
100
AcDbTrace
 10
566.1876724188466
 20
292.7995331723684
 30
0.0
 11
566.1876724188466
 21
291.966199839035
 31
0.0
 12
568.6876724188466
 22
292.3828665057017
 32
0.0
 13
568.6876724188466
 23
292.3828665057017
 33
0.0
  0
MTEXT
  5
2DB5
330
2D93
100
AcDbEntity
  8
Bemaßung
 62
     0
100
AcDbMText
 10
570.1876724188466
 20
294.2578665057017
 30
0.0
 40
2.5
 41
0.0
 71
     5
 72
     1
  1
3
 73
     1
 44
1.0
  0
POINT
  5
2DB6
330
2D93
100
AcDbEntity
  8
Defpoints
 62
     0
100
AcDbPoint
 10
571.6876724188466
 20
249.9981941762992
 30
0.0
  0
POINT
  5
2DB7
330
2D93
100
AcDbEntity
  8
Defpoints
 62
     0
100
AcDbPoint
 10
568.6876724188466
 20
280.8481641762991
 30
0.0
  0
POINT
  5
2DB8
330
2D93
100
AcDbEntity
  8
Defpoints
 62
     0
100
AcDbPoint
 10
568.6876724188466
 20
292.3828665057017
 30
0.0
  0
ENDBLK
  5
2DA0
330
2D93
100
AcDbEntity
  8
0
100
AcDbBlockEnd
  0
BLOCK
  5
2DDC
330
2DD2
100
AcDbEntity
  8
0
100
AcDbBlockBegin
  2
*D2
 70
     1
 10
0.0
 20
0.0
 30
0.0
  3
*D2
  1

  0
LINE
  5
2DE9
330
2DD2
100
AcDbEntity
  8
Bemaßung
 62
     0
370
    -2
100
AcDbLine
 10
647.6877024188467
 20
210.9731641762991
 30
0.0
 11
647.6877024188467
 21
270.7549618326952
 31
0.0
  0
LINE
  5
2DEA
330
2DD2
100
AcDbEntity
  8
Bemaßung
 62
     0
370
    -2
100
AcDbLine
 10
572.6876724188466
 20
213.4731641762992
 30
0.0
 11
572.6876724188466
 21
270.7549618326952
 31
0.0
  0
LINE
  5
2DEB
330
2DD2
100
AcDbEntity
  8
Bemaßung
 62
     0
370
    -2
100
AcDbLine
 10
645.1877024188466
 20
269.5049618326952
 30
0.0
 11
575.1876724188466
 21
269.5049618326952
 31
0.0
  0
SOLID
  5
2DEC
330
2DD2
100
AcDbEntity
  8
Bemaßung
 62
     0
100
AcDbTrace
 10
645.1877024188466
 20
269.9216284993619
 30
0.0
 11
645.1877024188466
 21
269.0882951660285
 31
0.0
 12
647.6877024188467
 22
269.5049618326952
 32
0.0
 13
647.6877024188467
 23
269.5049618326952
 33
0.0
  0
SOLID
  5
2DED
330
2DD2
100
AcDbEntity
  8
Bemaßung
 62
     0
100
AcDbTrace
 10
575.1876724188466
 20
269.9216284993619
 30
0.0
 11
575.1876724188466
 21
269.0882951660285
 31
0.0
 12
572.6876724188466
 22
269.5049618326952
 32
0.0
 13
572.6876724188466
 23
269.5049618326952
 33
0.0
  0
MTEXT
  5
2DEE
330
2DD2
100
AcDbEntity
  8
Bemaßung
 62
     0
100
AcDbMText
 10
610.1876874188467
 20
271.3799618326952
 30
0.0
 40
2.5
 41
0.0
 71
     5
 72
     1
  1
75
 73
     1
 44
1.0
  0
POINT
  5
2DEF
330
2DD2
100
AcDbEntity
  8
Defpoints
 62
     0
100
AcDbPoint
 10
647.6877024188467
 20
210.3481641762992
 30
0.0
  0
POINT
  5
2DF0
330
2DD2
100
AcDbEntity
  8
Defpoints
 62
     0
100
AcDbPoint
 10
572.6876724188466
 20
212.8481641762991
 30
0.0
  0
POINT
  5
2DF1
330
2DD2
100
AcDbEntity
  8
Defpoints
 62
     0
100
AcDbPoint
 10
572.6876724188466
 20
269.5049618326952
 30
0.0
  0
ENDBLK
  5
2DDD
330
2DD2
100
AcDbEntity
  8
0
100
AcDbBlockEnd
  0
BLOCK
  5
2DFD
330
2DF3
100
AcDbEntity
  8
0
100
AcDbBlockBegin
  2
*D3
 70
     1
 10
0.0
 20
0.0
 30
0.0
  3
*D3
  1

  0
LINE
  5
2E0A
330
2DF3
100
AcDbEntity
  8
Bemaßung
 62
     0
370
    -2
100
AcDbLine
 10
648.3127024188466
 20
210.3481641762992
 30
0.0
 11
666.940211603829
 21
210.3481641762992
 31
0.0
  0
LINE
  5
2E0B
330
2DF3
100
AcDbEntity
  8
Bemaßung
 62
     0
370
    -2
100
AcDbLine
 10
648.3127024188466
 20
175.3481641762991
 30
0.0
 11
666.940211603829
 21
175.3481641762991
 31
0.0
  0
LINE
  5
2E0C
330
2DF3
100
AcDbEntity
  8
Bemaßung
 62
     0
370
    -2
100
AcDbLine
 10
665.690211603829
 20
207.8481641762991
 30
0.0
 11
665.690211603829
 21
177.8481641762991
 31
0.0
  0
SOLID
  5
2E0D
330
2DF3
100
AcDbEntity
  8
Bemaßung
 62
     0
100
AcDbTrace
 10
665.2735449371625
 20
207.8481641762991
 30
0.0
 11
666.1068782704957
 21
207.8481641762991
 31
0.0
 12
665.690211603829
 22
210.3481641762992
 32
0.0
 13
665.690211603829
 23
210.3481641762992
 33
0.0
  0
SOLID
  5
2E0E
330
2DF3
100
AcDbEntity
  8
Bemaßung
 62
     0
100
AcDbTrace
 10
665.2735449371625
 20
177.8481641762991
 30
0.0
 11
666.1068782704957
 21
177.8481641762991
 31
0.0
 12
665.690211603829
 22
175.3481641762991
 32
0.0
 13
665.690211603829
 23
175.3481641762991
 33
0.0
  0
MTEXT
  5
2E0F
330
2DF3
100
AcDbEntity
  8
Bemaßung
 62
     0
100
AcDbMText
 10
663.815211603829
 20
192.8481641762992
 30
0.0
 40
2.5
 41
0.0
 71
     5
 72
     1
  1
35
 11
0.0000000000000001
 21
1.0
 31
0.0
 73
     1
 44
1.0
  0
POINT
  5
2E10
330
2DF3
100
AcDbEntity
  8
Defpoints
 62
     0
100
AcDbPoint
 10
647.6877024188467
 20
210.3481641762992
 30
0.0
  0
POINT
  5
2E11
330
2DF3
100
AcDbEntity
  8
Defpoints
 62
     0
100
AcDbPoint
 10
647.6877024188467
 20
175.3481641762991
 30
0.0
  0
POINT
  5
2E12
330
2DF3
100
AcDbEntity
  8
Defpoints
 62
     0
100
AcDbPoint
 10
665.690211603829
 20
175.3481641762991
 30
0.0
  0
ENDBLK
  5
2DFE
330
2DF3
100
AcDbEntity
  8
0
100
AcDbBlockEnd
  0
BLOCK
  5
2E1E
330
2E14
100
AcDbEntity
  8
0
100
AcDbBlockBegin
  2
*D4
 70
     1
 10
0.0
 20
0.0
 30
0.0
  3
*D4
  1

  0
LINE
  5
2E2B
330
2E14
100
AcDbEntity
  8
Bemaßung
 62
     0
370
    -2
100
AcDbLine
 10
572.3126724188467
 20
249.9981941762992
 30
0.0
 11
679.4964173140528
 21
249.9981941762992
 31
0.0
  0
LINE
  5
2E2C
330
2E14
100
AcDbEntity
  8
Bemaßung
 62
     0
370
    -2
100
AcDbLine
 10
572.3126724188467
 20
135.6981741762993
 30
0.0
 11
679.4964173140528
 21
135.6981741762992
 31
0.0
  0
LINE
  5
2E2D
330
2E14
100
AcDbEntity
  8
Bemaßung
 62
     0
370
    -2
100
AcDbLine
 10
678.2464173140529
 20
247.4981941762993
 30
0.0
 11
678.2464173140529
 21
138.1981741762992
 31
0.0
  0
SOLID
  5
2E2E
330
2E14
100
AcDbEntity
  8
Bemaßung
 62
     0
100
AcDbTrace
 10
677.8297506473863
 20
247.4981941762993
 30
0.0
 11
678.6630839807195
 21
247.4981941762993
 31
0.0
 12
678.2464173140529
 22
249.9981941762992
 32
0.0
 13
678.2464173140529
 23
249.9981941762992
 33
0.0
  0
SOLID
  5
2E2F
330
2E14
100
AcDbEntity
  8
Bemaßung
 62
     0
100
AcDbTrace
 10
677.8297506473863
 20
138.1981741762992
 30
0.0
 11
678.6630839807195
 21
138.1981741762992
 31
0.0
 12
678.2464173140529
 22
135.6981741762992
 32
0.0
 13
678.2464173140529
 23
135.6981741762992
 33
0.0
  0
MTEXT
  5
2E30
330
2E14
100
AcDbEntity
  8
Bemaßung
 62
     0
100
AcDbMText
 10
676.1630839807195
 20
192.8481841762993
 30
0.0
 40
2.5
 41
0.0
 71
     5
 72
     1
  1
114,3
 11
0.0000000000000001
 21
1.0
 31
0.0
 73
     1
 44
1.0
  0
POINT
  5
2E31
330
2E14
100
AcDbEntity
  8
Defpoints
 62
     0
100
AcDbPoint
 10
571.6876724188466
 20
249.9981941762992
 30
0.0
  0
POINT
  5
2E32
330
2E14
100
AcDbEntity
  8
Defpoints
 62
     0
100
AcDbPoint
 10
571.6876724188466
 20
135.6981741762993
 30
0.0
  0
POINT
  5
2E33
330
2E14
100
AcDbEntity
  8
Defpoints
 62
     0
100
AcDbPoint
 10
678.2464173140529
 20
135.6981741762992
 30
0.0
  0
ENDBLK
  5
2E1F
330
2E14
100
AcDbEntity
  8
0
100
AcDbBlockEnd
  0
BLOCK
  5
2E3F
330
2E35
100
AcDbEntity
  8
0
100
AcDbBlockBegin
  2
*D5
 70
     1
 10
0.0
 20
0.0
 30
0.0
  3
*D5
  1

  0
LINE
  5
2E7A
330
2E35
100
AcDbEntity
  8
Bemaßung
 62
     0
370
    -2
100
AcDbLine
 10
568.6876724188466
 20
281.4731641762991
 30
0.0
 11
568.6876724188466
 21
302.7178320722919
 31
0.0
  0
LINE
  5
2E7B
330
2E35
100
AcDbEntity
  8
Bemaßung
 62
     0
370
    -2
100
AcDbLine
 10
647.6877024188467
 20
210.9731641762991
 30
0.0
 11
647.6877024188467
 21
302.7178320722919
 31
0.0
  0
LINE
  5
2E7C
330
2E35
100
AcDbEntity
  8
Bemaßung
 62
     0
370
    -2
100
AcDbLine
 10
571.1876724188466
 20
301.4678320722919
 30
0.0
 11
645.1877024188466
 21
301.4678320722919
 31
0.0
  0
SOLID
  5
2E7D
330
2E35
100
AcDbEntity
  8
Bemaßung
 62
     0
100
AcDbTrace
 10
571.1876724188466
 20
301.8844987389586
 30
0.0
 11
571.1876724188466
 21
301.0511654056252
 31
0.0
 12
568.6876724188466
 22
301.4678320722919
 32
0.0
 13
568.6876724188466
 23
301.4678320722919
 33
0.0
  0
SOLID
  5
2E7E
330
2E35
100
AcDbEntity
  8
Bemaßung
 62
     0
100
AcDbTrace
 10
645.1877024188466
 20
301.8844987389586
 30
0.0
 11
645.1877024188466
 21
301.0511654056252
 31
0.0
 12
647.6877024188467
 22
301.4678320722919
 32
0.0
 13
647.6877024188467
 23
301.4678320722919
 33
0.0
  0
MTEXT
  5
2E7F
330
2E35
100
AcDbEntity
  8
Bemaßung
 62
     0
100
AcDbMText
 10
608.1876874188467
 20
303.3428320722919
 30
0.0
 40
2.5
 41
0.0
 71
     5
 72
     1
  1
79
 73
     1
 44
1.0
  0
POINT
  5
2E80
330
2E35
100
AcDbEntity
  8
Defpoints
 62
     0
100
AcDbPoint
 10
568.6876724188466
 20
280.8481641762991
 30
0.0
  0
POINT
  5
2E81
330
2E35
100
AcDbEntity
  8
Defpoints
 62
     0
100
AcDbPoint
 10
647.6877024188467
 20
210.3481641762992
 30
0.0
  0
POINT
  5
2E82
330
2E35
100
AcDbEntity
  8
Defpoints
 62
     0
100
AcDbPoint
 10
647.6877024188467
 20
301.4678320722919
 30
0.0
  0
ENDBLK
  5
2E40
330
2E35
100
AcDbEntity
  8
0
100
AcDbBlockEnd
  0
BLOCK
  5
2E64
330
2E5A
100
AcDbEntity
  8
0
100
AcDbBlockBegin
  2
*D6
 70
     1
 10
0.0
 20
0.0
 30
0.0
  3
*D6
  1

  0
LINE
  5
30AB
330
2E5A
100
AcDbEntity
  8
Bemaßung
 62
     0
370
    -2
100
AcDbLine
 10
568.6876724188466
 20
281.4731641762991
 30
0.0
 11
568.6876724188466
 21
302.7178320722919
 31
0.0
  0
LINE
  5
30AC
330
2E5A
100
AcDbEntity
  8
Bemaßung
 62
     0
370
    -2
100
AcDbLine
 10
375.6876724188466
 20
193.4731641762991
 30
0.0
 11
375.6876724188466
 21
302.7178320722919
 31
0.0
  0
LINE
  5
30AD
330
2E5A
100
AcDbEntity
  8
Bemaßung
 62
     0
370
    -2
100
AcDbLine
 10
566.1876724188466
 20
301.4678320722919
 30
0.0
 11
378.1876724188466
 21
301.4678320722919
 31
0.0
  0
SOLID
  5
30AE
330
2E5A
100
AcDbEntity
  8
Bemaßung
 62
     0
100
AcDbTrace
 10
566.1876724188466
 20
301.8844987389586
 30
0.0
 11
566.1876724188466
 21
301.0511654056252
 31
0.0
 12
568.6876724188466
 22
301.4678320722919
 32
0.0
 13
568.6876724188466
 23
301.4678320722919
 33
0.0
  0
SOLID
  5
30AF
330
2E5A
100
AcDbEntity
  8
Bemaßung
 62
     0
100
AcDbTrace
 10
378.1876724188466
 20
301.8844987389586
 30
0.0
 11
378.1876724188466
 21
301.0511654056252
 31
0.0
 12
375.6876724188466
 22
301.4678320722919
 32
0.0
 13
375.6876724188466
 23
301.4678320722919
 33
0.0
  0
MTEXT
  5
30B0
330
2E5A
100
AcDbEntity
  8
Bemaßung
 62
     0
100
AcDbMText
 10
472.1876724188466
 20
303.3428320722919
 30
0.0
 40
2.5
 41
0.0
 71
     5
 72
     1
  1
193
 73
     1
 44
1.0
  0
POINT
  5
30B1
330
2E5A
100
AcDbEntity
  8
Defpoints
 62
     0
100
AcDbPoint
 10
568.6876724188466
 20
280.8481641762991
 30
0.0
  0
POINT
  5
30B2
330
2E5A
100
AcDbEntity
  8
Defpoints
 62
     0
100
AcDbPoint
 10
375.6876724188466
 20
192.8481641762991
 30
0.0
  0
POINT
  5
30B3
330
2E5A
100
AcDbEntity
  8
Defpoints
 62
     0
100
AcDbPoint
 10
375.6876724188466
 20
301.4678320722919
 30
0.0
  0
ENDBLK
  5
2E65
330
2E5A
100
AcDbEntity
  8
0
100
AcDbBlockEnd
  0
BLOCK
  5
2EB0
330
2EA6
100
AcDbEntity
  8
0
100
AcDbBlockBegin
  2
*D8
 70
     1
 10
0.0
 20
0.0
 30
0.0
  3
*D8
  1

  0
LINE
  5
2EC6
330
2EA6
100
AcDbEntity
  8
Bemaßung
 62
     0
370
    -2
100
AcDbLine
 10
568.6876724188466
 20
104.2231641762992
 30
0.0
 11
568.6876724188466
 21
29.99242758433865
 31
0.0
  0
LINE
  5
2EC7
330
2EA6
100
AcDbEntity
  8
Bemaßung
 62
     0
370
    -2
100
AcDbLine
 10
500.1876724188466
 20
42.86707417629929
 30
0.0
 11
500.1876724188466
 21
29.99242758433865
 31
0.0
  0
LINE
  5
2EC8
330
2EA6
100
AcDbEntity
  8
Bemaßung
 62
     0
370
    -2
100
AcDbLine
 10
566.1876724188466
 20
31.24242758433865
 30
0.0
 11
502.6876724188467
 21
31.24242758433865
 31
0.0
  0
SOLID
  5
2EC9
330
2EA6
100
AcDbEntity
  8
Bemaßung
 62
     0
100
AcDbTrace
 10
566.1876724188466
 20
31.65909425100532
 30
0.0
 11
566.1876724188466
 21
30.82576091767199
 31
0.0
 12
568.6876724188466
 22
31.24242758433865
 32
0.0
 13
568.6876724188466
 23
31.24242758433865
 33
0.0
  0
SOLID
  5
2ECA
330
2EA6
100
AcDbEntity
  8
Bemaßung
 62
     0
100
AcDbTrace
 10
502.6876724188467
 20
31.65909425100532
 30
0.0
 11
502.6876724188467
 21
30.82576091767199
 31
0.0
 12
500.1876724188466
 22
31.24242758433865
 32
0.0
 13
500.1876724188466
 23
31.24242758433865
 33
0.0
  0
MTEXT
  5
2ECB
330
2EA6
100
AcDbEntity
  8
Bemaßung
 62
     0
100
AcDbMText
 10
534.4376724188466
 20
33.32576091767199
 30
0.0
 40
2.5
 41
0.0
 71
     5
 72
     1
  1
68,5
 73
     1
 44
1.0
  0
POINT
  5
2ECC
330
2EA6
100
AcDbEntity
  8
Defpoints
 62
     0
100
AcDbPoint
 10
568.6876724188466
 20
104.8481641762992
 30
0.0
  0
POINT
  5
2ECD
330
2EA6
100
AcDbEntity
  8
Defpoints
 62
     0
100
AcDbPoint
 10
500.1876724188466
 20
43.49207417629929
 30
0.0
  0
POINT
  5
2ECE
330
2EA6
100
AcDbEntity
  8
Defpoints
 62
     0
100
AcDbPoint
 10
500.1876724188466
 20
31.24242758433865
 30
0.0
  0
ENDBLK
  5
2EB1
330
2EA6
100
AcDbEntity
  8
0
100
AcDbBlockEnd
  0
BLOCK
  5
2EDB
330
2ED1
100
AcDbEntity
  8
0
100
AcDbBlockBegin
  2
*D9
 70
     1
 10
0.0
 20
0.0
 30
0.0
  3
*D9
  1

  0
LINE
  5
2EE8
330
2ED1
100
AcDbEntity
  8
Bemaßung
 62
     0
370
    -2
100
AcDbLine
 10
150.1397331770484
 20
267.3828758201245
 30
0.0
 11
150.1397331770484
 21
302.7178320722919
 31
0.0
  0
LINE
  5
2EE9
330
2ED1
100
AcDbEntity
  8
Bemaßung
 62
     0
370
    -2
100
AcDbLine
 10
326.1406136692156
 20
267.3818730356514
 30
0.0
 11
326.1406136692156
 21
302.7178320722919
 31
0.0
  0
LINE
  5
2EEA
330
2ED1
100
AcDbEntity
  8
Bemaßung
 62
     0
370
    -2
100
AcDbLine
 10
152.6397331770484
 20
301.4678320722919
 30
0.0
 11
323.6406136692156
 21
301.4678320722919
 31
0.0
  0
SOLID
  5
2EEB
330
2ED1
100
AcDbEntity
  8
Bemaßung
 62
     0
100
AcDbTrace
 10
152.6397331770484
 20
301.8844987389586
 30
0.0
 11
152.6397331770484
 21
301.0511654056252
 31
0.0
 12
150.1397331770484
 22
301.4678320722919
 32
0.0
 13
150.1397331770484
 23
301.4678320722919
 33
0.0
  0
SOLID
  5
2EEC
330
2ED1
100
AcDbEntity
  8
Bemaßung
 62
     0
100
AcDbTrace
 10
323.6406136692156
 20
301.8844987389586
 30
0.0
 11
323.6406136692156
 21
301.0511654056252
 31
0.0
 12
326.1406136692156
 22
301.4678320722919
 32
0.0
 13
326.1406136692156
 23
301.4678320722919
 33
0.0
  0
MTEXT
  5
2EED
330
2ED1
100
AcDbEntity
  8
Bemaßung
 62
     0
100
AcDbMText
 10
238.140173423132
 20
303.3428320722919
 30
0.0
 40
2.5
 41
0.0
 71
     5
 72
     1
  1
176
 73
     1
 44
1.0
  0
POINT
  5
2EEE
330
2ED1
100
AcDbEntity
  8
Defpoints
 62
     0
100
AcDbPoint
 10
150.1397331770484
 20
266.7578758201245
 30
0.0
  0
POINT
  5
2EEF
330
2ED1
100
AcDbEntity
  8
Defpoints
 62
     0
100
AcDbPoint
 10
326.1406136692156
 20
266.7568730356514
 30
0.0
  0
POINT
  5
2EF0
330
2ED1
100
AcDbEntity
  8
Defpoints
 62
     0
100
AcDbPoint
 10
326.1406136692156
 20
301.4678320722919
 30
0.0
  0
ENDBLK
  5
2EDC
330
2ED1
100
AcDbEntity
  8
0
100
AcDbBlockEnd
  0
BLOCK
  5
2EFC
330
2EF2
100
AcDbEntity
  8
0
100
AcDbBlockBegin
  2
*D10
 70
     1
 10
0.0
 20
0.0
 30
0.0
  3
*D10
  1

  0
LINE
  5
2F09
330
2EF2
100
AcDbEntity
  8
Bemaßung
 62
     0
370
    -2
100
AcDbLine
 10
163.4809094491618
 20
280.7240618424709
 30
0.0
 11
122.5887329078555
 21
280.7240618424709
 31
0.0
  0
LINE
  5
2F0A
330
2EF2
100
AcDbEntity
  8
Bemaßung
 62
     0
370
    -2
100
AcDbLine
 10
163.4819836692156
 20
104.7232430356514
 30
0.0
 11
122.5887329078555
 21
104.7232430356514
 31
0.0
  0
LINE
  5
2F0B
330
2EF2
100
AcDbEntity
  8
Bemaßung
 62
     0
370
    -2
100
AcDbLine
 10
123.8387329078555
 20
278.2240618424709
 30
0.0
 11
123.8387329078554
 21
107.2232430356514
 31
0.0
  0
SOLID
  5
2F0C
330
2EF2
100
AcDbEntity
  8
Bemaßung
 62
     0
100
AcDbTrace
 10
123.4220662411888
 20
278.2240618424709
 30
0.0
 11
124.2553995745222
 21
278.2240618424709
 31
0.0
 12
123.8387329078555
 22
280.7240618424709
 32
0.0
 13
123.8387329078555
 23
280.7240618424709
 33
0.0
  0
SOLID
  5
2F0D
330
2EF2
100
AcDbEntity
  8
Bemaßung
 62
     0
100
AcDbTrace
 10
123.4220662411888
 20
107.2232430356514
 30
0.0
 11
124.2553995745221
 21
107.2232430356514
 31
0.0
 12
123.8387329078554
 22
104.7232430356514
 32
0.0
 13
123.8387329078554
 23
104.7232430356514
 33
0.0
  0
MTEXT
  5
2F0E
330
2EF2
100
AcDbEntity
  8
Bemaßung
 62
     0
100
AcDbMText
 10
121.9637329078554
 20
192.7236524390612
 30
0.0
 40
2.5
 41
0.0
 71
     5
 72
     1
  1
176
 11
0.0000000000000001
 21
1.0
 31
0.0
 73
     1
 44
1.0
  0
POINT
  5
2F0F
330
2EF2
100
AcDbEntity
  8
Defpoints
 62
     0
100
AcDbPoint
 10
164.1059094491618
 20
280.7240618424709
 30
0.0
  0
POINT
  5
2F10
330
2EF2
100
AcDbEntity
  8
Defpoints
 62
     0
100
AcDbPoint
 10
164.1069836692156
 20
104.7232430356514
 30
0.0
  0
POINT
  5
2F11
330
2EF2
100
AcDbEntity
  8
Defpoints
 62
     0
100
AcDbPoint
 10
123.8387329078554
 20
104.7232430356514
 30
0.0
  0
ENDBLK
  5
2EFD
330
2EF2
100
AcDbEntity
  8
0
100
AcDbBlockEnd
  0
BLOCK
  5
2F1E
330
2F13
100
AcDbEntity
  8
0
100
AcDbBlockBegin
  2
*D11
 70
     1
 10
0.0
 20
0.0
 30
0.0
  3
*D11
  1

  0
LINE
  5
2FBA
330
2F13
100
AcDbEntity
  8
Bemaßung
 62
     0
370
    -2
100
AcDbLine
 10
238.1397536692154
 20
288.1472558696454
 30
0.0
 11
238.1397536692155
 21
296.9601754803818
 31
0.0
  0
ARC
  5
2FBB
330
2F13
100
AcDbEntity
  8
Bemaßung
 62
     0
370
    -2
100
AcDbCircle
 10
238.1397536692155
 20
192.7240480494107
 30
0.0
 40
102.986127430971
100
AcDbArc
 50
91.39089574102875
 51
133.6090657275634
  0
SOLID
  5
2FBC
330
2F13
100
AcDbEntity
  8
Bemaßung
 62
     0
100
AcDbTrace
 10
235.6348805109136
 20
296.0964675614939
 30
0.0
 11
235.6449951418125
 21
295.2631956138765
 31
0.0
 12
238.1397536692155
 22
295.7101754803817
 32
0.0
 13
238.1397536692155
 23
295.7101754803817
 33
0.0
  0
SOLID
  5
2FBD
330
2F13
100
AcDbEntity
  8
Bemaßung
 62
     0
100
AcDbTrace
 10
167.3977377081552
 20
266.9942828754999
 30
0.0
 11
166.8156779885753
 21
267.5906476357657
 31
0.0
 12
165.3176135675676
 22
265.546286096893
 32
0.0
 13
165.3176135675676
 23
265.546286096893
 33
0.0
  0
MTEXT
  5
2FBE
330
2F13
100
AcDbEntity
  8
Bemaßung
 62
     0
100
AcDbMText
 10
198.0111700778378
 20
289.603110932183
 30
0.0
 40
2.5
 41
0.0
 71
     5
 72
     1
  1
45°
 11
0.9238796611885261
 21
0.3826831217106054
 31
0.0
 73
     1
 44
1.0
  0
POINT
  5
2FBF
330
2F13
100
AcDbEntity
  8
Defpoints
 62
     0
100
AcDbPoint
 10
211.4850048081421
 20
292.2010142595908
 30
0.0
  0
POINT
  5
2FC0
330
2F13
100
AcDbEntity
  8
Defpoints
 62
     0
100
AcDbPoint
 10
160.0831136692156
 20
270.7807930356514
 30
0.0
  0
POINT
  5
2FC1
330
2F13
100
AcDbEntity
  8
Defpoints
 62
     0
100
AcDbPoint
 10
238.1397536692155
 20
287.5222558696455
 30
0.0
  0
POINT
  5
2FC2
330
2F13
100
AcDbEntity
  8
Defpoints
 62
     0
100
AcDbPoint
 10
238.1397536692155
 20
47.19952924011862
 30
0.0
  0
POINT
  5
2FC3
330
2F13
100
AcDbEntity
  8
Defpoints
 62
     0
100
AcDbPoint
 10
174.9529936692156
 20
255.9108930356513
 30
0.0
  0
ENDBLK
  5
2F1F
330
2F13
100
AcDbEntity
  8
0
100
AcDbBlockEnd
  0
BLOCK
  5
2F3D
330
2F37
100
AcDbEntity
  8
0
100
AcDbBlockBegin
  2
*D12
 70
     1
 10
0.0
 20
0.0
 30
0.0
  3
*D12
  1

  0
LINE
  5
2F46
330
2F37
100
AcDbEntity
  8
Bemaßung
 62
     0
370
    -2
100
AcDbLine
 10
285.6301875290917
 20
136.131550869045
 30
0.0
 11
175.4651330124557
 21
267.4110525770013
 31
0.0
  0
MTEXT
  5
2F47
330
2F37
100
AcDbEntity
  8
Bemaßung
 62
     0
100
AcDbMText
 10
283.9863122315846
 20
141.0073450044337
 30
0.0
 40
2.5
 41
0.0
 71
     5
 72
     1
  1
\U+2205200
 11
0.6428166221206137
 21
-0.7660200978600001
 31
0.0
 73
     1
 44
1.0
  0
SOLID
  5
2F48
330
2F37
100
AcDbEntity
  8
Bemaßung
 62
     0
100
AcDbTrace
 10
175.7843080532307
 20
267.6788928362181
 30
0.0
 11
175.1459579716807
 21
267.1432123177843
 31
0.0
 12
173.8580914571542
 22
269.3261028216513
 32
0.0
 13
173.8580914571542
 23
269.3261028216513
 33
0.0
  0
POINT
  5
2F49
330
2F37
100
AcDbEntity
  8
Defpoints
 62
     0
100
AcDbPoint
 10
173.8580914571542
 20
269.3261028216513
 30
0.0
  0
POINT
  5
2F4A
330
2F37
100
AcDbEntity
  8
Defpoints
 62
     0
100
AcDbPoint
 10
302.4214158812768
 20
116.1220832496513
 30
0.0
  0
ENDBLK
  5
2F3E
330
2F37
100
AcDbEntity
  8
0
100
AcDbBlockEnd
  0
BLOCK
  5
2F52
330
2F4C
100
AcDbEntity
  8
0
100
AcDbBlockBegin
  2
*D13
 70
     1
 10
0.0
 20
0.0
 30
0.0
  3
*D13
  1

  0
LINE
  5
2F5B
330
2F4C
100
AcDbEntity
  8
Bemaßung
 62
     0
370
    -2
100
AcDbLine
 10
186.578041991379
 20
131.4354653209517
 30
0.0
 11
310.5641322155737
 21
278.8110484480375
 31
0.0
  0
MTEXT
  5
2F5C
330
2F4C
100
AcDbEntity
  8
Bemaßung
 62
     0
100
AcDbMText
 10
188.3621203527301
 20
136.4686243091576
 30
0.0
 40
2.5
 41
0.0
 71
     5
 72
     1
  1
\U+2205230
 11
0.6437721392970272
 21
0.7652172454048126
 31
0.0
 73
     1
 44
1.0
  0
SOLID
  5
2F5D
330
2F4C
100
AcDbEntity
  8
Bemaßung
 62
     0
100
AcDbTrace
 10
310.2452916966551
 20
279.0792868394113
 30
0.0
 11
310.8829727344924
 21
278.5428100566638
 31
0.0
 12
312.1735625638164
 22
280.7240915615496
 32
0.0
 13
312.1735625638164
 23
280.7240915615496
 33
0.0
  0
POINT
  5
2F5E
330
2F4C
100
AcDbEntity
  8
Defpoints
 62
     0
100
AcDbPoint
 10
312.1735625638164
 20
280.7240915615496
 30
0.0
  0
POINT
  5
2F5F
330
2F4C
100
AcDbEntity
  8
Defpoints
 62
     0
100
AcDbPoint
 10
164.1059447746146
 20
104.7240945097529
 30
0.0
  0
ENDBLK
  5
2F53
330
2F4C
100
AcDbEntity
  8
0
100
AcDbBlockEnd
  0
BLOCK
  5
2F83
330
2F79
100
AcDbEntity
  8
0
100
AcDbBlockBegin
  2
*D14
 70
     1
 10
0.0
 20
0.0
 30
0.0
  3
*D14
  1

  0
LINE
  5
2F90
330
2F79
100
AcDbEntity
  8
Bemaßung
 62
     0
370
    -2
100
AcDbLine
 10
337.7571936692156
 20
192.7240930356513
 30
0.0
 11
350.5465768252507
 21
192.7240930356513
 31
0.0
  0
LINE
  5
2F91
330
2F79
100
AcDbEntity
  8
Bemaßung
 62
     0
370
    -2
100
AcDbLine
 10
255.1647836692156
 20
50.7240830356514
 30
0.0
 11
350.5465768252506
 21
50.72408303565137
 31
0.0
  0
LINE
  5
2F92
330
2F79
100
AcDbEntity
  8
Bemaßung
 62
     0
370
    -2
100
AcDbLine
 10
349.2965768252507
 20
190.2240930356513
 30
0.0
 11
349.2965768252506
 21
53.22408303565137
 31
0.0
  0
SOLID
  5
2F93
330
2F79
100
AcDbEntity
  8
Bemaßung
 62
     0
100
AcDbTrace
 10
348.879910158584
 20
190.2240930356513
 30
0.0
 11
349.7132434919174
 21
190.2240930356513
 31
0.0
 12
349.2965768252507
 22
192.7240930356513
 32
0.0
 13
349.2965768252507
 23
192.7240930356513
 33
0.0
  0
SOLID
  5
2F94
330
2F79
100
AcDbEntity
  8
Bemaßung
 62
     0
100
AcDbTrace
 10
348.8799101585839
 20
53.22408303565137
 30
0.0
 11
349.7132434919173
 21
53.22408303565137
 31
0.0
 12
349.2965768252506
 22
50.72408303565137
 32
0.0
 13
349.2965768252506
 23
50.72408303565137
 33
0.0
  0
MTEXT
  5
2F95
330
2F79
100
AcDbEntity
  8
Bemaßung
 62
     0
100
AcDbMText
 10
347.4215768252506
 20
121.7240880356514
 30
0.0
 40
2.5
 41
0.0
 71
     5
 72
     1
  1
142
 11
0.0000000000000001
 21
1.0
 31
0.0
 73
     1
 44
1.0
  0
POINT
  5
2F96
330
2F79
100
AcDbEntity
  8
Defpoints
 62
     0
100
AcDbPoint
 10
337.1321936692156
 20
192.7240930356513
 30
0.0
  0
POINT
  5
2F97
330
2F79
100
AcDbEntity
  8
Defpoints
 62
     0
100
AcDbPoint
 10
254.5397836692156
 20
50.7240830356514
 30
0.0
  0
POINT
  5
2F98
330
2F79
100
AcDbEntity
  8
Defpoints
 62
     0
100
AcDbPoint
 10
349.2965768252506
 20
50.72408303565137
 30
0.0
  0
ENDBLK
  5
2F84
330
2F79
100
AcDbEntity
  8
0
100
AcDbBlockEnd
  0
BLOCK
  5
2FA4
330
2F9A
100
AcDbEntity
  8
0
100
AcDbBlockBegin
  2
*D15
 70
     1
 10
0.0
 20
0.0
 30
0.0
  3
*D15
  1

  0
LINE
  5
2FB1
330
2F9A
100
AcDbEntity
  8
Bemaßung
 62
     0
370
    -2
100
AcDbLine
 10
215.1397536692155
 20
69.09909303565143
 30
0.0
 11
215.1397536692155
 21
34.03655707458233
 31
0.0
  0
LINE
  5
2FB2
330
2F9A
100
AcDbEntity
  8
Bemaßung
 62
     0
370
    -2
100
AcDbLine
 10
261.1397536692155
 20
69.09909303565143
 30
0.0
 11
261.1397536692155
 21
34.03655707458233
 31
0.0
  0
LINE
  5
2FB3
330
2F9A
100
AcDbEntity
  8
Bemaßung
 62
     0
370
    -2
100
AcDbLine
 10
217.6397536692155
 20
35.28655707458233
 30
0.0
 11
258.6397536692155
 21
35.28655707458233
 31
0.0
  0
SOLID
  5
2FB4
330
2F9A
100
AcDbEntity
  8
Bemaßung
 62
     0
100
AcDbTrace
 10
217.6397536692155
 20
35.70322374124899
 30
0.0
 11
217.6397536692155
 21
34.86989040791566
 31
0.0
 12
215.1397536692155
 22
35.28655707458233
 32
0.0
 13
215.1397536692155
 23
35.28655707458233
 33
0.0
  0
SOLID
  5
2FB5
330
2F9A
100
AcDbEntity
  8
Bemaßung
 62
     0
100
AcDbTrace
 10
258.6397536692155
 20
35.70322374124899
 30
0.0
 11
258.6397536692155
 21
34.86989040791566
 31
0.0
 12
261.1397536692155
 22
35.28655707458233
 32
0.0
 13
261.1397536692155
 23
35.28655707458233
 33
0.0
  0
MTEXT
  5
2FB6
330
2F9A
100
AcDbEntity
  8
Bemaßung
 62
     0
100
AcDbMText
 10
238.1397536692155
 20
37.16155707458233
 30
0.0
 40
2.5
 41
0.0
 71
     5
 72
     1
  1
46
 73
     1
 44
1.0
  0
POINT
  5
2FB7
330
2F9A
100
AcDbEntity
  8
Defpoints
 62
     0
100
AcDbPoint
 10
215.1397536692155
 20
69.72409303565143
 30
0.0
  0
POINT
  5
2FB8
330
2F9A
100
AcDbEntity
  8
Defpoints
 62
     0
100
AcDbPoint
 10
261.1397536692155
 20
69.72409303565143
 30
0.0
  0
POINT
  5
2FB9
330
2F9A
100
AcDbEntity
  8
Defpoints
 62
     0
100
AcDbPoint
 10
261.1397536692155
 20
35.28655707458233
 30
0.0
  0
ENDBLK
  5
2FA5
330
2F9A
100
AcDbEntity
  8
0
100
AcDbBlockEnd
  0
BLOCK
  5
30C1
330
30B7
100
AcDbEntity
  8
0
100
AcDbBlockBegin
  2
*D16
 70
     1
 10
0.0
 20
0.0
 30
0.0
  3
*D16
  1

  0
LINE
  5
30D7
330
30B7
100
AcDbEntity
  8
Bemaßung
 62
     0
370
    -2
100
AcDbLine
 10
375.6876724188466
 20
192.2231641762991
 30
0.0
 11
375.6876724188466
 21
29.99242758433865
 31
0.0
  0
LINE
  5
30D8
330
30B7
100
AcDbEntity
  8
Bemaßung
 62
     0
370
    -2
100
AcDbLine
 10
444.6876724188467
 20
76.22352417629929
 30
0.0
 11
444.6876724188467
 21
29.99242758433865
 31
0.0
  0
LINE
  5
30D9
330
30B7
100
AcDbEntity
  8
Bemaßung
 62
     0
370
    -2
100
AcDbLine
 10
378.1876724188466
 20
31.24242758433865
 30
0.0
 11
442.1876724188466
 21
31.24242758433865
 31
0.0
  0
SOLID
  5
30DA
330
30B7
100
AcDbEntity
  8
Bemaßung
 62
     0
100
AcDbTrace
 10
378.1876724188466
 20
31.65909425100532
 30
0.0
 11
378.1876724188466
 21
30.82576091767199
 31
0.0
 12
375.6876724188466
 22
31.24242758433865
 32
0.0
 13
375.6876724188466
 23
31.24242758433865
 33
0.0
  0
SOLID
  5
30DB
330
30B7
100
AcDbEntity
  8
Bemaßung
 62
     0
100
AcDbTrace
 10
442.1876724188466
 20
31.65909425100532
 30
0.0
 11
442.1876724188466
 21
30.82576091767199
 31
0.0
 12
444.6876724188467
 22
31.24242758433865
 32
0.0
 13
444.6876724188467
 23
31.24242758433865
 33
0.0
  0
MTEXT
  5
30DC
330
30B7
100
AcDbEntity
  8
Bemaßung
 62
     0
100
AcDbMText
 10
410.1876724188466
 20
33.11742758433865
 30
0.0
 40
2.5
 41
0.0
 71
     5
 72
     1
  1
69
 73
     1
 44
1.0
  0
POINT
  5
30DD
330
30B7
100
AcDbEntity
  8
Defpoints
 62
     0
100
AcDbPoint
 10
375.6876724188466
 20
192.8481641762991
 30
0.0
  0
POINT
  5
30DE
330
30B7
100
AcDbEntity
  8
Defpoints
 62
     0
100
AcDbPoint
 10
444.6876724188467
 20
76.84852417629929
 30
0.0
  0
POINT
  5
30DF
330
30B7
100
AcDbEntity
  8
Defpoints
 62
     0
100
AcDbPoint
 10
444.6876724188467
 20
31.24242758433865
 30
0.0
  0
ENDBLK
  5
30C2
330
30B7
100
AcDbEntity
  8
0
100
AcDbBlockEnd
  0
ENDSEC
  0
SECTION
  2
ENTITIES
  0
ARC
  5
2A70
330
1F
100
AcDbEntity
  8
Innenkanten
100
AcDbCircle
 10
1023.173043669215
 20
192.7242130356514
 30
0.0
 40
1434.046399999999
100
AcDbArc
 50
177.7589000000002
 51
182.2410900000004
  0
ARC
  5
2A71
330
1F
100
AcDbEntity
  8
Mittellinie
100
AcDbCircle
 10
-322.8731163307843
 20
192.7240930356513
 30
0.0
 40
91.5
100
AcDbArc
 50
203.6730199999996
 51
216.025020000001
  0
CIRCLE
  5
2A72
330
1F
100
AcDbEntity
  8
Innenkanten
100
AcDbCircle
 10
-402.1121183307843
 20
146.9740930356514
 30
0.0
 40
6.5
  0
CIRCLE
  5
2A73
330
1F
100
AcDbEntity
  8
Innenkanten
100
AcDbCircle
 10
-402.1121183307843
 20
146.9740930356514
 30
0.0
 40
7.7
  0
ARC
  5
2A74
330
1F
100
AcDbEntity
  8
Innenkanten
100
AcDbCircle
 10
-1668.919256330784
 20
192.7241830356514
 30
0.0
 40
1434.046399999999
100
AcDbArc
 50
357.758929999998
 51
2.241122000000344
  0
LINE
  5
2A7A
330
1F
100
AcDbEntity
  8
0
100
AcDbLine
 10
-303.8731163307843
 20
130.5147630356514
 30
0.0
 11
-303.8731163307843
 21
159.2390130356513
 31
0.0
  0
LINE
  5
2A7B
330
1F
100
AcDbEntity
  8
0
100
AcDbLine
 10
-341.8731163307843
 20
130.5147630356514
 30
0.0
 11
-341.8731163307843
 21
159.2393730356514
 31
0.0
  0
LINE
  5
2A7C
330
1F
100
AcDbEntity
  8
0
100
AcDbLine
 10
-302.3731163307843
 20
134.3147630356514
 30
0.0
 11
-302.3734263307843
 21
158.3765430356513
 31
0.0
  0
LINE
  5
2A7D
330
1F
100
AcDbEntity
  8
0
100
AcDbLine
 10
-343.3734163307843
 20
158.3769130356514
 30
0.0
 11
-343.3731163307843
 21
134.3147630356514
 31
0.0
  0
LINE
  5
2A7E
330
1F
100
AcDbEntity
  8
0
100
AcDbLine
 10
-234.8722663307843
 20
118.6913330356513
 30
0.0
 11
-234.8735663307843
 21
266.7583930356513
 31
0.0
  0
LINE
  5
2A7F
330
1F
100
AcDbEntity
  8
0
100
AcDbLine
 10
-410.8739823307844
 20
266.7568430356514
 30
0.0
 11
-410.8726783307843
 21
118.6897930356514
 31
0.0
  0
LINE
  5
2A80
330
1F
100
AcDbEntity
  8
Mittellinie
100
AcDbLine
 10
-322.8731163307843
 20
46.1900630356514
 30
0.0
 11
-322.8731163307843
 21
299.5255130356513
 31
0.0
  0
LINE
  5
2A81
330
1F
100
AcDbEntity
  8
0
100
AcDbLine
 10
-336.6731363307843
 20
111.2147530356513
 30
0.0
 11
-309.0731363307843
 21
111.2147530356513
 31
0.0
  0
LINE
  5
2A82
330
1F
100
AcDbEntity
  8
Innenkanten
100
AcDbLine
 10
-308.0731363307843
 20
127.5147630356514
 30
0.0
 11
-337.6731363307843
 21
127.5147630356514
 31
0.0
  0
LINE
  5
2A83
330
1F
100
AcDbEntity
  8
Innenkanten
100
AcDbLine
 10
-337.6731363307843
 20
112.2147530356513
 30
0.0
 11
-308.0731363307843
 21
112.2147530356513
 31
0.0
  0
LINE
  5
2A84
330
1F
100
AcDbEntity
  8
Innenkanten
100
AcDbLine
 10
-341.8731163307843
 20
133.3147630356514
 30
0.0
 11
-303.8731163307843
 21
133.3147630356514
 31
0.0
  0
LINE
  5
2A85
330
1F
100
AcDbEntity
  8
0
100
AcDbLine
 10
-303.8731163307843
 20
130.5147630356514
 30
0.0
 11
-341.9231363307843
 21
130.5147630356514
 31
0.0
  0
LINE
  5
2A86
330
1F
100
AcDbEntity
  8
0
100
AcDbLine
 10
-343.3731163307843
 20
134.3147630356514
 30
0.0
 11
-302.3731163307843
 21
134.3147630356514
 31
0.0
  0
LINE
  5
2A87
330
1F
100
AcDbEntity
  8
0
100
AcDbLine
 10
-396.9058653307843
 20
104.7232430356514
 30
0.0
 11
-248.8388163307843
 21
104.7245330356514
 31
0.0
  0
LINE
  5
2A88
330
1F
100
AcDbEntity
  8
Innenkanten
100
AcDbLine
 10
-345.8731163307843
 20
73.52409303565138
 30
0.0
 11
-299.8731163307843
 21
73.52409303565138
 31
0.0
  0
LINE
  5
2A89
330
1F
100
AcDbEntity
  8
Innenkanten
100
AcDbLine
 10
-345.8731163307843
 20
72.52409303565139
 30
0.0
 11
-299.8731163307843
 21
72.52409303565139
 31
0.0
  0
LINE
  5
2A8A
330
1F
100
AcDbEntity
  8
Innenkanten
100
AcDbLine
 10
-340.2731463307843
 20
51.72409303565143
 30
0.0
 11
-305.4731263307843
 21
51.72409303565143
 31
0.0
  0
LINE
  5
2A8B
330
1F
100
AcDbEntity
  8
Innenkanten
100
AcDbLine
 10
-305.4731263307843
 20
66.72409303565143
 30
0.0
 11
-340.2731463307843
 21
66.72409303565143
 31
0.0
  0
LINE
  5
2A8C
330
1F
100
AcDbEntity
  8
0
100
AcDbLine
 10
-339.2731463307843
 20
50.72409303565144
 30
0.0
 11
-306.4731263307843
 21
50.72409303565144
 31
0.0
  0
LINE
  5
2A8D
330
1F
100
AcDbEntity
  8
Innenkanten
100
AcDbLine
 10
-299.8731163307843
 20
103.7242030356513
 30
0.0
 11
-345.8731163307843
 21
103.7242030356513
 31
0.0
  0
LINE
  5
2A8E
330
1F
100
AcDbEntity
  8
0
100
AcDbLine
 10
-345.8731163307843
 20
69.72409303565143
 30
0.0
 11
-299.8731163307843
 21
69.72409303565143
 31
0.0
  0
LINE
  5
2A8F
330
1F
100
AcDbEntity
  8
0
100
AcDbLine
 10
-345.8731163307843
 20
69.72409303565143
 30
0.0
 11
-345.8731163307843
 21
104.7242030356513
 31
0.0
  0
LINE
  5
2A90
330
1F
100
AcDbEntity
  8
Innenkanten
100
AcDbLine
 10
-339.2731463307843
 20
66.72409303565143
 30
0.0
 11
-339.2731463307843
 21
50.72409303565144
 31
0.0
  0
LINE
  5
2A91
330
1F
100
AcDbEntity
  8
0
100
AcDbLine
 10
-340.2731463307843
 20
69.72409303565143
 30
0.0
 11
-340.2731463307843
 21
51.72409303565143
 31
0.0
  0
LINE
  5
2A92
330
1F
100
AcDbEntity
  8
0
100
AcDbLine
 10
-340.2731463307843
 20
51.72409303565143
 30
0.0
 11
-339.2731463307843
 21
50.72409303565144
 31
0.0
  0
ARC
  5
2A93
330
1F
100
AcDbEntity
  8
Innenkanten
100
AcDbCircle
 10
-378.8731203307843
 20
106.7233930356513
 30
0.0
 40
2.0
100
AcDbArc
 50
179.9999799999979
 51
270.0004399999986
  0
ARC
  5
2A94
330
1F
100
AcDbEntity
  8
0
100
AcDbCircle
 10
-322.8731163307843
 20
192.7240930356513
 30
0.0
 40
114.99999
100
AcDbArc
 50
220.0739900000001
 51
229.9269800000006
  0
LINE
  5
2A95
330
1F
100
AcDbEntity
  8
Mittellinie
100
AcDbLine
 10
-404.1896183307843
 20
111.4075930356514
 30
0.0
 11
-386.4637653307843
 21
129.1335630356513
 31
0.0
  0
LINE
  5
2A96
330
1F
100
AcDbEntity
  8
Innenkanten
100
AcDbLine
 10
-407.7780273307844
 20
134.7242030356513
 30
0.0
 11
-395.8731203307843
 21
134.7242030356513
 31
0.0
  0
ARC
  5
2A97
330
1F
100
AcDbEntity
  8
Innenkanten
100
AcDbCircle
 10
-407.7780273307844
 20
136.7242030356513
 30
0.0
 40
2.0
100
AcDbArc
 50
182.2412099999998
 51
270.0000199999987
  0
ARC
  5
2A98
330
1F
100
AcDbEntity
  8
Innenkanten
100
AcDbCircle
 10
-395.8731203307843
 20
119.7242030356513
 30
0.0
 40
15.0
100
AcDbArc
 50
0.0
 51
89.9999820000008
  0
CIRCLE
  5
2A99
330
1F
100
AcDbEntity
  8
Innenkanten
100
AcDbCircle
 10
-393.5838363307843
 20
122.0134430356514
 30
0.0
 40
6.75
  0
ARC
  5
2A9A
330
1F
100
AcDbEntity
  8
Mittellinie
100
AcDbCircle
 10
-322.8731163307843
 20
192.7240930356513
 30
0.0
 40
100.0
100
AcDbArc
 50
218.7169799999998
 51
232.0164100000005
  0
LINE
  5
2A9B
330
1F
100
AcDbEntity
  8
Innenkanten
100
AcDbLine
 10
-380.8731203307843
 20
119.7242030356513
 30
0.0
 11
-380.8731203307843
 21
106.7233930356513
 31
0.0
  0
LINE
  5
2A9C
330
1F
100
AcDbEntity
  8
Innenkanten
100
AcDbLine
 10
-336.6731363307843
 20
127.5147630356514
 30
0.0
 11
-336.6731363307843
 21
111.2147530356513
 31
0.0
  0
LINE
  5
2A9D
330
1F
100
AcDbEntity
  8
0
100
AcDbLine
 10
-337.6731363307843
 20
130.5147630356514
 30
0.0
 11
-337.6731363307843
 21
112.2147530356513
 31
0.0
  0
LINE
  5
2A9E
330
1F
100
AcDbEntity
  8
0
100
AcDbLine
 10
-336.6731363307843
 20
111.2147530356513
 30
0.0
 11
-337.6731363307843
 21
112.2147530356513
 31
0.0
  0
LINE
  5
2A9F
330
1F
100
AcDbEntity
  8
0
100
AcDbLine
 10
-299.8731163307843
 20
69.72409303565143
 30
0.0
 11
-299.8731163307843
 21
104.7242030356513
 31
0.0
  0
LINE
  5
2AA0
330
1F
100
AcDbEntity
  8
Innenkanten
100
AcDbLine
 10
-306.4731263307843
 20
50.72409303565144
 30
0.0
 11
-306.4731263307843
 21
66.72409303565143
 31
0.0
  0
LINE
  5
2AA1
330
1F
100
AcDbEntity
  8
0
100
AcDbLine
 10
-305.4731263307843
 20
51.72409303565143
 30
0.0
 11
-305.4731263307843
 21
69.72409303565143
 31
0.0
  0
LINE
  5
2AA2
330
1F
100
AcDbEntity
  8
0
100
AcDbLine
 10
-306.4731263307843
 20
50.72409303565144
 30
0.0
 11
-305.4731263307843
 21
51.72409303565143
 31
0.0
  0
CIRCLE
  5
2AA3
330
1F
100
AcDbEntity
  8
Innenkanten
100
AcDbCircle
 10
-252.1624863307843
 20
122.0133730356514
 30
0.0
 40
6.75
  0
ARC
  5
2AA4
330
1F
100
AcDbEntity
  8
Mittellinie
100
AcDbCircle
 10
-322.8731163307843
 20
192.7240930356513
 30
0.0
 40
100.0
100
AcDbArc
 50
308.7700299999998
 51
321.2834799999995
  0
ARC
  5
2AA5
330
1F
100
AcDbEntity
  8
0
100
AcDbCircle
 10
-322.8731163307843
 20
192.7240930356513
 30
0.0
 40
114.99999
100
AcDbArc
 50
310.0739999999997
 51
319.9270099999999
  0
LINE
  5
2AA6
330
1F
100
AcDbEntity
  8
Mittellinie
100
AcDbLine
 10
-244.3655363307843
 20
114.2164830356514
 30
0.0
 11
-259.2774463307844
 21
129.1283730356514
 31
0.0
  0
LINE
  5
2AA7
330
1F
100
AcDbEntity
  8
Innenkanten
100
AcDbLine
 10
-249.8731463307843
 20
134.7242030356513
 30
0.0
 11
-237.9676963307843
 21
134.7242030356513
 31
0.0
  0
LINE
  5
2AA8
330
1F
100
AcDbEntity
  8
Mittellinie
100
AcDbLine
 10
-282.2861863307844
 20
122.4254930356514
 30
0.0
 11
-272.0867163307843
 21
104.7594830356514
 31
0.0
  0
CIRCLE
  5
2AA9
330
1F
100
AcDbEntity
  8
Innenkanten
100
AcDbCircle
 10
-277.1231163307843
 20
113.4827930356514
 30
0.0
 40
7.7
  0
CIRCLE
  5
2AAA
330
1F
100
AcDbEntity
  8
Innenkanten
100
AcDbCircle
 10
-277.1231163307843
 20
113.4827930356514
 30
0.0
 40
6.5
  0
ARC
  5
2AAB
330
1F
100
AcDbEntity
  8
0
100
AcDbCircle
 10
-322.8731163307843
 20
192.7240930356513
 30
0.0
 40
91.5
100
AcDbArc
 50
293.6730400000008
 51
306.0250600000011
  0
ARC
  5
2AAC
330
1F
100
AcDbEntity
  8
Mittellinie
100
AcDbCircle
 10
-322.8731163307843
 20
192.7240930356513
 30
0.0
 40
91.5
100
AcDbArc
 50
293.6730199999995
 51
306.0249900000004
  0
LINE
  5
2AAD
330
1F
100
AcDbEntity
  8
Innenkanten
100
AcDbLine
 10
-278.8551463307843
 20
110.4827330356514
 30
0.0
 11
-275.3910663307844
 21
110.4827330356514
 31
0.0
  0
LINE
  5
2AAE
330
1F
100
AcDbEntity
  8
Innenkanten
100
AcDbLine
 10
-275.3910663307844
 20
116.4827330356514
 30
0.0
 11
-278.8551463307843
 21
116.4827330356514
 31
0.0
  0
LINE
  5
2AAF
330
1F
100
AcDbEntity
  8
Innenkanten
100
AcDbLine
 10
-309.0731363307843
 20
111.2147530356513
 30
0.0
 11
-309.0731363307843
 21
127.5147630356514
 31
0.0
  0
LINE
  5
2AB0
330
1F
100
AcDbEntity
  8
0
100
AcDbLine
 10
-308.0731363307843
 20
112.2147530356513
 30
0.0
 11
-308.0731363307843
 21
130.5147630356514
 31
0.0
  0
LINE
  5
2AB1
330
1F
100
AcDbEntity
  8
0
100
AcDbLine
 10
-308.0731363307843
 20
112.2147530356513
 30
0.0
 11
-309.0731363307843
 21
111.2147530356513
 31
0.0
  0
LINE
  5
2AB2
330
1F
100
AcDbEntity
  8
Innenkanten
100
AcDbLine
 10
-278.8551763307844
 20
116.4827430356514
 30
0.0
 11
-280.5872363307843
 21
113.4827330356514
 31
0.0
  0
LINE
  5
2AB3
330
1F
100
AcDbEntity
  8
Innenkanten
100
AcDbLine
 10
-280.5872163307843
 20
113.4827330356514
 30
0.0
 11
-278.8551563307843
 21
110.4827330356514
 31
0.0
  0
ARC
  5
2AB4
330
1F
100
AcDbEntity
  8
Innenkanten
100
AcDbCircle
 10
-249.8731463307843
 20
119.7242030356513
 30
0.0
 40
15.0
100
AcDbArc
 50
89.9999820000008
 51
179.9999599999992
  0
LINE
  5
2AB5
330
1F
100
AcDbEntity
  8
Innenkanten
100
AcDbLine
 10
-273.6590263307844
 20
113.4827730356514
 30
0.0
 11
-275.3910963307843
 21
116.4827730356514
 31
0.0
  0
LINE
  5
2AB6
330
1F
100
AcDbEntity
  8
Innenkanten
100
AcDbLine
 10
-264.8731463307843
 20
106.7242030356513
 30
0.0
 11
-264.8731463307843
 21
119.7242030356513
 31
0.0
  0
LINE
  5
2AB7
330
1F
100
AcDbEntity
  8
Innenkanten
100
AcDbLine
 10
-275.3910963307843
 20
110.4827130356513
 30
0.0
 11
-273.6590263307844
 21
113.4827130356513
 31
0.0
  0
ARC
  5
2AB8
330
1F
100
AcDbEntity
  8
Innenkanten
100
AcDbCircle
 10
-237.9682163307843
 20
136.7239530356513
 30
0.0
 40
2.0
100
AcDbArc
 50
270.0000199999987
 51
357.75882
  0
CIRCLE
  5
2AD4
330
1F
100
AcDbEntity
  8
Innenkanten
100
AcDbCircle
 10
-308.1731363307843
 20
147.2147530356513
 30
0.0
 40
2.0
  0
ARC
  5
2AD5
330
1F
100
AcDbEntity
  8
0
100
AcDbCircle
 10
-322.8731163307843
 20
192.7240930356513
 30
0.0
 40
40.0
100
AcDbArc
 50
300.8299900000016
 51
239.168960000001
  0
ARC
  5
2AD6
330
1F
100
AcDbEntity
  8
0
100
AcDbCircle
 10
-322.8731163307843
 20
192.7240930356513
 30
0.0
 40
38.5
100
AcDbArc
 50
299.5713099999999
 51
240.4286700000004
  0
LINE
  5
2AD7
330
1F
100
AcDbEntity
  8
Innenkanten
100
AcDbLine
 10
-305.8562763307843
 20
147.2147530356513
 30
0.0
 11
-310.7606063307844
 21
147.2147530356513
 31
0.0
  0
LINE
  5
2AD8
330
1F
100
AcDbEntity
  8
0
100
AcDbLine
 10
-350.3861563307844
 20
235.2147530356514
 30
0.0
 11
-295.3601163307844
 21
235.2147530356514
 31
0.0
  0
LINE
  5
2AD9
330
1F
100
AcDbEntity
  8
0
100
AcDbLine
 10
-396.9073993307842
 20
280.7236630356515
 30
0.0
 11
-248.8403563307842
 21
280.7249530356514
 31
0.0
  0
LINE
  5
2ADA
330
1F
100
AcDbEntity
  8
Mittellinie
100
AcDbLine
 10
-421.4700443307842
 20
192.7240930356513
 30
0.0
 11
-224.4528663307843
 21
192.7240930356513
 31
0.0
  0
LINE
  5
2ADB
330
1F
100
AcDbEntity
  8
0
100
AcDbLine
 10
-365.3731123307843
 20
220.2277530356514
 30
0.0
 11
-365.3731203307843
 21
165.2206330356514
 31
0.0
  0
LINE
  5
2ADC
330
1F
100
AcDbEntity
  8
Innenkanten
100
AcDbLine
 10
-405.1144493307843
 20
145.2420530356514
 30
0.0
 11
-402.1144573307843
 21
143.5100030356513
 31
0.0
  0
LINE
  5
2ADD
330
1F
100
AcDbEntity
  8
Innenkanten
100
AcDbLine
 10
-402.1144533307842
 20
150.4381930356513
 30
0.0
 11
-405.1144453307842
 21
148.7061330356514
 31
0.0
  0
LINE
  5
2ADE
330
1F
100
AcDbEntity
  8
Mittellinie
100
AcDbLine
 10
-410.8377163307843
 20
141.9377130356514
 30
0.0
 11
-393.1716893307843
 21
152.1371830356514
 31
0.0
  0
LINE
  5
2ADF
330
1F
100
AcDbEntity
  8
Innenkanten
100
AcDbLine
 10
-405.1144493307843
 20
148.7061530356513
 30
0.0
 11
-405.1144493307843
 21
145.2420530356514
 31
0.0
  0
LINE
  5
2AE0
330
1F
100
AcDbEntity
  8
Innenkanten
100
AcDbLine
 10
-399.1144493307842
 20
148.7061530356513
 30
0.0
 11
-402.1144573307843
 21
150.4382030356514
 31
0.0
  0
LINE
  5
2AE1
330
1F
100
AcDbEntity
  8
Innenkanten
100
AcDbLine
 10
-399.1144493307842
 20
145.2420530356514
 30
0.0
 11
-399.1144493307842
 21
148.7061530356513
 31
0.0
  0
LINE
  5
2AE2
330
1F
100
AcDbEntity
  8
Innenkanten
100
AcDbLine
 10
-402.1144573307843
 20
143.5100030356513
 30
0.0
 11
-399.1144493307842
 21
145.2420530356514
 31
0.0
  0
ARC
  5
2AE3
330
1F
100
AcDbEntity
  8
Innenkanten
100
AcDbCircle
 10
-358.1111263307843
 20
163.1558130356514
 30
0.0
 40
4.480268999999999
100
AcDbArc
 50
314.9996499999998
 51
134.9996699999997
  0
LINE
  5
2AE4
330
1F
100
AcDbEntity
  8
Innenkanten
100
AcDbLine
 10
-357.5416963307843
 20
157.3892230356514
 30
0.0
 11
-354.9431163307843
 21
159.9877830356514
 31
0.0
  0
LINE
  5
2AE5
330
1F
100
AcDbEntity
  8
0
100
AcDbLine
 10
-350.3672563307843
 20
150.2147830356514
 30
0.0
 11
-365.3731123307843
 21
165.2206430356514
 31
0.0
  0
LINE
  5
2AE6
330
1F
100
AcDbEntity
  8
0
100
AcDbLine
 10
-343.3731163307843
 20
150.2147530356513
 30
0.0
 11
-350.3672563307843
 21
150.2147730356514
 31
0.0
  0
ARC
  5
2AE7
330
1F
100
AcDbEntity
  8
Mittellinie
100
AcDbCircle
 10
-322.8731163307843
 20
192.7240930356513
 30
0.0
 40
46.0
100
AcDbArc
 50
215.6151099999992
 51
224.1284800000002
  0
CIRCLE
  5
2AE8
330
1F
100
AcDbEntity
  8
Innenkanten
100
AcDbCircle
 10
-358.1111263307843
 20
163.1558130356514
 30
0.0
 40
3.799999999999999
  0
CIRCLE
  5
2AE9
330
1F
100
AcDbEntity
  8
Innenkanten
100
AcDbCircle
 10
-358.1111263307843
 20
163.1558130356514
 30
0.0
 40
3.5
  0
LINE
  5
2AEA
330
1F
100
AcDbEntity
  8
Innenkanten
100
AcDbLine
 10
-356.4823763307842
 20
162.5643930356513
 30
0.0
 11
-356.7831263307843
 21
164.2701330356514
 31
0.0
  0
LINE
  5
2AEB
330
1F
100
AcDbEntity
  8
Innenkanten
100
AcDbLine
 10
-357.8091563307844
 20
161.4510530356513
 30
0.0
 11
-356.4823563307843
 21
162.5643930356513
 31
0.0
  0
LINE
  5
2AEC
330
1F
100
AcDbEntity
  8
Mittellinie
100
AcDbLine
 10
-354.4032363307843
 20
166.2671130356514
 30
0.0
 11
-360.5390823307843
 21
161.1185330356514
 31
0.0
  0
LINE
  5
2AED
330
1F
100
AcDbEntity
  8
Innenkanten
100
AcDbLine
 10
-363.8777593307843
 20
163.7252730356514
 30
0.0
 11
-361.2791493307843
 21
166.3238530356513
 31
0.0
  0
LINE
  5
2AEE
330
1F
100
AcDbEntity
  8
Innenkanten
100
AcDbLine
 10
-359.4367643307843
 20
162.0434430356514
 30
0.0
 11
-357.8091663307843
 21
161.4510530356513
 31
0.0
  0
LINE
  5
2AEF
330
1F
100
AcDbEntity
  8
Innenkanten
100
AcDbLine
 10
-359.7375693307843
 20
163.7491630356514
 30
0.0
 11
-359.4367803307843
 21
162.0434330356514
 31
0.0
  0
LINE
  5
2AF0
330
1F
100
AcDbEntity
  8
Innenkanten
100
AcDbLine
 10
-358.4107063307843
 20
164.8625030356513
 30
0.0
 11
-359.7375533307843
 21
163.7491630356514
 31
0.0
  0
LINE
  5
2AF1
330
1F
100
AcDbEntity
  8
Innenkanten
100
AcDbLine
 10
-356.7831263307843
 20
164.2701130356514
 30
0.0
 11
-358.4107063307843
 21
164.8625030356513
 31
0.0
  0
LINE
  5
2AF2
330
1F
100
AcDbEntity
  8
Innenkanten
100
AcDbLine
 10
-337.5731363307843
 20
150.1227630356514
 30
0.0
 11
-337.5731363307843
 21
145.1227630356514
 31
0.0
  0
CIRCLE
  5
2AF3
330
1F
100
AcDbEntity
  8
Innenkanten
100
AcDbCircle
 10
-337.5731363307843
 20
147.2147530356513
 30
0.0
 40
2.0
  0
LINE
  5
2AF4
330
1F
100
AcDbEntity
  8
Innenkanten
100
AcDbLine
 10
-340.1039863307843
 20
147.2147530356513
 30
0.0
 11
-335.3914263307842
 21
147.2147530356513
 31
0.0
  0
ARC
  5
2AF5
330
1F
100
AcDbEntity
  8
Mittellinie
100
AcDbCircle
 10
-322.8731163307843
 20
192.7240930356513
 30
0.0
 40
91.5
100
AcDbArc
 50
113.6730199999996
 51
126.025020000001
  0
CIRCLE
  5
2AF6
330
1F
100
AcDbEntity
  8
Innenkanten
100
AcDbCircle
 10
-368.6231353307844
 20
271.9653930356514
 30
0.0
 40
6.5
  0
CIRCLE
  5
2AF7
330
1F
100
AcDbEntity
  8
Innenkanten
100
AcDbCircle
 10
-368.6231353307844
 20
271.9653930356514
 30
0.0
 40
7.7
  0
LINE
  5
2AF8
330
1F
100
AcDbEntity
  8
Mittellinie
100
AcDbLine
 10
-363.4600423307842
 20
263.0226830356514
 30
0.0
 11
-373.6595353307843
 21
280.6886930356513
 31
0.0
  0
ARC
  5
2AF9
330
1F
100
AcDbEntity
  8
Innenkanten
100
AcDbCircle
 10
-395.8731203307843
 20
265.7242130356514
 30
0.0
 40
15.0
100
AcDbArc
 50
270.0000199999987
 51
0.0
  0
ARC
  5
2AFA
330
1F
100
AcDbEntity
  8
0
100
AcDbCircle
 10
-322.8731163307843
 20
192.7240930356513
 30
0.0
 40
114.99999
100
AcDbArc
 50
130.0740099999993
 51
139.9270300000019
  0
LINE
  5
2AFB
330
1F
100
AcDbEntity
  8
Innenkanten
100
AcDbLine
 10
-407.7780273307844
 20
250.7242130356514
 30
0.0
 11
-395.8731203307843
 21
250.7242130356514
 31
0.0
  0
ARC
  5
2AFC
330
1F
100
AcDbEntity
  8
Innenkanten
100
AcDbCircle
 10
-407.7780273307844
 20
248.7242130356514
 30
0.0
 40
2.0
100
AcDbArc
 50
89.9999820000008
 51
177.7587900000001
  0
ARC
  5
2AFD
330
1F
100
AcDbEntity
  8
Mittellinie
100
AcDbCircle
 10
-322.8731163307843
 20
192.7240930356513
 30
0.0
 40
100.0
100
AcDbArc
 50
128.7700200000017
 51
141.2834499999992
  0
CIRCLE
  5
2AFE
330
1F
100
AcDbEntity
  8
Innenkanten
100
AcDbCircle
 10
-393.5837523307843
 20
263.4348230356514
 30
0.0
 40
6.75
  0
LINE
  5
2AFF
330
1F
100
AcDbEntity
  8
Mittellinie
100
AcDbLine
 10
-401.3807193307843
 20
271.2317230356513
 30
0.0
 11
-386.4688003307843
 21
256.3198330356514
 31
0.0
  0
LINE
  5
2B00
330
1F
100
AcDbEntity
  8
Innenkanten
100
AcDbLine
 10
-380.8731203307843
 20
278.7238230356514
 30
0.0
 11
-380.8731203307843
 21
265.7242130356514
 31
0.0
  0
ARC
  5
2B01
330
1F
100
AcDbEntity
  8
Innenkanten
100
AcDbCircle
 10
-378.8731203307843
 20
278.7238230356514
 30
0.0
 40
2.0
100
AcDbArc
 50
90.00045300000065
 51
179.9999599999992
  0
CIRCLE
  5
2B02
330
1F
100
AcDbEntity
  8
Innenkanten
100
AcDbCircle
 10
-352.4228263307843
 20
227.9806530356513
 30
0.0
 40
3.799999999999999
  0
CIRCLE
  5
2B03
330
1F
100
AcDbEntity
  8
Innenkanten
100
AcDbCircle
 10
-352.4228263307843
 20
227.9806530356513
 30
0.0
 40
3.5
  0
ARC
  5
2B04
330
1F
100
AcDbEntity
  8
Innenkanten
100
AcDbCircle
 10
-352.4228263307843
 20
227.9806530356513
 30
0.0
 40
4.480268999999999
100
AcDbArc
 50
225.0003700000001
 51
45.00040100000036
  0
ARC
  5
2B05
330
1F
100
AcDbEntity
  8
Mittellinie
100
AcDbCircle
 10
-322.8731163307843
 20
192.7240930356513
 30
0.0
 40
46.0
100
AcDbArc
 50
125.615069999999
 51
134.1284700000006
  0
LINE
  5
2B06
330
1F
100
AcDbEntity
  8
Mittellinie
100
AcDbLine
 10
-349.3301063307843
 20
224.2541530356513
 30
0.0
 11
-354.4787263307844
 21
230.3900530356513
 31
0.0
  0
LINE
  5
2B07
330
1F
100
AcDbEntity
  8
0
100
AcDbLine
 10
-350.3861563307844
 20
235.2147530356514
 30
0.0
 11
-365.3731123307843
 21
220.2277530356514
 31
0.0
  0
LINE
  5
2B08
330
1F
100
AcDbEntity
  8
Innenkanten
100
AcDbLine
 10
-358.1894863307843
 20
227.4111630356514
 30
0.0
 11
-355.5908763307843
 21
224.8125630356514
 31
0.0
  0
LINE
  5
2B09
330
1F
100
AcDbEntity
  8
Innenkanten
100
AcDbLine
 10
-353.0741663307843
 20
226.3826330356514
 30
0.0
 11
-351.3684063307844
 21
226.6834130356514
 31
0.0
  0
LINE
  5
2B0A
330
1F
100
AcDbEntity
  8
Innenkanten
100
AcDbLine
 10
-354.1875363307843
 20
227.7094730356513
 30
0.0
 11
-353.0741963307844
 21
226.3826330356514
 31
0.0
  0
LINE
  5
2B0B
330
1F
100
AcDbEntity
  8
Innenkanten
100
AcDbLine
 10
-353.5951363307844
 20
229.3370130356513
 30
0.0
 11
-354.1875363307843
 21
227.7094430356514
 31
0.0
  0
LINE
  5
2B0C
330
1F
100
AcDbEntity
  8
Innenkanten
100
AcDbLine
 10
-351.8894063307843
 20
229.6378230356514
 30
0.0
 11
-353.5951463307843
 21
229.3370730356514
 31
0.0
  0
LINE
  5
2B0D
330
1F
100
AcDbEntity
  8
Innenkanten
100
AcDbLine
 10
-350.7760563307842
 20
228.3110130356514
 30
0.0
 11
-351.8893863307844
 21
229.6378230356514
 31
0.0
  0
LINE
  5
2B0E
330
1F
100
AcDbEntity
  8
Innenkanten
100
AcDbLine
 10
-351.3684463307843
 20
226.6833830356514
 30
0.0
 11
-350.7760663307843
 21
228.3109730356513
 31
0.0
  0
LINE
  5
2B0F
330
1F
100
AcDbEntity
  8
Innenkanten
100
AcDbLine
 10
-351.8534063307843
 20
233.7472230356513
 30
0.0
 11
-349.2548263307843
 21
231.1486830356514
 31
0.0
  0
LINE
  5
2B10
330
1F
100
AcDbEntity
  8
Innenkanten
100
AcDbLine
 10
-365.1590553307843
 20
271.9654230356514
 30
0.0
 11
-366.8911033307843
 21
274.9654530356514
 31
0.0
  0
LINE
  5
2B11
330
1F
100
AcDbEntity
  8
Innenkanten
100
AcDbLine
 10
-370.3551533307843
 20
274.9654530356514
 30
0.0
 11
-372.0872163307843
 21
271.9654530356514
 31
0.0
  0
LINE
  5
2B12
330
1F
100
AcDbEntity
  8
Innenkanten
100
AcDbLine
 10
-366.8910953307843
 20
268.9654230356513
 30
0.0
 11
-365.1590473307843
 21
271.9654530356514
 31
0.0
  0
LINE
  5
2B13
330
1F
100
AcDbEntity
  8
Innenkanten
100
AcDbLine
 10
-372.0872393307843
 20
271.9654230356514
 30
0.0
 11
-370.3551763307844
 21
268.9654230356513
 31
0.0
  0
LINE
  5
2B14
330
1F
100
AcDbEntity
  8
Innenkanten
100
AcDbLine
 10
-370.3551763307844
 20
268.9654230356513
 30
0.0
 11
-366.8910953307843
 21
268.9654230356513
 31
0.0
  0
LINE
  5
2B15
330
1F
100
AcDbEntity
  8
Innenkanten
100
AcDbLine
 10
-366.8910953307843
 20
274.9654230356513
 30
0.0
 11
-370.3551763307844
 21
274.9654230356513
 31
0.0
  0
LINE
  5
2B16
330
1F
100
AcDbEntity
  8
0
100
AcDbLine
 10
-280.3731363307842
 20
220.2277530356514
 30
0.0
 11
-280.3731363307842
 21
165.2206330356514
 31
0.0
  0
CIRCLE
  5
2B17
330
1F
100
AcDbEntity
  8
Innenkanten
100
AcDbCircle
 10
-293.3234063307843
 20
157.4675330356513
 30
0.0
 40
3.799999999999999
  0
CIRCLE
  5
2B18
330
1F
100
AcDbEntity
  8
Innenkanten
100
AcDbCircle
 10
-293.3234063307843
 20
157.4675330356513
 30
0.0
 40
3.5
  0
ARC
  5
2B19
330
1F
100
AcDbEntity
  8
Innenkanten
100
AcDbCircle
 10
-293.3234063307843
 20
157.4675330356513
 30
0.0
 40
4.480268999999999
100
AcDbArc
 50
45.00034600000108
 51
225.0003600000013
  0
ARC
  5
2B1A
330
1F
100
AcDbEntity
  8
Mittellinie
100
AcDbCircle
 10
-322.8731163307843
 20
192.7240930356513
 30
0.0
 40
46.0
100
AcDbArc
 50
305.615069999999
 51
314.1284700000006
  0
LINE
  5
2B1B
330
1F
100
AcDbEntity
  8
Innenkanten
100
AcDbLine
 10
-292.6720363307842
 20
159.0655730356514
 30
0.0
 11
-294.3778063307843
 21
158.7647930356514
 31
0.0
  0
LINE
  5
2B1C
330
1F
100
AcDbEntity
  8
Innenkanten
100
AcDbLine
 10
-291.5586963307844
 20
157.7387130356514
 30
0.0
 11
-292.6720363307842
 21
159.0655730356514
 31
0.0
  0
LINE
  5
2B1D
330
1F
100
AcDbEntity
  8
Mittellinie
100
AcDbLine
 10
-296.4161363307844
 20
161.1940230356514
 30
0.0
 11
-291.2675163307843
 21
155.0581430356513
 31
0.0
  0
LINE
  5
2B1E
330
1F
100
AcDbEntity
  8
Innenkanten
100
AcDbLine
 10
-287.5567463307843
 20
158.0370330356514
 30
0.0
 11
-290.1553463307843
 21
160.6356130356514
 31
0.0
  0
LINE
  5
2B1F
330
1F
100
AcDbEntity
  8
0
100
AcDbLine
 10
-280.3731463307844
 20
165.2206130356514
 30
0.0
 11
-295.3790063307843
 21
150.2147530356513
 31
0.0
  0
LINE
  5
2B20
330
1F
100
AcDbEntity
  8
Innenkanten
100
AcDbLine
 10
-293.8928363307843
 20
151.7009630356513
 30
0.0
 11
-296.4914063307843
 21
154.2995030356514
 31
0.0
  0
LINE
  5
2B21
330
1F
100
AcDbEntity
  8
Innenkanten
100
AcDbLine
 10
-294.9701463307843
 20
157.1371830356514
 30
0.0
 11
-293.8568263307843
 21
155.8103630356514
 31
0.0
  0
LINE
  5
2B22
330
1F
100
AcDbEntity
  8
Innenkanten
100
AcDbLine
 10
-308.1731363307843
 20
149.9309730356513
 30
0.0
 11
-308.1731363307843
 21
144.9307630356514
 31
0.0
  0
LINE
  5
2B23
330
1F
100
AcDbEntity
  8
0
100
AcDbLine
 10
-302.3731163307843
 20
150.2147530356513
 30
0.0
 11
-295.3790063307843
 21
150.2147530356513
 31
0.0
  0
LINE
  5
2B24
330
1F
100
AcDbEntity
  8
Innenkanten
100
AcDbLine
 10
-294.3777863307843
 20
158.7647930356514
 30
0.0
 11
-294.9701663307844
 21
157.1371830356514
 31
0.0
  0
LINE
  5
2B25
330
1F
100
AcDbEntity
  8
Innenkanten
100
AcDbLine
 10
-292.1511063307844
 20
156.1111330356514
 30
0.0
 11
-291.5587163307843
 21
157.7387130356514
 31
0.0
  0
LINE
  5
2B26
330
1F
100
AcDbEntity
  8
Innenkanten
100
AcDbLine
 10
-293.8568363307842
 20
155.8103630356514
 30
0.0
 11
-292.1511063307844
 21
156.1111330356514
 31
0.0
  0
CIRCLE
  5
2B27
330
1F
100
AcDbEntity
  8
Innenkanten
100
AcDbCircle
 10
-252.1623963307843
 20
263.4347230356513
 30
0.0
 40
6.75
  0
ARC
  5
2B28
330
1F
100
AcDbEntity
  8
Mittellinie
100
AcDbCircle
 10
-322.8731163307843
 20
192.7240930356513
 30
0.0
 40
91.5
100
AcDbArc
 50
23.67302599999894
 51
36.02502699999943
  0
CIRCLE
  5
2B29
330
1F
100
AcDbEntity
  8
Innenkanten
100
AcDbCircle
 10
-243.6341063307843
 20
238.4740930356513
 30
0.0
 40
6.5
  0
CIRCLE
  5
2B2A
330
1F
100
AcDbEntity
  8
Innenkanten
100
AcDbCircle
 10
-243.6341063307843
 20
238.4740930356513
 30
0.0
 40
7.7
  0
ARC
  5
2B2B
330
1F
100
AcDbEntity
  8
Mittellinie
100
AcDbCircle
 10
-322.8731163307843
 20
192.7240930356513
 30
0.0
 40
100.0
100
AcDbArc
 50
38.71698199999893
 51
52.01641200000015
  0
ARC
  5
2B2C
330
1F
100
AcDbEntity
  8
0
100
AcDbCircle
 10
-322.8731163307843
 20
192.7240930356513
 30
0.0
 40
114.99999
100
AcDbArc
 50
40.07399000000014
 51
49.92699600000062
  0
LINE
  5
2B2D
330
1F
100
AcDbEntity
  8
Innenkanten
100
AcDbLine
 10
-249.8731463307843
 20
250.7242130356514
 30
0.0
 11
-237.9676963307843
 21
250.7242130356514
 31
0.0
  0
LINE
  5
2B2E
330
1F
100
AcDbEntity
  8
Mittellinie
100
AcDbLine
 10
-234.9085163307843
 20
243.5104730356514
 30
0.0
 11
-252.5745563307844
 21
233.3110130356514
 31
0.0
  0
LINE
  5
2B2F
330
1F
100
AcDbEntity
  8
Mittellinie
100
AcDbLine
 10
-241.5565963307843
 20
274.0406230356513
 30
0.0
 11
-259.2824563307843
 21
256.3146430356514
 31
0.0
  0
ARC
  5
2B30
330
1F
100
AcDbEntity
  8
Innenkanten
100
AcDbCircle
 10
-249.8731163307843
 20
265.7239730356514
 30
0.0
 40
15.0
100
AcDbArc
 50
180.0000100000009
 51
270.0
  0
LINE
  5
2B31
330
1F
100
AcDbEntity
  8
0
100
AcDbLine
 10
-295.3601163307844
 20
235.2147530356514
 30
0.0
 11
-280.3731363307842
 21
220.2277530356514
 31
0.0
  0
CIRCLE
  5
2B32
330
1F
100
AcDbEntity
  8
Innenkanten
100
AcDbCircle
 10
-287.6351163307844
 20
222.2923930356514
 30
0.0
 40
3.799999999999999
  0
CIRCLE
  5
2B33
330
1F
100
AcDbEntity
  8
Innenkanten
100
AcDbCircle
 10
-287.6351163307844
 20
222.2923930356514
 30
0.0
 40
3.5
  0
ARC
  5
2B34
330
1F
100
AcDbEntity
  8
Innenkanten
100
AcDbCircle
 10
-287.6351163307844
 20
222.2923930356514
 30
0.0
 40
4.480268999999999
100
AcDbArc
 50
134.9995600000012
 51
314.9995799999989
  0
ARC
  5
2B35
330
1F
100
AcDbEntity
  8
Mittellinie
100
AcDbCircle
 10
-322.8731163307843
 20
192.7240930356513
 30
0.0
 40
46.0
100
AcDbArc
 50
35.61501100000109
 51
44.12837699999937
  0
LINE
  5
2B36
330
1F
100
AcDbEntity
  8
Innenkanten
100
AcDbLine
 10
-281.8684663307843
 20
221.7228730356514
 30
0.0
 11
-284.4670663307843
 21
219.1243030356513
 31
0.0
  0
LINE
  5
2B37
330
1F
100
AcDbEntity
  8
Innenkanten
100
AcDbLine
 10
-289.2638863307843
 20
222.8838230356513
 30
0.0
 11
-288.9631363307843
 21
221.1780730356514
 31
0.0
  0
LINE
  5
2B38
330
1F
100
AcDbEntity
  8
Innenkanten
100
AcDbLine
 10
-287.3355663307843
 20
220.5856930356513
 30
0.0
 11
-286.0086963307843
 21
221.6990430356513
 31
0.0
  0
LINE
  5
2B39
330
1F
100
AcDbEntity
  8
Mittellinie
100
AcDbLine
 10
-291.3429663307843
 20
219.1810630356513
 30
0.0
 11
-285.2071363307843
 21
224.3296530356514
 31
0.0
  0
LINE
  5
2B3A
330
1F
100
AcDbEntity
  8
Innenkanten
100
AcDbLine
 10
-288.9631363307843
 20
221.1781030356514
 30
0.0
 11
-287.3355263307843
 21
220.5856930356513
 31
0.0
  0
LINE
  5
2B3B
330
1F
100
AcDbEntity
  8
Innenkanten
100
AcDbLine
 10
-286.3094563307843
 20
223.4047630356513
 30
0.0
 11
-287.9370563307843
 21
223.9971630356513
 31
0.0
  0
LINE
  5
2B3C
330
1F
100
AcDbEntity
  8
Innenkanten
100
AcDbLine
 10
-288.2045363307843
 20
228.0589630356514
 30
0.0
 11
-290.8031163307843
 21
225.4603930356513
 31
0.0
  0
LINE
  5
2B3D
330
1F
100
AcDbEntity
  8
Innenkanten
100
AcDbLine
 10
-287.9370663307843
 20
223.9971030356514
 30
0.0
 11
-289.2638663307843
 21
222.8837930356514
 31
0.0
  0
LINE
  5
2B3E
330
1F
100
AcDbEntity
  8
Innenkanten
100
AcDbLine
 10
-286.0086663307843
 20
221.6990130356514
 30
0.0
 11
-286.3094563307843
 21
223.4047630356513
 31
0.0
  0
LINE
  5
2B3F
330
1F
100
AcDbEntity
  8
Innenkanten
100
AcDbLine
 10
-264.8731463307843
 20
265.7242130356514
 30
0.0
 11
-264.8731463307843
 21
278.7242130356514
 31
0.0
  0
LINE
  5
2B40
330
1F
100
AcDbEntity
  8
Innenkanten
100
AcDbLine
 10
-246.6317463307843
 20
240.2061530356513
 30
0.0
 11
-246.6317463307843
 21
236.7420430356514
 31
0.0
  0
LINE
  5
2B41
330
1F
100
AcDbEntity
  8
Innenkanten
100
AcDbLine
 10
-240.6317463307843
 20
236.7420430356514
 30
0.0
 11
-240.6317463307843
 21
240.2061530356513
 31
0.0
  0
LINE
  5
2B42
330
1F
100
AcDbEntity
  8
Innenkanten
100
AcDbLine
 10
-246.6317863307842
 20
236.7420430356514
 30
0.0
 11
-243.6317763307842
 21
235.0099830356514
 31
0.0
  0
LINE
  5
2B43
330
1F
100
AcDbEntity
  8
Innenkanten
100
AcDbLine
 10
-243.6317763307842
 20
235.0099830356514
 30
0.0
 11
-240.6317563307843
 21
236.7420430356514
 31
0.0
  0
LINE
  5
2B44
330
1F
100
AcDbEntity
  8
Innenkanten
100
AcDbLine
 10
-243.6317563307843
 20
241.9381730356513
 30
0.0
 11
-246.6317563307843
 21
240.2061230356514
 31
0.0
  0
LINE
  5
2B45
330
1F
100
AcDbEntity
  8
Innenkanten
100
AcDbLine
 10
-240.6317863307843
 20
240.2061230356514
 30
0.0
 11
-243.6317763307842
 21
241.9381730356513
 31
0.0
  0
ARC
  5
2B46
330
1F
100
AcDbEntity
  8
Innenkanten
100
AcDbCircle
 10
-237.9682163307843
 20
248.7239730356514
 30
0.0
 40
2.0
100
AcDbArc
 50
2.241217000000378
 51
90.00002299999971
  0
CIRCLE
  5
2B6E
330
1F
100
AcDbEntity
  8
Innenkanten
100
AcDbCircle
 10
238.1397536692155
 20
192.7240930356513
 30
0.0
 40
57.150024
  0
LINE
  5
2B6F
102
{ACAD_REACTORS
330
2F2B
102
}
330
1F
100
AcDbEntity
  8
Mittellinie
100
AcDbLine
 10
238.1397536692155
 20
287.5222558696455
 30
0.0
 11
238.1397536692155
 21
47.19952924011863
 31
0.0
  0
LINE
  5
2B70
102
{ACAD_REACTORS
330
2EE7
102
}
330
1F
100
AcDbEntity
  8
0
100
AcDbLine
 10
326.1406136692156
 20
266.7568730356514
 30
0.0
 11
326.1406136692156
 21
118.6913230356514
 31
0.0
  0
LINE
  5
2B71
330
1F
100
AcDbEntity
  8
0
100
AcDbLine
 10
150.1389036692156
 20
266.7568730356514
 30
0.0
 11
150.1389036692156
 21
118.6913230356514
 31
0.0
  0
LINE
  5
2B76
102
{ACAD_REACTORS
330
2F08
102
}
330
1F
100
AcDbEntity
  8
0
100
AcDbLine
 10
164.1069836692156
 20
104.7232430356514
 30
0.0
 11
312.1725336692156
 21
104.7232430356514
 31
0.0
  0
ARC
  5
2B7F
330
1F
100
AcDbEntity
  8
0
100
AcDbCircle
 10
238.1397536692155
 20
192.7240930356513
 30
0.0
 40
115.00002
100
AcDbArc
 50
220.0736600000016
 51
229.9263000000018
  0
CIRCLE
  5
2B80
330
1F
100
AcDbEntity
  8
Innenkanten
100
AcDbCircle
 10
167.4297936692156
 20
122.0140730356514
 30
0.0
 40
6.75
  0
ARC
  5
2B81
330
1F
100
AcDbEntity
  8
Mittellinie
100
AcDbCircle
 10
238.1397536692155
 20
192.7240930356513
 30
0.0
 40
100.0
100
AcDbArc
 50
220.0021900000008
 51
231.1554499999997
  0
LINE
  5
2B82
330
1F
100
AcDbEntity
  8
Mittellinie
100
AcDbLine
 10
160.0830536692155
 20
114.6674430356514
 30
0.0
 11
174.9529936692156
 21
129.5373530356513
 31
0.0
  0
CIRCLE
  5
2B83
330
1F
100
AcDbEntity
  8
Innenkanten
100
AcDbCircle
 10
308.8497836692156
 20
122.0141230356514
 30
0.0
 40
6.75
  0
ARC
  5
2B84
330
1F
100
AcDbEntity
  8
Mittellinie
100
AcDbCircle
 10
238.1397536692155
 20
192.7240930356513
 30
0.0
 40
100.0
100
AcDbArc
 50
310.0021499999995
 51
321.155409999999
  0
ARC
  5
2B85
330
1F
100
AcDbEntity
  8
0
100
AcDbCircle
 10
238.1397536692155
 20
192.7240930356513
 30
0.0
 40
115.00002
100
AcDbArc
 50
310.073679999999
 51
319.9263300000006
  0
LINE
  5
2B86
330
1F
100
AcDbEntity
  8
Mittellinie
100
AcDbLine
 10
316.1965236692156
 20
114.6674230356513
 30
0.0
 11
301.3265836692156
 21
129.5373530356513
 31
0.0
  0
LINE
  5
2B87
102
{ACAD_REACTORS
330
2FB0
102
}
330
1F
100
AcDbEntity
  8
0
100
AcDbLine
 10
261.1397536692155
 20
104.7240930356514
 30
0.0
 11
261.1397536692155
 21
69.72409303565143
 31
0.0
  0
LINE
  5
2B88
102
{ACAD_REACTORS
330
2FB0
102
}
330
1F
100
AcDbEntity
  8
0
100
AcDbLine
 10
215.1397536692155
 20
104.7240930356514
 30
0.0
 11
215.1397536692155
 21
69.72409303565143
 31
0.0
  0
LINE
  5
2B89
330
1F
100
AcDbEntity
  8
Innenkanten
100
AcDbLine
 10
220.7398536692155
 20
66.72409303565143
 30
0.0
 11
255.5397836692157
 21
66.72409303565143
 31
0.0
  0
LINE
  5
2B8A
330
1F
100
AcDbEntity
  8
0
100
AcDbLine
 10
254.5397836692156
 20
50.72409303565144
 30
0.0
 11
221.7398536692155
 21
50.72409303565144
 31
0.0
  0
LINE
  5
2B8B
330
1F
100
AcDbEntity
  8
Innenkanten
100
AcDbLine
 10
220.7398536692155
 20
51.72409303565143
 30
0.0
 11
255.5397836692157
 21
51.72409303565143
 31
0.0
  0
LINE
  5
2B8C
330
1F
100
AcDbEntity
  8
0
100
AcDbLine
 10
261.1397536692155
 20
69.72409303565143
 30
0.0
 11
215.1397536692155
 21
69.72409303565143
 31
0.0
  0
LINE
  5
2B8D
330
1F
100
AcDbEntity
  8
Innenkanten
100
AcDbLine
 10
221.7398536692155
 20
50.72409303565144
 30
0.0
 11
221.7398536692155
 21
66.72409303565143
 31
0.0
  0
LINE
  5
2B8E
330
1F
100
AcDbEntity
  8
0
100
AcDbLine
 10
220.7398536692155
 20
69.72409303565143
 30
0.0
 11
220.7398536692155
 21
51.72409303565143
 31
0.0
  0
LINE
  5
2B8F
330
1F
100
AcDbEntity
  8
0
100
AcDbLine
 10
221.7398536692155
 20
50.7240830356514
 30
0.0
 11
220.7398536692155
 21
51.7240830356514
 31
0.0
  0
LINE
  5
2B90
330
1F
100
AcDbEntity
  8
Innenkanten
100
AcDbLine
 10
254.5397836692156
 20
66.72409303565143
 30
0.0
 11
254.5397836692156
 21
50.72409303565144
 31
0.0
  0
LINE
  5
2B91
330
1F
100
AcDbEntity
  8
0
100
AcDbLine
 10
255.5397836692157
 20
51.72409303565143
 30
0.0
 11
255.5397836692157
 21
69.72409303565143
 31
0.0
  0
LINE
  5
2B92
102
{ACAD_REACTORS
330
2F8F
102
}
330
1F
100
AcDbEntity
  8
0
100
AcDbLine
 10
255.5397836692157
 20
51.72411303565138
 30
0.0
 11
254.5397836692156
 21
50.7240830356514
 31
0.0
  0
LINE
  5
2B93
330
1F
100
AcDbEntity
  8
Innenkanten
100
AcDbLine
 10
261.1397536692155
 20
103.7240930356514
 30
0.0
 11
215.1397536692155
 21
103.7240930356514
 31
0.0
  0
LINE
  5
2B94
330
1F
100
AcDbEntity
  8
Innenkanten
100
AcDbLine
 10
261.1397536692155
 20
73.52408303565141
 30
0.0
 11
215.1397536692155
 21
73.52408303565141
 31
0.0
  0
LINE
  5
2B95
330
1F
100
AcDbEntity
  8
Innenkanten
100
AcDbLine
 10
261.1397536692155
 20
72.52408303565141
 30
0.0
 11
215.1397536692155
 21
72.52408303565141
 31
0.0
  0
ARC
  5
2B96
330
1F
100
AcDbEntity
  8
Mittellinie
100
AcDbCircle
 10
238.1397536692155
 20
192.7240930356513
 30
0.0
 40
89.998497
100
AcDbArc
 50
238.2063600000006
 51
241.7897000000017
  0
CIRCLE
  5
2B97
330
1F
100
AcDbEntity
  8
Innenkanten
100
AcDbCircle
 10
193.1405536692155
 20
114.7831130356514
 30
0.0
 40
2.5
  0
CIRCLE
  5
2B98
330
1F
100
AcDbEntity
  8
Innenkanten
100
AcDbCircle
 10
193.1405536692155
 20
114.7831130356514
 30
0.0
 40
1.5
  0
LINE
  5
2B99
330
1F
100
AcDbEntity
  8
Mittellinie
100
AcDbLine
 10
194.6401836692157
 20
117.3806230356514
 30
0.0
 11
191.5929436692156
 21
112.1026330356514
 31
0.0
  0
LINE
  5
2B9A
102
{ACAD_REACTORS
330
2F8F
102
}
330
1F
100
AcDbEntity
  8
Mittellinie
100
AcDbLine
 10
139.7066536692155
 20
192.7240930356513
 30
0.0
 11
337.1321936692156
 21
192.7240930356513
 31
0.0
  0
LINE
  5
2B9B
330
1F
100
AcDbEntity
  8
0
100
AcDbLine
 10
164.1054536692156
 20
280.7236630356515
 30
0.0
 11
312.1739336692156
 21
280.7236630356515
 31
0.0
  0
ARC
  5
2BA4
330
1F
100
AcDbEntity
  8
Mittellinie
100
AcDbCircle
 10
238.1397536692155
 20
192.7240930356513
 30
0.0
 40
89.998497
100
AcDbArc
 50
148.2063600000006
 51
151.7897000000017
  0
CIRCLE
  5
2BA5
330
1F
100
AcDbEntity
  8
Innenkanten
100
AcDbCircle
 10
160.1987836692156
 20
237.7233030356513
 30
0.0
 40
2.5
  0
CIRCLE
  5
2BA6
330
1F
100
AcDbEntity
  8
Innenkanten
100
AcDbCircle
 10
160.1987836692156
 20
237.7233030356513
 30
0.0
 40
1.5
  0
LINE
  5
2BA7
330
1F
100
AcDbEntity
  8
Mittellinie
100
AcDbLine
 10
162.7962536692156
 20
236.2236630356515
 30
0.0
 11
157.5182936692156
 21
239.2708730356514
 31
0.0
  0
ARC
  5
2BA8
102
{ACAD_REACTORS
330
2EE7
330
2F08
102
}
330
1F
100
AcDbEntity
  8
0
100
AcDbCircle
 10
238.1397536692155
 20
192.7240930356513
 30
0.0
 40
115.00002
100
AcDbArc
 50
130.0736999999981
 51
139.9263399999983
  0
CIRCLE
  5
2BA9
330
1F
100
AcDbEntity
  8
Innenkanten
100
AcDbCircle
 10
167.4297336692156
 20
263.4340530356514
 30
0.0
 40
6.75
  0
ARC
  5
2BAA
102
{ACAD_REACTORS
330
2F45
102
}
330
1F
100
AcDbEntity
  8
Mittellinie
100
AcDbCircle
 10
238.1397536692155
 20
192.7240930356513
 30
0.0
 40
100.0
100
AcDbArc
 50
130.0021699999982
 51
141.1554399999996
  0
LINE
  5
2BAB
102
{ACAD_REACTORS
330
2F2B
102
}
330
1F
100
AcDbEntity
  8
Mittellinie
100
AcDbLine
 10
160.0831136692156
 20
270.7807930356514
 30
0.0
 11
174.9529936692156
 21
255.9108930356513
 31
0.0
  0
CIRCLE
  5
2BAC
330
1F
100
AcDbEntity
  8
Innenkanten
100
AcDbCircle
 10
308.8497236692156
 20
263.4341130356514
 30
0.0
 40
6.75
  0
ARC
  5
2BAD
330
1F
100
AcDbEntity
  8
Mittellinie
100
AcDbCircle
 10
238.1397536692155
 20
192.7240930356513
 30
0.0
 40
100.0
100
AcDbArc
 50
40.00217799999932
 51
51.1554389999997
  0
ARC
  5
2BAE
102
{ACAD_REACTORS
330
2F5A
102
}
330
1F
100
AcDbEntity
  8
0
100
AcDbCircle
 10
238.1397536692155
 20
192.7240930356513
 30
0.0
 40
115.00002
100
AcDbArc
 50
40.07367999999906
 51
49.92632299999879
  0
LINE
  5
2BAF
330
1F
100
AcDbEntity
  8
Mittellinie
100
AcDbLine
 10
316.1964636692156
 20
270.7807930356514
 30
0.0
 11
301.3265236692156
 21
255.9108630356513
 31
0.0
  0
CIRCLE
  5
2BB0
330
1F
100
AcDbEntity
  8
Innenkanten
100
AcDbCircle
 10
238.1397536692155
 20
192.7240930356513
 30
0.0
 40
50.0
  0
CIRCLE
  5
2BB1
330
1F
100
AcDbEntity
  8
Innenkanten
100
AcDbCircle
 10
238.1397536692155
 20
192.7240930356513
 30
0.0
 40
30.0
  0
CIRCLE
  5
2BB2
330
1F
100
AcDbEntity
  8
Innenkanten
100
AcDbCircle
 10
238.1397536692155
 20
192.7240930356513
 30
0.0
 40
20.0
  0
CIRCLE
  5
2BB3
330
1F
100
AcDbEntity
  8
Innenkanten
100
AcDbCircle
 10
238.1397536692155
 20
192.7240930356513
 30
0.0
 40
17.5
  0
ARC
  5
2BB4
330
1F
100
AcDbEntity
  8
Mittellinie
100
AcDbCircle
 10
238.1397536692155
 20
192.7240930356513
 30
0.0
 40
41.82866699999999
100
AcDbArc
 50
218.3176699999993
 51
232.5126699999995
  0
CIRCLE
  5
2BB5
330
1F
100
AcDbEntity
  8
Innenkanten
100
AcDbCircle
 10
208.6674636692156
 20
163.0420830356514
 30
0.0
 40
2.5
  0
LINE
  5
2BB6
330
1F
100
AcDbEntity
  8
Mittellinie
100
AcDbLine
 10
204.8718136692156
 20
159.2464830356514
 30
0.0
 11
212.2375336692157
 21
166.6122630356513
 31
0.0
  0
LINE
  5
2BB7
330
1F
100
AcDbEntity
  8
Innenkanten
100
AcDbLine
 10
208.6674636692156
 20
164.8420730356514
 30
0.0
 11
208.6674636692156
 21
161.2421030356514
 31
0.0
  0
LINE
  5
2BB8
330
1F
100
AcDbEntity
  8
Innenkanten
100
AcDbLine
 10
210.4675136692157
 20
163.0420830356514
 30
0.0
 11
206.8674236692156
 21
163.0420830356514
 31
0.0
  0
ARC
  5
2BB9
330
1F
100
AcDbEntity
  8
Mittellinie
100
AcDbCircle
 10
238.1397536692155
 20
192.7240930356513
 30
0.0
 40
41.82866699999999
100
AcDbArc
 50
307.4873100000012
 51
321.6823200000009
  0
CIRCLE
  5
2BBA
330
1F
100
AcDbEntity
  8
Innenkanten
100
AcDbCircle
 10
267.6120436692156
 20
163.0420830356514
 30
0.0
 40
2.5
  0
LINE
  5
2BBB
330
1F
100
AcDbEntity
  8
Mittellinie
100
AcDbLine
 10
271.4077036692156
 20
159.2464830356514
 30
0.0
 11
264.0419836692156
 21
166.6122630356513
 31
0.0
  0
LINE
  5
2BBC
330
1F
100
AcDbEntity
  8
Innenkanten
100
AcDbLine
 10
267.6120436692156
 20
164.8420730356514
 30
0.0
 11
267.6120436692156
 21
161.2421030356514
 31
0.0
  0
LINE
  5
2BBD
330
1F
100
AcDbEntity
  8
Innenkanten
100
AcDbLine
 10
265.8120036692156
 20
163.0420830356514
 30
0.0
 11
269.4120936692156
 21
163.0420830356514
 31
0.0
  0
ARC
  5
2BBE
330
1F
100
AcDbEntity
  8
Mittellinie
100
AcDbCircle
 10
238.1397536692155
 20
192.7240930356513
 30
0.0
 40
41.82866699999999
100
AcDbArc
 50
127.4873400000011
 51
141.6823400000008
  0
CIRCLE
  5
2BBF
330
1F
100
AcDbEntity
  8
Innenkanten
100
AcDbCircle
 10
208.6674636692156
 20
222.4061030356514
 30
0.0
 40
2.5
  0
LINE
  5
2BC0
330
1F
100
AcDbEntity
  8
Innenkanten
100
AcDbLine
 10
208.6674636692156
 20
220.6061130356513
 30
0.0
 11
208.6674636692156
 21
224.2060930356513
 31
0.0
  0
LINE
  5
2BC1
330
1F
100
AcDbEntity
  8
Mittellinie
100
AcDbLine
 10
204.8718136692156
 20
226.2017230356514
 30
0.0
 11
212.2375336692157
 21
218.8359430356513
 31
0.0
  0
LINE
  5
2BC2
330
1F
100
AcDbEntity
  8
Innenkanten
100
AcDbLine
 10
210.4675136692157
 20
222.4061030356514
 30
0.0
 11
206.8674236692156
 21
222.4061030356514
 31
0.0
  0
CIRCLE
  5
2BC3
330
1F
100
AcDbEntity
  8
Innenkanten
100
AcDbCircle
 10
267.6120436692156
 20
222.4061030356514
 30
0.0
 40
2.5
  0
ARC
  5
2BC4
330
1F
100
AcDbEntity
  8
Mittellinie
100
AcDbCircle
 10
238.1397536692155
 20
192.7240930356513
 30
0.0
 40
41.82866699999999
100
AcDbArc
 50
38.31762800000176
 51
52.51263200000125
  0
LINE
  5
2BC5
330
1F
100
AcDbEntity
  8
Mittellinie
100
AcDbLine
 10
271.4077036692156
 20
226.2016930356513
 30
0.0
 11
264.0419836692156
 21
218.8359130356514
 31
0.0
  0
LINE
  5
2BC6
330
1F
100
AcDbEntity
  8
Innenkanten
100
AcDbLine
 10
267.6120436692156
 20
220.6061130356513
 30
0.0
 11
267.6120436692156
 21
224.2060930356513
 31
0.0
  0
LINE
  5
2BC7
330
1F
100
AcDbEntity
  8
Innenkanten
100
AcDbLine
 10
265.8120036692156
 20
222.4061030356514
 30
0.0
 11
269.4120936692156
 21
222.4061030356514
 31
0.0
  0
ARC
  5
2BC8
330
1F
100
AcDbEntity
  8
Mittellinie
100
AcDbCircle
 10
238.1397536692155
 20
192.7240930356513
 30
0.0
 40
89.998497
100
AcDbArc
 50
58.20636700000023
 51
61.78970199999941
  0
CIRCLE
  5
2BC9
330
1F
100
AcDbEntity
  8
Innenkanten
100
AcDbCircle
 10
283.1389636692156
 20
270.6650730356514
 30
0.0
 40
2.5
  0
CIRCLE
  5
2BCA
330
1F
100
AcDbEntity
  8
Innenkanten
100
AcDbCircle
 10
283.1389636692156
 20
270.6650730356514
 30
0.0
 40
1.5
  0
LINE
  5
2BCB
330
1F
100
AcDbEntity
  8
Mittellinie
100
AcDbLine
 10
281.6393336692157
 20
268.0676030356514
 30
0.0
 11
284.6865736692155
 21
273.3455830356514
 31
0.0
  0
ARC
  5
2BCC
330
1F
100
AcDbEntity
  8
Mittellinie
100
AcDbCircle
 10
238.1397536692155
 20
192.7240930356513
 30
0.0
 40
89.998497
100
AcDbArc
 50
328.2063699999999
 51
331.7897100000004
  0
CIRCLE
  5
2BCD
330
1F
100
AcDbEntity
  8
Innenkanten
100
AcDbCircle
 10
316.0807336692156
 20
147.7248830356514
 30
0.0
 40
2.5
  0
CIRCLE
  5
2BCE
330
1F
100
AcDbEntity
  8
Innenkanten
100
AcDbCircle
 10
316.0807336692156
 20
147.7248830356514
 30
0.0
 40
1.5
  0
LINE
  5
2BCF
330
1F
100
AcDbEntity
  8
Mittellinie
100
AcDbLine
 10
313.4832636692157
 20
149.2245530356514
 30
0.0
 11
318.7612136692156
 21
146.1773230356514
 31
0.0
  0
LINE
  5
2C4A
330
1F
100
AcDbEntity
  8
Innenkanten
100
AcDbLine
 10
548.6876724188467
 20
280.8481641762991
 30
0.0
 11
548.6876724188467
 21
104.8481641762992
 31
0.0
  0
LINE
  5
2C4B
102
{ACAD_REACTORS
330
2D88
102
}
330
1F
100
AcDbEntity
  8
Innenkanten
100
AcDbLine
 10
550.6876724188466
 20
280.8481641762991
 30
0.0
 11
550.6876724188466
 21
104.8481641762992
 31
0.0
  0
LINE
  5
2C4C
330
1F
100
AcDbEntity
  8
Innenkanten
100
AcDbLine
 10
471.1876724188466
 20
280.8481641762991
 30
0.0
 11
471.1876724188466
 21
104.8481641762992
 31
0.0
  0
LINE
  5
2C4D
102
{ACAD_REACTORS
330
2DAD
330
2E2A
102
}
330
1F
100
AcDbEntity
  8
0
100
AcDbLine
 10
571.6876724188466
 20
249.9981941762992
 30
0.0
 11
571.6876724188466
 21
135.6981741762993
 31
0.0
  0
LINE
  5
2C4E
102
{ACAD_REACTORS
330
2D88
330
2DAD
330
2E4B
330
2E70
330
2EBC
102
}
330
1F
100
AcDbEntity
  8
0
100
AcDbLine
 10
568.6876724188466
 20
104.8481641762992
 30
0.0
 11
568.6876724188466
 21
280.8481641762991
 31
0.0
  0
LINE
  5
2C54
330
1F
100
AcDbEntity
  8
0
100
AcDbLine
 10
550.6876724188466
 20
135.3481641762992
 30
0.0
 11
417.1876724188466
 21
135.3481641762992
 31
0.0
  0
LINE
  5
2C55
330
1F
100
AcDbEntity
  8
0
100
AcDbLine
 10
418.1876729424454
 20
104.8481641762994
 30
0.0
 11
568.6876724188466
 21
104.8481641762992
 31
0.0
  0
ARC
  5
2C70
330
1F
100
AcDbEntity
  8
0
100
AcDbCircle
 10
472.7671424188465
 20
106.9348341762993
 30
0.0
 40
60.0
100
AcDbArc
 50
326.3054199999974
 51
357.0506699999995
  0
LINE
  5
2C71
330
1F
100
AcDbEntity
  8
0
100
AcDbLine
 10
477.6876724188467
 20
104.8481841762992
 30
0.0
 11
477.6876724188467
 21
73.64815417629927
 31
0.0
  0
LINE
  5
2C72
330
1F
100
AcDbEntity
  8
Innenkanten
100
AcDbLine
 10
517.5876724188468
 20
51.84816417629929
 30
0.0
 11
482.7876824188466
 21
51.84816417629929
 31
0.0
  0
LINE
  5
2C73
330
1F
100
AcDbEntity
  8
Innenkanten
100
AcDbLine
 10
482.7876824188466
 20
66.84816417629929
 30
0.0
 11
517.5876724188468
 21
66.84816417629929
 31
0.0
  0
LINE
  5
2C74
330
1F
100
AcDbEntity
  8
Innenkanten
100
AcDbLine
 10
520.6876424188465
 20
72.64815417629927
 30
0.0
 11
479.6876724188466
 21
72.64815417629927
 31
0.0
  0
LINE
  5
2C75
330
1F
100
AcDbEntity
  8
0
100
AcDbLine
 10
483.7876824188466
 20
50.84816417629929
 30
0.0
 11
516.5876724188467
 21
50.84816417629929
 31
0.0
  0
LINE
  5
2C76
330
1F
100
AcDbEntity
  8
0
100
AcDbLine
 10
520.6876424188465
 20
69.84816417629929
 30
0.0
 11
479.6876724188466
 21
69.84816417629929
 31
0.0
  0
LINE
  5
2C77
330
1F
100
AcDbEntity
  8
0
100
AcDbLine
 10
477.6876724188467
 20
73.64890417629931
 30
0.0
 11
522.6875524188467
 21
73.64890417629931
 31
0.0
  0
LINE
  5
2C78
102
{ACAD_REACTORS
330
2EBC
102
}
330
1F
100
AcDbEntity
  8
Mittellinie
100
AcDbLine
 10
500.1876724188466
 20
80.78261417629926
 30
0.0
 11
500.1876724188466
 21
43.49207417629929
 31
0.0
  0
LINE
  5
2C79
330
1F
100
AcDbEntity
  8
Innenkanten
100
AcDbLine
 10
483.7876824188466
 20
50.84816417629929
 30
0.0
 11
483.7876824188466
 21
66.84816417629929
 31
0.0
  0
LINE
  5
2C7A
330
1F
100
AcDbEntity
  8
0
100
AcDbLine
 10
482.7876824188466
 20
69.84816417629929
 30
0.0
 11
482.7876824188466
 21
51.84816417629929
 31
0.0
  0
LINE
  5
2C7B
330
1F
100
AcDbEntity
  8
0
100
AcDbLine
 10
482.7876524188466
 20
51.84812417629927
 30
0.0
 11
483.7876524188466
 21
50.84812417629928
 31
0.0
  0
LINE
  5
2C7C
330
1F
100
AcDbEntity
  8
0
100
AcDbLine
 10
479.6876724188466
 20
69.84816417629929
 30
0.0
 11
479.6876724188466
 21
73.64815417629927
 31
0.0
  0
LINE
  5
2C7D
330
1F
100
AcDbEntity
  8
Innenkanten
100
AcDbLine
 10
516.5876724188467
 20
66.84816417629929
 30
0.0
 11
516.5876724188467
 21
50.84816417629929
 31
0.0
  0
LINE
  5
2C7E
330
1F
100
AcDbEntity
  8
0
100
AcDbLine
 10
517.5876724188468
 20
51.84816417629929
 30
0.0
 11
517.5876724188468
 21
69.84816417629929
 31
0.0
  0
LINE
  5
2C7F
330
1F
100
AcDbEntity
  8
0
100
AcDbLine
 10
516.5876724188467
 20
50.84816417629929
 30
0.0
 11
517.5876724188468
 21
51.84816417629929
 31
0.0
  0
LINE
  5
2C80
330
1F
100
AcDbEntity
  8
0
100
AcDbLine
 10
520.6876424188465
 20
73.64815417629927
 30
0.0
 11
520.6876424188465
 21
69.84816417629929
 31
0.0
  0
LINE
  5
2C81
330
1F
100
AcDbEntity
  8
Innenkanten
100
AcDbLine
 10
532.6876724188466
 20
103.8476741762992
 30
0.0
 11
477.6876724188467
 21
103.8476741762992
 31
0.0
  0
LINE
  5
2C82
330
1F
100
AcDbEntity
  8
0
100
AcDbLine
 10
532.6876724188466
 20
103.8482541762993
 30
0.0
 11
532.6876424188466
 21
104.8481841762992
 31
0.0
  0
LINE
  5
2C83
330
1F
100
AcDbEntity
  8
Innenkanten
100
AcDbLine
 10
550.6876724188466
 20
119.0421641762992
 30
0.0
 11
568.6876724188466
 21
119.0421641762992
 31
0.0
  0
LINE
  5
2C84
330
1F
100
AcDbEntity
  8
0
100
AcDbLine
 10
571.6876724188466
 20
135.6981741762993
 30
0.0
 11
568.6876724188466
 21
135.6981741762993
 31
0.0
  0
LINE
  5
2C86
330
1F
100
AcDbEntity
  8
Innenkanten
100
AcDbLine
 10
471.1876724188466
 20
155.8481641762992
 30
0.0
 11
548.6876724188467
 21
155.8481641762992
 31
0.0
  0
LINE
  5
2C87
330
1F
100
AcDbEntity
  8
Innenkanten
100
AcDbLine
 10
548.6876724188467
 20
159.8481641762993
 30
0.0
 11
471.1876724188466
 21
159.8481641762993
 31
0.0
  0
LINE
  5
2C88
330
1F
100
AcDbEntity
  8
Innenkanten
100
AcDbLine
 10
471.1876724188466
 20
163.8481641762993
 30
0.0
 11
548.6876724188467
 21
163.8481641762993
 31
0.0
  0
LINE
  5
2C89
330
1F
100
AcDbEntity
  8
Innenkanten
100
AcDbLine
 10
548.6876724188467
 20
167.8481641762992
 30
0.0
 11
471.1876724188466
 21
167.8481641762992
 31
0.0
  0
LINE
  5
2C8A
330
1F
100
AcDbEntity
  8
Innenkanten
100
AcDbLine
 10
548.6876724188467
 20
217.8481641762991
 30
0.0
 11
471.1876724188466
 21
217.8481641762991
 31
0.0
  0
LINE
  5
2C8B
330
1F
100
AcDbEntity
  8
Innenkanten
100
AcDbLine
 10
548.6876724188467
 20
221.8481641762991
 30
0.0
 11
471.1876724188466
 21
221.8481641762991
 31
0.0
  0
LINE
  5
2C8C
330
1F
100
AcDbEntity
  8
Innenkanten
100
AcDbLine
 10
548.6876724188467
 20
225.8481641762991
 30
0.0
 11
471.1876724188466
 21
225.8481641762991
 31
0.0
  0
LINE
  5
2C8D
330
1F
100
AcDbEntity
  8
Innenkanten
100
AcDbLine
 10
548.6876724188467
 20
229.8481641762991
 30
0.0
 11
471.1876724188466
 21
229.8481641762991
 31
0.0
  0
LINE
  5
2C8F
330
1F
100
AcDbEntity
  8
0
100
AcDbLine
 10
568.6876724188466
 20
280.8481641762991
 30
0.0
 11
418.1876724188466
 21
280.8481641762993
 31
0.0
  0
LINE
  5
2CAA
330
1F
100
AcDbEntity
  8
Mittellinie
100
AcDbLine
 10
453.2597224188466
 20
272.0894941762992
 30
0.0
 11
466.9298624188465
 21
272.0894941762992
 31
0.0
  0
LINE
  5
2CAF
102
{ACAD_REACTORS
330
2DE8
102
}
330
1F
100
AcDbEntity
  8
0
100
AcDbLine
 10
572.6876724188466
 20
210.3481641762992
 30
0.0
 11
647.6877024188467
 21
210.3481641762992
 31
0.0
  0
LINE
  5
2CB0
102
{ACAD_REACTORS
330
2E09
102
}
330
1F
100
AcDbEntity
  8
0
100
AcDbLine
 10
647.6877024188467
 20
175.3481641762991
 30
0.0
 11
572.6876724188466
 21
175.3481641762991
 31
0.0
  0
LINE
  5
2CB1
102
{ACAD_REACTORS
330
2DE8
102
}
330
1F
100
AcDbEntity
  8
0
100
AcDbLine
 10
572.6876724188466
 20
212.8481641762991
 30
0.0
 11
572.6876724188466
 21
172.8481641762991
 31
0.0
  0
LINE
  5
2CB2
330
1F
100
AcDbEntity
  8
0
100
AcDbLine
 10
572.6876724188466
 20
172.8481641762991
 30
0.0
 11
571.6876724188466
 21
172.8481641762991
 31
0.0
  0
LINE
  5
2CB3
330
1F
100
AcDbEntity
  8
0
100
AcDbLine
 10
571.6876724188466
 20
212.8481641762991
 30
0.0
 11
572.6876724188466
 21
212.8481641762991
 31
0.0
  0
LINE
  5
2CB4
330
1F
100
AcDbEntity
  8
Innenkanten
100
AcDbLine
 10
550.6876724188466
 20
266.6541641762992
 30
0.0
 11
568.6876724188466
 21
266.6541641762992
 31
0.0
  0
LINE
  5
2CB5
330
1F
100
AcDbEntity
  8
0
100
AcDbLine
 10
568.6876724188466
 20
249.9981941762992
 30
0.0
 11
571.6876724188466
 21
249.9981941762992
 31
0.0
  0
LINE
  5
2CB6
330
1F
100
AcDbEntity
  8
0
100
AcDbLine
 10
647.6877024188467
 20
210.3481641762992
 30
0.0
 11
647.6877024188467
 21
175.3481641762991
 31
0.0
  0
LINE
  5
2D00
330
1F
100
AcDbEntity
  8
0
100
AcDbLine
 10
203.4466525511497
 20
-32.9679384761327
 30
0.0
 11
199.0236225511497
 21
-32.9679384761327
 31
0.0
  0
LINE
  5
2D01
330
1F
100
AcDbEntity
  8
0
100
AcDbLine
 10
203.4466525511498
 20
-28.9679384761327
 30
0.0
 11
199.3236225511498
 21
-28.9679384761327
 31
0.0
  0
LINE
  5
2D02
330
1F
100
AcDbEntity
  8
Innenkanten
100
AcDbLine
 10
195.6058625511498
 20
-33.9679384761327
 30
0.0
 11
276.3558625511497
 21
-33.9679384761327
 31
0.0
  0
LINE
  5
2D03
330
1F
100
AcDbEntity
  8
Innenkanten
100
AcDbLine
 10
326.1058625511497
 20
-95.9679384761327
 30
0.0
 11
150.1058625511498
 21
-95.96793847613264
 31
0.0
  0
LINE
  5
2D04
330
1F
100
AcDbEntity
  8
0
100
AcDbLine
 10
278.1058625511497
 20
-1.467938476132701
 30
0.0
 11
198.1058625511498
 21
-1.467938476132701
 31
0.0
  0
LINE
  5
2D05
330
1F
100
AcDbEntity
  8
0
100
AcDbLine
 10
326.1058625511497
 20
-40.9679384761327
 30
0.0
 11
150.1058625511498
 21
-40.96793847613264
 31
0.0
  0
LINE
  5
2D09
330
1F
100
AcDbEntity
  8
0
100
AcDbLine
 10
166.3645425511498
 20
-33.46793847613264
 30
0.0
 11
166.3645425511498
 21
-38.96793847613264
 31
0.0
  0
LINE
  5
2D0A
330
1F
100
AcDbEntity
  8
0
100
AcDbLine
 10
151.3645425511498
 20
-38.96793847613264
 30
0.0
 11
151.3645425511498
 21
-33.46793847613264
 31
0.0
  0
LINE
  5
2D0B
330
1F
100
AcDbEntity
  8
Mittellinie
100
AcDbLine
 10
158.8645425511498
 20
-45.01246847613265
 30
0.0
 11
158.8645425511498
 21
-30.59830847613261
 31
0.0
  0
LINE
  5
2D0C
330
1F
100
AcDbEntity
  8
0
100
AcDbLine
 10
151.3645425511498
 20
-33.46793847613264
 30
0.0
 11
166.3645425511498
 21
-33.46793847613264
 31
0.0
  0
LINE
  5
2D0D
330
1F
100
AcDbEntity
  8
0
100
AcDbLine
 10
166.6645525511497
 20
-38.96793847613264
 30
0.0
 11
151.0645425511497
 21
-38.96793847613264
 31
0.0
  0
LINE
  5
2D0E
330
1F
100
AcDbEntity
  8
0
100
AcDbLine
 10
151.0645425511497
 20
-40.96793847613264
 30
0.0
 11
151.0645425511497
 21
-38.96793847613264
 31
0.0
  0
LINE
  5
2D0F
330
1F
100
AcDbEntity
  8
0
100
AcDbLine
 10
166.6645525511497
 20
-38.96793847613264
 30
0.0
 11
166.6645525511497
 21
-40.96793847613264
 31
0.0
  0
LINE
  5
2D10
330
1F
100
AcDbEntity
  8
0
100
AcDbLine
 10
195.6058625511498
 20
-40.9679384761327
 30
0.0
 11
195.6058625511498
 21
-27.9679384761327
 31
0.0
  0
LINE
  5
2D11
330
1F
100
AcDbEntity
  8
0
100
AcDbLine
 10
199.0236225511497
 20
-32.9679384761327
 30
0.0
 11
199.0236225511497
 21
-33.9679384761327
 31
0.0
  0
LINE
  5
2D12
330
1F
100
AcDbEntity
  8
Innenkanten
100
AcDbLine
 10
197.0826825511498
 20
-27.9679384761327
 30
0.0
 11
197.0826825511498
 21
-33.9679384761327
 31
0.0
  0
LINE
  5
2D13
330
1F
100
AcDbEntity
  8
0
100
AcDbLine
 10
199.3236225511498
 20
-28.9679384761327
 30
0.0
 11
199.3236225511498
 21
-32.9679384761327
 31
0.0
  0
LINE
  5
2D16
330
1F
100
AcDbEntity
  8
0
100
AcDbLine
 10
325.0472125511497
 20
-38.9679384761327
 30
0.0
 11
309.6471825511497
 21
-38.9679384761327
 31
0.0
  0
LINE
  5
2D17
330
1F
100
AcDbEntity
  8
0
100
AcDbLine
 10
309.8471925511497
 20
-33.4679384761327
 30
0.0
 11
324.8471925511497
 21
-33.4679384761327
 31
0.0
  0
LINE
  5
2D18
330
1F
100
AcDbEntity
  8
Innenkanten
100
AcDbLine
 10
210.6024025511498
 20
-27.9679384761327
 30
0.0
 11
210.6024025511497
 21
-40.9679384761327
 31
0.0
  0
LINE
  5
2D19
330
1F
100
AcDbEntity
  8
Mittellinie
100
AcDbLine
 10
202.8236225511498
 20
-27.70600847613269
 30
0.0
 11
202.8236225511498
 21
-34.81245847613269
 31
0.0
  0
LINE
  5
2D1A
330
1F
100
AcDbEntity
  8
0
100
AcDbLine
 10
203.4466525511497
 20
-33.9679384761327
 30
0.0
 11
203.4466525511498
 21
-27.9679384761327
 31
0.0
  0
LINE
  5
2D1B
330
1F
100
AcDbEntity
  8
0
100
AcDbLine
 10
276.1558525511497
 20
-38.9679384761327
 30
0.0
 11
291.5558725511497
 21
-38.9679384761327
 31
0.0
  0
LINE
  5
2D1C
330
1F
100
AcDbEntity
  8
0
100
AcDbLine
 10
291.3558625511496
 20
-33.4679384761327
 30
0.0
 11
276.3558625511497
 21
-33.4679384761327
 31
0.0
  0
LINE
  5
2D1D
330
1F
100
AcDbEntity
  8
0
100
AcDbLine
 10
276.3558625511497
 20
-33.4679384761327
 30
0.0
 11
276.3558625511497
 21
-38.9679384761327
 31
0.0
  0
LINE
  5
2D1E
330
1F
100
AcDbEntity
  8
Mittellinie
100
AcDbLine
 10
267.7192025511498
 20
-26.89973847613277
 30
0.0
 11
267.7192025511498
 21
-35.33436847613273
 31
0.0
  0
LINE
  5
2D1F
330
1F
100
AcDbEntity
  8
Innenkanten
100
AcDbLine
 10
265.6095225511498
 20
-40.9679384761327
 30
0.0
 11
265.6095225511498
 21
-27.9679384761327
 31
0.0
  0
LINE
  5
2D20
330
1F
100
AcDbEntity
  8
Mittellinie
100
AcDbLine
 10
283.8558625511497
 20
-44.1074384761327
 30
0.0
 11
283.8558625511497
 21
-31.03998847613269
 31
0.0
  0
LINE
  5
2D21
330
1F
100
AcDbEntity
  8
0
100
AcDbLine
 10
267.0862725511498
 20
-32.9679384761327
 30
0.0
 11
271.5192225511497
 21
-32.9679384761327
 31
0.0
  0
LINE
  5
2D22
330
1F
100
AcDbEntity
  8
0
100
AcDbLine
 10
271.5192225511497
 20
-32.9679384761327
 30
0.0
 11
271.5192225511497
 21
-33.9679384761327
 31
0.0
  0
LINE
  5
2D23
330
1F
100
AcDbEntity
  8
0
100
AcDbLine
 10
267.0862725511498
 20
-28.9679384761327
 30
0.0
 11
271.2192025511498
 21
-28.9679384761327
 31
0.0
  0
LINE
  5
2D24
330
1F
100
AcDbEntity
  8
Innenkanten
100
AcDbLine
 10
273.4502225511497
 20
-33.9679384761327
 30
0.0
 11
273.4502225511497
 21
-27.9679384761327
 31
0.0
  0
LINE
  5
2D25
330
1F
100
AcDbEntity
  8
0
100
AcDbLine
 10
267.0862725511498
 20
-33.9679384761327
 30
0.0
 11
267.0862725511498
 21
-27.9679384761327
 31
0.0
  0
LINE
  5
2D26
330
1F
100
AcDbEntity
  8
0
100
AcDbLine
 10
271.2192025511498
 20
-28.9679384761327
 30
0.0
 11
271.2192025511498
 21
-32.9679384761327
 31
0.0
  0
LINE
  5
2D27
330
1F
100
AcDbEntity
  8
0
100
AcDbLine
 10
280.6058625511496
 20
-33.4679384761327
 30
0.0
 11
280.6058625511496
 21
-27.9679384761327
 31
0.0
  0
LINE
  5
2D28
330
1F
100
AcDbEntity
  8
0
100
AcDbLine
 10
276.1558525511497
 20
-40.9679384761327
 30
0.0
 11
276.1558525511497
 21
-38.9679384761327
 31
0.0
  0
LINE
  5
2D29
330
1F
100
AcDbEntity
  8
0
100
AcDbLine
 10
309.8471925511497
 20
-38.9679384761327
 30
0.0
 11
309.8471925511497
 21
-33.4679384761327
 31
0.0
  0
LINE
  5
2D2A
330
1F
100
AcDbEntity
  8
0
100
AcDbLine
 10
291.3558625511496
 20
-38.9679384761327
 30
0.0
 11
291.3558625511496
 21
-33.4679384761327
 31
0.0
  0
LINE
  5
2D2B
330
1F
100
AcDbEntity
  8
Mittellinie
100
AcDbLine
 10
317.3471925511497
 20
-31.03998847613269
 30
0.0
 11
317.3471925511497
 21
-44.71012847613264
 31
0.0
  0
LINE
  5
2D2C
330
1F
100
AcDbEntity
  8
0
100
AcDbLine
 10
291.5558725511497
 20
-38.9679384761327
 30
0.0
 11
291.5558725511497
 21
-40.9679384761327
 31
0.0
  0
LINE
  5
2D2D
330
1F
100
AcDbEntity
  8
0
100
AcDbLine
 10
309.6471825511497
 20
-38.9679384761327
 30
0.0
 11
309.6471825511497
 21
-40.9679384761327
 31
0.0
  0
LINE
  5
2D2E
330
1F
100
AcDbEntity
  8
0
100
AcDbLine
 10
324.8471925511497
 20
-33.4679384761327
 30
0.0
 11
324.8471925511497
 21
-38.9679384761327
 31
0.0
  0
LINE
  5
2D2F
330
1F
100
AcDbEntity
  8
0
100
AcDbLine
 10
325.0472125511497
 20
-40.9679384761327
 30
0.0
 11
325.0472125511497
 21
-38.9679384761327
 31
0.0
  0
LINE
  5
2D35
330
1F
100
AcDbEntity
  8
0
100
AcDbLine
 10
150.1058625511498
 20
-40.96793847613263
 30
0.0
 11
150.1058625511498
 21
-193.4679384761326
 31
0.0
  0
LINE
  5
2D36
330
1F
100
AcDbEntity
  8
0
100
AcDbLine
 10
326.1058625511497
 20
-40.9679384761327
 30
0.0
 11
326.1058625511497
 21
-193.4679384761327
 31
0.0
  0
LINE
  5
2D37
330
1F
100
AcDbEntity
  8
Innenkanten
100
AcDbLine
 10
150.1058625511498
 20
-175.4679384761326
 30
0.0
 11
326.1058625511497
 21
-175.4679384761327
 31
0.0
  0
LINE
  5
2D38
330
1F
100
AcDbEntity
  8
0
100
AcDbLine
 10
150.1058625511498
 20
-193.4679384761326
 30
0.0
 11
326.1058625511497
 21
-193.4679384761327
 31
0.0
  0
LINE
  5
2D4E
330
1F
100
AcDbEntity
  8
Innenkanten
100
AcDbLine
 10
326.0978146007465
 20
-95.95320309826787
 30
0.0
 11
150.0978146007466
 21
-95.95320309826783
 31
0.0
  0
LINE
  5
2D4F
330
1F
100
AcDbEntity
  8
Innenkanten
100
AcDbLine
 10
326.0978146007465
 20
-173.4532030982678
 30
0.0
 11
150.0978146007466
 21
-173.4532030982678
 31
0.0
  0
LINE
  5
2D50
330
1F
100
AcDbEntity
  8
Innenkanten
100
AcDbLine
 10
326.0978146007465
 20
-175.4532030982678
 30
0.0
 11
150.0978146007466
 21
-175.4532030982678
 31
0.0
  0
LINE
  5
2D51
330
1F
100
AcDbEntity
  8
Innenkanten
100
AcDbLine
 10
311.9038146007466
 20
-175.4532030982678
 30
0.0
 11
311.9038146007466
 21
-193.4532030982678
 31
0.0
  0
LINE
  5
2D52
330
1F
100
AcDbEntity
  8
Innenkanten
100
AcDbLine
 10
295.5978146007465
 20
-175.4532030982678
 30
0.0
 11
295.5978146007465
 21
-40.96793847613269
 31
0.0
  0
LINE
  5
2D53
330
1F
100
AcDbEntity
  8
Innenkanten
100
AcDbLine
 10
275.0978146007465
 20
-173.4532030982678
 30
0.0
 11
275.0978146007465
 21
-95.95320309826783
 31
0.0
  0
LINE
  5
2D54
330
1F
100
AcDbEntity
  8
Innenkanten
100
AcDbLine
 10
271.0978146007466
 20
-173.4532030982678
 30
0.0
 11
271.0978146007466
 21
-95.95320309826783
 31
0.0
  0
LINE
  5
2D55
330
1F
100
AcDbEntity
  8
Innenkanten
100
AcDbLine
 10
267.0978146007465
 20
-173.4532030982678
 30
0.0
 11
267.0978146007465
 21
-95.95320309826783
 31
0.0
  0
LINE
  5
2D56
330
1F
100
AcDbEntity
  8
Innenkanten
100
AcDbLine
 10
263.0978146007465
 20
-173.4532030982678
 30
0.0
 11
263.0978146007465
 21
-95.95320309826783
 31
0.0
  0
LINE
  5
2D57
330
1F
100
AcDbEntity
  8
Innenkanten
100
AcDbLine
 10
213.0978146007466
 20
-173.4532030982678
 30
0.0
 11
213.0978146007466
 21
-95.95320309826783
 31
0.0
  0
LINE
  5
2D58
330
1F
100
AcDbEntity
  8
Innenkanten
100
AcDbLine
 10
209.0978146007466
 20
-95.95320309826783
 30
0.0
 11
209.0978146007466
 21
-173.4532030982678
 31
0.0
  0
LINE
  5
2D59
330
1F
100
AcDbEntity
  8
Innenkanten
100
AcDbLine
 10
205.0978146007466
 20
-173.4532030982678
 30
0.0
 11
205.0978146007466
 21
-95.95320309826783
 31
0.0
  0
LINE
  5
2D5A
330
1F
100
AcDbEntity
  8
Innenkanten
100
AcDbLine
 10
201.0978146007466
 20
-95.95320309826783
 30
0.0
 11
201.0978146007466
 21
-173.4532030982678
 31
0.0
  0
LINE
  5
2D5B
330
1F
100
AcDbEntity
  8
Innenkanten
100
AcDbLine
 10
180.5978146007466
 20
-175.4532030982678
 30
0.0
 11
180.5978146007467
 21
-40.96793847613265
 31
0.0
  0
LINE
  5
2D5C
330
1F
100
AcDbEntity
  8
Innenkanten
100
AcDbLine
 10
164.2918146007466
 20
-175.4532030982678
 30
0.0
 11
164.2918146007466
 21
-193.4532030982678
 31
0.0
  0
LINE
  5
2D5D
330
1F
100
AcDbEntity
  8
Mittellinie
100
AcDbLine
 10
238.0978146007465
 20
7.481777688269403
 30
0.0
 11
238.0978146007465
 21
-276.4313830982678
 31
0.0
  0
LINE
  5
2D61
330
1F
100
AcDbEntity
  8
0
100
AcDbLine
 10
180.9897296692155
 20
-196.4679384761326
 30
0.0
 11
295.2897776692156
 21
-196.4679384761326
 31
0.0
  0
LINE
  5
2D63
330
1F
100
AcDbEntity
  8
0
100
AcDbLine
 10
208.1397536692155
 20
-198.4679384761326
 30
0.0
 11
268.1397536692155
 21
-198.4679384761326
 31
0.0
  0
LINE
  5
2D64
330
1F
100
AcDbEntity
  8
0
100
AcDbLine
 10
218.1397536692155
 20
-273.4679384761326
 30
0.0
 11
258.1397536692155
 21
-273.4679384761326
 31
0.0
  0
LINE
  5
2D65
330
1F
100
AcDbEntity
  8
0
100
AcDbLine
 10
218.1397536692155
 20
-273.4679384761326
 30
0.0
 11
218.1397536692155
 21
-198.4679384761326
 31
0.0
  0
LINE
  5
2D66
330
1F
100
AcDbEntity
  8
0
100
AcDbLine
 10
258.1397536692155
 20
-273.4679384761326
 30
0.0
 11
258.1397536692155
 21
-198.4679384761326
 31
0.0
  0
LINE
  5
2D67
330
1F
100
AcDbEntity
  8
0
100
AcDbLine
 10
268.1397536692155
 20
-198.4679384761326
 30
0.0
 11
268.1397536692155
 21
-196.4679384761326
 31
0.0
  0
LINE
  5
2D68
330
1F
100
AcDbEntity
  8
0
100
AcDbLine
 10
208.1397536692155
 20
-198.4679384761326
 30
0.0
 11
208.1397536692155
 21
-196.4679384761326
 31
0.0
  0
LINE
  5
2D69
330
1F
100
AcDbEntity
  8
0
100
AcDbLine
 10
180.9897296692155
 20
-196.4679384761326
 30
0.0
 11
180.9897296692155
 21
-193.4679384761326
 31
0.0
  0
LINE
  5
2D6A
330
1F
100
AcDbEntity
  8
0
100
AcDbLine
 10
295.2897776692156
 20
-196.4679384761326
 30
0.0
 11
295.2897776692156
 21
-193.4679384761327
 31
0.0
  0
LINE
  5
2D6E
330
1F
100
AcDbEntity
  8
0
100
AcDbLine
 10
195.6058625511498
 20
-27.9679384761327
 30
0.0
 11
280.6058625511496
 21
-27.9679384761327
 31
0.0
  0
LINE
  5
2D6F
330
1F
100
AcDbEntity
  8
0
100
AcDbLine
 10
198.1058625511498
 20
-1.467938476132701
 30
0.0
 11
198.1058625511498
 21
-27.9679384761327
 31
0.0
  0
LINE
  5
2D70
330
1F
100
AcDbEntity
  8
0
100
AcDbLine
 10
278.1058625511497
 20
-1.467938476132701
 30
0.0
 11
278.1058625511497
 21
-27.9679384761327
 31
0.0
  0
DIMENSION
  5
2D71
102
{ACAD_XDICTIONARY
360
2D7E
102
}
102
{ACAD_REACTORS
330
2D88
102
}
330
1F
100
AcDbEntity
  8
Bemaßung
100
AcDbDimension
  2
*D0
 10
550.6876724188466
 20
292.3828665057017
 30
0.0
 11
559.6876724188466
 21
294.2578665057017
 31
0.0
 70
    32
 71
     5
 42
18.0
  3
ISO-25
100
AcDbAlignedDimension
 13
568.6876724188466
 23
280.8481641762991
 33
0.0
 14
550.6876724188466
 24
280.8481641762991
 34
0.0
100
AcDbRotatedDimension
  0
DIMENSION
  5
2D92
102
{ACAD_XDICTIONARY
360
2DA1
102
}
102
{ACAD_REACTORS
330
2DAD
102
}
330
1F
100
AcDbEntity
  8
Bemaßung
100
AcDbDimension
  2
*D1
 10
568.6876724188466
 20
292.3828665057017
 30
0.0
 11
570.1876724188466
 21
294.2578665057017
 31
0.0
 70
    32
 71
     5
 42
3.0
  3
ISO-25
100
AcDbAlignedDimension
 13
571.6876724188466
 23
249.9981941762992
 33
0.0
 14
568.6876724188466
 24
280.8481641762991
 34
0.0
100
AcDbRotatedDimension
  0
DIMENSION
  5
2DD1
102
{ACAD_XDICTIONARY
360
2DDE
102
}
102
{ACAD_REACTORS
330
2DE8
102
}
330
1F
100
AcDbEntity
  8
Bemaßung
100
AcDbDimension
  2
*D2
 10
572.6876724188466
 20
269.5049618326952
 30
0.0
 11
610.1876874188467
 21
271.3799618326952
 31
0.0
 70
    32
 71
     5
 42
75.00003000000003
  3
ISO-25
100
AcDbAlignedDimension
 13
647.6877024188467
 23
210.3481641762992
 33
0.0
 14
572.6876724188466
 24
212.8481641762991
 34
0.0
100
AcDbRotatedDimension
  0
DIMENSION
  5
2DF2
102
{ACAD_XDICTIONARY
360
2DFF
102
}
102
{ACAD_REACTORS
330
2E09
102
}
330
1F
100
AcDbEntity
  8
Bemaßung
100
AcDbDimension
  2
*D3
 10
665.690211603829
 20
175.3481641762991
 30
0.0
 11
663.815211603829
 21
192.8481641762992
 31
0.0
 70
    32
 71
     5
 42
35.0
  3
ISO-25
100
AcDbAlignedDimension
 13
647.6877024188467
 23
210.3481641762992
 33
0.0
 14
647.6877024188467
 24
175.3481641762991
 34
0.0
 50
90.0
100
AcDbRotatedDimension
  0
DIMENSION
  5
2E13
102
{ACAD_XDICTIONARY
360
2E20
102
}
102
{ACAD_REACTORS
330
2E2A
102
}
330
1F
100
AcDbEntity
  8
Bemaßung
100
AcDbDimension
  2
*D4
 10
678.2464173140529
 20
135.6981741762992
 30
0.0
 11
676.1630839807195
 21
192.8481841762993
 31
0.0
 70
    32
 71
     5
 42
114.30002
  3
ISO-25
100
AcDbAlignedDimension
 13
571.6876724188466
 23
249.9981941762992
 33
0.0
 14
571.6876724188466
 24
135.6981741762993
 34
0.0
 50
90.0
100
AcDbRotatedDimension
  0
DIMENSION
  5
2E34
102
{ACAD_XDICTIONARY
360
2E41
102
}
102
{ACAD_REACTORS
330
2E4B
102
}
330
1F
100
AcDbEntity
  8
Bemaßung
100
AcDbDimension
  2
*D5
 10
647.6877024188467
 20
301.4678320722919
 30
0.0
 11
608.1876874188467
 21
303.3428320722919
 31
0.0
 70
    32
 71
     5
 42
79.00003000000004
  3
ISO-25
100
AcDbAlignedDimension
 13
568.6876724188466
 23
280.8481641762991
 33
0.0
 14
647.6877024188467
 24
210.3481641762992
 34
0.0
100
AcDbRotatedDimension
  0
DIMENSION
  5
2E59
102
{ACAD_XDICTIONARY
360
2E66
102
}
102
{ACAD_REACTORS
330
2E70
102
}
330
1F
100
AcDbEntity
  8
Bemaßung
100
AcDbDimension
  2
*D6
 10
375.6876724188466
 20
301.4678320722919
 30
0.0
 11
472.1876724188466
 21
303.3428320722919
 31
0.0
 70
    32
 71
     5
 42
193.0
  3
ISO-25
100
AcDbAlignedDimension
 13
568.6876724188466
 23
280.8481641762991
 33
0.0
 14
375.6876724188466
 24
192.8481641762991
 34
0.0
100
AcDbRotatedDimension
1001
ACAD
1000
DSTYLE
1002
{
1070
   279
1070
     1
1002
}
  0
DIMENSION
  5
2EA5
102
{ACAD_XDICTIONARY
360
2EB2
102
}
102
{ACAD_REACTORS
330
2EBC
102
}
330
1F
100
AcDbEntity
  8
Bemaßung
100
AcDbDimension
  2
*D8
 10
500.1876724188466
 20
31.24242758433865
 30
0.0
 11
534.4376724188466
 21
33.32576091767199
 31
0.0
 70
    32
 71
     5
 42
68.5
  3
ISO-25
100
AcDbAlignedDimension
 13
568.6876724188466
 23
104.8481641762992
 33
0.0
 14
500.1876724188466
 24
43.49207417629929
 34
0.0
100
AcDbRotatedDimension
  0
DIMENSION
  5
2ED0
102
{ACAD_XDICTIONARY
360
2EDD
102
}
102
{ACAD_REACTORS
330
2EE7
102
}
330
1F
100
AcDbEntity
  8
Bemaßung
100
AcDbDimension
  2
*D9
 10
326.1406136692156
 20
301.4678320722919
 30
0.0
 11
238.140173423132
 21
303.3428320722919
 31
0.0
 70
    32
 71
     5
 42
176.0008804921672
  3
ISO-25
100
AcDbAlignedDimension
 13
150.1397331770484
 23
266.7578758201245
 33
0.0
 14
326.1406136692156
 24
266.7568730356514
 34
0.0
100
AcDbRotatedDimension
  0
DIMENSION
  5
2EF1
102
{ACAD_XDICTIONARY
360
2EFE
102
}
102
{ACAD_REACTORS
330
2F08
102
}
330
1F
100
AcDbEntity
  8
Bemaßung
100
AcDbDimension
  2
*D10
 10
123.8387329078554
 20
104.7232430356514
 30
0.0
 11
121.9637329078554
 21
192.7236524390612
 31
0.0
 70
    32
 71
     5
 42
176.0008188068194
  3
ISO-25
100
AcDbAlignedDimension
 13
164.1059094491618
 23
280.7240618424709
 33
0.0
 14
164.1069836692156
 24
104.7232430356514
 34
0.0
 50
90.0
100
AcDbRotatedDimension
  0
DIMENSION
  5
2F12
102
{ACAD_XDICTIONARY
360
2F20
102
}
102
{ACAD_REACTORS
330
2F2B
102
}
330
1F
100
AcDbEntity
  8
Bemaßung
100
AcDbDimension
  2
*D11
 10
174.9529936692156
 20
255.9108930356513
 30
0.0
 11
198.0111700778378
 21
289.603110932183
 31
0.0
 70
    34
 71
     5
 42
0.7853974908975163
  3
ISO-25
100
AcDb2LineAngularDimension
 13
238.1397536692155
 23
287.5222558696455
 33
0.0
 14
238.1397536692155
 24
47.19952924011863
 34
0.0
 15
160.0831136692156
 25
270.7807930356514
 35
0.0
 16
211.4850048081421
 26
292.2010142595908
 36
0.0
  0
DIMENSION
  5
2F36
102
{ACAD_XDICTIONARY
360
2F3F
102
}
102
{ACAD_REACTORS
330
2F45
102
}
330
1F
100
AcDbEntity
  8
Bemaßung
100
AcDbDimension
  2
*D12
 10
302.4214158812768
 20
116.1220832496513
 30
0.0
 11
282.550024548097
 21
139.8020638379576
 31
0.0
 70
   163
 71
     5
 42
199.9999999999998
  3
ISO-25
100
AcDbDiametricDimension
 15
173.8580914571542
 25
269.3261028216513
 35
0.0
 40
0.0
1001
ACAD
1000
DSTYLE
1002
{
1070
   279
1070
     1
1070
   288
1070
     1
1002
}
  0
DIMENSION
  5
2F4B
102
{ACAD_XDICTIONARY
360
2F54
102
}
102
{ACAD_REACTORS
330
2F5A
102
}
330
1F
100
AcDbEntity
  8
Bemaßung
100
AcDbDimension
  2
*D13
 10
164.1059447746146
 20
104.7240945097529
 30
0.0
 11
189.7969026878641
 21
135.2615515479757
 31
0.0
 70
   163
 71
     5
 42
230.0000399999999
  3
ISO-25
100
AcDbDiametricDimension
 15
312.1735625638164
 25
280.7240915615496
 35
0.0
 40
0.0
1001
ACAD
1000
DSTYLE
1002
{
1070
   279
1070
     1
1070
   288
1070
     1
1002
}
  0
DIMENSION
  5
2F78
102
{ACAD_XDICTIONARY
360
2F85
102
}
102
{ACAD_REACTORS
330
2F8F
102
}
330
1F
100
AcDbEntity
  8
Bemaßung
100
AcDbDimension
  2
*D14
 10
349.2965768252506
 20
50.72408303565137
 30
0.0
 11
347.4215768252506
 21
121.7240880356514
 31
0.0
 70
    32
 71
     5
 42
142.0000099999999
  3
ISO-25
100
AcDbAlignedDimension
 13
337.1321936692156
 23
192.7240930356513
 33
0.0
 14
254.5397836692156
 24
50.7240830356514
 34
0.0
 50
90.0
100
AcDbRotatedDimension
  0
DIMENSION
  5
2F99
102
{ACAD_XDICTIONARY
360
2FA6
102
}
102
{ACAD_REACTORS
330
2FB0
102
}
330
1F
100
AcDbEntity
  8
Bemaßung
100
AcDbDimension
  2
*D15
 10
261.1397536692155
 20
35.28655707458233
 30
0.0
 11
238.1397536692155
 21
37.16155707458233
 31
0.0
 70
    32
 71
     5
 42
46.0
  3
ISO-25
100
AcDbAlignedDimension
 13
215.1397536692155
 23
69.72409303565143
 33
0.0
 14
261.1397536692155
 24
69.72409303565143
 34
0.0
100
AcDbRotatedDimension
  0
LINE
  5
3037
330
1F
100
AcDbEntity
  8
Innenkanten
100
AcDbLine
 10
464.1876724188466
 20
280.8481641762993
 30
0.0
 11
464.1876724188466
 21
104.8481641762992
 31
0.0
  0
LINE
  5
3038
330
1F
100
AcDbEntity
  8
0
100
AcDbLine
 10
417.1876724188466
 20
105.8481641762992
 30
0.0
 11
417.1876724188466
 21
279.8481641762993
 31
0.0
  0
LINE
  5
3039
330
1F
100
AcDbEntity
  8
Innenkanten
100
AcDbLine
 10
381.3876824188466
 20
111.3481741762993
 30
0.0
 11
381.3876824188466
 21
127.6481841762993
 31
0.0
  0
LINE
  5
303A
330
1F
100
AcDbEntity
  8
Innenkanten
100
AcDbLine
 10
408.9876924188466
 20
111.3481741762993
 30
0.0
 11
408.9876924188466
 21
127.6481841762993
 31
0.0
  0
LINE
  5
303B
330
1F
100
AcDbEntity
  8
Mittellinie
100
AcDbLine
 10
395.1876724188466
 20
103.6054241762993
 30
0.0
 11
395.1876724188466
 21
136.9073641762993
 31
0.0
  0
LINE
  5
303C
330
1F
100
AcDbEntity
  8
0
100
AcDbLine
 10
409.9876924188467
 20
112.3481741762993
 30
0.0
 11
409.9876924188467
 21
130.6481841762993
 31
0.0
  0
LINE
  5
303D
330
1F
100
AcDbEntity
  8
0
100
AcDbLine
 10
380.3876824188467
 20
130.6481841762993
 30
0.0
 11
380.3876824188467
 21
112.3481741762993
 31
0.0
  0
LINE
  5
303E
330
1F
100
AcDbEntity
  8
Innenkanten
100
AcDbLine
 10
409.9876924188467
 20
112.3481741762993
 30
0.0
 11
380.3876824188467
 21
112.3481741762993
 31
0.0
  0
LINE
  5
303F
330
1F
100
AcDbEntity
  8
0
100
AcDbLine
 10
381.3876824188466
 20
111.3481741762993
 30
0.0
 11
408.9876924188466
 21
111.3481741762993
 31
0.0
  0
LINE
  5
3040
330
1F
100
AcDbEntity
  8
0
100
AcDbLine
 10
380.3876824188467
 20
112.3481741762993
 30
0.0
 11
381.3876824188466
 21
111.3481741762993
 31
0.0
  0
LINE
  5
3041
330
1F
100
AcDbEntity
  8
0
100
AcDbLine
 10
428.1876724188466
 20
121.6481641762993
 30
0.0
 11
428.1876724188466
 21
105.8481641762992
 31
0.0
  0
LINE
  5
3042
330
1F
100
AcDbEntity
  8
0
100
AcDbLine
 10
426.1876724188466
 20
121.3068441762993
 30
0.0
 11
426.1876724188466
 21
105.9068441762993
 31
0.0
  0
ARC
  5
3043
330
1F
100
AcDbEntity
  8
0
100
AcDbCircle
 10
418.1876724188466
 20
105.8481641762992
 30
0.0
 40
1.0
100
AcDbArc
 50
179.9999799999979
 51
270.0000299999997
  0
ARC
  5
3044
330
1F
100
AcDbEntity
  8
0
100
AcDbCircle
 10
429.1876724188466
 20
105.8481641762992
 30
0.0
 40
1.0
100
AcDbArc
 50
179.9999799999979
 51
270.0000299999997
  0
LINE
  5
3045
330
1F
100
AcDbEntity
  8
0
100
AcDbLine
 10
426.1876724188466
 20
105.9068441762993
 30
0.0
 11
428.1876724188466
 21
105.9068441762993
 31
0.0
  0
LINE
  5
3046
330
1F
100
AcDbEntity
  8
0
100
AcDbLine
 10
408.9876924188466
 20
111.3481741762993
 30
0.0
 11
409.9876924188467
 21
112.3481741762993
 31
0.0
  0
LINE
  5
3047
330
1F
100
AcDbEntity
  8
0
100
AcDbLine
 10
418.1876724188466
 20
120.1068441762993
 30
0.0
 11
418.1876724188466
 21
107.1068441762993
 31
0.0
  0
LINE
  5
3048
330
1F
100
AcDbEntity
  8
Mittellinie
100
AcDbLine
 10
416.9001424188467
 20
113.6068441762993
 30
0.0
 11
429.8662624188466
 21
113.6068441762993
 31
0.0
  0
LINE
  5
3049
330
1F
100
AcDbEntity
  8
0
100
AcDbLine
 10
418.1876724188466
 20
107.1068441762993
 30
0.0
 11
426.1876724188466
 21
107.1068441762993
 31
0.0
  0
LINE
  5
304A
330
1F
100
AcDbEntity
  8
0
100
AcDbLine
 10
428.1876724188466
 20
121.6481641762993
 30
0.0
 11
418.1876724188466
 21
121.6481641762993
 31
0.0
  0
LINE
  5
304B
330
1F
100
AcDbEntity
  8
0
100
AcDbLine
 10
426.1876724188466
 20
120.1068441762993
 30
0.0
 11
418.1876724188466
 21
120.1068441762993
 31
0.0
  0
ARC
  5
304C
330
1F
100
AcDbEntity
  8
0
100
AcDbCircle
 10
418.1876724188466
 20
122.6481641762993
 30
0.0
 40
1.0
100
AcDbArc
 50
179.9999799999979
 51
270.0000299999997
  0
LINE
  5
304D
330
1F
100
AcDbEntity
  8
0
100
AcDbLine
 10
428.1876724188466
 20
121.3068441762993
 30
0.0
 11
426.1876724188466
 21
121.3068441762993
 31
0.0
  0
LINE
  5
304E
102
{ACAD_REACTORS
330
30CD
102
}
330
1F
100
AcDbEntity
  8
Mittellinie
100
AcDbLine
 10
444.6876724188467
 20
76.27789417629935
 30
0.0
 11
444.6876724188467
 21
104.8481641762992
 31
0.0
  0
LINE
  5
304F
330
1F
100
AcDbEntity
  8
0
100
AcDbLine
 10
452.6254824188466
 20
77.21687417629937
 30
0.0
 11
452.6254824188466
 21
90.34852417629929
 31
0.0
  0
LINE
  5
3050
330
1F
100
AcDbEntity
  8
0
100
AcDbLine
 10
436.7495024188466
 20
90.34852417629929
 30
0.0
 11
436.7495024188466
 21
77.21686417629928
 31
0.0
  0
LINE
  5
3051
330
1F
100
AcDbEntity
  8
0
100
AcDbLine
 10
437.3875024188467
 20
75.84852417629929
 30
0.0
 11
451.9874824188467
 21
75.84852417629929
 31
0.0
  0
LINE
  5
3052
330
1F
100
AcDbEntity
  8
0
100
AcDbLine
 10
437.3875024188467
 20
85.8485241762993
 30
0.0
 11
451.9874824188467
 21
85.8485241762993
 31
0.0
  0
LINE
  5
3053
102
{ACAD_REACTORS
330
30CD
102
}
330
1F
100
AcDbEntity
  8
0
100
AcDbLine
 10
437.3875024188467
 20
76.84852417629929
 30
0.0
 11
451.9874824188467
 21
76.84852417629929
 31
0.0
  0
LINE
  5
3054
330
1F
100
AcDbEntity
  8
0
100
AcDbLine
 10
437.3875024188467
 20
85.8485241762993
 30
0.0
 11
437.3875024188467
 21
75.84852417629929
 31
0.0
  0
LINE
  5
3055
330
1F
100
AcDbEntity
  8
0
100
AcDbLine
 10
436.7495024188466
 20
77.21686417629928
 30
0.0
 11
437.3875024188467
 21
76.84852417629929
 31
0.0
  0
LINE
  5
3056
330
1F
100
AcDbEntity
  8
0
100
AcDbLine
 10
436.7495324188467
 20
86.21684417629934
 30
0.0
 11
437.3875024188467
 21
85.8484941762993
 31
0.0
  0
LINE
  5
3057
330
1F
100
AcDbEntity
  8
0
100
AcDbLine
 10
451.9874824188467
 20
75.84852417629929
 30
0.0
 11
451.9874824188467
 21
85.8485241762993
 31
0.0
  0
LINE
  5
3058
330
1F
100
AcDbEntity
  8
0
100
AcDbLine
 10
451.9874824188467
 20
76.84852417629929
 30
0.0
 11
452.6254824188466
 21
77.21687417629937
 31
0.0
  0
LINE
  5
3059
330
1F
100
AcDbEntity
  8
0
100
AcDbLine
 10
451.9874824188467
 20
85.8485241762993
 30
0.0
 11
452.6255124188466
 21
86.21689417629932
 31
0.0
  0
LINE
  5
305A
330
1F
100
AcDbEntity
  8
0
100
AcDbLine
 10
431.9874824188467
 20
90.34852417629929
 30
0.0
 11
457.3875024188466
 21
90.34852417629929
 31
0.0
  0
LINE
  5
305B
330
1F
100
AcDbEntity
  8
0
100
AcDbLine
 10
431.1876724188466
 20
92.54816417629934
 30
0.0
 11
458.1876724188466
 21
92.54816417629934
 31
0.0
  0
LINE
  5
305C
330
1F
100
AcDbEntity
  8
0
100
AcDbLine
 10
431.1876724188466
 20
104.8481641762992
 30
0.0
 11
431.1876724188466
 21
92.54816417629934
 31
0.0
  0
LINE
  5
305D
330
1F
100
AcDbEntity
  8
0
100
AcDbLine
 10
431.9874824188467
 20
92.54816417629934
 30
0.0
 11
431.9874824188467
 21
90.34852417629929
 31
0.0
  0
LINE
  5
305E
330
1F
100
AcDbEntity
  8
0
100
AcDbLine
 10
458.1876724188466
 20
92.54816417629934
 30
0.0
 11
458.1876724188466
 21
104.8481641762992
 31
0.0
  0
LINE
  5
305F
330
1F
100
AcDbEntity
  8
0
100
AcDbLine
 10
457.3875024188466
 20
90.34852417629929
 30
0.0
 11
457.3875024188466
 21
92.54816417629934
 31
0.0
  0
LINE
  5
3060
330
1F
100
AcDbEntity
  8
0
100
AcDbLine
 10
409.6876724188466
 20
257.8481641762992
 30
0.0
 11
409.6876724188466
 21
267.8481641762993
 31
0.0
  0
LINE
  5
3061
330
1F
100
AcDbEntity
  8
0
100
AcDbLine
 10
415.6876724188466
 20
256.7481841762993
 30
0.0
 11
415.6876724188466
 21
268.9481641762993
 31
0.0
  0
LINE
  5
3062
330
1F
100
AcDbEntity
  8
Innenkanten
100
AcDbLine
 10
377.1876724188466
 20
158.5007841762993
 30
0.0
 11
377.1876724188466
 21
231.7672041762993
 31
0.0
  0
LINE
  5
3063
330
1F
100
AcDbEntity
  8
0
100
AcDbLine
 10
375.6876724188466
 20
222.8481641762992
 30
0.0
 11
375.6876724188466
 21
133.4481641762993
 31
0.0
  0
LINE
  5
3064
330
1F
100
AcDbEntity
  8
Innenkanten
100
AcDbLine
 10
415.1876724188467
 20
150.3481641762992
 30
0.0
 11
415.1876724188467
 21
235.3481641762992
 31
0.0
  0
LINE
  5
3065
330
1F
100
AcDbEntity
  8
Innenkanten
100
AcDbLine
 10
408.1876724188466
 20
235.3481641762992
 30
0.0
 11
408.1876724188466
 21
162.8481641762992
 31
0.0
  0
LINE
  5
3066
330
1F
100
AcDbEntity
  8
0
100
AcDbLine
 10
402.1876724188466
 20
150.3481641762992
 30
0.0
 11
402.1876724188466
 21
235.3481641762992
 31
0.0
  0
LINE
  5
3067
330
1F
100
AcDbEntity
  8
Innenkanten
100
AcDbLine
 10
375.6876724188466
 20
159.3632041762993
 30
0.0
 11
377.1876724188466
 21
158.5007841762993
 31
0.0
  0
LINE
  5
3068
330
1F
100
AcDbEntity
  8
0
100
AcDbLine
 10
407.6876724188466
 20
162.8481641762992
 30
0.0
 11
407.6876724188466
 21
152.8481641762992
 31
0.0
  0
LINE
  5
3069
330
1F
100
AcDbEntity
  8
0
100
AcDbLine
 10
413.6876724188466
 20
163.9481641762993
 30
0.0
 11
413.6876724188466
 21
151.7481741762993
 31
0.0
  0
LINE
  5
306A
330
1F
100
AcDbEntity
  8
Innenkanten
100
AcDbLine
 10
402.1876724188466
 20
158.5007841762993
 30
0.0
 11
377.1876724188466
 21
158.5007841762993
 31
0.0
  0
LINE
  5
306B
330
1F
100
AcDbEntity
  8
0
100
AcDbLine
 10
375.6876724188466
 20
133.4481641762993
 30
0.0
 11
414.6876724188466
 21
133.4481641762993
 31
0.0
  0
LINE
  5
306C
330
1F
100
AcDbEntity
  8
Innenkanten
100
AcDbLine
 10
380.3876824188467
 20
127.6481841762993
 30
0.0
 11
409.9876924188467
 21
127.6481841762993
 31
0.0
  0
LINE
  5
306D
330
1F
100
AcDbEntity
  8
0
100
AcDbLine
 10
414.2376924188466
 20
130.6481841762993
 30
0.0
 11
376.1376824188467
 21
130.6481841762993
 31
0.0
  0
LINE
  5
306E
330
1F
100
AcDbEntity
  8
0
100
AcDbLine
 10
376.1376824188467
 20
130.6481841762993
 30
0.0
 11
376.1376824188467
 21
133.4481641762993
 31
0.0
  0
LINE
  5
306F
330
1F
100
AcDbEntity
  8
0
100
AcDbLine
 10
414.6876724188466
 20
133.4481641762993
 30
0.0
 11
414.6876724188466
 21
150.3481641762992
 31
0.0
  0
LINE
  5
3070
330
1F
100
AcDbEntity
  8
0
100
AcDbLine
 10
414.2376924188466
 20
133.4481641762993
 30
0.0
 11
414.2376924188466
 21
130.6481841762993
 31
0.0
  0
LINE
  5
3071
330
1F
100
AcDbEntity
  8
0
100
AcDbLine
 10
413.6876724188466
 20
151.7481741762993
 30
0.0
 11
415.1876724188467
 21
151.7481741762993
 31
0.0
  0
LINE
  5
3072
330
1F
100
AcDbEntity
  8
Mittellinie
100
AcDbLine
 10
406.6982924188466
 20
157.8481641762992
 30
0.0
 11
415.8851224188466
 21
157.8481641762992
 31
0.0
  0
LINE
  5
3073
330
1F
100
AcDbEntity
  8
0
100
AcDbLine
 10
417.1876724188466
 20
150.3481641762992
 30
0.0
 11
402.1876724188466
 21
150.3481641762992
 31
0.0
  0
ARC
  5
3074
330
1F
100
AcDbEntity
  8
0
100
AcDbCircle
 10
407.1876724188467
 20
156.1730841762993
 30
0.0
 40
1.0
100
AcDbArc
 50
179.9999799999979
 51
270.0000299999997
  0
LINE
  5
3075
330
1F
100
AcDbEntity
  8
Innenkanten
100
AcDbLine
 10
407.6876724188466
 20
158.1889541762993
 30
0.0
 11
402.1876724188466
 21
158.1889541762993
 31
0.0
  0
LINE
  5
3076
330
1F
100
AcDbEntity
  8
Innenkanten
100
AcDbLine
 10
408.1876724188466
 20
151.8249841762993
 30
0.0
 11
402.1876724188466
 21
151.8249841762993
 31
0.0
  0
LINE
  5
3077
330
1F
100
AcDbEntity
  8
0
100
AcDbLine
 10
406.1876724188466
 20
158.1889541762993
 30
0.0
 11
406.1876724188466
 21
156.1730841762993
 31
0.0
  0
LINE
  5
3078
330
1F
100
AcDbEntity
  8
0
100
AcDbLine
 10
407.1876724188467
 20
155.1730841762993
 30
0.0
 11
407.6876724188466
 21
155.1730841762993
 31
0.0
  0
LINE
  5
3079
330
1F
100
AcDbEntity
  8
Innenkanten
100
AcDbLine
 10
408.1876724188466
 20
150.3481641762992
 30
0.0
 11
408.1876724188466
 21
152.8481641762992
 31
0.0
  0
LINE
  5
307A
330
1F
100
AcDbEntity
  8
0
100
AcDbLine
 10
407.6876724188466
 20
152.8481641762992
 30
0.0
 11
413.6876724188466
 21
152.8481641762992
 31
0.0
  0
LINE
  5
307B
330
1F
100
AcDbEntity
  8
Innenkanten
100
AcDbLine
 10
402.1876724188466
 20
165.3446841762993
 30
0.0
 11
415.1876724188467
 21
165.3446841762993
 31
0.0
  0
LINE
  5
307C
330
1F
100
AcDbEntity
  8
0
100
AcDbLine
 10
415.1876724188467
 20
163.9481641762993
 30
0.0
 11
413.6876724188466
 21
163.9481641762993
 31
0.0
  0
LINE
  5
307D
330
1F
100
AcDbEntity
  8
0
100
AcDbLine
 10
413.6876724188466
 20
162.8481641762992
 30
0.0
 11
407.6876724188466
 21
162.8481641762992
 31
0.0
  0
ARC
  5
307E
330
1F
100
AcDbEntity
  8
0
100
AcDbCircle
 10
405.7356224188466
 20
222.8412341762993
 30
0.0
 40
30.047937
100
AcDbArc
 50
163.6197599999992
 51
179.9868200000001
  0
LINE
  5
307F
330
1F
100
AcDbEntity
  8
Innenkanten
100
AcDbLine
 10
415.1876724188467
 20
220.3518541762992
 30
0.0
 11
402.1876724188466
 21
220.3518541762992
 31
0.0
  0
ARC
  5
3080
330
1F
100
AcDbEntity
  8
0
100
AcDbCircle
 10
407.1876724188467
 20
223.9606541762992
 30
0.0
 40
1.0
100
AcDbArc
 50
89.9999820000008
 51
179.9999599999992
  0
LINE
  5
3081
330
1F
100
AcDbEntity
  8
0
100
AcDbLine
 10
408.1876724188466
 20
221.8285741762993
 30
0.0
 11
402.1876724188466
 21
221.8285741762993
 31
0.0
  0
LINE
  5
3082
330
1F
100
AcDbEntity
  8
Mittellinie
100
AcDbLine
 10
410.6798024188466
 20
222.4606541762992
 30
0.0
 11
403.8585124188466
 21
222.4606541762992
 31
0.0
  0
LINE
  5
3083
330
1F
100
AcDbEntity
  8
Innenkanten
100
AcDbLine
 10
402.1876724188466
 20
228.1925241762993
 30
0.0
 11
408.1876724188466
 21
228.1925241762993
 31
0.0
  0
LINE
  5
3084
330
1F
100
AcDbEntity
  8
0
100
AcDbLine
 10
406.1876724188466
 20
221.8285741762993
 30
0.0
 11
406.1876724188466
 21
223.9606541762992
 31
0.0
  0
LINE
  5
3085
330
1F
100
AcDbEntity
  8
0
100
AcDbLine
 10
407.1876724188467
 20
224.9606541762992
 30
0.0
 11
408.1876724188466
 21
224.9606541762992
 31
0.0
  0
LINE
  5
3086
330
1F
100
AcDbEntity
  8
0
100
AcDbLine
 10
377.8317524188466
 20
232.0324541762993
 30
0.0
 11
402.1876724188466
 21
232.8829841762993
 31
0.0
  0
ARC
  5
3087
330
1F
100
AcDbEntity
  8
0
100
AcDbCircle
 10
377.8666924188466
 20
231.0330641762992
 30
0.0
 40
1.0
100
AcDbArc
 50
92.00074200000026
 51
163.6196500000001
  0
LINE
  5
3088
330
1F
100
AcDbEntity
  8
0
100
AcDbLine
 10
426.1876724188466
 20
230.8981841762993
 30
0.0
 11
426.1876724188466
 21
246.2981741762993
 31
0.0
  0
LINE
  5
3089
330
1F
100
AcDbEntity
  8
0
100
AcDbLine
 10
428.1876724188466
 20
249.8481641762992
 30
0.0
 11
428.1876724188466
 21
230.3481641762993
 31
0.0
  0
LINE
  5
308A
330
1F
100
AcDbEntity
  8
0
100
AcDbLine
 10
417.1876724188466
 20
235.3481641762992
 30
0.0
 11
402.1876724188466
 21
235.3481641762992
 31
0.0
  0
LINE
  5
308B
330
1F
100
AcDbEntity
  8
0
100
AcDbLine
 10
418.1876724188466
 20
245.0981641762993
 30
0.0
 11
418.1876724188466
 21
232.0981641762993
 31
0.0
  0
LINE
  5
308C
330
1F
100
AcDbEntity
  8
0
100
AcDbLine
 10
418.1876724188466
 20
232.0981641762993
 30
0.0
 11
426.1876724188466
 21
232.0981641762993
 31
0.0
  0
LINE
  5
308D
330
1F
100
AcDbEntity
  8
0
100
AcDbLine
 10
428.1876724188466
 20
230.3481641762993
 30
0.0
 11
418.1876724188466
 21
230.3481641762993
 31
0.0
  0
ARC
  5
308E
330
1F
100
AcDbEntity
  8
0
100
AcDbCircle
 10
418.1876724188466
 20
229.3481641762992
 30
0.0
 40
1.0
100
AcDbArc
 50
89.9999820000008
 51
179.9999599999992
  0
LINE
  5
308F
330
1F
100
AcDbEntity
  8
0
100
AcDbLine
 10
428.1876724188466
 20
230.8981841762993
 30
0.0
 11
426.1876724188466
 21
230.8981841762993
 31
0.0
  0
LINE
  5
3090
330
1F
100
AcDbEntity
  8
Mittellinie
100
AcDbLine
 10
416.4200924188467
 20
238.5981641762993
 30
0.0
 11
429.5293524188466
 21
238.5981641762993
 31
0.0
  0
LINE
  5
3091
330
1F
100
AcDbEntity
  8
0
100
AcDbLine
 10
426.1876724188466
 20
245.0981641762993
 30
0.0
 11
418.1876724188466
 21
245.0981641762993
 31
0.0
  0
LINE
  5
3092
330
1F
100
AcDbEntity
  8
0
100
AcDbLine
 10
415.6876724188466
 20
257.8481641762992
 30
0.0
 11
409.6876724188466
 21
257.8481641762992
 31
0.0
  0
LINE
  5
3093
330
1F
100
AcDbEntity
  8
0
100
AcDbLine
 10
418.5071324188466
 20
262.8481641762992
 30
0.0
 11
408.2491424188466
 21
262.8481641762992
 31
0.0
  0
ARC
  5
3094
330
1F
100
AcDbEntity
  8
0
100
AcDbCircle
 10
429.1876724188466
 20
249.8481641762992
 30
0.0
 40
1.0
100
AcDbArc
 50
89.9999820000008
 51
179.9999599999992
  0
LINE
  5
3095
330
1F
100
AcDbEntity
  8
0
100
AcDbLine
 10
426.1876724188466
 20
246.2981741762993
 30
0.0
 11
428.1876724188466
 21
246.2981741762993
 31
0.0
  0
LINE
  5
3096
330
1F
100
AcDbEntity
  8
0
100
AcDbLine
 10
417.1876724188466
 20
256.7481841762993
 30
0.0
 11
415.6876724188466
 21
256.7481841762993
 31
0.0
  0
ARC
  5
3097
330
1F
100
AcDbEntity
  8
0
100
AcDbCircle
 10
418.1876724188466
 20
279.8481641762993
 30
0.0
 40
1.0
100
AcDbArc
 50
89.9999820000008
 51
179.9999599999992
  0
LINE
  5
3098
330
1F
100
AcDbEntity
  8
0
100
AcDbLine
 10
409.6876724188466
 20
267.8481641762993
 30
0.0
 11
415.6876724188466
 21
267.8481641762993
 31
0.0
  0
LINE
  5
3099
330
1F
100
AcDbEntity
  8
0
100
AcDbLine
 10
417.1876724188466
 20
268.9481641762993
 30
0.0
 11
415.6876724188466
 21
268.9481641762993
 31
0.0
  0
LINE
  5
309A
330
1F
100
AcDbEntity
  8
0
100
AcDbLine
 10
456.1876724188466
 20
265.5894941762993
 30
0.0
 11
464.1876724188466
 21
265.5894941762993
 31
0.0
  0
LINE
  5
309B
330
1F
100
AcDbEntity
  8
0
100
AcDbLine
 10
464.1876724188466
 20
278.5894941762993
 30
0.0
 11
456.1876724188466
 21
278.5894941762993
 31
0.0
  0
LINE
  5
309C
330
1F
100
AcDbEntity
  8
0
100
AcDbLine
 10
453.6856024188466
 20
272.0881541762993
 30
0.0
 11
466.0891624188466
 21
272.0881541762993
 31
0.0
  0
LINE
  5
309D
330
1F
100
AcDbEntity
  8
0
100
AcDbLine
 10
453.1876724188466
 20
264.0891641762992
 30
0.0
 11
464.1876724188466
 21
264.0891641762992
 31
0.0
  0
LINE
  5
309E
330
1F
100
AcDbEntity
  8
0
100
AcDbLine
 10
453.1876724188466
 20
280.8481641762993
 30
0.0
 11
453.1876724188466
 21
264.0891641762992
 31
0.0
  0
LINE
  5
309F
330
1F
100
AcDbEntity
  8
0
100
AcDbLine
 10
456.1876724188466
 20
278.5894941762993
 30
0.0
 11
456.1876724188466
 21
265.5894941762993
 31
0.0
  0
LINE
  5
30B4
330
1F
100
AcDbEntity
  8
0
100
AcDbLine
 10
429.1876727330059
 20
250.8481641762992
 30
0.0
 11
464.1876724188466
 21
250.8481641762992
 31
0.0
  0
LINE
  5
30B5
330
1F
100
AcDbEntity
  8
0
100
AcDbLine
 10
464.1876724188466
 20
250.8481641762992
 30
0.0
 11
550.6876724188466
 21
250.8481641762992
 31
0.0
  0
DIMENSION
  5
30B6
102
{ACAD_XDICTIONARY
360
30C3
102
}
102
{ACAD_REACTORS
330
30CD
102
}
330
1F
100
AcDbEntity
  8
Bemaßung
100
AcDbDimension
  2
*D16
 10
444.6876724188467
 20
31.24242758433865
 30
0.0
 11
410.1876724188466
 21
33.11742758433865
 31
0.0
 70
    32
 71
     5
 42
69.0
  3
ISO-25
100
AcDbAlignedDimension
 13
375.6876724188466
 23
192.8481641762991
 33
0.0
 14
444.6876724188467
 24
76.84852417629929
 34
0.0
100
AcDbRotatedDimension
  0
LINE
  5
30E1
330
1F
100
AcDbEntity
  8
Innenkanten
100
AcDbLine
 10
150.1058625511498
 20
-87.96793847613264
 30
0.0
 11
326.1058625511497
 21
-87.96793847613264
 31
0.0
  0
LINE
  5
3210
102
{ACAD_REACTORS
330
332C
102
}
330
1F
100
AcDbEntity
  8
0
100
AcDbLine
 10
-9.373188452757403
 20
250.8481623835891
 30
0.0
 11
-95.8731884527574
 21
250.8481623835891
 31
0.0
  0
LINE
  5
3211
102
{ACAD_REACTORS
330
332C
102
}
330
1F
100
AcDbEntity
  8
0
100
AcDbLine
 10
-95.8731884527574
 20
135.3481623835892
 30
0.0
 11
37.62681154724259
 21
135.3481623835892
 31
0.0
  0
LINE
  5
3212
102
{ACAD_REACTORS
330
332C
102
}
330
1F
100
AcDbEntity
  8
0
100
AcDbLine
 10
36.62681102364377
 20
104.8481623835894
 30
0.0
 11
-113.8731884527574
 21
104.8481623835892
 31
0.0
  0
LINE
  5
3213
102
{ACAD_REACTORS
330
332C
102
}
330
1F
100
AcDbEntity
  8
0
100
AcDbLine
 10
-113.8731884527574
 20
280.8481623835891
 30
0.0
 11
36.62681154724259
 21
280.8481623835892
 31
0.0
  0
LINE
  5
3217
102
{ACAD_REACTORS
330
332C
102
}
330
1F
100
AcDbEntity
  8
Innenkanten
100
AcDbLine
 10
-93.87318845275741
 20
229.8481623835891
 30
0.0
 11
-16.3731884527574
 21
229.8481623835891
 31
0.0
  0
LINE
  5
3218
102
{ACAD_REACTORS
330
332C
102
}
330
1F
100
AcDbEntity
  8
Innenkanten
100
AcDbLine
 10
-93.87318845275741
 20
225.8481623835891
 30
0.0
 11
-16.3731884527574
 21
225.8481623835891
 31
0.0
  0
LINE
  5
3219
102
{ACAD_REACTORS
330
332C
102
}
330
1F
100
AcDbEntity
  8
Innenkanten
100
AcDbLine
 10
-93.87318845275741
 20
221.8481623835891
 30
0.0
 11
-16.3731884527574
 21
221.8481623835891
 31
0.0
  0
LINE
  5
321A
102
{ACAD_REACTORS
330
332C
102
}
330
1F
100
AcDbEntity
  8
Innenkanten
100
AcDbLine
 10
-93.87318845275741
 20
217.8481623835891
 30
0.0
 11
-16.3731884527574
 21
217.8481623835891
 31
0.0
  0
LINE
  5
321B
102
{ACAD_REACTORS
330
332C
102
}
330
1F
100
AcDbEntity
  8
Innenkanten
100
AcDbLine
 10
-93.87318845275741
 20
167.8481623835892
 30
0.0
 11
-16.3731884527574
 21
167.8481623835892
 31
0.0
  0
LINE
  5
321C
102
{ACAD_REACTORS
330
332C
102
}
330
1F
100
AcDbEntity
  8
Innenkanten
100
AcDbLine
 10
-16.3731884527574
 20
163.8481623835892
 30
0.0
 11
-93.87318845275741
 21
163.8481623835892
 31
0.0
  0
LINE
  5
321D
102
{ACAD_REACTORS
330
332C
102
}
330
1F
100
AcDbEntity
  8
Innenkanten
100
AcDbLine
 10
-93.87318845275741
 20
159.8481623835892
 30
0.0
 11
-16.3731884527574
 21
159.8481623835892
 31
0.0
  0
LINE
  5
321E
102
{ACAD_REACTORS
330
332C
102
}
330
1F
100
AcDbEntity
  8
Innenkanten
100
AcDbLine
 10
-16.3731884527574
 20
155.8481623835892
 30
0.0
 11
-93.87318845275741
 21
155.8481623835892
 31
0.0
  0
LINE
  5
321F
102
{ACAD_REACTORS
330
332C
102
}
330
1F
100
AcDbEntity
  8
Innenkanten
100
AcDbLine
 10
46.6268115472426
 20
235.3481623835893
 30
0.0
 11
46.6268115472426
 21
162.8481623835892
 31
0.0
  0
LINE
  5
3220
102
{ACAD_REACTORS
330
332C
102
}
330
1F
100
AcDbEntity
  8
Innenkanten
100
AcDbLine
 10
39.62681154724259
 20
150.3481623835892
 30
0.0
 11
39.62681154724259
 21
235.3481623835893
 31
0.0
  0
LINE
  5
3221
102
{ACAD_REACTORS
330
332C
102
}
330
1F
100
AcDbEntity
  8
Innenkanten
100
AcDbLine
 10
77.62681154724259
 20
158.5007823835893
 30
0.0
 11
77.62681154724259
 21
231.7672023835892
 31
0.0
  0
LINE
  5
3222
102
{ACAD_REACTORS
330
332C
102
}
330
1F
100
AcDbEntity
  8
Innenkanten
100
AcDbLine
 10
-9.373188452757403
 20
280.8481623835892
 30
0.0
 11
-9.373188452757403
 21
104.8481623835892
 31
0.0
  0
LINE
  5
3223
102
{ACAD_REACTORS
330
332C
102
}
330
1F
100
AcDbEntity
  8
0
100
AcDbLine
 10
79.1268115472426
 20
222.8481623835893
 30
0.0
 11
79.1268115472426
 21
133.4481623835893
 31
0.0
  0
LINE
  5
3224
102
{ACAD_REACTORS
330
332C
102
}
330
1F
100
AcDbEntity
  8
0
100
AcDbLine
 10
52.62681154724259
 20
150.3481623835892
 30
0.0
 11
52.62681154724259
 21
235.3481623835893
 31
0.0
  0
LINE
  5
3225
102
{ACAD_REACTORS
330
332C
102
}
330
1F
100
AcDbEntity
  8
0
100
AcDbLine
 10
37.62681154724259
 20
105.8481623835892
 30
0.0
 11
37.62681154724259
 21
279.8481623835892
 31
0.0
  0
LINE
  5
3226
102
{ACAD_REACTORS
330
332C
102
}
330
1F
100
AcDbEntity
  8
Innenkanten
100
AcDbLine
 10
-16.3731884527574
 20
280.8481623835891
 30
0.0
 11
-16.3731884527574
 21
104.8481623835892
 31
0.0
  0
LINE
  5
3227
102
{ACAD_REACTORS
330
332C
102
}
330
1F
100
AcDbEntity
  8
Innenkanten
100
AcDbLine
 10
45.82679154724258
 20
111.3481723835893
 30
0.0
 11
45.82679154724258
 21
127.6481823835893
 31
0.0
  0
LINE
  5
3228
102
{ACAD_REACTORS
330
332C
102
}
330
1F
100
AcDbEntity
  8
Innenkanten
100
AcDbLine
 10
73.42680154724257
 20
111.3481723835893
 30
0.0
 11
73.42680154724257
 21
127.6481823835893
 31
0.0
  0
LINE
  5
3229
102
{ACAD_REACTORS
330
332C
102
}
330
1F
100
AcDbEntity
  8
Mittellinie
100
AcDbLine
 10
59.62681154724259
 20
103.6054223835893
 30
0.0
 11
59.62681154724259
 21
136.9073623835893
 31
0.0
  0
LINE
  5
322A
102
{ACAD_REACTORS
330
332C
102
}
330
1F
100
AcDbEntity
  8
0
100
AcDbLine
 10
26.62681154724259
 20
121.6481623835893
 30
0.0
 11
26.62681154724259
 21
105.8481623835892
 31
0.0
  0
LINE
  5
322B
102
{ACAD_REACTORS
330
332C
102
}
330
1F
100
AcDbEntity
  8
0
100
AcDbLine
 10
28.62681154724259
 20
121.3068423835893
 30
0.0
 11
28.62681154724259
 21
105.9068423835893
 31
0.0
  0
LINE
  5
322C
102
{ACAD_REACTORS
330
332C
102
}
330
1F
100
AcDbEntity
  8
0
100
AcDbLine
 10
44.82679154724258
 20
112.3481723835893
 30
0.0
 11
44.82679154724258
 21
130.6481823835893
 31
0.0
  0
LINE
  5
322D
102
{ACAD_REACTORS
330
332C
102
}
330
1F
100
AcDbEntity
  8
0
100
AcDbLine
 10
74.42680154724257
 20
130.6481823835893
 30
0.0
 11
74.42680154724257
 21
112.3481723835893
 31
0.0
  0
LINE
  5
322E
102
{ACAD_REACTORS
330
332C
102
}
330
1F
100
AcDbEntity
  8
Innenkanten
100
AcDbLine
 10
44.82679154724258
 20
112.3481723835893
 30
0.0
 11
74.42680154724257
 21
112.3481723835893
 31
0.0
  0
LINE
  5
322F
102
{ACAD_REACTORS
330
332C
102
}
330
1F
100
AcDbEntity
  8
0
100
AcDbLine
 10
73.42680154724257
 20
111.3481723835893
 30
0.0
 11
45.82679154724258
 21
111.3481723835893
 31
0.0
  0
LINE
  5
3230
102
{ACAD_REACTORS
330
332C
102
}
330
1F
100
AcDbEntity
  8
0
100
AcDbLine
 10
74.42680154724257
 20
112.3481723835893
 30
0.0
 11
73.42680154724257
 21
111.3481723835893
 31
0.0
  0
LINE
  5
3231
102
{ACAD_REACTORS
330
332C
102
}
330
1F
100
AcDbEntity
  8
Mittellinie
100
AcDbLine
 10
10.12681154724259
 20
76.27789238358935
 30
0.0
 11
10.12681154724259
 21
104.8481623835892
 31
0.0
  0
LINE
  5
3232
102
{ACAD_REACTORS
330
332C
102
}
330
1F
100
AcDbEntity
  8
0
100
AcDbLine
 10
2.189001547242583
 20
77.21687238358936
 30
0.0
 11
2.189001547242583
 21
90.34852238358928
 31
0.0
  0
LINE
  5
3233
102
{ACAD_REACTORS
330
332C
102
}
330
1F
100
AcDbEntity
  8
0
100
AcDbLine
 10
18.06498154724261
 20
90.34852238358928
 30
0.0
 11
18.06498154724261
 21
77.21686238358927
 31
0.0
  0
LINE
  5
3234
102
{ACAD_REACTORS
330
332C
102
}
330
1F
100
AcDbEntity
  8
0
100
AcDbLine
 10
17.42698154724257
 20
85.84852238358928
 30
0.0
 11
17.42698154724257
 21
75.84852238358928
 31
0.0
  0
LINE
  5
3235
102
{ACAD_REACTORS
330
332C
102
}
330
1F
100
AcDbEntity
  8
0
100
AcDbLine
 10
2.827001547242616
 20
75.84852238358928
 30
0.0
 11
2.827001547242616
 21
85.84852238358928
 31
0.0
  0
LINE
  5
3236
102
{ACAD_REACTORS
330
332C
102
}
330
1F
100
AcDbEntity
  8
0
100
AcDbLine
 10
17.42698154724257
 20
75.84852238358928
 30
0.0
 11
2.827001547242616
 21
75.84852238358928
 31
0.0
  0
LINE
  5
3237
102
{ACAD_REACTORS
330
332C
102
}
330
1F
100
AcDbEntity
  8
0
100
AcDbLine
 10
17.42698154724257
 20
76.84852238358928
 30
0.0
 11
2.827001547242616
 21
76.84852238358928
 31
0.0
  0
LINE
  5
3238
102
{ACAD_REACTORS
330
332C
102
}
330
1F
100
AcDbEntity
  8
0
100
AcDbLine
 10
18.06498154724261
 20
77.21686238358927
 30
0.0
 11
17.42698154724257
 21
76.84852238358928
 31
0.0
  0
LINE
  5
3239
102
{ACAD_REACTORS
330
332C
102
}
330
1F
100
AcDbEntity
  8
0
100
AcDbLine
 10
2.827001547242616
 20
76.84852238358928
 30
0.0
 11
2.189001547242583
 21
77.21687238358936
 31
0.0
  0
LINE
  5
323A
102
{ACAD_REACTORS
330
332C
102
}
330
1F
100
AcDbEntity
  8
0
100
AcDbLine
 10
36.62681154724259
 20
120.1068423835893
 30
0.0
 11
36.62681154724259
 21
107.1068423835893
 31
0.0
  0
LINE
  5
323B
102
{ACAD_REACTORS
330
332C
102
}
330
1F
100
AcDbEntity
  8
0
100
AcDbLine
 10
36.62681154724259
 20
107.1068423835893
 30
0.0
 11
28.62681154724259
 21
107.1068423835893
 31
0.0
  0
ARC
  5
323C
102
{ACAD_REACTORS
330
332C
102
}
330
1F
100
AcDbEntity
  8
0
100
AcDbCircle
 10
36.62681154724259
 20
105.8481623835892
 30
0.0
 40
1.0
100
AcDbArc
 50
269.9999700000002
 51
0.0000200000020199
  0
ARC
  5
323D
102
{ACAD_REACTORS
330
332C
102
}
330
1F
100
AcDbEntity
  8
0
100
AcDbCircle
 10
25.62681154724259
 20
105.8481623835892
 30
0.0
 40
1.0
100
AcDbArc
 50
269.9999700000002
 51
0.0000200000020199
  0
LINE
  5
323E
102
{ACAD_REACTORS
330
332C
102
}
330
1F
100
AcDbEntity
  8
0
100
AcDbLine
 10
28.62681154724259
 20
105.9068423835893
 30
0.0
 11
26.62681154724259
 21
105.9068423835893
 31
0.0
  0
LINE
  5
323F
102
{ACAD_REACTORS
330
332C
102
}
330
1F
100
AcDbEntity
  8
Mittellinie
100
AcDbLine
 10
37.91434154724254
 20
113.6068423835893
 30
0.0
 11
24.94822154724261
 21
113.6068423835893
 31
0.0
  0
LINE
  5
3240
102
{ACAD_REACTORS
330
332C
102
}
330
1F
100
AcDbEntity
  8
0
100
AcDbLine
 10
28.62681154724259
 20
120.1068423835893
 30
0.0
 11
36.62681154724259
 21
120.1068423835893
 31
0.0
  0
LINE
  5
3241
102
{ACAD_REACTORS
330
332C
102
}
330
1F
100
AcDbEntity
  8
0
100
AcDbLine
 10
45.82679154724258
 20
111.3481723835893
 30
0.0
 11
44.82679154724258
 21
112.3481723835893
 31
0.0
  0
LINE
  5
3242
102
{ACAD_REACTORS
330
332C
102
}
330
1F
100
AcDbEntity
  8
0
100
AcDbLine
 10
-3.373188452757403
 20
92.54816238358932
 30
0.0
 11
-3.373188452757403
 21
104.8481623835892
 31
0.0
  0
LINE
  5
3243
102
{ACAD_REACTORS
330
332C
102
}
330
1F
100
AcDbEntity
  8
0
100
AcDbLine
 10
23.62681154724259
 20
104.8481623835892
 30
0.0
 11
23.62681154724259
 21
92.54816238358932
 31
0.0
  0
LINE
  5
3244
102
{ACAD_REACTORS
330
332C
102
}
330
1F
100
AcDbEntity
  8
0
100
AcDbLine
 10
17.42698154724257
 20
85.84852238358928
 30
0.0
 11
2.827001547242616
 21
85.84852238358928
 31
0.0
  0
LINE
  5
3245
102
{ACAD_REACTORS
330
332C
102
}
330
1F
100
AcDbEntity
  8
0
100
AcDbLine
 10
22.82700154724261
 20
90.34852238358928
 30
0.0
 11
-2.573018452757423
 21
90.34852238358928
 31
0.0
  0
LINE
  5
3246
102
{ACAD_REACTORS
330
332C
102
}
330
1F
100
AcDbEntity
  8
0
100
AcDbLine
 10
23.62681154724259
 20
92.54816238358932
 30
0.0
 11
-3.373188452757403
 21
92.54816238358932
 31
0.0
  0
LINE
  5
3247
102
{ACAD_REACTORS
330
332C
102
}
330
1F
100
AcDbEntity
  8
0
100
AcDbLine
 10
18.06495154724257
 20
86.21684238358932
 30
0.0
 11
17.42698154724257
 21
85.8484923835893
 31
0.0
  0
LINE
  5
3248
102
{ACAD_REACTORS
330
332C
102
}
330
1F
100
AcDbEntity
  8
0
100
AcDbLine
 10
22.82700154724261
 20
92.54816238358932
 30
0.0
 11
22.82700154724261
 21
90.34852238358928
 31
0.0
  0
LINE
  5
3249
102
{ACAD_REACTORS
330
332C
102
}
330
1F
100
AcDbEntity
  8
0
100
AcDbLine
 10
2.827001547242616
 20
85.84852238358928
 30
0.0
 11
2.188971547242545
 21
86.2168923835893
 31
0.0
  0
LINE
  5
324A
102
{ACAD_REACTORS
330
332C
102
}
330
1F
100
AcDbEntity
  8
0
100
AcDbLine
 10
-2.573018452757423
 20
90.34852238358928
 30
0.0
 11
-2.573018452757423
 21
92.54816238358932
 31
0.0
  0
LINE
  5
324B
102
{ACAD_REACTORS
330
332C
102
}
330
1F
100
AcDbEntity
  8
Innenkanten
100
AcDbLine
 10
74.42680154724257
 20
127.6481823835893
 30
0.0
 11
44.82679154724258
 21
127.6481823835893
 31
0.0
  0
LINE
  5
324C
102
{ACAD_REACTORS
330
332C
102
}
330
1F
100
AcDbEntity
  8
Innenkanten
100
AcDbLine
 10
52.62681154724259
 20
158.5007823835893
 30
0.0
 11
77.62681154724259
 21
158.5007823835893
 31
0.0
  0
LINE
  5
324D
102
{ACAD_REACTORS
330
332C
102
}
330
1F
100
AcDbEntity
  8
0
100
AcDbLine
 10
79.1268115472426
 20
133.4481623835893
 30
0.0
 11
40.12681154724259
 21
133.4481623835893
 31
0.0
  0
LINE
  5
324E
102
{ACAD_REACTORS
330
332C
102
}
330
1F
100
AcDbEntity
  8
0
100
AcDbLine
 10
40.57679154724257
 20
130.6481823835893
 30
0.0
 11
78.67680154724258
 21
130.6481823835893
 31
0.0
  0
LINE
  5
324F
102
{ACAD_REACTORS
330
332C
102
}
330
1F
100
AcDbEntity
  8
0
100
AcDbLine
 10
78.67680154724258
 20
130.6481823835893
 30
0.0
 11
78.67680154724258
 21
133.4481623835893
 31
0.0
  0
LINE
  5
3250
102
{ACAD_REACTORS
330
332C
102
}
330
1F
100
AcDbEntity
  8
Innenkanten
100
AcDbLine
 10
79.1268115472426
 20
159.3632023835892
 30
0.0
 11
77.62681154724259
 21
158.5007823835893
 31
0.0
  0
LINE
  5
3251
102
{ACAD_REACTORS
330
332C
102
}
330
1F
100
AcDbEntity
  8
0
100
AcDbLine
 10
47.12681154724259
 20
162.8481623835892
 30
0.0
 11
47.12681154724259
 21
152.8481623835892
 31
0.0
  0
LINE
  5
3252
102
{ACAD_REACTORS
330
332C
102
}
330
1F
100
AcDbEntity
  8
0
100
AcDbLine
 10
41.12681154724259
 20
163.9481623835893
 30
0.0
 11
41.12681154724259
 21
151.7481723835893
 31
0.0
  0
LINE
  5
3253
102
{ACAD_REACTORS
330
332C
102
}
330
1F
100
AcDbEntity
  8
0
100
AcDbLine
 10
40.12681154724259
 20
133.4481623835893
 30
0.0
 11
40.12681154724259
 21
150.3481623835892
 31
0.0
  0
LINE
  5
3254
102
{ACAD_REACTORS
330
332C
102
}
330
1F
100
AcDbEntity
  8
0
100
AcDbLine
 10
40.57679154724257
 20
133.4481623835893
 30
0.0
 11
40.57679154724257
 21
130.6481823835893
 31
0.0
  0
LINE
  5
3255
102
{ACAD_REACTORS
330
332C
102
}
330
1F
100
AcDbEntity
  8
0
100
AcDbLine
 10
26.62681154724259
 20
121.6481623835893
 30
0.0
 11
36.62681154724259
 21
121.6481623835893
 31
0.0
  0
ARC
  5
3256
102
{ACAD_REACTORS
330
332C
102
}
330
1F
100
AcDbEntity
  8
0
100
AcDbCircle
 10
36.62681154724259
 20
122.6481623835893
 30
0.0
 40
1.0
100
AcDbArc
 50
269.9999700000002
 51
0.0000200000020199
  0
LINE
  5
3257
102
{ACAD_REACTORS
330
332C
102
}
330
1F
100
AcDbEntity
  8
0
100
AcDbLine
 10
26.62681154724259
 20
121.3068423835893
 30
0.0
 11
28.62681154724259
 21
121.3068423835893
 31
0.0
  0
LINE
  5
3258
102
{ACAD_REACTORS
330
332C
102
}
330
1F
100
AcDbEntity
  8
Mittellinie
100
AcDbLine
 10
48.11619154724258
 20
157.8481623835893
 30
0.0
 11
38.92936154724259
 21
157.8481623835893
 31
0.0
  0
LINE
  5
3259
102
{ACAD_REACTORS
330
332C
102
}
330
1F
100
AcDbEntity
  8
0
100
AcDbLine
 10
47.12681154724259
 20
152.8481623835892
 30
0.0
 11
41.12681154724259
 21
152.8481623835892
 31
0.0
  0
LINE
  5
325A
102
{ACAD_REACTORS
330
332C
102
}
330
1F
100
AcDbEntity
  8
0
100
AcDbLine
 10
37.62681154724259
 20
150.3481623835892
 30
0.0
 11
52.62681154724259
 21
150.3481623835892
 31
0.0
  0
LINE
  5
325B
102
{ACAD_REACTORS
330
332C
102
}
330
1F
100
AcDbEntity
  8
Innenkanten
100
AcDbLine
 10
46.6268115472426
 20
150.3481623835892
 30
0.0
 11
46.6268115472426
 21
152.8481623835892
 31
0.0
  0
LINE
  5
325C
102
{ACAD_REACTORS
330
332C
102
}
330
1F
100
AcDbEntity
  8
Innenkanten
100
AcDbLine
 10
46.6268115472426
 20
151.8249823835893
 30
0.0
 11
52.62681154724259
 21
151.8249823835893
 31
0.0
  0
LINE
  5
325D
102
{ACAD_REACTORS
330
332C
102
}
330
1F
100
AcDbEntity
  8
Innenkanten
100
AcDbLine
 10
47.12681154724259
 20
158.1889523835893
 30
0.0
 11
52.62681154724259
 21
158.1889523835893
 31
0.0
  0
ARC
  5
325E
102
{ACAD_REACTORS
330
332C
102
}
330
1F
100
AcDbEntity
  8
0
100
AcDbCircle
 10
47.62681154724259
 20
156.1730823835893
 30
0.0
 40
1.0
100
AcDbArc
 50
269.9999700000002
 51
0.0000200000020199
  0
LINE
  5
325F
102
{ACAD_REACTORS
330
332C
102
}
330
1F
100
AcDbEntity
  8
0
100
AcDbLine
 10
48.6268115472426
 20
158.1889523835893
 30
0.0
 11
48.6268115472426
 21
156.1730823835893
 31
0.0
  0
LINE
  5
3260
102
{ACAD_REACTORS
330
332C
102
}
330
1F
100
AcDbEntity
  8
0
100
AcDbLine
 10
47.62681154724259
 20
155.1730823835893
 30
0.0
 11
47.12681154724259
 21
155.1730823835893
 31
0.0
  0
LINE
  5
3261
102
{ACAD_REACTORS
330
332C
102
}
330
1F
100
AcDbEntity
  8
0
100
AcDbLine
 10
41.12681154724259
 20
151.7481723835893
 30
0.0
 11
39.62681154724259
 21
151.7481723835893
 31
0.0
  0
LINE
  5
3262
102
{ACAD_REACTORS
330
332C
102
}
330
1F
100
AcDbEntity
  8
Innenkanten
100
AcDbLine
 10
52.62681154724259
 20
165.3446823835893
 30
0.0
 11
39.62681154724259
 21
165.3446823835893
 31
0.0
  0
LINE
  5
3263
102
{ACAD_REACTORS
330
332C
102
}
330
1F
100
AcDbEntity
  8
0
100
AcDbLine
 10
41.12681154724259
 20
162.8481623835892
 30
0.0
 11
47.12681154724259
 21
162.8481623835892
 31
0.0
  0
LINE
  5
3264
102
{ACAD_REACTORS
330
332C
102
}
330
1F
100
AcDbEntity
  8
0
100
AcDbLine
 10
39.62681154724259
 20
163.9481623835893
 30
0.0
 11
41.12681154724259
 21
163.9481623835893
 31
0.0
  0
LINE
  5
3265
102
{ACAD_REACTORS
330
332C
102
}
330
1F
100
AcDbEntity
  8
0
100
AcDbLine
 10
76.98273154724256
 20
232.0324523835893
 30
0.0
 11
52.62681154724259
 21
232.8829823835893
 31
0.0
  0
ARC
  5
3266
102
{ACAD_REACTORS
330
332C
102
}
330
1F
100
AcDbEntity
  8
0
100
AcDbCircle
 10
49.07886154724258
 20
222.8412323835892
 30
0.0
 40
30.047937
100
AcDbArc
 50
0.0131799999999088
 51
16.38024000000072
  0
ARC
  5
3267
102
{ACAD_REACTORS
330
332C
102
}
330
1F
100
AcDbEntity
  8
0
100
AcDbCircle
 10
76.94779154724256
 20
231.0330623835892
 30
0.0
 40
1.0
100
AcDbArc
 50
16.38034999999988
 51
87.99925799999975
  0
LINE
  5
3268
102
{ACAD_REACTORS
330
332C
102
}
330
1F
100
AcDbEntity
  8
0
100
AcDbLine
 10
28.62681154724259
 20
230.8981823835893
 30
0.0
 11
28.62681154724259
 21
246.2981723835893
 31
0.0
  0
LINE
  5
3269
102
{ACAD_REACTORS
330
332C
102
}
330
1F
100
AcDbEntity
  8
0
100
AcDbLine
 10
26.62681154724259
 20
249.8481623835892
 30
0.0
 11
26.62681154724259
 21
230.3481623835892
 31
0.0
  0
LINE
  5
326A
102
{ACAD_REACTORS
330
332C
102
}
330
1F
100
AcDbEntity
  8
Innenkanten
100
AcDbLine
 10
39.62681154724259
 20
220.3518523835892
 30
0.0
 11
52.62681154724259
 21
220.3518523835892
 31
0.0
  0
LINE
  5
326B
102
{ACAD_REACTORS
330
332C
102
}
330
1F
100
AcDbEntity
  8
Mittellinie
100
AcDbLine
 10
44.13468154724262
 20
222.4606523835892
 30
0.0
 11
50.95597154724259
 21
222.4606523835892
 31
0.0
  0
ARC
  5
326C
102
{ACAD_REACTORS
330
332C
102
}
330
1F
100
AcDbEntity
  8
0
100
AcDbCircle
 10
47.62681154724259
 20
223.9606523835892
 30
0.0
 40
1.0
100
AcDbArc
 50
0.0000400000007758
 51
90.00001799999919
  0
LINE
  5
326D
102
{ACAD_REACTORS
330
332C
102
}
330
1F
100
AcDbEntity
  8
0
100
AcDbLine
 10
48.6268115472426
 20
221.8285723835894
 30
0.0
 11
48.6268115472426
 21
223.9606523835892
 31
0.0
  0
LINE
  5
326E
102
{ACAD_REACTORS
330
332C
102
}
330
1F
100
AcDbEntity
  8
0
100
AcDbLine
 10
47.62681154724259
 20
224.9606523835892
 30
0.0
 11
46.6268115472426
 21
224.9606523835892
 31
0.0
  0
LINE
  5
326F
102
{ACAD_REACTORS
330
332C
102
}
330
1F
100
AcDbEntity
  8
0
100
AcDbLine
 10
46.6268115472426
 20
221.8285723835894
 30
0.0
 11
52.62681154724259
 21
221.8285723835894
 31
0.0
  0
LINE
  5
3270
102
{ACAD_REACTORS
330
332C
102
}
330
1F
100
AcDbEntity
  8
0
100
AcDbLine
 10
37.62681154724259
 20
235.3481623835893
 30
0.0
 11
52.62681154724259
 21
235.3481623835893
 31
0.0
  0
LINE
  5
3271
102
{ACAD_REACTORS
330
332C
102
}
330
1F
100
AcDbEntity
  8
Innenkanten
100
AcDbLine
 10
52.62681154724259
 20
228.1925223835893
 30
0.0
 11
46.6268115472426
 21
228.1925223835893
 31
0.0
  0
LINE
  5
3272
102
{ACAD_REACTORS
330
332C
102
}
330
1F
100
AcDbEntity
  8
0
100
AcDbLine
 10
36.62681154724259
 20
245.0981623835892
 30
0.0
 11
36.62681154724259
 21
232.0981623835892
 31
0.0
  0
LINE
  5
3273
102
{ACAD_REACTORS
330
332C
102
}
330
1F
100
AcDbEntity
  8
0
100
AcDbLine
 10
36.62681154724259
 20
232.0981623835892
 30
0.0
 11
28.62681154724259
 21
232.0981623835892
 31
0.0
  0
LINE
  5
3274
102
{ACAD_REACTORS
330
332C
102
}
330
1F
100
AcDbEntity
  8
0
100
AcDbLine
 10
26.62681154724259
 20
230.3481623835892
 30
0.0
 11
36.62681154724259
 21
230.3481623835892
 31
0.0
  0
ARC
  5
3275
102
{ACAD_REACTORS
330
332C
102
}
330
1F
100
AcDbEntity
  8
0
100
AcDbCircle
 10
36.62681154724259
 20
229.3481623835893
 30
0.0
 40
1.0
100
AcDbArc
 50
0.0000400000007758
 51
90.00001799999919
  0
LINE
  5
3276
102
{ACAD_REACTORS
330
332C
102
}
330
1F
100
AcDbEntity
  8
0
100
AcDbLine
 10
26.62681154724259
 20
230.8981823835893
 30
0.0
 11
28.62681154724259
 21
230.8981823835893
 31
0.0
  0
LINE
  5
3277
102
{ACAD_REACTORS
330
332C
102
}
330
1F
100
AcDbEntity
  8
Mittellinie
100
AcDbLine
 10
38.39439154724255
 20
238.5981623835892
 30
0.0
 11
25.2851315472426
 21
238.5981623835892
 31
0.0
  0
LINE
  5
3278
102
{ACAD_REACTORS
330
332C
102
}
330
1F
100
AcDbEntity
  8
0
100
AcDbLine
 10
28.62681154724259
 20
245.0981623835892
 30
0.0
 11
36.62681154724259
 21
245.0981623835892
 31
0.0
  0
LINE
  5
3279
102
{ACAD_REACTORS
330
332C
102
}
330
1F
100
AcDbEntity
  8
0
100
AcDbLine
 10
25.62681123308334
 20
250.8481623835891
 30
0.0
 11
-9.373188452757403
 21
250.8481623835891
 31
0.0
  0
LINE
  5
327A
102
{ACAD_REACTORS
330
332C
102
}
330
1F
100
AcDbEntity
  8
0
100
AcDbLine
 10
39.12681154724259
 20
256.7481823835893
 30
0.0
 11
39.12681154724259
 21
268.9481623835892
 31
0.0
  0
LINE
  5
327B
102
{ACAD_REACTORS
330
332C
102
}
330
1F
100
AcDbEntity
  8
0
100
AcDbLine
 10
45.12681154724259
 20
257.8481623835892
 30
0.0
 11
45.12681154724259
 21
267.8481623835892
 31
0.0
  0
LINE
  5
327C
102
{ACAD_REACTORS
330
332C
102
}
330
1F
100
AcDbEntity
  8
0
100
AcDbLine
 10
36.30735154724254
 20
262.8481623835893
 30
0.0
 11
46.5653415472425
 21
262.8481623835893
 31
0.0
  0
ARC
  5
327D
102
{ACAD_REACTORS
330
332C
102
}
330
1F
100
AcDbEntity
  8
0
100
AcDbCircle
 10
25.62681154724259
 20
249.8481623835892
 30
0.0
 40
1.0
100
AcDbArc
 50
0.0000400000007758
 51
90.00001799999919
  0
LINE
  5
327E
102
{ACAD_REACTORS
330
332C
102
}
330
1F
100
AcDbEntity
  8
0
100
AcDbLine
 10
28.62681154724259
 20
246.2981723835893
 30
0.0
 11
26.62681154724259
 21
246.2981723835893
 31
0.0
  0
LINE
  5
327F
102
{ACAD_REACTORS
330
332C
102
}
330
1F
100
AcDbEntity
  8
0
100
AcDbLine
 10
37.62681154724259
 20
256.7481823835893
 30
0.0
 11
39.12681154724259
 21
256.7481823835893
 31
0.0
  0
LINE
  5
3280
102
{ACAD_REACTORS
330
332C
102
}
330
1F
100
AcDbEntity
  8
0
100
AcDbLine
 10
39.12681154724259
 20
257.8481623835892
 30
0.0
 11
45.12681154724259
 21
257.8481623835892
 31
0.0
  0
LINE
  5
3281
102
{ACAD_REACTORS
330
332C
102
}
330
1F
100
AcDbEntity
  8
0
100
AcDbLine
 10
37.62681154724259
 20
268.9481623835892
 30
0.0
 11
39.12681154724259
 21
268.9481623835892
 31
0.0
  0
LINE
  5
3282
102
{ACAD_REACTORS
330
332C
102
}
330
1F
100
AcDbEntity
  8
0
100
AcDbLine
 10
45.12681154724259
 20
267.8481623835892
 30
0.0
 11
39.12681154724259
 21
267.8481623835892
 31
0.0
  0
ARC
  5
3283
102
{ACAD_REACTORS
330
332C
102
}
330
1F
100
AcDbEntity
  8
0
100
AcDbCircle
 10
36.62681154724259
 20
279.8481623835892
 30
0.0
 40
1.0
100
AcDbArc
 50
0.0000400000007758
 51
90.00001799999919
  0
LINE
  5
3284
102
{ACAD_REACTORS
330
332C
102
}
330
1F
100
AcDbEntity
  8
0
100
AcDbLine
 10
1.626811547242596
 20
280.8481623835892
 30
0.0
 11
1.626811547242596
 21
264.0891623835892
 31
0.0
  0
LINE
  5
3285
102
{ACAD_REACTORS
330
332C
102
}
330
1F
100
AcDbEntity
  8
0
100
AcDbLine
 10
-1.373188452757403
 20
278.5894923835893
 30
0.0
 11
-1.373188452757403
 21
265.5894923835893
 31
0.0
  0
LINE
  5
3286
102
{ACAD_REACTORS
330
332C
102
}
330
1F
100
AcDbEntity
  8
0
100
AcDbLine
 10
-1.373188452757403
 20
265.5894923835893
 30
0.0
 11
-9.373188452757403
 21
265.5894923835893
 31
0.0
  0
LINE
  5
3287
102
{ACAD_REACTORS
330
332C
102
}
330
1F
100
AcDbEntity
  8
0
100
AcDbLine
 10
1.626811547242596
 20
264.0891623835892
 30
0.0
 11
-9.373188452757403
 21
264.0891623835892
 31
0.0
  0
LINE
  5
3288
102
{ACAD_REACTORS
330
332C
102
}
330
1F
100
AcDbEntity
  8
0
100
AcDbLine
 10
1.128881547242599
 20
272.0881523835893
 30
0.0
 11
-11.27467845275737
 21
272.0881523835893
 31
0.0
  0
LINE
  5
3289
102
{ACAD_REACTORS
330
332C
102
}
330
1F
100
AcDbEntity
  8
Mittellinie
100
AcDbLine
 10
1.554761547242605
 20
272.0894923835892
 30
0.0
 11
-12.11537845275734
 21
272.0894923835892
 31
0.0
  0
LINE
  5
328A
102
{ACAD_REACTORS
330
332C
102
}
330
1F
100
AcDbEntity
  8
0
100
AcDbLine
 10
-9.373188452757403
 20
278.5894923835893
 30
0.0
 11
-1.373188452757403
 21
278.5894923835893
 31
0.0
  0
LINE
  5
3291
102
{ACAD_REACTORS
330
332C
102
}
330
1F
100
AcDbEntity
  8
0
100
AcDbLine
 10
-192.8732184527574
 20
210.3481623835891
 30
0.0
 11
-192.8732184527574
 21
175.3481623835891
 31
0.0
  0
LINE
  5
3292
102
{ACAD_REACTORS
330
332C
102
}
330
1F
100
AcDbEntity
  8
0
100
AcDbLine
 10
-117.8731884527574
 20
212.8481623835891
 30
0.0
 11
-117.8731884527574
 21
172.8481623835891
 31
0.0
  0
LINE
  5
3293
102
{ACAD_REACTORS
330
332C
102
}
330
1F
100
AcDbEntity
  8
0
100
AcDbLine
 10
-113.8731884527574
 20
104.8481623835892
 30
0.0
 11
-113.8731884527574
 21
280.8481623835891
 31
0.0
  0
LINE
  5
3294
102
{ACAD_REACTORS
330
332C
102
}
330
1F
100
AcDbEntity
  8
0
100
AcDbLine
 10
-116.8731884527574
 20
249.9981923835893
 30
0.0
 11
-116.8731884527574
 21
135.6981723835892
 31
0.0
  0
LINE
  5
3295
102
{ACAD_REACTORS
330
332C
102
}
330
1F
100
AcDbEntity
  8
Innenkanten
100
AcDbLine
 10
-95.8731884527574
 20
280.8481623835891
 30
0.0
 11
-95.8731884527574
 21
104.8481623835892
 31
0.0
  0
LINE
  5
3296
102
{ACAD_REACTORS
330
332C
102
}
330
1F
100
AcDbEntity
  8
Innenkanten
100
AcDbLine
 10
-93.87318845275741
 20
280.8481623835891
 30
0.0
 11
-93.87318845275741
 21
104.8481623835892
 31
0.0
  0
LINE
  5
3297
102
{ACAD_REACTORS
330
332C
102
}
330
1F
100
AcDbEntity
  8
0
100
AcDbLine
 10
-192.8732184527574
 20
175.3481623835891
 30
0.0
 11
-117.8731884527574
 21
175.3481623835891
 31
0.0
  0
LINE
  5
3298
102
{ACAD_REACTORS
330
332C
102
}
330
1F
100
AcDbEntity
  8
Innenkanten
100
AcDbLine
 10
-95.8731884527574
 20
119.0421623835892
 30
0.0
 11
-113.8731884527574
 21
119.0421623835892
 31
0.0
  0
LINE
  5
3299
102
{ACAD_REACTORS
330
332C
102
}
330
1F
100
AcDbEntity
  8
Mittellinie
100
AcDbLine
 10
-45.3731884527574
 20
80.78261238358924
 30
0.0
 11
-45.3731884527574
 21
43.49207238358928
 31
0.0
  0
LINE
  5
329A
102
{ACAD_REACTORS
330
332C
102
}
330
1F
100
AcDbEntity
  8
0
100
AcDbLine
 10
-22.8731884527574
 20
104.8481823835892
 30
0.0
 11
-22.8731884527574
 21
73.64815238358926
 31
0.0
  0
ARC
  5
329B
102
{ACAD_REACTORS
330
332C
102
}
330
1F
100
AcDbEntity
  8
0
100
AcDbCircle
 10
-17.9526584527573
 20
106.9348323835893
 30
0.0
 40
60.0
100
AcDbArc
 50
182.9493300000003
 51
213.6945800000016
  0
LINE
  5
329C
102
{ACAD_REACTORS
330
332C
102
}
330
1F
100
AcDbEntity
  8
0
100
AcDbLine
 10
-22.8731884527574
 20
73.6489023835893
 30
0.0
 11
-67.87306845275748
 21
73.6489023835893
 31
0.0
  0
LINE
  5
329D
102
{ACAD_REACTORS
330
332C
102
}
330
1F
100
AcDbEntity
  8
0
100
AcDbLine
 10
-65.87315845275736
 20
69.84816238358928
 30
0.0
 11
-24.8731884527574
 21
69.84816238358928
 31
0.0
  0
LINE
  5
329E
102
{ACAD_REACTORS
330
332C
102
}
330
1F
100
AcDbEntity
  8
0
100
AcDbLine
 10
-28.9731984527574
 20
50.84816238358929
 30
0.0
 11
-61.77318845275749
 21
50.84816238358929
 31
0.0
  0
LINE
  5
329F
102
{ACAD_REACTORS
330
332C
102
}
330
1F
100
AcDbEntity
  8
Innenkanten
100
AcDbLine
 10
-65.87315845275736
 20
72.64815238358926
 30
0.0
 11
-24.8731884527574
 21
72.64815238358926
 31
0.0
  0
LINE
  5
32A0
102
{ACAD_REACTORS
330
332C
102
}
330
1F
100
AcDbEntity
  8
Innenkanten
100
AcDbLine
 10
-27.9731984527574
 20
66.84816238358928
 30
0.0
 11
-62.7731884527575
 21
66.84816238358928
 31
0.0
  0
LINE
  5
32A1
102
{ACAD_REACTORS
330
332C
102
}
330
1F
100
AcDbEntity
  8
Innenkanten
100
AcDbLine
 10
-62.7731884527575
 20
51.84816238358928
 30
0.0
 11
-27.9731984527574
 21
51.84816238358928
 31
0.0
  0
LINE
  5
32A2
102
{ACAD_REACTORS
330
332C
102
}
330
1F
100
AcDbEntity
  8
0
100
AcDbLine
 10
-27.9731984527574
 20
69.84816238358928
 30
0.0
 11
-27.9731984527574
 21
51.84816238358928
 31
0.0
  0
LINE
  5
32A3
102
{ACAD_REACTORS
330
332C
102
}
330
1F
100
AcDbEntity
  8
Innenkanten
100
AcDbLine
 10
-28.9731984527574
 20
50.84816238358929
 30
0.0
 11
-28.9731984527574
 21
66.84816238358928
 31
0.0
  0
LINE
  5
32A4
102
{ACAD_REACTORS
330
332C
102
}
330
1F
100
AcDbEntity
  8
0
100
AcDbLine
 10
-27.97316845275736
 20
51.84812238358927
 30
0.0
 11
-28.97316845275736
 21
50.84812238358927
 31
0.0
  0
LINE
  5
32A5
102
{ACAD_REACTORS
330
332C
102
}
330
1F
100
AcDbEntity
  8
0
100
AcDbLine
 10
-24.8731884527574
 20
69.84816238358928
 30
0.0
 11
-24.8731884527574
 21
73.64815238358926
 31
0.0
  0
LINE
  5
32A6
102
{ACAD_REACTORS
330
332C
102
}
330
1F
100
AcDbEntity
  8
0
100
AcDbLine
 10
-62.7731884527575
 20
51.84816238358928
 30
0.0
 11
-62.7731884527575
 21
69.84816238358928
 31
0.0
  0
LINE
  5
32A7
102
{ACAD_REACTORS
330
332C
102
}
330
1F
100
AcDbEntity
  8
Innenkanten
100
AcDbLine
 10
-61.77318845275749
 20
66.84816238358928
 30
0.0
 11
-61.77318845275749
 21
50.84816238358929
 31
0.0
  0
LINE
  5
32A8
102
{ACAD_REACTORS
330
332C
102
}
330
1F
100
AcDbEntity
  8
0
100
AcDbLine
 10
-61.77318845275749
 20
50.84816238358929
 30
0.0
 11
-62.7731884527575
 21
51.84816238358928
 31
0.0
  0
LINE
  5
32A9
102
{ACAD_REACTORS
330
332C
102
}
330
1F
100
AcDbEntity
  8
0
100
AcDbLine
 10
-65.87315845275736
 20
73.64815238358926
 30
0.0
 11
-65.87315845275736
 21
69.84816238358928
 31
0.0
  0
LINE
  5
32AA
102
{ACAD_REACTORS
330
332C
102
}
330
1F
100
AcDbEntity
  8
Innenkanten
100
AcDbLine
 10
-77.8731884527574
 20
103.8476723835892
 30
0.0
 11
-22.8731884527574
 21
103.8476723835892
 31
0.0
  0
LINE
  5
32AB
102
{ACAD_REACTORS
330
332C
102
}
330
1F
100
AcDbEntity
  8
0
100
AcDbLine
 10
-77.8731884527574
 20
103.8482523835892
 30
0.0
 11
-77.87315845275736
 21
104.8481823835892
 31
0.0
  0
LINE
  5
32AC
102
{ACAD_REACTORS
330
332C
102
}
330
1F
100
AcDbEntity
  8
0
100
AcDbLine
 10
-116.8731884527574
 20
135.6981723835892
 30
0.0
 11
-113.8731884527574
 21
135.6981723835892
 31
0.0
  0
LINE
  5
32AD
102
{ACAD_REACTORS
330
332C
102
}
330
1F
100
AcDbEntity
  8
0
100
AcDbLine
 10
-117.8731884527574
 20
172.8481623835891
 30
0.0
 11
-116.8731884527574
 21
172.8481623835891
 31
0.0
  0
LINE
  5
32B4
102
{ACAD_REACTORS
330
332C
102
}
330
1F
100
AcDbEntity
  8
0
100
AcDbLine
 10
-117.8731884527574
 20
210.3481623835891
 30
0.0
 11
-192.8732184527574
 21
210.3481623835891
 31
0.0
  0
LINE
  5
32BB
102
{ACAD_REACTORS
330
332C
102
}
330
1F
100
AcDbEntity
  8
Innenkanten
100
AcDbLine
 10
-95.8731884527574
 20
266.6541623835892
 30
0.0
 11
-113.8731884527574
 21
266.6541623835892
 31
0.0
  0
LINE
  5
32BC
102
{ACAD_REACTORS
330
332C
102
}
330
1F
100
AcDbEntity
  8
0
100
AcDbLine
 10
-116.8731884527574
 20
212.8481623835891
 30
0.0
 11
-117.8731884527574
 21
212.8481623835891
 31
0.0
  0
LINE
  5
32BD
102
{ACAD_REACTORS
330
332C
102
}
330
1F
100
AcDbEntity
  8
0
100
AcDbLine
 10
-113.8731884527574
 20
249.9981923835893
 30
0.0
 11
-116.8731884527574
 21
249.9981923835893
 31
0.0
  0
LINE
  5
332E
330
1F
100
AcDbEntity
  8
Mittellinie
100
AcDbLine
 10
-199.1103814390239
 20
192.7240912429413
 30
0.0
 11
90.98388734172067
 21
192.7240912429413
 31
0.0
  0
LINE
  5
3331
330
1F
100
AcDbEntity
  8
Mittellinie
100
AcDbLine
 10
375.6876724188466
 20
192.7240930356513
 30
0.0
 11
663.815211603829
 21
192.8481641762992
 31
0.0
  0
VIEWPORT
  5
FF1
330
FEA
100
AcDbEntity
 67
     1
  8
0
100
AcDbViewport
 10
227.944573763241
 20
164.4306744288919
 30
0.0
 40
543.9854876532758
 41
348.5621296938007
 68
     1
 69
     1
 12
227.944573763241
 22
164.4306744288919
 13
0.0
 23
0.0
 14
10.0
 24
10.0
 15
10.0
 25
10.0
 16
0.0
 26
0.0
 36
1.0
 17
0.0
 27
0.0
 37
0.0
 42
50.0
 43
0.0
 44
0.0
 45
348.5621296938007
 50
0.0
 51
0.0
 72
   100
 90
    32800
  1

281
     0
 71
     1
 74
     0
110
0.0
120
0.0
130
0.0
111
1.0
121
0.0
131
0.0
112
0.0
122
1.0
132
0.0
 79
     0
146
0.0
  0
VIEWPORT
  5
FF3
330
FEA
100
AcDbEntity
 67
     1
  8
0
100
AcDbViewport
 10
144.7270812988279
 20
101.5933663914631
 30
0.0
 40
296.2546461044554
 41
209.0554971327303
 68
     2
 69
     2
 12
203.1282534378307
 22
126.0400189425975
 13
0.0
 23
0.0
 14
10.0
 24
10.0
 15
10.0
 25
10.0
 16
0.0
 26
0.0
 36
1.0
 17
0.0
 27
0.0
 37
0.0
 42
50.0
 43
0.0
 44
0.0
 45
382.825506506762
 50
0.0
 51
0.0
 72
   100
 90
    32864
  1

281
     0
 71
     1
 74
     0
110
-53.08748352590964
120
3.820899076262548
130
0.0
111
1.0
121
0.0
131
0.0
112
0.0
122
1.0
132
0.0
 79
     0
146
0.0
  0
ENDSEC
  0
SECTION
  2
OBJECTS
  0
DICTIONARY
  5
C
330
0
100
AcDbDictionary
281
     1
  3
ACAD_GROUP
350
D
  3
ACAD_LAYOUT
350
1A
  3
ACAD_MLINESTYLE
350
17
  3
ACAD_PLOTSETTINGS
350
19
  3
ACAD_PLOTSTYLENAME
350
E
  3
AcadDim
350
118B
  3
AcDbVariableDictionary
350
50
  3
DWGPROPS
350
A6A
  0
DICTIONARY
  5
2D7E
330
2D71
100
AcDbDictionary
280
     1
281
     1
  3
ACAD_DIMASSOC
360
2D88
  0
DICTIONARY
  5
2DA1
330
2D92
100
AcDbDictionary
280
     1
281
     1
  3
ACAD_DIMASSOC
360
2DAD
  0
DICTIONARY
  5
2DDE
330
2DD1
100
AcDbDictionary
280
     1
281
     1
  3
ACAD_DIMASSOC
360
2DE8
  0
DICTIONARY
  5
2DFF
330
2DF2
100
AcDbDictionary
280
     1
281
     1
  3
ACAD_DIMASSOC
360
2E09
  0
DICTIONARY
  5
2E20
330
2E13
100
AcDbDictionary
280
     1
281
     1
  3
ACAD_DIMASSOC
360
2E2A
  0
DICTIONARY
  5
2E41
330
2E34
100
AcDbDictionary
280
     1
281
     1
  3
ACAD_DIMASSOC
360
2E4B
  0
DICTIONARY
  5
2E66
330
2E59
100
AcDbDictionary
280
     1
281
     1
  3
ACAD_DIMASSOC
360
2E70
  0
DICTIONARY
  5
2EB2
330
2EA5
100
AcDbDictionary
280
     1
281
     1
  3
ACAD_DIMASSOC
360
2EBC
  0
DICTIONARY
  5
2EDD
330
2ED0
100
AcDbDictionary
280
     1
281
     1
  3
ACAD_DIMASSOC
360
2EE7
  0
DICTIONARY
  5
2EFE
330
2EF1
100
AcDbDictionary
280
     1
281
     1
  3
ACAD_DIMASSOC
360
2F08
  0
DICTIONARY
  5
2F20
330
2F12
100
AcDbDictionary
280
     1
281
     1
  3
ACAD_DIMASSOC
360
2F2B
  0
DICTIONARY
  5
2F3F
330
2F36
100
AcDbDictionary
280
     1
281
     1
  3
ACAD_DIMASSOC
360
2F45
  0
DICTIONARY
  5
2F54
330
2F4B
100
AcDbDictionary
280
     1
281
     1
  3
ACAD_DIMASSOC
360
2F5A
  0
DICTIONARY
  5
2F85
330
2F78
100
AcDbDictionary
280
     1
281
     1
  3
ACAD_DIMASSOC
360
2F8F
  0
DICTIONARY
  5
2FA6
330
2F99
100
AcDbDictionary
280
     1
281
     1
  3
ACAD_DIMASSOC
360
2FB0
  0
DICTIONARY
  5
30C3
330
30B6
100
AcDbDictionary
280
     1
281
     1
  3
ACAD_DIMASSOC
360
30CD
  0
DICTIONARY
  5
D
102
{ACAD_REACTORS
330
C
102
}
330
C
100
AcDbDictionary
281
     1
  3
*A1
350
2A6
  3
*A10
350
25FE
  3
*A11
350
8E4
  3
*A12
350
1C68
  3
*A13
350
885
  3
*A14
350
886
  3
*A15
350
8D4
  3
*A16
350
905
  3
*A17
350
8E3
  3
*A18
350
8ED
  3
*A19
350
28E3
  3
*A2
350
A72
  3
*A20
350
2CBB
  3
*A21
350
93F
  3
*A22
350
90F
  3
*A23
350
1E89
  3
*A24
350
91E
  3
*A25
350
92D
  3
*A26
350
936
  3
*A27
350
1578
  3
*A28
350
332C
  3
*A29
350
85A
  3
*A3
350
10FD
  3
*A30
350
1F44
  3
*A31
350
94E
  3
*A32
350
3BE
  3
*A33
350
331
  3
*A34
350
369
  3
*A4
350
8F6
  3
*A5
350
413
  3
*A6
350
2093
  3
*A7
350
869
  3
*A8
350
23F7
  3
*A9
350
24C5
  0
DICTIONARY
  5
1A
102
{ACAD_REACTORS
330
C
102
}
330
C
100
AcDbDictionary
281
     1
  3
Layout1
350
FEB
  3
Model
350
22
  0
DICTIONARY
  5
17
102
{ACAD_REACTORS
330
C
102
}
330
C
100
AcDbDictionary
281
     1
  3
Standard
350
18
  0
DICTIONARY
  5
19
102
{ACAD_REACTORS
330
C
102
}
330
C
100
AcDbDictionary
281
     1
  0
ACDBDICTIONARYWDFLT
  5
E
102
{ACAD_REACTORS
330
C
102
}
330
C
100
AcDbDictionary
281
     1
  3
Normal
350
F
100
AcDbDictionaryWithDefault
340
F
  0
XRECORD
  5
118B
102
{ACAD_REACTORS
330
C
102
}
330
C
100
AcDbXrecord
280
     1
 90
   990106
  3

 60
     0
 61
     0
 62
     1
 63
     3
 64
     0
 65
     0
 66
     0
 67
     3
 68
     1
 69
     0
 70
     0
 71
     0
 72
     0
 40
2.0
170
     0
340
0
  0
DICTIONARY
  5
50
102
{ACAD_REACTORS
330
C
102
}
330
C
100
AcDbDictionary
281
     1
  3
DIMASSOC
350
52
  3
HIDETEXT
350
51
  0
XRECORD
  5
A6A
102
{ACAD_REACTORS
330
C
102
}
330
C
100
AcDbXrecord
280
     1
  1
DWGPROPS COOKIE
  2

  3

  4

  6

  7

  8

  9

300
=
301
=
302
=
303
=
304
=
305
=
306
=
307
=
308
=
309
=
 40
0.587026388888889
 41
2452181.498615972
 42
2452184.61255463
  1

 90
        0
  0
DIMASSOC
  5
2D88
102
{ACAD_REACTORS
330
2D7E
102
}
330
2D7E
100
AcDbDimAssoc
330
2D71
 90
        3
 70
     0
 71
     0
  1
AcDbOsnapPointRef
 72
     1
331
2C4E
 73
     2
 91
        0
 40
1.0
 10
568.6876724188466
 20
280.8481641762991
 30
0.0
 75
     0
  1
AcDbOsnapPointRef
 72
    13
331
2C4B
 73
     2
 91
        0
 40
0.0
 10
550.6876724188466
 20
280.8481641762991
 30
0.0
 75
     0
  0
DIMASSOC
  5
2DAD
102
{ACAD_REACTORS
330
2DA1
102
}
330
2DA1
100
AcDbDimAssoc
330
2D92
 90
        3
 70
     0
 71
     0
  1
AcDbOsnapPointRef
 72
    13
331
2C4D
 73
     2
 91
        0
 40
0.0
 10
571.6876724188466
 20
249.9981941762992
 30
0.0
 75
     0
  1
AcDbOsnapPointRef
 72
     1
331
2C4E
 73
     2
 91
        0
 40
1.0
 10
568.6876724188466
 20
280.8481641762991
 30
0.0
 75
     0
  0
DIMASSOC
  5
2DE8
102
{ACAD_REACTORS
330
2DDE
102
}
330
2DDE
100
AcDbDimAssoc
330
2DD1
 90
        3
 70
     0
 71
     0
  1
AcDbOsnapPointRef
 72
     1
331
2CAF
 73
     2
 91
        0
 40
1.0
 10
647.6877024188467
 20
210.3481641762992
 30
0.0
 75
     0
  1
AcDbOsnapPointRef
 72
    13
331
2CB1
 73
     2
 91
        0
 40
0.0
 10
572.6876724188466
 20
212.8481641762991
 30
0.0
 75
     0
  0
DIMASSOC
  5
2E09
102
{ACAD_REACTORS
330
2DFF
102
}
330
2DFF
100
AcDbDimAssoc
330
2DF2
 90
        2
 70
     0
 71
     0
  1
AcDbOsnapPointRef
 72
    13
331
2CB0
 73
     2
 91
        0
 40
0.0
 10
647.6877024188467
 20
175.3481641762991
 30
0.0
 75
     0
  0
DIMASSOC
  5
2E2A
102
{ACAD_REACTORS
330
2E20
102
}
330
2E20
100
AcDbDimAssoc
330
2E13
 90
        3
 70
     0
 71
     0
  1
AcDbOsnapPointRef
 72
    13
331
2C4D
 73
     2
 91
        0
 40
0.0
 10
571.6876724188466
 20
249.9981941762992
 30
0.0
 75
     0
  1
AcDbOsnapPointRef
 72
     1
331
2C4D
 73
     2
 91
        0
 40
1.0
 10
571.6876724188466
 20
135.6981741762993
 30
0.0
 75
     0
  0
DIMASSOC
  5
2E4B
102
{ACAD_REACTORS
330
2E41
102
}
330
2E41
100
AcDbDimAssoc
330
2E34
 90
        1
 70
     0
 71
     0
  1
AcDbOsnapPointRef
 72
     1
331
2C4E
 73
     2
 91
        0
 40
1.0
 10
568.6876724188466
 20
280.8481641762991
 30
0.0
 75
     0
  0
DIMASSOC
  5
2E70
102
{ACAD_REACTORS
330
2E66
102
}
330
2E66
100
AcDbDimAssoc
330
2E59
 90
        1
 70
     0
 71
     0
  1
AcDbOsnapPointRef
 72
     1
331
2C4E
 73
     2
 91
        0
 40
1.0
 10
568.6876724188466
 20
280.8481641762991
 30
0.0
 75
     0
  0
DIMASSOC
  5
2EBC
102
{ACAD_REACTORS
330
2EB2
102
}
330
2EB2
100
AcDbDimAssoc
330
2EA5
 90
        3
 70
     0
 71
     0
  1
AcDbOsnapPointRef
 72
    13
331
2C4E
 73
     2
 91
        0
 40
0.0
 10
568.6876724188466
 20
104.8481641762992
 30
0.0
 75
     0
  1
AcDbOsnapPointRef
 72
     1
331
2C78
 73
     2
 91
        0
 40
1.0
 10
500.1876724188466
 20
43.49207417629929
 30
0.0
 75
     0
  0
DIMASSOC
  5
2EE7
102
{ACAD_REACTORS
330
2EDD
102
}
330
2EDD
100
AcDbDimAssoc
330
2ED0
 90
        3
 70
     0
 71
     0
  1
AcDbOsnapPointRef
 72
     1
331
2BA8
 73
     2
 91
        0
 40
2.442175343265013
 10
150.1397331770484
 20
266.7578758201245
 30
0.0
 75
     0
  1
AcDbOsnapPointRef
 72
    13
331
2B70
 73
     2
 91
        0
 40
0.0
 10
326.1406136692156
 20
266.7568730356514
 30
0.0
 75
     0
  0
DIMASSOC
  5
2F08
102
{ACAD_REACTORS
330
2EFE
102
}
330
2EFE
100
AcDbDimAssoc
330
2EF1
 90
        3
 70
     0
 71
     0
  1
AcDbOsnapPointRef
 72
    13
331
2BA8
 73
     2
 91
        0
 40
2.270214335251315
 10
164.1059094491618
 20
280.7240618424709
 30
0.0
 75
     0
  1
AcDbOsnapPointRef
 72
    13
331
2B76
 73
     2
 91
        0
 40
0.0
 10
164.1069836692156
 20
104.7232430356514
 30
0.0
 75
     0
  0
DIMASSOC
  5
2F2B
102
{ACAD_REACTORS
330
2F20
102
}
330
2F20
100
AcDbDimAssoc
330
2F12
 90
       15
 70
     0
 71
     0
  1
AcDbOsnapPointRef
 72
    13
331
2B6F
 73
     2
 91
        0
 40
0.0
 10
238.1397536692155
 20
287.5222558696455
 30
0.0
 75
     0
  1
AcDbOsnapPointRef
 72
     1
331
2B6F
 73
     2
 91
        0
 40
1.0
 10
238.1397536692155
 20
47.19952924011863
 30
0.0
 75
     0
  1
AcDbOsnapPointRef
 72
    13
331
2BAB
 73
     2
 91
        0
 40
0.0
 10
160.0831136692156
 20
270.7807930356514
 30
0.0
 75
     0
  1
AcDbOsnapPointRef
 72
     1
331
2BAB
 73
     2
 91
        0
 40
1.0
 10
174.9529936692156
 20
255.9108930356513
 30
0.0
 75
     0
  0
DIMASSOC
  5
2F45
102
{ACAD_REACTORS
330
2F3F
102
}
330
2F3F
100
AcDbDimAssoc
330
2F36
 90
        2
 70
     0
 71
     0
  1
AcDbOsnapPointRef
 72
     3
331
2BAA
 73
     2
 91
        0
 40
0.0
 10
0.0
 20
0.0
 30
0.0
 75
     0
  0
DIMASSOC
  5
2F5A
102
{ACAD_REACTORS
330
2F54
102
}
330
2F54
100
AcDbDimAssoc
330
2F4B
 90
        2
 70
     0
 71
     0
  1
AcDbOsnapPointRef
 72
     3
331
2BAE
 73
     2
 91
        0
 40
0.0
 10
0.0
 20
0.0
 30
0.0
 75
     0
  0
DIMASSOC
  5
2F8F
102
{ACAD_REACTORS
330
2F85
102
}
330
2F85
100
AcDbDimAssoc
330
2F78
 90
        3
 70
     0
 71
     0
  1
AcDbOsnapPointRef
 72
     1
331
2B9A
 73
     2
 91
        0
 40
1.0
 10
337.1321936692156
 20
192.7240930356513
 30
0.0
 75
     0
  1
AcDbOsnapPointRef
 72
     1
331
2B92
 73
     2
 91
        0
 40
1.0
 10
254.5397836692156
 20
50.7240830356514
 30
0.0
 75
     0
  0
DIMASSOC
  5
2FB0
102
{ACAD_REACTORS
330
2FA6
102
}
330
2FA6
100
AcDbDimAssoc
330
2F99
 90
        3
 70
     0
 71
     0
  1
AcDbOsnapPointRef
 72
     1
331
2B88
 73
     2
 91
        0
 40
1.0
 10
215.1397536692155
 20
69.72409303565143
 30
0.0
 75
     0
  1
AcDbOsnapPointRef
 72
     1
331
2B87
 73
     2
 91
        0
 40
1.0
 10
261.1397536692155
 20
69.72409303565143
 30
0.0
 75
     0
  0
DIMASSOC
  5
30CD
102
{ACAD_REACTORS
330
30C3
102
}
330
30C3
100
AcDbDimAssoc
330
30B6
 90
        2
 70
     0
 71
     0
  1
AcDbOsnapPointRef
 72
    11
331
304E
 73
     2
 91
        0
 40
0.0199728598994668
 10
444.6876724188467
 20
76.84852417629929
 30
0.0
332
3053
 74
     2
 92
        0
 75
     0
  0
GROUP
  5
2A6
102
{ACAD_REACTORS
330
D
102
}
330
D
100
AcDbGroup
300

 70
     1
 71
     1
  0
GROUP
  5
25FE
102
{ACAD_REACTORS
330
D
102
}
330
D
100
AcDbGroup
300

 70
     1
 71
     1
  0
GROUP
  5
8E4
102
{ACAD_REACTORS
330
D
102
}
330
D
100
AcDbGroup
300

 70
     1
 71
     1
  0
GROUP
  5
1C68
102
{ACAD_REACTORS
330
D
102
}
330
D
100
AcDbGroup
300

 70
     1
 71
     1
  0
GROUP
  5
885
102
{ACAD_REACTORS
330
D
102
}
330
D
100
AcDbGroup
300

 70
     1
 71
     1
  0
GROUP
  5
886
102
{ACAD_REACTORS
330
D
102
}
330
D
100
AcDbGroup
300

 70
     1
 71
     1
  0
GROUP
  5
8D4
102
{ACAD_REACTORS
330
D
102
}
330
D
100
AcDbGroup
300

 70
     1
 71
     1
  0
GROUP
  5
905
102
{ACAD_REACTORS
330
D
102
}
330
D
100
AcDbGroup
300

 70
     1
 71
     1
  0
GROUP
  5
8E3
102
{ACAD_REACTORS
330
D
102
}
330
D
100
AcDbGroup
300

 70
     1
 71
     1
  0
GROUP
  5
8ED
102
{ACAD_REACTORS
330
D
102
}
330
D
100
AcDbGroup
300

 70
     1
 71
     1
  0
GROUP
  5
28E3
102
{ACAD_REACTORS
330
D
102
}
330
D
100
AcDbGroup
300

 70
     1
 71
     1
  0
GROUP
  5
A72
102
{ACAD_REACTORS
330
D
102
}
330
D
100
AcDbGroup
300

 70
     1
 71
     1
  0
GROUP
  5
2CBB
102
{ACAD_REACTORS
330
D
102
}
330
D
100
AcDbGroup
300

 70
     1
 71
     1
  0
GROUP
  5
93F
102
{ACAD_REACTORS
330
D
102
}
330
D
100
AcDbGroup
300

 70
     1
 71
     1
  0
GROUP
  5
90F
102
{ACAD_REACTORS
330
D
102
}
330
D
100
AcDbGroup
300

 70
     1
 71
     1
  0
GROUP
  5
1E89
102
{ACAD_REACTORS
330
D
102
}
330
D
100
AcDbGroup
300

 70
     1
 71
     1
  0
GROUP
  5
91E
102
{ACAD_REACTORS
330
D
102
}
330
D
100
AcDbGroup
300

 70
     1
 71
     1
  0
GROUP
  5
92D
102
{ACAD_REACTORS
330
D
102
}
330
D
100
AcDbGroup
300

 70
     1
 71
     1
  0
GROUP
  5
936
102
{ACAD_REACTORS
330
D
102
}
330
D
100
AcDbGroup
300

 70
     1
 71
     1
  0
GROUP
  5
1578
102
{ACAD_REACTORS
330
D
102
}
330
D
100
AcDbGroup
300

 70
     1
 71
     1
  0
GROUP
  5
332C
102
{ACAD_REACTORS
330
D
102
}
330
D
100
AcDbGroup
300

 70
     1
 71
     1
340
3296
340
3295
340
3294
340
3293
340
3292
340
3291
340
3226
340
3225
340
3224
340
3223
340
3222
340
3221
340
3220
340
321F
340
32AA
340
32A1
340
32A0
340
329F
340
329E
340
329D
340
329C
340
321E
340
321D
340
321C
340
321B
340
3212
340
3211
340
323D
340
323C
340
3229
340
32A3
340
32A2
340
32A4
340
3246
340
3245
340
3244
340
3237
340
3236
340
3234
340
3233
340
3238
340
3243
340
3248
340
3247
340
329A
340
3235
340
3232
340
3231
340
3239
340
32A5
340
3242
340
3249
340
324A
340
324E
340
324D
340
324C
340
324B
340
322F
340
322E
340
322D
340
3228
340
3230
340
324F
340
3250
340
3253
340
322C
340
3227
340
3255
340
3240
340
323F
340
323B
340
323A
340
3241
340
3256
340
322B
340
322A
340
323E
340
3257
340
3254
340
325F
340
3252
340
3251
340
325A
340
3259
340
3258
340
3260
340
325E
340
325C
340
325B
340
3261
340
3263
340
3262
340
325D
340
3264
340
32A7
340
32A6
340
3299
340
32A8
340
329B
340
32A9
340
32AB
340
32AC
340
3298
340
3297
340
32AD
340
321A
340
3219
340
3218
340
3217
340
3213
340
3210
340
3285
340
3284
340
3265
340
3266
340
3267
340
3269
340
3268
340
3274
340
326A
340
326B
340
3271
340
326F
340
326E
340
326D
340
326C
340
3275
340
3276
340
3279
340
3278
340
3277
340
3273
340
3272
340
3270
340
327E
340
327D
340
327B
340
327A
340
3280
340
327F
340
3282
340
327C
340
3281
340
3289
340
3288
340
3287
340
3286
340
3283
340
328A
340
32BD
340
32BB
340
32B4
340
32BC
  0
GROUP
  5
85A
102
{ACAD_REACTORS
330
D
102
}
330
D
100
AcDbGroup
300

 70
     1
 71
     1
  0
GROUP
  5
10FD
102
{ACAD_REACTORS
330
D
102
}
330
D
100
AcDbGroup
300

 70
     1
 71
     1
  0
GROUP
  5
1F44
102
{ACAD_REACTORS
330
D
102
}
330
D
100
AcDbGroup
300

 70
     1
 71
     1
  0
GROUP
  5
94E
102
{ACAD_REACTORS
330
D
102
}
330
D
100
AcDbGroup
300

 70
     1
 71
     1
  0
GROUP
  5
3BE
102
{ACAD_REACTORS
330
D
102
}
330
D
100
AcDbGroup
300

 70
     1
 71
     1
  0
GROUP
  5
331
102
{ACAD_REACTORS
330
D
102
}
330
D
100
AcDbGroup
300

 70
     1
 71
     1
  0
GROUP
  5
369
102
{ACAD_REACTORS
330
D
102
}
330
D
100
AcDbGroup
300

 70
     1
 71
     1
  0
GROUP
  5
8F6
102
{ACAD_REACTORS
330
D
102
}
330
D
100
AcDbGroup
300

 70
     1
 71
     1
  0
GROUP
  5
413
102
{ACAD_REACTORS
330
D
102
}
330
D
100
AcDbGroup
300

 70
     1
 71
     1
  0
GROUP
  5
2093
102
{ACAD_REACTORS
330
D
102
}
330
D
100
AcDbGroup
300

 70
     1
 71
     1
  0
GROUP
  5
869
102
{ACAD_REACTORS
330
D
102
}
330
D
100
AcDbGroup
300

 70
     1
 71
     1
  0
GROUP
  5
23F7
102
{ACAD_REACTORS
330
D
102
}
330
D
100
AcDbGroup
300

 70
     1
 71
     1
  0
GROUP
  5
24C5
102
{ACAD_REACTORS
330
D
102
}
330
D
100
AcDbGroup
300

 70
     1
 71
     1
  0
LAYOUT
  5
FEB
102
{ACAD_REACTORS
330
1A
102
}
330
1A
100
AcDbPlotSettings
  1

  2
EPSON Stylus COLOR 1520
  4
A4
  6

 40
3.757083177566528
 41
14.7637300491333
 42
3.757080078125
 43
3.757080078125
 44
209.9733276367187
 45
296.9683227539062
 46
0.0
 47
0.0
 48
0.0
 49
0.0
140
0.0
141
0.0
142
1.0
143
1.0
 70
   688
 72
     1
 73
     1
 74
     5
  7

 75
    16
147
1.0
148
0.0
149
0.0
100
AcDbLayout
  1
Layout1
 70
     1
 71
     1
 10
-3.757080078125
 20
-3.757083177566528
 11
293.2112426757812
 21
206.2162444591522
 12
0.0
 22
0.0
 32
0.0
 14
-3.400241753399768
 24
-2.934382174902054
 34
0.0
 15
292.8544043510557
 25
206.1211149578283
 35
0.0
146
0.0
 13
0.0
 23
0.0
 33
0.0
 16
1.0
 26
0.0
 36
0.0
 17
0.0
 27
1.0
 37
0.0
 76
     0
330
FEA
331
FF1
  0
LAYOUT
  5
22
102
{ACAD_REACTORS
330
1A
102
}
330
1A
100
AcDbPlotSettings
  1

  2
EPSON Stylus COLOR 1520
  4
A4
  6

 40
3.757083177566528
 41
14.7637300491333
 42
3.757080078125
 43
3.757080078125
 44
209.9733276367187
 45
296.9683227539062
 46
0.0
 47
0.0
 48
0.0
 49
0.0
140
0.0
141
0.0
142
1.0
143
1.0
 70
 11952
 72
     1
 73
     1
 74
     0
  7

 75
     0
147
1.0
148
-89.73529411764705
149
0.0
100
AcDbLayout
  1
Model
 70
     1
 71
     0
 10
0.0
 20
0.0
 11
12.0
 21
9.0
 12
0.0
 22
0.0
 32
0.0
 14
0.0
 24
0.0
 34
0.0
 15
0.0
 25
0.0
 35
0.0
146
0.0
 13
0.0
 23
0.0
 33
0.0
 16
1.0
 26
0.0
 36
0.0
 17
0.0
 27
1.0
 37
0.0
 76
     0
330
1F
  0
MLINESTYLE
  5
18
102
{ACAD_REACTORS
330
17
102
}
330
17
100
AcDbMlineStyle
  2
STANDARD
 70
     0
  3

 62
   256
 51
90.0
 52
90.0
 71
     2
 49
0.5
 62
   256
  6
BYLAYER
 49
-0.5
 62
   256
  6
BYLAYER
  0
ACDBPLACEHOLDER
  5
F
102
{ACAD_REACTORS
330
E
102
}
330
E
  0
DICTIONARYVAR
  5
52
102
{ACAD_REACTORS
330
50
102
}
330
50
100
DictionaryVariables
280
     0
  1
2
  0
DICTIONARYVAR
  5
51
102
{ACAD_REACTORS
330
50
102
}
330
50
100
DictionaryVariables
280
     0
  1
1
  0
ENDSEC
  0
EOF
